osu file format v14

[General]
AudioFilename: audio.mp3
AudioLeadIn: 0
PreviewTime: 39364
Countdown: 0
SampleSet: Soft
StackLeniency: 0.7
Mode: 3
LetterboxInBreaks: 0
SpecialStyle: 0
WidescreenStoryboard: 1

[Editor]
Bookmarks: 214,1414,11014,20614,30214,39814,49414,57814
DistanceSpacing: 2.2
BeatDivisor: 4
GridSize: 32
TimelineZoom: 1.900005

[Metadata]
Title:Kyuuseigou wa Kyuuteisha!
TitleUnicode:九星号は急停車!
Artist:Saikawa Yui (CV: Takao Kanon)
ArtistUnicode:斎川唯(CV: 高尾奏音)
Creator:Drum-Hitnormal
Version:Easy
Source:探偵はもう、死んでいる。
Tags:La detective esta está muerta. Tanmoshi The Detective Is Already Dead Tantei wa mou, mō, Shindeiru. Shinde Iru. dudehacker ML-ysg Matthewwwwww anime japanese jpop j-pop pop Insert song 音楽大全 Ongaku Taizen ENGI SNCL-45~46 SNCL-47 Nor
BeatmapID:3235857
BeatmapSetID:1578629

[Difficulty]
HPDrainRate:6.5
CircleSize:4
OverallDifficulty:6.5
ApproachRate:5
SliderMultiplier:1.4
SliderTickRate:1

[Events]
//Background and Video events
0,0,"1.jpg",0,0
//Break Periods
//Storyboard Layer 0 (Background)
//Storyboard Layer 1 (Fail)
//Storyboard Layer 2 (Pass)
//Storyboard Layer 3 (Foreground)
//Storyboard Layer 4 (Overlay)
//Storyboard Sound Samples
Sample,814,0,"Cymbal2.wav",50
Sample,11314,0,"Clap.wav",40
Sample,11914,0,"Clap.wav",40
Sample,12964,0,"Clap.wav",40
Sample,13114,0,"Clap.wav",40
Sample,13714,0,"Clap.wav",40
Sample,14314,0,"Clap.wav",40
Sample,15364,0,"Clap.wav",40
Sample,15514,0,"Clap.wav",40
Sample,16114,0,"Clap.wav",40
Sample,16714,0,"Clap.wav",40
Sample,17764,0,"Clap.wav",40
Sample,17914,0,"Clap.wav",40
Sample,18514,0,"Clap.wav",40
Sample,19114,0,"Clap.wav",40
Sample,19414,0,"Clap.wav",40
Sample,19714,0,"Clap.wav",40
Sample,20014,0,"Snare.wav",40
Sample,26314,0,"Clap.wav",40
Sample,27364,0,"Clap.wav",40
Sample,27514,0,"Clap.wav",40
Sample,28714,0,"Clap.wav",40
Sample,29764,0,"Clap.wav",40
Sample,29914,0,"Clap.wav",40
Sample,40114,0,"Clap.wav",40
Sample,40714,0,"Clap.wav",40
Sample,41314,0,"Clap.wav",40
Sample,41764,0,"Clap.wav",40
Sample,41914,0,"Clap.wav",40
Sample,42514,0,"Clap.wav",40
Sample,43114,0,"Clap.wav",40
Sample,44314,0,"Clap.wav",40
Sample,44914,0,"Clap.wav",40
Sample,45514,0,"Clap.wav",40
Sample,46114,0,"Clap.wav",40
Sample,46714,0,"Clap.wav",40
Sample,47314,0,"Clap.wav",40
Sample,47914,0,"Clap.wav",40
Sample,48214,0,"Clap.wav",40
Sample,48364,0,"Clap.wav",40
Sample,48514,0,"Clap.wav",40
Sample,48664,0,"Clap.wav",40
Sample,48814,0,"Tom2.wav",40
Sample,49114,0,"Tom2.wav",40
Sample,49714,0,"Clap.wav",40
Sample,50314,0,"Clap.wav",40
Sample,50914,0,"Clap.wav",40
Sample,51514,0,"Clap.wav",40
Sample,52114,0,"Clap.wav",40
Sample,52714,0,"Clap.wav",40
Sample,53014,0,"Clap.wav",40
Sample,53314,0,"Clap.wav",40
Sample,53914,0,"Clap.wav",40
Sample,53914,0,"Clap Snare.wav",70
Sample,56314,0,"Clap.wav",40
Sample,56914,0,"Clap.wav",40
Sample,57514,0,"Clap.wav",40

[TimingPoints]
214,300,4,2,1,50,1,0

[HitObjects]
192,192,214,128,6,514:0:0:0:0:
320,192,514,128,2,814:0:0:0:0:
64,192,814,1,2,0:0:0:0:
192,192,964,1,2,0:0:0:0:
320,192,1114,1,0,0:0:0:60:Clap Snare.wav
64,192,1414,1,2,0:0:0:0:
448,192,1414,1,4,0:0:0:0:
320,192,1714,1,2,0:0:0:0:
192,192,2014,1,2,0:0:0:0:
320,192,2314,1,2,0:0:0:0:
64,192,2614,1,2,0:0:0:0:
448,192,2764,1,0,0:0:0:0:
192,192,3064,128,0,3364:0:0:0:0:
320,192,3364,1,0,0:0:0:0:
64,192,3664,1,0,0:0:0:0:
448,192,3814,128,6,4114:0:0:0:0:
192,192,4114,1,2,0:0:0:0:
320,192,4414,128,2,4714:0:0:0:0:
64,192,4714,1,2,0:0:0:0:
192,192,5014,1,2,0:0:0:0:
320,192,5314,128,2,5614:0:0:0:0:
192,192,5614,128,2,5914:0:0:0:0:
64,192,5914,128,2,6214:0:0:0:0:
448,192,6214,128,6,6514:0:0:0:0:
192,192,6514,1,10,0:0:0:0:
320,192,6814,128,2,7114:0:0:0:0:
64,192,7114,1,10,0:0:0:0:
192,192,7414,1,2,0:0:0:0:
448,192,7564,1,0,0:0:0:0:
64,192,7864,1,0,0:0:0:0:
320,192,8164,1,8,0:0:0:0:
192,192,8314,1,10,0:0:0:0:
64,192,8614,128,6,8914:0:0:0:0:
320,192,8914,1,10,0:0:0:0:
192,192,9214,128,2,9514:0:0:0:0:
448,192,9514,1,10,0:0:0:0:
64,192,9814,1,2,0:0:0:0:
320,192,9964,1,0,0:0:0:0:
448,192,10264,128,0,10564:0:0:0:0:
192,192,10564,1,8,0:0:0:0:
320,192,10714,1,10,0:0:0:0:
64,192,11014,1,2,0:0:0:0:
192,192,11014,1,4,0:0:0:0:
320,192,11314,1,10,0:0:0:0:
192,192,11614,1,2,0:0:0:0:
320,192,11914,1,10,0:0:0:0:
64,192,12214,1,2,0:0:0:0:
448,192,12364,1,0,0:0:0:0:
192,192,12664,128,0,12964:0:0:0:0:
320,192,12964,1,8,0:0:0:0:
64,192,13114,1,10,0:0:0:0:
448,192,13414,128,6,13714:0:0:0:0:
192,192,13714,1,10,0:0:0:0:
320,192,14014,128,2,14314:0:0:0:0:
64,192,14314,1,10,0:0:0:0:
192,192,14614,1,2,0:0:0:0:
448,192,14764,1,0,0:0:0:0:
64,192,15064,128,0,15364:0:0:0:0:
448,192,15364,1,8,0:0:0:0:
192,192,15514,1,10,0:0:0:0:
448,192,15814,128,6,16114:0:0:0:0:
192,192,16114,1,10,0:0:0:0:
64,192,16414,128,2,16714:0:0:0:0:
320,192,16714,1,10,0:0:0:0:
192,192,17014,1,2,0:0:0:0:
64,192,17164,1,0,0:0:0:0:
448,192,17464,1,0,0:0:0:0:
192,192,17764,1,8,0:0:0:0:
320,192,17914,1,10,0:0:0:0:
192,192,18214,128,6,18514:0:0:0:0:
448,192,18514,1,10,0:0:0:0:
320,192,18814,128,2,19114:0:0:0:0:
64,192,19114,1,10,0:0:0:0:
448,192,19414,128,10,19714:0:0:0:0:
64,192,19714,128,10,20014:0:0:0:0:
320,192,20014,1,2,0:0:0:0:
192,192,20164,1,2,0:0:0:0:
448,192,20314,1,0,0:0:0:70:Clap Snare.wav
64,192,20614,1,2,0:0:0:0:
192,192,20614,128,4,20914:0:0:0:0:
320,192,21214,128,2,21514:0:0:0:0:
64,192,21514,1,0,0:0:0:40:Clap.wav
192,192,21814,1,2,0:0:0:0:
448,192,22414,1,2,0:0:0:0:
320,192,22564,1,0,0:0:0:40:Clap.wav
64,192,22714,1,0,0:0:0:40:Clap.wav
448,192,23014,128,6,23314:0:0:0:0:
192,192,23314,128,0,23614:0:0:0:0:
320,192,23614,128,2,23914:0:0:0:0:
64,192,23914,128,0,24214:0:0:0:40:Clap.wav
448,192,24214,128,2,24514:0:0:0:0:
192,192,24664,1,2,0:0:0:0:
320,192,24814,128,2,25114:0:0:0:0:
448,192,25114,128,0,25414:0:0:0:40:Clap.wav
192,192,25414,128,6,25714:0:0:0:0:
64,192,26014,128,2,26314:0:0:0:0:
448,192,26314,1,8,0:0:0:0:
192,192,26614,1,2,0:0:0:0:
64,192,27214,1,2,0:0:0:0:
448,192,27364,1,8,0:0:0:0:
192,192,27514,1,8,0:0:0:0:
320,192,27814,128,6,28114:0:0:0:0:
192,192,28114,128,0,28414:0:0:0:0:
448,192,28414,128,2,28714:0:0:0:0:
64,192,28714,128,8,29014:0:0:0:0:
192,192,29014,128,2,29614:0:0:0:0:
448,192,29614,1,2,0:0:0:0:
320,192,29764,1,8,0:0:0:0:
64,192,29914,1,10,0:0:0:0:
192,192,30064,1,0,0:0:0:40:Snare.wav
320,192,30214,128,2,30514:0:0:0:0:
448,192,30214,1,4,0:0:0:0:
64,192,30514,1,10,0:0:0:0:
192,192,30814,128,2,31114:0:0:0:0:
448,192,31114,1,10,0:0:0:0:
64,192,31264,1,0,0:0:0:0:
320,192,31414,1,2,0:0:0:0:
192,192,31714,1,10,0:0:0:0:
448,192,32014,1,2,0:0:0:0:
64,192,32164,1,8,0:0:0:0:
320,192,32314,1,10,0:0:0:0:
448,192,32614,128,6,32914:0:0:0:0:
64,192,32914,128,10,33214:0:0:0:0:
320,192,33214,128,2,33514:0:0:0:0:
192,192,33514,128,10,33814:0:0:0:0:
448,192,33814,128,2,34114:0:0:0:0:
64,192,34114,1,10,0:0:0:0:
192,192,34414,1,2,0:0:0:0:
448,192,34564,1,8,0:0:0:0:
320,192,34714,1,10,0:0:0:0:
64,192,35014,128,6,35314:0:0:0:0:
448,192,35014,1,8,0:0:0:0:
320,192,35314,1,10,0:0:0:0:
192,192,35614,1,12,0:0:0:0:
448,192,35614,128,2,35914:0:0:0:0:
64,192,35914,1,10,0:0:0:0:
192,192,36214,1,10,0:0:0:0:
320,192,36214,128,4,36514:0:0:0:0:
448,192,36514,1,10,0:0:0:0:
64,192,36814,1,14,0:0:0:0:
192,192,36964,1,2,0:0:0:0:
448,192,37114,1,10,0:0:0:0:
320,192,37264,1,2,0:0:0:0:
64,192,37414,1,12,0:0:0:0:
192,192,37414,128,2,37714:0:0:0:0:
192,192,38014,1,10,0:0:0:0:
320,192,38014,128,4,38314:0:0:0:0:
320,192,38614,1,10,0:0:0:0:
448,192,38614,128,4,39214:0:0:0:0:
320,192,39364,1,2,0:0:0:0:
192,192,39514,1,2,0:0:0:0:
64,192,39664,1,2,0:0:0:0:
320,192,39814,1,2,0:0:0:0:
448,192,39814,128,4,40114:0:0:0:0:
64,192,40114,1,10,0:0:0:0:
192,192,40414,128,2,40714:0:0:0:0:
320,192,40714,1,10,0:0:0:0:
64,192,41014,1,2,0:0:0:0:
320,192,41314,1,10,0:0:0:0:
192,192,41464,1,0,0:0:0:0:
448,192,41764,1,8,0:0:0:0:
320,192,41914,128,10,42214:0:0:0:0:
192,192,42214,128,6,42514:0:0:0:0:
448,192,42514,128,10,42814:0:0:0:0:
64,192,42814,128,2,43114:0:0:0:0:
320,192,43114,128,10,43414:0:0:0:0:
64,192,43414,1,10,0:0:0:0:
192,192,43414,1,0,0:0:0:40:Clap.wav
320,192,43714,1,10,0:0:0:0:
448,192,43714,128,4,44314:0:0:0:0:
192,192,44314,1,10,0:0:0:0:
320,192,44464,1,0,0:0:0:40:Snare.wav
64,192,44614,128,6,44914:0:0:0:0:
448,192,44914,1,10,0:0:0:0:
320,192,45214,128,2,45514:0:0:0:0:
192,192,45514,1,10,0:0:0:0:
320,192,45814,1,2,0:0:0:0:
448,192,45814,1,4,0:0:0:0:
64,192,46114,1,10,0:0:0:0:
320,192,46264,128,0,46564:0:0:0:0:
192,192,46714,128,10,47014:0:0:0:0:
448,192,47014,128,6,47314:0:0:0:0:
64,192,47314,128,10,47614:0:0:0:0:
320,192,47614,128,2,47914:0:0:0:0:
192,192,47914,128,10,48214:0:0:0:0:
448,192,48214,1,14,0:0:0:0:
320,192,48364,1,8,0:0:0:0:
64,192,48514,1,10,0:0:0:0:
192,192,48664,1,8,0:0:0:0:
320,192,48814,128,2,49114:0:0:0:0:
192,192,49114,128,2,49414:0:0:0:0:
320,192,49414,128,6,49714:0:0:0:0:
448,192,49414,1,8,0:0:0:0:
64,192,49714,1,10,0:0:0:0:
192,192,50014,128,10,50314:0:0:0:0:
448,192,50014,1,4,0:0:0:0:
320,192,50314,1,10,0:0:0:0:
64,192,50614,128,10,50914:0:0:0:0:
448,192,50614,1,4,0:0:0:0:
320,192,50914,1,10,0:0:0:0:
192,192,51064,1,2,0:0:0:0:
448,192,51514,1,10,0:0:0:0:
192,192,51664,1,2,0:0:0:0:
64,192,51814,1,10,0:0:0:0:
320,192,51814,128,4,52114:0:0:0:0:
192,192,52114,1,10,0:0:0:0:
320,192,52414,1,10,0:0:0:0:
448,192,52414,128,4,52714:0:0:0:0:
64,192,52714,1,10,0:0:0:0:
320,192,53014,128,10,53314:0:0:0:0:
192,192,53314,128,10,53614:0:0:0:0:
448,192,53614,128,10,53914:0:0:0:0:
64,192,53914,1,2,0:0:0:0:
192,192,54214,1,4,0:0:0:0:
320,192,54214,128,2,54514:0:0:0:0:
64,192,54514,1,10,0:0:0:0:
192,192,54814,128,2,55114:0:0:0:0:
320,192,55114,1,10,0:0:0:0:
64,192,55414,1,2,0:0:0:0:
192,192,55414,1,4,0:0:0:0:
448,192,55714,1,10,0:0:0:0:
192,192,55864,1,0,0:0:0:0:
320,192,56164,1,0,0:0:0:40:Clap.wav
448,192,56314,1,10,0:0:0:0:
64,192,56614,128,2,56914:0:0:0:0:
192,192,56614,1,4,0:0:0:0:
320,192,56914,1,10,0:0:0:0:
192,192,57214,1,2,0:0:0:0:
448,192,57214,128,4,57514:0:0:0:0:
320,192,57514,1,10,0:0:0:0:
64,192,57664,1,0,0:0:0:0:
192,192,57814,1,2,0:0:0:0:
448,192,57814,1,4,0:0:0:0:
320,192,58114,1,10,0:0:0:0:
64,192,58414,128,2,59014:0:0:0:0:
