osu file format v14

[General]
AudioFilename: audio.mp3
AudioLeadIn: 0
PreviewTime: -1
Countdown: 1
SampleSet: Normal
StackLeniency: 0.7
Mode: 0
LetterboxInBreaks: 0
WidescreenStoryboard: 0

[Editor]
Bookmarks: 36067,44956,49215,82240
DistanceSpacing: 1.6
BeatDivisor: 12
GridSize: 16
TimelineZoom: 0.6999999

[Metadata]
Title:Lagu Negaraku
TitleUnicode:Lagu Negaraku
Artist:Saiful Bahri
ArtistUnicode:Saiful Bahri
Creator:xArief
Version:Patriotism Intensify
Source:
Tags:
BeatmapID:0
BeatmapSetID:-1

[Difficulty]
HPDrainRate:7
CircleSize:4
OverallDifficulty:0
ApproachRate:10
SliderMultiplier:1.4
SliderTickRate:1

[Events]
//Background and Video events
0,0,"qLKnfai.jpg",0,0
//Break Periods
//Storyboard Layer 0 (Background)
//Storyboard Layer 1 (Fail)
//Storyboard Layer 2 (Pass)
//Storyboard Layer 3 (Foreground)
//Storyboard Sound Samples

[TimingPoints]
2734,740.740740740741,4,1,0,100,1,0
8659,-1000,4,1,0,100,0,0
9400,-200,4,1,0,100,0,0
10141,-133.333333333333,4,1,0,100,0,0
10882,-100,4,1,0,100,0,0
11622,-66.6666666666667,4,1,0,100,0,0
13845,-100,4,1,0,100,0,0
14585,-500,4,1,0,100,0,0
15326,-76.9230769230769,4,1,0,100,0,0
16067,-142.857142857143,4,1,0,100,0,0
16931,-100,4,1,0,100,0,0
19153,-500,4,1,0,100,0,0
20696,-100,4,1,0,100,0,0
21375,-200,4,1,0,100,0,0
22116,-25,4,1,0,100,0,0
22857,-66.6666666666667,4,1,0,100,0,0
24338,-125,4,1,0,100,0,0
24956,-1000,4,1,0,100,0,0
25882,-25,4,1,0,100,0,0
26561,-100,4,1,0,100,0,0
27301,-28.5714285714286,4,1,0,100,0,0
28042,-1000,4,1,0,100,0,0
29338,-25,4,1,0,100,0,0
30882,-100,4,1,0,100,0,0
37919,-142.857142857143,4,1,0,100,0,0
38659,-25,4,1,0,100,0,0
44956,-10,4,1,0,100,0,0
45604,-20,4,1,0,100,0,0
46715,-13.3333333333333,4,1,0,100,0,0
47641,-50,4,1,0,100,0,0
49215,-25,4,1,0,100,0,0
50650,-50,4,1,0,100,0,0
53752,-14.2857142857143,4,1,0,100,0,0
53937,-100,4,1,0,100,0,0
54122,-10,4,1,0,100,0,0
54632,-25,4,1,0,100,0,0
55882,-10,4,1,0,100,0,0
56808,-100,4,1,0,100,0,0

[HitObjects]
159,332,2734,5,0,0:0:0:0:
122,286,2795,1,0,0:0:0:0:
68,252,2857,1,0,0:0:0:0:
50,188,2919,1,0,0:0:0:0:
72,127,2980,1,0,0:0:0:0:
119,88,3042,1,0,0:0:0:0:
182,99,3104,1,0,0:0:0:0:
199,143,3166,1,0,0:0:0:0:
195,204,3227,1,0,0:0:0:0:
228,253,3289,1,0,0:0:0:0:
285,236,3351,1,0,0:0:0:0:
216,114,3721,2,0,L|236:107,1,11.6666666666667
200,245,3845,2,0,L|218:244,1,11.6666666666667
382,286,3968,2,0,L|400:289,1,11.6666666666667
397,129,4092,2,0,L|408:132,1,11.6666666666667
380,167,4462,2,0,L|394:174,1,11.6666666666667
270,227,4832,2,0,L|281:237,1,11.6666666666667
250,256,5203,2,0,L|245:244,1,11.6666666666667
172,184,5573,1,0,0:0:0:0:
154,125,5635,1,0,0:0:0:0:
104,90,5696,1,0,0:0:0:0:
51,116,5758,1,0,0:0:0:0:
39,177,5820,1,0,0:0:0:0:
56,246,5882,1,0,0:0:0:0:
109,284,5943,1,0,0:0:0:0:
185,309,6005,1,0,0:0:0:0:
270,300,6067,1,0,0:0:0:0:
328,242,6129,1,0,0:0:0:0:
357,162,6190,1,0,0:0:0:0:
323,82,6252,1,0,0:0:0:0:
236,93,6314,1,0,0:0:0:0:
283,165,6746,2,0,L|301:170,1,11.6666666666667
193,232,6870,2,0,L|210:239,1,11.6666666666667
242,312,6993,2,0,L|259:324,1,11.6666666666667
382,201,7117,2,0,L|393:204,1,11.6666666666667
378,137,7487,2,0,L|392:144,1,11.6666666666667
342,292,7857,2,0,L|353:302,1,11.6666666666667
254,258,8228,6,0,L|261:274,1,11.6666666666667
307,290,8659,6,0,L|316:284,1,11.6666666666667
396,308,9400,6,0,P|423:286|429:258,1,58.3333333333333
484,202,10141,2,0,P|453:176|398:160,1,87.5000033378602
344,66,10882,2,0,B|290:104|290:104|278:161,1,116.666666666667
279,153,11622,2,0,P|384:277|236:230,1,420.000016021729
318,227,13845,2,0,L|192:175,1,116.666666666667
143,161,14585,2,0,P|145:149|154:140,1,23.3333333333333
133,75,15326,2,0,P|80:130|88:207,1,151.666659723918
48,117,16067,2,0,L|150:154,1,97.9999970092775
168,119,16931,2,0,P|203:166|202:220,1,105
204,210,17548,2,0,P|248:126|162:115,1,210
198,157,18721,2,0,L|238:132,1,46.6666666666667
250,182,19153,2,0,L|195:155,1,58.3333333333333
144,291,21375,6,0,L|194:256,1,58.3333333333333
132,242,22116,6,0,P|300:115|301:264,1,466.666666666667
348,272,22857,2,0,P|265:304|266:243,1,175.00000667572
258,171,23598,2,0,B|168:186|183:319,1,175.00000667572
257,301,24338,2,0,P|267:245|295:231,1,84
334,278,25079,2,0,L|341:287,1,11.6666666666667
171,235,25882,2,0,P|175:250|199:156,1,420
255,221,26561,2,0,L|144:171,1,116.666666666667
190,251,27301,2,0,P|69:164|236:152,1,408.333337227503
258,187,28042,2,0,L|270:204,1,21
158,171,29400,2,0,P|371:164|399:192,1,233.333333333333
357,231,29771,2,0,P|235:205|190:100,1,233.333333333333
204,210,30264,2,0,P|248:126|167:117,1,186.666666666667
256,192,30882,12,0,32734,0:0:0:0:
113,183,33474,6,0,L|125:172,11,11.6666666666667
204,195,34215,2,0,L|214:200,11,11.6666666666667
276,182,34956,2,0,L|287:171,9,11.6666666666667
328,88,35696,2,0,P|403:128|341:278,1,280
244,124,37919,6,0,P|228:140|227:166,1,48.9999985046387
308,184,38660,2,0,P|295:59|171:76,1,280
307,54,39400,2,0,P|285:110|266:128,1,70
321,128,39585,2,0,P|284:195|263:209,1,93.3333333333333
337,194,39771,2,0,P|310:245|276:272,1,93.3333333333333
350,256,39956,2,0,P|309:309|285:317,1,93.3333333333333
350,256,40141,2,0,L|324:157,1,93.3333333333333
279,116,40882,2,0,P|355:210|280:201,1,280
163,218,41622,2,0,L|137:178,5,46.6666666666667
186,143,41993,2,0,L|156:101,5,46.6666666666667
309,264,42363,2,0,L|276:223,5,46.6666666666667
311,173,42734,2,0,L|277:135,4,46.6666666666667
231,183,43104,6,0,P|144:171|222:262,1,280
214,327,43845,2,0,L|230:17,1,280
344,160,44585,1,0,0:0:0:0:
363,156,44956,5,0,0:0:0:0:
257,185,45141,5,0,0:0:0:0:
101,251,45419,6,0,B|110:89|259:4|419:23|520:134|525:271|441:367|441:367|235:231,1,962.5
361,178,46020,6,0,L|367:233,1,43.75
304,346,46113,2,0,L|305:288,1,43.75
106,126,46206,6,0,P|150:195|234:53,1,306.25
188,121,46900,6,0,P|234:252|345:49,1,525.000012516976
71,66,47641,6,0,L|72:91,15,17.5
180,106,48428,2,0,L|170:129,15,17.5
261,205,49215,6,0,B|91:253|91:253|161:308|193:374|193:374|183:261|195:156|285:87|391:90|464:144|464:144|388:176|363:253|397:311|459:333,1,1050
481,246,50697,6,0,L|456:247,14,17.5
446,142,51438,2,0,L|424:155,14,17.5
352,75,52178,2,0,L|340:97,14,17.5
224,67,52919,2,0,L|225:91,14,17.5
141,303,53752,6,0,L|135:169,1,122.500001168251
189,31,53937,2,0,L|189:56,1,17.5
195,141,54122,2,0,P|284:96|265:259,1,350
270,177,54400,1,0,0:0:0:0:
446,51,54493,5,0,0:0:0:0:
432,231,54678,5,0,0:0:0:0:
446,51,54770,2,0,L|442:110,1,35
341,209,54909,5,0,0:0:0:0:
351,65,55002,2,0,L|348:112,1,35
252,82,55187,5,0,0:0:0:0:
248,186,55372,1,0,0:0:0:0:
157,95,55557,5,0,0:0:0:0:
160,161,55650,1,0,0:0:0:0:
81,114,55742,1,0,0:0:0:0:
13,142,55835,1,0,0:0:0:0:
62,71,55928,2,0,P|199:70|-1:268,1,700
157,55,56622,1,0,0:0:0:0:
145,128,56715,1,0,0:0:0:0:
132,202,56808,6,0,L|248:195,1,105
401,337,57548,6,0,P|382:280|384:246,1,70
249,177,58289,2,0,P|307:189|336:207,1,70
474,136,59030,2,0,P|434:180|403:196,1,70
158,75,59771,1,0,0:0:0:0:
256,192,59956,12,0,61252,0:0:0:0:
361,58,61993,6,0,L|352:140,1,70
109,151,62734,2,0,P|169:141|194:149,1,70
307,54,63474,2,0,P|285:110|266:128,1,70
289,258,64215,2,0,P|250:211|244:185,1,70
327,41,64956,2,0,P|337:101|328:126,1,70
138,223,65696,5,0,0:0:0:0:
71,146,66067,1,0,0:0:0:0:
123,59,66437,1,0,0:0:0:0:
222,82,66807,1,0,0:0:0:0:
231,183,67178,6,0,L|222:262,1,70
336,367,67919,2,0,L|338:287,1,70
344,160,68659,1,0,0:0:0:0:
344,160,69030,5,0,0:0:0:0:
348,215,69215,1,0,0:0:0:0:
353,270,69400,2,0,P|305:291|272:293,1,70
297,189,70141,2,0,P|302:136|317:107,1,70
395,181,70882,2,0,P|437:212|455:239,1,70,0|0,2:0|2:0,2:0:0:0:
208,255,71622,5,0,0:0:0:0:
308,365,72178,1,0,0:0:0:0:
337,317,72363,6,0,L|342:231,1,70
447,212,73104,2,0,L|389:147,1,70
419,61,73845,2,0,L|333:55,1,70
127,100,74585,6,0,L|213:105,1,70
400,126,75326,2,0,L|352:198,1,70
240,349,76067,2,0,L|202:272,1,70
320,352,76808,1,0,0:0:0:0:
256,192,77271,5,0,0:0:0:0:
290,262,77548,1,0,0:0:0:0:
256,317,77610,1,0,0:0:0:0:
197,344,77672,1,0,0:0:0:0:
141,362,77734,1,0,0:0:0:0:
83,363,77795,1,0,0:0:0:0:
23,356,77857,1,0,0:0:0:0:
21,294,77919,1,0,0:0:0:0:
83,285,77980,1,0,0:0:0:0:
93,223,78042,1,0,0:0:0:0:
64,165,78104,1,0,0:0:0:0:
93,110,78166,1,0,0:0:0:0:
146,76,78227,1,0,0:0:0:0:
193,98,78289,1,0,0:0:0:0:
210,106,78351,1,0,0:0:0:0:
229,115,78413,1,0,0:0:0:0:
249,124,78474,1,0,0:0:0:0:
270,135,78536,1,0,0:0:0:0:
292,142,78598,1,0,0:0:0:0:
310,150,78659,1,0,0:0:0:0:
330,159,78721,1,0,0:0:0:0:
347,168,78783,1,0,0:0:0:0:
368,178,78845,1,0,0:0:0:0:
388,187,78906,1,0,0:0:0:0:
407,197,78968,1,0,0:0:0:0:
425,204,79030,1,0,0:0:0:0:
446,212,79092,1,0,0:0:0:0:
466,223,79154,1,0,0:0:0:0:
482,252,79216,1,0,0:0:0:0:
462,274,79277,1,0,0:0:0:0:
442,296,79339,1,0,0:0:0:0:
422,322,79401,1,0,0:0:0:0:
394,341,79462,1,0,0:0:0:0:
363,344,79524,1,0,0:0:0:0:
332,345,79586,1,0,0:0:0:0:
300,334,79648,1,0,0:0:0:0:
277,311,79709,1,0,0:0:0:0:
262,286,79771,1,0,0:0:0:0:
248,257,79833,1,0,0:0:0:0:
230,238,79895,1,0,0:0:0:0:
213,229,79957,1,0,0:0:0:0:
193,220,80019,1,0,0:0:0:0:
175,212,80080,1,0,0:0:0:0:
153,205,80142,1,0,0:0:0:0:
132,194,80204,1,0,0:0:0:0:
112,185,80265,1,0,0:0:0:0:
98,133,80327,1,0,0:0:0:0:
134,99,80388,1,0,0:0:0:0:
193,127,80450,1,0,0:0:0:0:
253,154,80511,1,0,0:0:0:0:
308,183,80573,1,0,0:0:0:0:
366,214,80635,1,0,0:0:0:0:
420,250,80697,1,0,0:0:0:0:
475,283,80758,1,0,0:0:0:0:
417,345,80820,1,0,0:0:0:0:
325,359,80882,1,0,0:0:0:0:
224,358,80943,1,0,0:0:0:0:
134,336,81005,1,0,0:0:0:0:
64,282,81067,1,0,0:0:0:0:
33,200,81129,1,0,0:0:0:0:
32,112,81190,1,0,0:0:0:0:
96,48,81252,1,0,0:0:0:0:
192,32,81314,1,0,0:0:0:0:
272,80,81376,1,0,0:0:0:0:
288,176,81437,1,0,0:0:0:0:
256,272,81499,1,0,0:0:0:0:
160,304,81561,1,0,0:0:0:0:
80,240,81622,1,0,0:0:0:0:
128,144,81684,1,0,0:0:0:0:
144,160,81746,1,0,0:0:0:0:
160,176,81808,1,0,0:0:0:0:
176,192,81869,1,0,0:0:0:0:
192,208,81931,1,0,0:0:0:0:
256,192,82054,12,0,82734,0:0:0:0:
