osu file format v14

[General]
AudioFilename: audio.mp3
AudioLeadIn: 0
PreviewTime: 109378
Countdown: 0
SampleSet: Soft
StackLeniency: 0.5
Mode: 0
LetterboxInBreaks: 0
WidescreenStoryboard: 1

[Editor]
Bookmarks: 16030,32030,48030,64030,80030,92030,95718,102575,109432,123146,136860,150575,160860,164075
DistanceSpacing: 1
BeatDivisor: 4
GridSize: 16
TimelineZoom: 2.1

[Metadata]
Title:Nostalgia (feat. Missio) (Cut Ver.)
TitleUnicode:Nostalgia (feat. Missio) (Cut Ver.)
Artist:Said The Sky
ArtistUnicode:Said The Sky
Creator:Altai
Version:Insane
Source:
Tags:electronic english STS Trevor Christensen Matthew Brue David Butler edm dance music chill trap Gordon Lazarus Xoul Peter PeterEU UndeadPhoneGuy
BeatmapID:2597700
BeatmapSetID:1246927

[Difficulty]
HPDrainRate:5.5
CircleSize:4.3
OverallDifficulty:8
ApproachRate:9
SliderMultiplier:2.7
SliderTickRate:0.5

[Events]
//Background and Video events
0,0,"db0f6cr-5d6d90b9-1f2d-40b2-a850-e7cf5e5bccff (1).jpg",0,0
//Break Periods
//Storyboard Layer 0 (Background)
//Storyboard Layer 1 (Fail)
//Storyboard Layer 2 (Pass)
//Storyboard Layer 3 (Foreground)
//Storyboard Layer 4 (Overlay)
//Storyboard Sound Samples

[TimingPoints]
30,500,4,2,1,25,1,0
16030,-285.714285714286,4,2,1,25,0,0
48030,-133.333333333333,4,2,1,40,0,0
49030,-100,4,2,1,40,0,0
49342,-100,4,2,1,5,0,0
49405,-100,4,2,1,40,0,0
50030,-133.333333333333,4,2,1,40,0,0
51030,-100,4,2,1,40,0,0
51342,-100,4,2,1,5,0,0
51405,-100,4,2,1,40,0,0
52030,-133.333333333333,4,2,1,40,0,0
53030,-100,4,2,1,40,0,0
53342,-100,4,2,1,5,0,0
53405,-100,4,2,1,40,0,0
54030,-133.333333333333,4,2,1,40,0,0
55030,-100,4,2,1,40,0,0
55342,-100,4,2,1,5,0,0
55405,-100,4,2,1,40,0,0
56030,-133.333333333333,4,2,1,45,0,0
57030,-100,4,2,1,45,0,0
57342,-100,4,2,1,5,0,0
57405,-100,4,2,1,45,0,0
58030,-133.333333333333,4,2,1,45,0,0
59030,-100,4,2,1,45,0,0
59342,-100,4,2,1,5,0,0
59405,-100,4,2,1,45,0,0
60030,-133.333333333333,4,2,1,45,0,0
61030,-100,4,2,1,45,0,0
61342,-100,4,2,1,5,0,0
61405,-100,4,2,1,45,0,0
62030,-133.333333333333,4,2,1,45,0,0
63030,-100,4,2,1,45,0,0
63342,-100,4,2,1,5,0,0
63405,-100,4,2,1,45,0,0
64030,-125,4,2,1,50,0,0
65030,-90.9090909090909,4,2,1,50,0,0
65342,-90.9090909090909,4,2,1,5,0,0
65405,-90.9090909090909,4,2,1,50,0,0
66030,-125,4,2,1,50,0,0
67030,-90.9090909090909,4,2,1,50,0,0
67342,-90.9090909090909,4,2,1,5,0,0
67405,-90.9090909090909,4,2,1,50,0,0
68030,-125,4,2,1,50,0,0
69030,-90.9090909090909,4,2,1,50,0,0
69342,-90.9090909090909,4,2,1,5,0,0
69405,-90.9090909090909,4,2,1,50,0,0
70030,-125,4,2,1,50,0,0
71030,-90.9090909090909,4,2,1,50,0,0
71342,-90.9090909090909,4,2,1,5,0,0
71405,-90.9090909090909,4,2,1,50,0,0
72030,-125,4,2,1,55,0,0
73030,-90.9090909090909,4,2,1,55,0,0
73342,-90.9090909090909,4,2,1,5,0,0
73405,-90.9090909090909,4,2,1,55,0,0
74030,-125,4,2,1,55,0,0
75030,-90.9090909090909,4,2,1,55,0,0
75342,-90.9090909090909,4,2,1,5,0,0
75405,-90.9090909090909,4,2,1,55,0,0
76030,-125,4,2,1,55,0,0
77030,-90.9090909090909,4,2,1,55,0,0
77342,-90.9090909090909,4,2,1,5,0,0
77405,-90.9090909090909,4,2,1,55,0,0
78030,-125,4,2,1,55,0,0
79030,-90.9090909090909,4,2,1,55,0,0
79467,-90.9090909090909,4,2,1,5,0,0
79530,-90.9090909090909,4,2,1,55,0,0
80030,-166.666666666667,4,2,1,40,0,0
84030,-285.714285714286,4,2,1,40,0,0
88030,-166.666666666667,4,2,1,40,0,0
92030,480,4,2,1,45,1,0
92030,-200,4,2,1,45,0,0
92990,468.75,4,2,1,50,1,0
92990,-166.666666666667,4,2,1,50,0,0
93927,454.545454545455,4,2,1,55,1,0
94836,444.444444444444,4,2,1,60,1,0
95724,428.571428571429,4,2,1,65,1,0
95724,-125,4,2,1,65,0,0
99152,-133.333333333333,4,2,1,65,0,0
100866,-125,4,2,1,65,0,0
102581,-125,4,2,1,70,0,0
106009,-100,4,2,1,65,0,0
106866,-100,4,2,1,70,0,0
107724,-100,4,2,1,75,0,0
109152,-100,4,2,1,50,0,0
109438,-74.0740740740741,4,2,1,85,0,1
109974,-74.0740740740741,4,2,1,5,0,1
110081,-74.0740740740741,4,2,1,85,0,1
110509,-100,4,2,1,85,0,1
111152,-74.0740740740741,4,2,1,85,0,1
111474,-74.0740740740741,4,2,1,5,0,1
111581,-100,4,2,1,85,0,1
112866,-74.0740740740741,4,2,1,85,0,1
113188,-74.0740740740741,4,2,1,5,0,1
113295,-74.0740740740741,4,2,1,85,0,1
113616,-74.0740740740741,4,2,1,5,0,1
113724,-74.0740740740741,4,2,1,85,0,1
113938,-100,4,2,1,85,0,1
114581,-74.0740740740741,4,2,1,85,0,1
114902,-74.0740740740741,4,2,1,5,0,1
115009,-74.0740740740741,4,2,1,85,0,1
115331,-74.0740740740741,4,2,1,5,0,1
115438,-74.0740740740741,4,2,1,85,0,1
116831,-74.0740740740741,4,2,1,5,0,1
116938,-74.0740740740741,4,2,1,85,0,1
117366,-100,4,2,1,85,0,1
118009,-74.0740740740741,4,2,1,85,0,1
118331,-74.0740740740741,4,2,1,5,0,1
118438,-74.0740740740741,4,2,1,85,0,1
118866,-133.333333333333,4,2,1,85,0,1
119295,-200,4,2,1,85,0,1
119724,-74.0740740740741,4,2,1,85,0,1
120045,-74.0740740740741,4,2,1,5,0,1
120152,-74.0740740740741,4,2,1,85,0,1
120474,-74.0740740740741,4,2,1,5,0,1
120581,-74.0740740740741,4,2,1,85,0,1
120795,-100,4,2,1,85,0,1
123152,-68.9655172413793,4,2,1,85,0,1
123688,-68.9655172413793,4,2,1,5,0,1
123795,-68.9655172413793,4,2,1,85,0,1
124224,-100,4,2,1,85,0,1
124866,-68.9655172413793,4,2,1,85,0,1
125188,-68.9655172413793,4,2,1,5,0,1
125295,-68.9655172413793,4,2,1,85,0,1
126152,-100,4,2,1,85,0,1
126581,-66.6666666666667,4,2,1,85,0,1
126902,-66.6666666666667,4,2,1,5,0,1
127009,-66.6666666666667,4,2,1,85,0,1
127331,-66.6666666666667,4,2,1,5,0,1
127438,-66.6666666666667,4,2,1,85,0,1
127866,-100,4,2,1,85,0,1
128295,-86.9565217391304,4,2,1,85,0,1
128616,-86.9565217391304,4,2,1,5,0,1
128724,-68.9655172413793,4,2,1,85,0,1
129045,-68.9655172413793,4,2,1,5,0,1
129152,-68.9655172413793,4,2,1,85,0,1
129581,-100,4,2,1,85,0,1
130009,-66.6666666666667,4,2,1,85,0,1
130545,-66.6666666666667,4,2,1,5,0,1
130652,-66.6666666666667,4,2,1,85,0,1
131295,-100,4,2,1,85,0,1
131724,-66.6666666666667,4,2,1,85,0,1
132045,-66.6666666666667,4,2,1,5,0,1
132152,-66.6666666666667,4,2,1,85,0,1
132581,-133.333333333333,4,2,1,85,0,1
133009,-200,4,2,1,85,0,1
133438,-68.9655172413793,4,2,1,85,0,1
133759,-68.9655172413793,4,2,1,5,0,1
133866,-68.9655172413793,4,2,1,85,0,1
134188,-68.9655172413793,4,2,1,5,0,1
134295,-68.9655172413793,4,2,1,85,0,1
134509,-100,4,2,1,85,0,1
136759,-100,4,2,1,5,0,1
136866,436.363636363636,4,2,1,85,1,0
136866,-100,4,2,1,85,0,0
137738,-133.333333333333,4,2,2,50,0,0
138066,-133.333333333333,4,2,2,5,0,0
138175,404.040404040404,4,2,2,50,1,0
138175,-133.333333333333,4,2,2,50,0,0
138579,428.571428571429,4,2,2,50,1,0
139436,-133.333333333333,4,2,2,50,0,0
144900,-133.333333333333,4,2,2,5,0,0
145007,-133.333333333333,4,2,2,50,0,0
146614,-133.333333333333,4,2,2,5,0,0
146721,-133.333333333333,4,2,2,50,0,0
150579,-285.714285714286,4,2,2,35,0,0
154007,-400,4,2,2,35,0,0
157436,-285.714285714286,4,2,2,35,0,0
160864,-400,4,2,2,35,0,0

[Colours]
Combo1 : 41,214,197
Combo2 : 218,39,7
Combo3 : 235,235,235
Combo4 : 255,175,55

[HitObjects]
417,140,16030,6,0,B|397:87|459:44|524:98|503:173|448:213,1,236.249992790222,6|0,3:2|0:0,0:0:0:0:
491,282,17530,2,0,P|383:305|263:373,1,236.249992790222,2|0,3:2|0:0,0:0:0:0:
229,269,19030,2,0,P|215:206|282:203,1,141.749995674133,2|0,0:0|0:0,0:0:0:0:
149,317,20030,6,0,P|123:309|96:305,15,47.2499985580445,2|0|0|0|0|0|0|0|0|0|0|0|0|0|0|0,3:2|0:0|0:0|0:0|0:0|0:0|0:0|0:0|0:0|0:0|0:0|0:0|0:0|0:0|0:0|0:0,0:0:0:0:
19,166,24030,38,0,B|86:192|124:134|96:112|146:51|211:84,1,236.249992790222,6|0,3:2|0:0,0:0:0:0:
349,25,25530,2,0,B|307:29|290:62|290:62|330:123|342:228,1,236.249992790222,2|0,3:2|0:0,0:0:0:0:
385,355,27030,2,0,P|412:292|482:294,1,141.749995674133,2|0,0:0|0:0,0:0:0:0:
292,298,28030,6,0,P|268:268|246:260,15,47.2499985580445,2|0|0|0|0|0|0|0|0|0|0|0|0|0|0|0,3:2|0:0|0:0|0:0|0:0|0:0|0:0|0:0|0:0|0:0|0:0|0:0|0:0|0:0|0:0|0:0,0:0:0:0:
102,363,32030,38,0,P|142:253|188:138,1,236.249992790222,6|0,3:2|0:0,0:0:0:0:
193,24,33530,2,0,B|127:-9|77:51|105:73|67:131|0:105,1,236.249992790222,2|0,3:2|0:0,0:0:0:0:
45,192,35030,2,0,P|75:183|106:179,1,47.2499985580445,2|0,0:0|0:0,0:0:0:0:
109,258,35530,2,0,P|79:267|48:271,1,47.2499985580445,2|0,0:0|0:0,0:0:0:0:
200,367,36030,6,0,L|211:313,15,47.2499985580445,0|0|0|0|0|0|0|0|0|0|0|0|0|0|0|0,3:2|0:0|0:0|0:0|0:0|0:0|0:0|0:0|0:0|0:0|0:0|0:0|0:0|0:0|0:0|0:0,0:0:0:0:
466,270,40030,38,0,B|373:280|312:320|312:320|279:303|275:261,1,236.249992790222,6|0,3:2|0:0,0:0:0:0:
335,166,41530,2,0,P|416:173|376:67,1,236.249992790222,2|0,3:2|0:0,0:0:0:0:
220,9,43030,2,0,P|246:71|251:147,1,141.749995674133,2|0,0:0|0:0,0:0:0:0:
209,320,44030,5,2,3:2:0:0:
209,320,44280,1,2,0:0:0:0:
153,268,44530,2,0,L|105:278,9,47.2499985580445,2|0|0|0|0|0|0|0|0|0,0:0|0:0|0:0|0:0|0:0|0:0|0:0|0:0|0:0|0:0,0:0:0:0:
76,137,47030,38,0,L|124:127,3,47.2499985580445,0|0|0|0,3:0|0:0|0:0|0:0,0:0:0:0:
209,320,48030,38,0,P|241:280|289:285,1,101.250003862381,6|0,1:2|0:0,0:0:0:0:
351,319,48405,2,0,P|383:359|431:354,1,101.250003862381,0|0,1:0|0:0,0:0:0:0:
428,355,48780,1,2,0:3:0:0:
511,158,49030,22,0,B|447:165|447:165|443:169|443:169|364:180,1,135,8|0,0:0|0:0,0:0:0:0:
319,134,49405,1,0,1:0:0:0:
151,269,49780,37,2,0:3:0:0:
151,269,49905,1,2,0:3:0:0:
217,240,50030,38,0,P|187:202|136:193,1,101.250003862381,0|0,1:0|0:0,0:0:0:0:
81,236,50405,2,0,P|49:276|1:271,1,101.250003862381,0|0,1:0|0:0,0:0:0:0:
3,272,50780,1,2,0:3:0:0:
0,85,51030,22,0,B|63:92|63:92|68:96|68:96|147:107,1,135,8|0,0:0|0:0,0:0:0:0:
192,61,51405,1,0,1:0:0:0:
335,233,51780,37,2,0:3:0:0:
335,233,51905,1,2,0:3:0:0:
296,168,52030,38,0,P|356:162|397:199,1,101.250003862381,0|0,1:0|0:0,0:0:0:0:
458,149,52405,1,0,1:0:0:0:
458,149,52530,2,0,P|493:114|466:66,1,101.250003862381,2|2,0:0|0:0,0:0:0:0:
296,168,53030,22,0,B|303:104|303:104|307:100|307:100|315:32,1,135,10|0,0:0|0:0,0:0:0:0:
248,2,53405,1,0,1:0:0:0:
248,2,53530,1,2,0:0:0:0:
155,271,54030,38,0,P|102:261|45:255,1,101.250003862381,2|0,1:2|0:0,0:0:0:0:
1,313,54405,1,0,1:0:0:0:
1,313,54530,2,0,P|11:260|25:161,1,151.875005793572,2|0,0:0|0:0,0:0:0:0:
0,85,55030,38,0,B|63:92|63:92|68:96|68:96|136:104,1,135,10|0,0:0|0:0,0:0:0:0:
192,61,55405,1,0,1:0:0:0:
268,352,55780,21,2,0:3:0:0:
268,352,55905,1,2,0:3:0:0:
267,279,56030,38,0,P|313:296|339:346,1,101.250003862381,6|0,1:2|0:0,0:0:0:0:
407,364,56405,2,0,P|444:331|494:331,1,101.250003862381,0|0,1:2|0:0,0:0:0:0:
493,330,56780,1,2,0:3:0:0:
299,125,57030,38,0,B|362:118|362:118|367:114|367:114|435:106,1,135,8|0,0:0|0:0,0:0:0:0:
483,160,57405,1,0,1:0:0:0:
267,279,57780,21,2,0:3:0:0:
267,279,57905,1,2,0:3:0:0:
261,206,58030,38,0,P|215:223|192:272,1,101.250003862381,0|0,1:2|0:0,0:0:0:0:
123,285,58405,2,0,P|85:252|35:252,1,101.250003862381,0|0,1:2|0:0,0:0:0:0:
36,251,58780,1,2,0:3:0:0:
273,55,59030,38,0,B|210:48|210:48|205:44|205:44|137:36,1,135,10|0,0:0|0:0,0:0:0:0:
89,90,59405,1,0,1:0:0:0:
412,289,59780,21,2,0:3:0:0:
412,289,59905,1,2,0:3:0:0:
409,361,60030,38,0,P|363:344|337:294,1,101.250003862381,0|0,1:0|0:0,0:0:0:0:
293,236,60405,1,0,1:0:0:0:
293,236,60530,2,0,P|337:200|339:147,1,101.250003862381,2|2,0:0|0:0,0:0:0:0:
79,364,61030,38,0,B|72:301|72:301|68:296|68:296|60:228,1,135,10|0,0:0|0:0,0:0:0:0:
12,174,61405,1,0,1:0:0:0:
12,174,61530,1,2,0:0:0:0:
275,90,61780,21,0,0:0:0:0:
275,90,61905,1,0,0:0:0:0:
272,14,62030,38,0,P|226:27|200:81,1,101.250003862381,0|0,1:0|0:0,0:0:0:0:
125,130,62405,1,0,1:0:0:0:
125,130,62530,2,0,P|168:154|185:201,1,101.250003862381,2|2,0:0|0:0,0:0:0:0:
484,377,63030,38,0,B|491:314|491:314|495:309|495:309|503:241,1,135,10|0,0:0|0:0,0:0:0:0:
459,176,63405,1,0,1:0:0:0:
459,176,63530,1,2,0:0:0:0:
254,357,63780,21,0,0:0:0:0:
254,344,63905,1,0,0:0:0:0:
225,278,64030,38,0,P|172:295|105:333,1,108,6|0,1:2|0:0,0:0:0:0:
85,241,64405,2,0,P|138:224|205:186,1,108,0|0,1:0|0:0,0:0:0:0:
184,200,64780,1,2,0:3:0:0:
473,40,65030,38,0,B|404:32|404:32|399:28|399:28|325:19,1,148.50000453186,8|0,1:2|0:0,0:0:0:0:
257,62,65405,1,0,1:0:0:0:
507,183,65655,21,2,0:3:0:0:
507,183,65780,1,2,0:3:0:0:
507,183,65905,1,2,0:3:0:0:
466,245,66030,38,0,P|411:254|346:273,1,108,0|0,1:0|0:0,0:0:0:0:
297,239,66405,2,0,P|287:184|269:124,1,108,0|0,1:0|0:0,0:0:0:0:
272,133,66780,1,2,0:3:0:0:
26,364,67030,38,0,B|94:356|94:356|99:352|99:352|173:343,1,148.50000453186,10|0,1:2|0:0,0:0:0:0:
216,280,67405,1,0,1:0:0:0:
28,132,67655,21,2,0:3:0:0:
28,132,67780,1,2,0:3:0:0:
28,132,67905,1,2,0:3:0:0:
26,205,68030,38,0,P|77:187|99:138,1,108,2|0,1:2|0:0,0:0:0:0:
133,74,68405,1,0,1:0:0:0:
133,74,68530,2,0,P|177:95|199:149,1,108,2|2,0:0|0:0,0:0:0:0:
466,245,69030,38,0,B|473:176|473:176|477:171|477:171|486:97,1,148.50000453186,10|0,1:2|0:0,0:0:0:0:
435,47,69405,1,0,1:0:0:0:
435,47,69530,1,2,0:0:0:0:
297,239,69780,21,0,0:0:0:0:
297,239,69905,1,0,0:0:0:0:
298,309,70030,38,0,P|356:282|364:227,1,108,2|0,1:2|0:0,0:0:0:0:
346,175,70405,1,0,1:0:0:0:
346,175,70530,2,0,P|288:137|297:46,1,162,2|0,0:0|0:0,0:0:0:0:
187,13,71030,38,0,B|195:85|195:85|199:90|199:90|206:159,1,148.50000453186,10|0,0:2|0:0,0:0:0:0:
147,202,71405,1,0,1:0:0:0:
270,379,71655,21,2,0:3:0:0:
270,379,71780,1,2,0:3:0:0:
270,379,71905,1,2,0:3:0:0:
298,309,72030,38,0,P|240:303|202:333,1,108,6|0,1:2|0:0,0:0:0:0:
134,361,72405,2,0,P|86:338|66:289,1,108,0|0,1:0|0:0,0:0:0:0:
66,289,72780,1,2,0:3:0:0:
346,175,73030,38,0,B|353:106|353:106|357:101|357:101|365:29,1,148.50000453186,8|0,1:2|0:0,0:0:0:0:
431,0,73405,1,0,1:0:0:0:
206,159,73655,21,2,0:3:0:0:
206,159,73780,1,2,0:3:0:0:
206,159,73905,1,2,0:3:0:0:
234,88,74030,38,0,P|176:82|138:112,1,108,0|0,1:2|0:0,0:0:0:0:
80,172,74405,2,0,P|133:195|151:240,1,108,0|0,1:2|0:0,0:0:0:0:
151,239,74780,1,2,0:3:0:0:
384,378,75030,38,0,B|391:309|391:309|395:304|395:304|403:232,1,148.50000453186,10|0,1:2|0:0,0:0:0:0:
346,175,75405,1,0,1:0:0:0:
185,318,75655,21,2,0:3:0:0:
185,318,75780,1,2,0:3:0:0:
185,318,75905,1,2,0:3:0:0:
119,364,76030,38,0,P|60:350|1:338,1,108,0|0,1:0|0:0,0:0:0:0:
3,265,76405,1,0,1:0:0:0:
3,265,76530,2,0,P|-9:211|37:177,1,108,2|2,0:0|0:0,0:0:0:0:
285,91,77030,38,0,B|216:98|216:98|211:102|211:102|139:110,1,148.50000453186,10|0,1:2|0:0,0:0:0:0:
78,66,77405,1,0,1:0:0:0:
78,66,77530,1,2,0:0:0:0:
312,242,77780,21,0,0:0:0:0:
312,242,77905,1,0,0:0:0:0:
353,178,78030,38,0,P|412:167|474:158,1,108,0|0,1:2|0:0,0:0:0:0:
501,99,78405,1,0,1:0:0:0:
501,99,78530,2,0,B|469:82|469:82|486:9,1,108,2|2,0:0|0:0,0:0:0:0:
138,110,79030,38,0,B|207:117|207:117|212:121|212:121|284:129,1,148.50000453186,10|0,1:2|0:0,0:0:0:0:
353,178,79405,1,0,1:0:0:0:
353,178,79530,1,2,0:0:0:0:
195,283,79780,21,2,0:0:0:0:
257,371,80030,22,0,P|296:309|376:334,1,161.999995056153,6|0,3:2|0:0,0:0:0:0:
501,237,80780,1,2,0:0:0:0:
459,159,81030,2,0,B|452:167|452:167|380:145|298:128,1,161.999995056153,2|0,0:0|3:0,0:0:0:0:
163,43,81780,21,2,0:0:0:0:
260,13,82030,2,0,P|229:94|216:186,1,161.999995056153,2|0,0:0|0:0,0:0:0:0:
155,244,82780,2,0,P|127:185|32:184,1,161.999995056153,2|0,0:0|0:0,0:0:0:0:
12,331,83530,2,0,P|54:316|92:310,1,80.9999975280763,2|0,0:0|0:0,0:0:0:0:
241,365,84030,22,0,B|245:343|245:343|249:338|249:338|254:312,6,47.2499985580445,0|0|0|0|0|0|0,3:0|0:0|0:0|0:0|0:0|0:0|0:0,0:0:0:0:
313,261,85780,2,0,B|309:239|309:239|305:234|305:234|300:208,7,47.2499985580445,0|0|0|0|0|0|0|0,3:0|0:0|0:0|0:0|0:0|0:0|0:0|0:0,0:0:0:0:
250,153,87780,1,2,0:0:0:0:
356,10,88030,22,0,P|372:78|462:64,1,161.999995056153,2|0,3:2|0:0,0:0:0:0:
512,246,88780,1,2,0:0:0:0:
448,197,89030,2,0,B|416:206|407:226|407:226|427:281|436:348,1,161.999995056153,2|0,0:0|3:0,0:0:0:0:
241,365,89780,21,2,0:0:0:0:
276,292,90030,2,0,P|263:210|252:126,1,161.999995056153,2|0,0:0|0:0,0:0:0:0:
191,40,90780,2,0,P|148:45|103:52,1,80.9999975280763,2|0,0:0|0:0,0:0:0:0:
1,148,91280,2,0,B|48:129|75:170|55:185|90:228|136:205,1,161.999995056153,2|0,0:0|0:0,0:0:0:0:
206,365,92030,22,0,P|213:329|223:294,1,67.5,0|0,3:0|0:0,0:0:0:0:
128,373,92510,2,0,P|135:337|145:302,1,67.5,0|0,3:0|0:0,0:0:0:0:
372,190,92990,22,0,P|364:154|351:108,1,80.9999975280763,0|0,3:0|0:0,0:0:0:0:
448,197,93458,2,0,P|440:161|428:114,1,80.9999975280763,0|0,3:0|0:0,0:0:0:0:
191,40,93927,21,0,3:0:0:0:
191,40,94154,1,0,0:0:0:0:
169,121,94381,1,0,3:0:0:0:
169,121,94608,1,0,0:0:0:0:
313,238,94836,21,0,3:0:0:0:
313,238,95058,1,2,0:3:0:0:
330,342,95280,1,0,3:0:0:0:
322,330,95391,2,0,P|286:325|246:315,1,67.5,2|0,0:0|0:0,0:0:0:0:
21,352,95724,6,0,P|67:316|122:329,2,108,6|0|2,1:2|0:0|0:3,0:0:0:0:
196,242,96366,1,2,0:0:0:0:
134,157,96581,2,0,P|83:149|18:135,2,108,2|0|2,1:2|0:0|0:3,0:0:0:0:
260,24,97224,5,2,0:0:0:0:
336,89,97438,2,0,P|418:106|474:216,1,216,2|2,1:2|0:3,0:0:0:0:
315,307,98081,1,2,0:0:0:0:
372,367,98295,2,0,B|414:377|452:341|426:326|462:287|503:295,2,162,0|2|2,1:0|0:0|0:3,0:0:0:0:
138,159,99152,22,0,B|177:151|211:188|186:203|223:237|263:227,1,151.875005793572,0|0,1:0|0:0,0:0:0:0:
271,236,99581,1,2,0:3:0:0:
447,67,100009,2,0,B|407:59|373:96|398:111|361:145|321:135,1,151.875005793572,0|0,1:0|0:0,0:0:0:0:
314,144,100438,1,2,0:3:0:0:
97,316,100866,6,0,B|135:312|155:357|155:357|155:307|203:292,1,162,0|0,1:0|0:0,0:0:0:0:
203,279,101295,1,2,0:3:0:0:
482,214,101724,2,0,B|443:210|423:255|423:255|423:205|375:190,1,162,0|0,1:0|0:0,0:0:0:0:
376,177,102153,1,2,0:3:0:0:
448,133,102366,1,2,0:2:0:0:
221,137,102581,6,0,L|243:8,1,108,2|0,1:2|0:0,0:0:0:0:
133,156,103009,1,0,1:0:0:0:
315,307,103224,1,2,0:0:0:0:
212,366,103438,2,0,P|167:328|121:332,2,108,2|0|0,1:2|0:0|1:0,0:0:0:0:
256,207,104081,21,2,0:0:0:0:
315,307,104295,2,0,P|404:292|494:277,1,162,2|0,1:2|0:0,0:0:0:0:
474,280,104724,1,0,1:2:0:0:
256,207,104938,1,2,0:3:0:0:
256,207,105045,2,0,P|271:118|286:28,1,162,2|0,0:0|0:0,0:0:0:0:
282,47,105581,6,0,P|210:59|204:113,1,108,2|0,1:2|0:0,0:0:0:0:
366,365,106009,5,8,1:3:0:0:
341,226,106224,1,0,1:0:0:0:
479,201,106438,1,0,1:0:0:0:
503,340,106653,1,8,1:3:0:0:
163,292,106866,21,8,1:3:0:0:
190,139,107081,1,0,1:0:0:0:
38,111,107295,1,0,1:0:0:0:
12,264,107509,1,8,1:3:0:0:
410,214,107724,5,10,1:3:0:0:
129,85,108044,1,2,3:0:0:0:
112,87,108151,1,0,1:0:0:0:
256,0,108366,1,2,1:3:0:0:
368,110,109152,5,2,0:0:0:0:
252,330,109438,6,0,B|224:366|128:355|127:195|294:153|350:287|313:307|353:395|470:365,1,455.625001738071,6|0,1:2|0:0,0:0:0:0:
477,372,110081,2,0,P|497:332|475:287,1,91.1250003476143,8|0,3:0|3:0,0:0:0:0:
368,110,110295,5,8,3:1:0:0:
368,110,110509,2,0,P|353:156|344:190,1,67.5,8|0,3:0|0:0,0:0:0:0:
234,133,110724,6,0,P|224:67|208:-22,1,135,0|2,1:2|3:2,0:0:0:0:
49,285,111152,22,0,B|-40:193|21:89|129:123|115:192|83:212,1,273.375001042843,2|0,1:2|0:0,0:0:0:0:
88,207,111581,1,2,0:0:0:0:
256,308,111795,5,8,3:0:0:0:
254,319,111902,1,2,3:2:0:0:
252,330,112009,1,8,3:1:0:0:
367,124,112224,5,8,3:0:0:0:
358,55,112331,1,0,1:0:0:0:
451,142,112545,5,8,3:0:0:0:
446,125,112652,1,0,1:0:0:0:
20,142,112866,6,0,B|98:173|143:105|110:80|168:9|244:47,1,273.375001042843,0|0,1:2|0:0,0:0:0:0:
247,54,113295,2,0,B|171:16|113:87|146:112|101:180|23:149,1,273.375001042843,8|0,3:0|0:0,0:0:0:0:
50,286,113724,5,8,0:1:0:0:
50,286,113938,2,0,P|87:302|106:336,1,67.5,8|0,3:0|0:0,0:0:0:0:
227,370,114152,6,0,P|266:297|376:307,1,202.5,0|2,1:2|3:0,0:0:0:0:
471,183,114581,22,0,B|494:162|511:98|403:64|342:168|431:260,1,273.375001042843,8|0,3:0|0:0,0:0:0:0:
303,371,115009,2,0,P|286:233|268:92,1,273.375001042843,0|0,1:2|0:0,0:0:0:0:
333,16,115438,5,8,0:1:0:0:
91,107,115652,5,2,3:2:0:0:
84,38,115759,1,8,3:0:0:0:
19,150,115973,5,8,3:0:0:0:
19,136,116080,1,2,1:2:0:0:
388,207,116295,6,0,B|406:201|452:182|448:86|323:65|257:135|302:227|321:219|406:323|190:390|163:232|303:214|362:239|372:311,1,455.625001738071,6|0,1:2|0:0,0:0:0:0:
380,316,116938,2,0,P|344:332|316:373,1,91.1250003476143,8|0,3:0|3:0,0:0:0:0:
110,367,117152,5,8,3:1:0:0:
110,367,117366,2,0,P|83:345|38:339,1,67.5,8|2,3:0|3:0,0:0:0:0:
101,216,117581,6,0,B|169:208|169:208|174:210|174:210|244:201,1,135,0|2,1:2|3:2,0:0:0:0:
498,121,118009,22,0,B|427:152|375:84|408:59|350:-11|272:27,1,273.375001042843,2|0,1:2|0:0,0:0:0:0:
272,26,118438,1,2,0:0:0:0:
399,252,118652,5,8,3:0:0:0:
393,240,118759,1,2,3:2:0:0:
388,230,118866,2,0,P|407:220|435:211,2,50.6250019311906,8|4|4,3:1|3:0|3:0,0:0:0:0:
489,355,119188,21,8,3:0:0:0:
483,363,119295,2,0,P|447:351|416:349,1,67.5,2|0,1:2|0:0,0:0:0:0:
75,109,119724,6,0,B|48:93|35:24|142:-9|203:94|114:186,1,273.375001042843,0|0,1:2|0:0,0:0:0:0:
125,182,120152,2,0,B|211:92|150:-11|42:22|56:91|83:106,1,273.375001042843,8|0,3:0|0:0,0:0:0:0:
13,259,120581,5,8,0:1:0:0:
13,259,120795,2,0,P|47:244|86:253,1,67.5,8|0,3:0|0:0,0:0:0:0:
193,370,121009,6,0,P|203:278|220:162,1,202.5,0|2,1:2|3:0,0:0:0:0:
218,169,121438,1,8,3:0:0:0:
54,317,121652,21,0,1:0:0:0:
365,254,121866,1,0,1:0:0:0:
160,223,122081,5,2,3:0:0:0:
162,234,122188,1,2,3:0:0:0:
164,245,122295,1,8,1:0:0:0:
256,96,122509,5,0,1:0:0:0:
256,96,122724,1,0,1:0:0:0:
256,96,122938,1,2,1:2:0:0:
497,315,123152,22,0,B|547:304|568:377|402:442|414:245|471:264|493:138|376:29|224:160|280:281|385:249,1,489.37501493454,6|0,1:2|0:0,0:0:0:0:
371,262,123795,2,0,P|337:287|322:347,1,97.8750029869081,8|0,3:0|3:0,0:0:0:0:
113,368,124009,5,8,3:1:0:0:
113,368,124224,1,8,3:0:0:0:
94,302,124331,1,2,0:3:0:0:
27,288,124438,6,0,P|50:204|62:144,1,135,0|2,1:2|3:2,0:0:0:0:
302,180,124866,22,0,B|398:80|332:-32|215:4|230:79|265:100,1,293.625008960724,2|0,1:2|0:0,0:0:0:0:
197,144,125295,1,0,1:2:0:0:
460,297,125509,2,0,P|421:274|369:261,1,97.8750029869081,2|0,0:0|0:0,0:0:0:0:
134,274,125724,5,8,0:1:0:0:
134,274,125938,1,8,3:0:0:0:
165,213,126045,1,2,3:0:0:0:
234,206,126152,6,0,P|261:276|288:343,1,135,2|8,3:2|3:0,0:0:0:0:
502,141,126581,22,0,B|412:176|360:98|398:69|332:-11|255:25,1,303.750011587143,0|0,1:2|0:0,0:0:0:0:
261,17,127009,2,0,B|335:-18|402:62|364:91|415:169|505:133,1,303.750011587143,8|0,3:0|0:0,0:0:0:0:
436,229,127438,5,8,0:1:0:0:
436,229,127652,1,8,3:0:0:0:
507,237,127759,1,2,3:0:0:0:
502,307,127866,6,0,P|426:340|374:380,1,135,2|0,1:2|0:0,0:0:0:0:
212,361,128295,22,0,B|56:346|169:258|29:245,1,232.875004441738,2|0,3:2|0:0,0:0:0:0:
9,366,128724,2,0,P|146:253|282:188,1,293.625008960724,2|0,1:2|0:0,0:0:0:0:
210,88,129152,5,8,0:1:0:0:
210,88,129366,1,8,3:0:0:0:
189,23,129473,1,2,3:0:0:0:
121,29,129581,6,0,P|84:49|52:68,1,67.5,2|0,3:0|0:0,0:0:0:0:
0,31,129795,1,2,3:2:0:0:
383,355,130009,22,0,B|394:276|458:249|612:269|583:442|345:369|439:254|459:263|509:162|436:85|299:108|285:222|344:259|393:238,1,506.250019311906,6|0,1:2|0:0,0:0:0:0:
364,251,130652,2,0,P|327:234|251:212,1,101.250003862381,8|0,3:0|3:0,0:0:0:0:
103,172,130866,5,8,3:1:0:0:
103,172,131081,1,8,3:0:0:0:
82,236,131188,1,2,3:0:0:0:
141,271,131295,6,0,P|173:250|227:263,1,67.5,0|0,1:2|0:0,0:0:0:0:
227,318,131509,1,2,3:2:0:0:
449,10,131724,22,0,B|353:109|419:221|535:185|520:110|485:89,1,303.750011587143,2|0,1:2|0:0,0:0:0:0:
483,88,132152,1,2,3:2:0:0:
272,197,132366,5,8,3:0:0:0:
278,185,132474,1,2,3:2:0:0:
283,175,132581,2,0,P|264:165|236:156,2,50.6250019311906,8|4|4,3:1|3:0|3:0,0:0:0:0:
153,45,132902,21,8,3:0:0:0:
165,57,133009,2,0,P|201:45|232:43,1,67.5,2|8,1:2|3:0,0:0:0:0:
67,366,133438,6,0,B|74:319|33:278|30:325|-91:277|-46:151|32:165|59:188|52:229,1,293.625008960724,0|0,1:0|0:0,0:0:0:0:
58,224,133866,2,0,B|65:183|38:160|-40:146|-85:272|36:320|39:273|80:314|73:361,1,293.625008960724,8|0,3:0|0:0,0:0:0:0:
183,317,134295,5,8,0:1:0:0:
183,317,134509,2,0,P|196:278|230:261,1,67.5,8|0,3:0|0:0,0:0:0:0:
350,270,134724,6,0,P|363:344|480:355,1,202.5,0|2,1:2|3:0,0:0:0:0:
474,359,135152,1,8,3:0:0:0:
424,162,135366,21,0,1:0:0:0:
58,224,135581,1,0,1:0:0:0:
322,86,135795,5,2,3:0:0:0:
320,97,135902,1,2,3:0:0:0:
318,108,136009,1,8,1:0:0:0:
214,294,136224,5,2,3:0:0:0:
212,283,136331,1,2,3:0:0:0:
210,273,136438,2,0,P|118:278|46:358,1,202.5,0|0,1:2|0:0,0:0:0:0:
58,224,136866,5,4,1:2:0:0:
58,224,137738,2,0,P|48:171|22:60,1,151.875005793572,8|0,0:2|0:0,0:0:0:0:
87,21,138175,21,0,1:0:0:0:
87,21,139436,2,0,P|158:35|213:158,1,202.500007724762,8|0,0:2|0:0,0:0:0:0:
336,137,140079,21,0,0:0:0:0:
341,129,140186,1,0,0:0:0:0:
345,138,140293,1,0,1:0:0:0:
298,308,140721,22,0,P|254:313|226:361,1,101.250003862381,2|2,0:0|0:0,0:0:0:0:
76,242,141150,2,0,B|125:246|125:246|130:249|130:249|175:253,1,101.250003862381,10|0,0:2|0:0,0:0:0:0:
237,182,141579,2,0,L|35:159,1,202.500007724762,2|0,0:0|0:0,0:0:0:0:
298,308,142221,21,0,0:0:0:0:
298,308,142436,2,0,P|333:259|376:255,1,101.250003862381,2|2,1:2|0:0,0:0:0:0:
445,127,142864,2,0,B|395:131|395:131|391:134|391:134|334:140,1,101.250003862381,10|0,0:2|0:0,0:0:0:0:
485,44,143293,2,0,L|284:67,1,202.500007724762,2|0,0:0|1:0,0:0:0:0:
284,67,144579,22,0,P|272:17|178:21,1,151.875005793572,8|0,0:2|0:0,0:0:0:0:
114,45,145007,1,0,1:0:0:0:
114,45,145864,21,0,1:0:0:0:
53,162,146079,2,0,L|16:167,2,33.7500012874604,0|0|0,3:0|3:0|3:0,3:0:0:0:
65,173,146293,2,0,P|139:161|220:152,1,151.875005793572,8|0,0:2|0:0,0:0:0:0:
284,186,146722,1,0,1:0:0:0:
176,361,147150,21,0,1:0:0:0:
284,186,147579,2,0,P|295:232|345:246,1,101.250003862381,2|2,0:0|0:0,0:0:0:0:
471,208,148007,2,0,P|385:222|364:333,1,202.500007724762,10|2,0:2|0:0,0:0:0:0:
199,86,149079,21,0,1:0:0:0:
199,86,149293,2,0,P|188:132|138:146,1,101.250003862381,2|2,1:2|0:0,0:0:0:0:
15,42,149722,2,0,P|67:59|118:66,1,101.250003862381,10|0,0:2|0:0,0:0:0:0:
139,227,150150,2,0,P|87:210|36:203,1,101.250003862381,2|0,0:0|0:0,0:0:0:0:
242,373,150579,38,0,B|251:328|292:319|292:319|383:358|494:361,2,283.499991348267,2|2|2,0:0|0:0|0:0,0:0:0:0:
212,170,154007,6,0,B|261:212|327:172|334:110|299:49|190:44|156:135|199:155|149:252|46:216,1,438.75,2|2,0:2|0:0,0:0:0:0:
281,6,157436,38,0,P|252:153|232:297,2,283.499991348267,2|2|2,0:0|0:0|0:0,0:0:0:0:
92,374,160864,38,0,B|81:295|17:268|-137:288|-108:461|130:388|36:273|16:282|-34:181|39:104|176:127|190:241|127:272|95:256,1,506.25,2|0,0:0|0:0,0:0:0:0:
