osu file format v14

[General]
AudioFilename: audio.mp3
AudioLeadIn: 0
PreviewTime: 81105
Countdown: 0
SampleSet: Soft
StackLeniency: 0.7
Mode: 0
LetterboxInBreaks: 0
WidescreenStoryboard: 1

[Editor]
DistanceSpacing: 0.8
BeatDivisor: 4
GridSize: 4
TimelineZoom: 0.8000009

[Metadata]
Title:For You (Ft. Melissa Hayes)
TitleUnicode:For You (Ft. Melissa Hayes)
Artist:Said The Sky
ArtistUnicode:Said The Sky
Creator:Bearizm
Version:Normal
Source:
Tags:EDM Chill Melodic Trap
BeatmapID:1772636
BeatmapSetID:847645

[Difficulty]
HPDrainRate:3
CircleSize:3.5
OverallDifficulty:4
ApproachRate:5
SliderMultiplier:1.1
SliderTickRate:2

[Events]
//Background and Video events
0,0,"BG.jpg",0,0
//Break Periods
2,55162,60620
//Storyboard Layer 0 (Background)
//Storyboard Layer 1 (Fail)
//Storyboard Layer 2 (Pass)
//Storyboard Layer 3 (Foreground)
//Storyboard Sound Samples

[TimingPoints]
13820,428.571428571429,4,2,1,30,1,0
24105,-100,4,2,1,70,0,0
25820,-100,4,2,1,60,0,0
27534,-100,4,2,2,70,0,0
41248,-100,4,2,2,50,0,0
43177,-100,4,2,2,70,0,0
54962,-100,4,2,2,20,0,0
62677,-100,4,2,2,25,0,0
63534,-100,4,2,2,30,0,0
64391,-100,4,2,2,35,0,0
65248,-100,4,2,2,40,0,0
66105,-100,4,2,2,45,0,0
66962,-100,4,2,2,50,0,0
79391,-100,4,2,2,40,0,0
79820,-100,4,2,2,30,0,0
80248,-100,4,2,2,20,0,0
81962,-100,4,2,2,50,0,0
82391,-80,4,2,2,80,0,1
95998,-80,4,2,2,80,0,0
96105,-80,4,2,2,80,0,1
109820,-100,4,2,2,80,0,0
109927,-100,4,2,2,60,0,0
125462,-100,4,2,2,70,0,0

[Colours]
Combo1 : 34,145,255
Combo2 : 192,192,192
Combo3 : 64,128,128
Combo4 : 128,255,255
Combo5 : 0,180,190
Combo6 : 119,187,255

[HitObjects]
256,192,20677,12,0,24105,3:0:0:0:
24,205,25820,6,0,L|144:189,1,110,0|0,3:0|3:0,0:0:0:0:
176,225,26462,1,0,3:0:0:0:
176,225,26677,2,0,L|168:285,1,55,0|0,3:2|3:0,0:0:0:0:
159,331,27105,1,2,3:0:0:0:
246,344,27534,22,0,L|263:226,1,110,4|0,3:2|0:0,0:0:0:0:
268,192,28177,1,0,3:0:0:0:
268,192,28391,1,8,0:3:0:0:
356,195,28820,2,0,P|415:204|463:117,1,165,0|0,3:0|3:0,0:0:0:0:
453,80,29677,1,0,3:0:0:0:
398,12,30105,2,0,B|341:5|341:5|293:25|293:25|238:17,1,165,8|8,0:3|0:0,0:0:0:0:
198,12,30962,6,0,L|205:122,1,110,0|0,3:0|0:0,0:0:0:0:
293,110,31820,2,0,L|279:330,1,220,8|2,0:3|0:0,0:0:0:0:
278,373,32891,1,0,3:0:0:0:
278,373,33105,1,0,3:0:0:0:
198,335,33534,2,0,B|167:332|145:322|145:322|119:337|92:340,1,110,8|2,0:3|0:3,0:0:0:0:
25,282,34391,70,0,P|36:195|42:117,1,165,0|0,3:0|3:0,0:0:0:0:
43,73,35248,1,8,0:3:0:0:
129,57,35677,1,0,3:0:0:0:
129,57,35891,2,0,B|177:83|177:83|238:74,1,110,8|0,0:0|3:0,0:0:0:0:
275,69,36534,1,0,3:0:0:0:
340,127,36962,1,8,0:3:0:0:
340,127,37177,2,0,P|333:180|330:237,1,110,2|2,0:0|0:0,0:0:0:0:
358,270,37820,6,0,B|303:261|303:261|255:282|255:282|199:274,1,165,0|2,3:0|0:0,0:0:0:0:
154,269,38677,1,8,0:3:0:0:
84,214,39105,1,2,0:0:0:0:
84,214,39320,2,0,P|68:161|91:113,1,110,8|0,0:0|3:0,0:0:0:0:
64,77,39962,2,0,L|174:69,1,110,0|8,3:0|0:3,0:0:0:0:
198,105,40605,1,8,0:0:0:0:
198,105,40820,2,0,L|255:109,1,55,2|8,0:3|0:0,0:0:0:0:
290,86,41248,70,0,B|265:136|265:136|285:248,1,165,0|2,0:0|0:0,0:0:0:0:
295,286,42105,1,8,0:3:0:0:
213,320,42534,1,0,0:0:0:0:
213,320,42748,2,0,P|164:297|111:316,1,110,8|0,0:1|3:0,0:0:0:0:
120,270,43391,2,0,L|140:162,1,110,0|8,3:0|0:3,0:0:0:0:
150,119,44034,1,2,0:0:0:0:
233,92,44462,1,10,0:0:0:0:
233,92,44677,6,0,B|284:112|284:112|336:95,1,110,0|0,3:0|0:0,0:0:0:0:
378,81,45320,1,2,0:0:0:0:
378,81,45534,2,0,L|358:189,1,110,8|0,0:3|0:0,0:0:0:0:
401,185,46177,2,0,P|455:200|481:246,1,110,10|0,0:0|3:0,0:0:0:0:
489,287,46820,1,0,3:0:0:0:
420,341,47248,2,0,L|309:326,1,110,8|10,0:3|0:0,0:0:0:0:
269,341,47891,1,8,0:0:0:0:
269,341,48105,70,0,B|292:292|292:292|266:184,1,165,0|2,3:0|0:0,0:0:0:0:
251,142,48962,1,8,0:3:0:0:
178,92,49391,1,2,0:0:0:0:
178,92,49605,2,0,P|124:90|78:120,1,110,8|0,0:0|3:0,0:0:0:0:
57,158,50248,1,0,3:0:0:0:
100,234,50677,2,0,P|164:249|225:183,1,165,8|2,0:3|0:0,0:0:0:0:
239,140,51534,6,0,B|241:211|255:314,1,165,0|2,3:0|0:0,0:0:0:0:
267,346,52391,2,0,B|320:332|320:332|341:348|374:349,1,110,8|0,0:3|0:0,0:0:0:0:
415,351,53034,2,0,P|472:329|496:279,1,110,10|0,0:0|3:0,0:0:0:0:
498,244,53677,1,0,3:0:0:0:
437,180,54105,1,8,0:3:0:0:
349,191,54534,1,2,0:3:0:0:
261,202,54962,69,6,3:2:0:0:
256,192,61820,12,2,66962,0:0:0:0:
376,96,68248,53,2,0:3:0:0:
312,156,68677,2,0,L|324:268,1,110,12|8,3:2|0:0,0:0:0:0:
240,296,69534,2,0,L|228:186,1,110,8|8,0:0|0:0,0:0:0:0:
164,124,70391,2,0,P|108:112|60:136,1,110,8|8,0:0|0:0,0:0:0:0:
24,112,71034,1,2,0:0:0:0:
24,112,71248,2,0,P|35:165|40:224,1,110,8|8,0:0|0:0,0:0:0:0:
76,244,71891,1,2,0:0:0:0:
76,244,72105,6,0,P|132:256|180:232,1,110,8|8,0:0|0:0,0:0:0:0:
261,259,72962,2,0,P|310:236|362:249,1,110,8|8,0:0|0:0,0:0:0:0:
427,188,73820,2,0,L|416:77,1,110,8|8,0:0|0:0,0:0:0:0:
502,94,74677,2,0,L|512:203,1,110,8|8,0:0|0:0,0:0:0:0:
448,264,75534,69,8,0:0:0:0:
362,249,75962,1,8,0:0:0:0:
302,314,76391,1,8,0:0:0:0:
216,299,76819,1,8,0:0:0:0:
173,221,77248,2,0,L|182:167,1,55,8|8,0:0|0:0,0:0:0:0:
191,123,77677,1,8,0:0:0:0:
277,112,78105,2,0,L|268:166,1,55,8|8,0:0|0:0,0:0:0:0:
259,210,78534,1,8,0:0:0:0:
311,281,78962,6,0,P|348:274|375:266,1,55,8|8,0:0|0:0,0:0:0:0:
407,257,79391,2,0,P|411:219|412:191,1,55,8|8,0:0|0:0,0:0:0:0:
403,159,79820,2,0,P|368:142|342:133,1,55,8|8,0:0|0:0,0:0:0:0:
309,127,80248,2,0,P|283:154|266:176,1,55,8|8,0:0|0:0,0:0:0:0:
259,210,81962,1,2,0:3:0:0:
151,184,82391,38,0,P|100:183|60:216,2,103.125,6|2|2,3:2|0:0|0:0,0:0:0:0:
200,115,83355,2,0,P|234:125|300:109,1,103.125,2|2,0:0|0:0,0:0:0:0:
373,190,84105,6,0,L|379:294,1,103.125,2|2,0:0|0:0,0:0:0:0:
463,304,84748,2,0,L|455:200,1,103.125,2|2,0:0|0:0,0:0:0:0:
427,123,85391,2,0,L|421:52,1,68.75,2|8,0:0|0:0,0:0:0:0:
375,24,85820,70,0,P|324:17|282:44,1,103.125,2|2,3:2|0:0,0:0:0:0:
222,100,86462,2,0,B|172:118|172:118|126:99,1,103.125,2|2,0:0|0:0,0:0:0:0:
55,54,87105,1,2,0:0:0:0:
26,160,87534,6,0,L|38:265,1,103.125,2|2,0:0|0:0,0:0:0:0:
57,344,88177,1,2,0:0:0:0:
134,372,88498,1,2,0:0:0:0:
208,333,88820,2,0,L|277:326,1,68.75,2|8,0:0|0:0,0:0:0:0:
310,282,89248,70,0,P|360:280|400:311,1,103.125,2|2,3:2|0:0,0:0:0:0:
462,257,89891,2,0,P|435:214|442:164,1,103.125,2|2,0:0|0:0,0:0:0:0:
477,89,90534,1,2,0:0:0:0:
367,100,90962,6,0,L|261:112,1,103.125,2|2,0:0|0:0,0:0:0:0:
190,74,91605,1,2,0:0:0:0:
107,81,91927,1,2,0:0:0:0:
57,146,92248,2,0,P|74:177|81:211,1,68.75,2|0,0:0|0:0,0:0:0:0:
76,264,92677,70,0,P|115:253|177:279,1,103.125,2|2,3:2|0:0,0:0:0:0:
243,233,93320,2,0,P|282:244|344:218,1,103.125,2|2,0:0|0:0,0:0:0:0:
372,147,93962,2,0,L|357:78,1,68.75,2|8,0:0|0:0,0:0:0:0:
312,47,94391,6,0,P|273:36|211:62,1,103.125,2|2,0:0|0:0,0:0:0:0:
136,35,95034,2,0,L|148:137,1,103.125,2|2,0:0|0:0,0:0:0:0:
232,178,95677,1,2,0:3:0:0:
232,178,95891,1,10,0:0:0:0:
232,178,96105,70,0,L|220:280,1,103.125,6|2,3:2|0:0,0:0:0:0:
297,305,96748,2,0,L|309:203,1,103.125,2|2,0:0|0:0,0:0:0:0:
291,121,97391,1,2,0:0:0:0:
386,66,97820,6,0,P|423:65|468:108,1,103.125,2|2,0:0|0:0,0:0:0:0:
509,182,98462,1,2,0:0:0:0:
493,263,98784,1,2,0:0:0:0:
428,314,99105,2,0,P|392:305|358:303,1,68.75,2|8,0:0|0:0,0:0:0:0:
322,343,99534,70,0,P|285:370|214:361,1,103.125,2|2,3:2|0:0,0:0:0:0:
150,345,100177,2,0,P|119:310|122:238,1,103.125,2|2,0:0|0:0,0:0:0:0:
135,175,100820,1,2,0:0:0:0:
241,200,101248,6,0,P|291:204|335:179,1,103.125,2|2,0:0|0:0,0:0:0:0:
317,99,101891,2,0,P|266:94|222:119,1,103.125,2|2,0:0|0:0,0:0:0:0:
144,93,102534,2,0,P|108:97|65:84,1,68.75,2|0,0:0|0:0,0:0:0:0:
31,120,102962,70,0,P|38:171|41:222,1,103.125,2|2,3:2|0:0,0:0:0:0:
121,243,103605,2,0,P|113:294|111:345,1,103.125,2|2,0:0|0:0,0:0:0:0:
187,377,104248,1,2,0:0:0:0:
269,303,104677,6,0,P|317:322|366:309,1,103.125,2|2,0:0|0:0,0:0:0:0:
436,266,105320,2,0,P|454:218|441:169,1,103.125,2|2,0:0|0:0,0:0:0:0:
375,121,105962,2,0,L|305:129,1,68.75,2|0,0:0|0:0,0:0:0:0:
261,96,106391,70,0,P|214:77|152:95,1,103.125,2|2,3:2|0:0,0:0:0:0:
126,160,107034,1,2,0:0:0:0:
149,238,107355,1,2,0:0:0:0:
227,262,107677,2,0,P|265:266|298:256,1,68.75,2|8,0:0|0:0,0:0:0:0:
345,238,108105,6,0,L|332:340,1,103.125,2|2,0:0|0:0,0:0:0:0:
412,359,108748,2,0,L|425:257,1,103.125,2|2,0:0|0:0,0:0:0:0:
443,176,109391,1,2,0:0:0:0:
443,176,109605,1,0,0:0:0:0:
443,176,109820,38,0,B|390:164|390:164|339:184|339:184|285:171,1,165,4|0,3:2|0:0,0:0:0:0:
246,149,110677,2,0,P|266:200|251:251,1,110,8|0,0:3|0:0,0:0:0:0:
213,274,111320,2,0,L|102:263,1,110,0|0,0:0|3:0,0:0:0:0:
59,260,111962,1,0,3:0:0:0:
45,347,112391,2,0,L|209:363,1,165,8|8,0:3|0:0,0:0:0:0:
249,344,113248,6,0,B|233:291|233:291|253:240,1,110,0|0,3:0|0:0,0:0:0:0:
315,177,114105,2,0,P|345:176|368:167,1,55,8|0,0:0|3:0,0:0:0:0:
403,141,114534,2,0,P|418:91|283:44,1,220,0|0,3:0|3:0,0:0:0:0:
207,18,115820,2,0,P|211:66|213:133,1,110,8|0,0:3|0:0,0:0:0:0:
281,181,116677,70,0,B|226:172|226:172|177:194|177:194|123:185,1,165,0|0,3:0|0:0,0:0:0:0:
86,158,117534,2,0,B|102:211|102:211|84:262,1,110,8|0,0:3|0:0,0:0:0:0:
66,303,118177,2,0,L|175:297,1,110,8|0,0:0|3:0,0:0:0:0:
219,295,118820,1,0,3:0:0:0:
300,327,119248,1,8,0:3:0:0:
300,327,119462,2,0,L|409:321,1,110,2|2,0:0|0:0,0:0:0:0:
448,300,120105,6,0,P|463:248|441:199,1,110,0|0,3:0|0:0,0:0:0:0:
405,173,120748,1,0,0:0:0:0:
405,173,120962,2,0,P|352:160|304:185,1,110,8|0,0:3|0:0,0:0:0:0:
279,220,121605,1,8,0:0:0:0:
192,200,122034,1,0,3:0:0:0:
192,200,122248,2,0,L|202:145,2,55,0|8|8,3:0|0:0|0:3,0:0:0:0:
152,220,122891,1,8,0:0:0:0:
152,220,123105,2,0,L|157:274,1,55,2|8,0:3|0:0,0:0:0:0:
165,318,123534,69,2,0:0:0:0:
165,318,125462,1,0,3:0:0:0:
165,318,125677,1,0,3:0:0:0:
214,245,126105,1,8,0:3:0:0:
214,245,126320,2,0,P|267:234|319:257,1,110,2|2,0:0|0:0,0:0:0:0:
324,212,126962,6,0,L|335:103,1,110,0|0,3:0|0:0,0:0:0:0:
304,70,127605,1,0,0:0:0:0:
304,70,127820,2,0,B|250:84|250:84|202:56,1,110,8|0,0:3|0:0,0:0:0:0:
163,37,128462,2,0,P|112:56|93:104,1,110,8|0,0:0|3:0,0:0:0:0:
96,148,129105,1,0,3:0:0:0:
144,222,129534,2,0,L|253:208,1,110,8|8,0:3|0:0,0:0:0:0:
287,235,130177,1,8,0:0:0:0:
287,235,130391,70,0,B|268:286|268:286|290:337,1,110,0|0,3:0|0:0,0:0:0:0:
331,353,131034,1,0,0:0:0:0:
331,353,131248,2,0,L|440:339,1,110,8|0,0:3|0:0,0:0:0:0:
479,318,131891,2,0,B|498:267|498:267|476:216,1,110,8|0,0:0|3:0,0:0:0:0:
454,177,132534,1,0,3:0:0:0:
378,225,132962,2,0,P|318:248|261:176,1,165,8|0,0:3|0:0,0:0:0:0:
248,136,133820,6,0,P|240:196|222:299,1,165,0|0,3:0|0:0,0:0:0:0:
211,341,134677,1,8,0:3:0:0:
125,361,135105,1,0,0:0:0:0:
125,361,135320,2,0,P|74:340|23:358,1,110,8|0,0:0|3:0,0:0:0:0:
35,314,135962,2,0,L|65:206,1,110,0|8,3:0|0:3,0:0:0:0:
36,173,136605,1,8,0:0:0:0:
36,173,136820,1,2,0:3:0:0:
26,85,137248,69,4,0:0:0:0:
