osu file format v14

[General]
AudioFilename: audio.mp3
AudioLeadIn: 0
PreviewTime: 81105
Countdown: 0
SampleSet: Soft
StackLeniency: 0.3
Mode: 0
LetterboxInBreaks: 0
WidescreenStoryboard: 1

[Editor]
DistanceSpacing: 1.1
BeatDivisor: 4
GridSize: 4
TimelineZoom: 3.5

[Metadata]
Title:For You (Ft. Melissa Hayes)
TitleUnicode:For You (Ft. Melissa Hayes)
Artist:Said The Sky
ArtistUnicode:Said The Sky
Creator:Bearizm
Version:Nightfall
Source:
Tags:EDM Chill Melodic Trap
BeatmapID:1772632
BeatmapSetID:847645

[Difficulty]
HPDrainRate:6.5
CircleSize:4.2
OverallDifficulty:8.5
ApproachRate:9.1
SliderMultiplier:1.8
SliderTickRate:2

[Events]
//Background and Video events
0,0,"BG.jpg",0,0
//Break Periods
//Storyboard Layer 0 (Background)
//Storyboard Layer 1 (Fail)
//Storyboard Layer 2 (Pass)
//Storyboard Layer 3 (Foreground)
//Storyboard Sound Samples

[TimingPoints]
13820,428.571428571429,4,2,1,30,1,0
24962,-100,4,2,1,70,0,0
25820,-100,4,2,1,60,0,0
26034,-100,4,2,1,55,0,0
26248,-100,4,2,1,50,0,0
26462,-100,4,2,1,45,0,0
26677,-100,4,2,1,40,0,0
26891,-100,4,2,1,30,0,0
27320,-100,4,2,1,50,0,0
27534,-66.6666666666667,4,2,2,70,0,0
36989,-66.6666666666667,4,2,2,30,0,0
37177,-66.6666666666667,4,2,2,70,0,0
41248,-100,4,2,2,50,0,0
42748,-400,4,2,2,70,0,0
43070,-400,4,2,2,5,0,0
43177,-66.6666666666667,4,2,2,70,0,0
43846,-66.6666666666667,4,2,2,30,0,0
44034,-66.6666666666667,4,2,2,70,0,0
47703,-66.6666666666667,4,2,2,30,0,0
47784,-66.6666666666667,4,2,2,70,0,0
47918,-66.6666666666667,4,2,2,30,0,0
47998,-66.6666666666667,4,2,2,70,0,0
54962,-100,4,2,2,20,0,0
63534,-100,4,2,2,30,0,0
65248,-100,4,2,2,40,0,0
66962,-100,4,2,2,50,0,0
68677,-400,4,2,2,50,0,0
68998,-400,4,2,2,5,0,0
69105,-400,4,2,2,50,0,0
69427,-400,4,2,2,5,0,0
69534,-400,4,2,2,50,0,0
69855,-400,4,2,2,5,0,0
69962,-400,4,2,2,50,0,0
70284,-400,4,2,2,5,0,0
70391,-400,4,2,2,50,0,0
70712,-400,4,2,2,5,0,0
70820,-400,4,2,2,50,0,0
71248,-100,4,2,2,50,0,0
71275,-100,4,2,2,30,0,0
71462,-100,4,2,2,50,0,0
72105,-400,4,2,2,50,0,0
72427,-400,4,2,2,5,0,0
72534,-400,4,2,2,50,0,0
72855,-400,4,2,2,5,0,0
72962,-400,4,2,2,50,0,0
73284,-400,4,2,2,5,0,0
73391,-400,4,2,2,50,0,0
73712,-400,4,2,2,5,0,0
73820,-400,4,2,2,50,0,0
74141,-400,4,2,2,5,0,0
74248,-400,4,2,2,50,0,0
74570,-400,4,2,2,5,0,0
74677,-400,4,2,2,50,0,0
74998,-400,4,2,2,5,0,0
75105,-400,4,2,2,50,0,0
75534,-100,4,2,2,50,0,0
79391,-100,4,2,2,40,0,0
79820,-100,4,2,2,30,0,0
80248,-100,4,2,2,20,0,0
81962,-100,4,2,2,50,0,0
82391,-57.1428571428571,4,2,2,80,0,1
83677,-200,4,2,2,80,0,1
83998,-200,4,2,2,5,0,1
84105,-57.1428571428571,4,2,2,80,0,1
87105,-200,4,2,2,80,0,1
87427,-200,4,2,2,5,0,1
87534,-57.1428571428571,4,2,2,80,0,1
95998,-57.1428571428571,4,2,2,80,0,0
96105,-57.1428571428571,4,2,2,80,0,1
97391,-200,4,2,2,80,0,1
97712,-200,4,2,2,5,0,1
97820,-57.1428571428571,4,2,2,80,0,1
100820,-200,4,2,2,80,0,1
101141,-200,4,2,2,5,0,1
101248,-57.1428571428571,4,2,2,80,0,1
109820,-100,4,2,2,70,0,0
109927,-100,4,2,2,60,0,0
116248,-200,4,2,2,60,0,0
116570,-200,4,2,2,5,0,0
116677,-100,4,2,2,60,0,0
119275,-100,4,2,2,30,0,0
119462,-100,4,2,2,60,0,0
123105,-200,4,2,2,60,0,0
123534,-100,4,2,2,60,0,0
125034,-400,4,2,2,70,0,0
125355,-400,4,2,2,5,0,0
125462,-66.6666666666667,4,2,2,70,0,0
126132,-66.6666666666667,4,2,2,30,0,0
126320,-66.6666666666667,4,2,2,70,0,0
129989,-66.6666666666667,4,2,2,30,0,0
130070,-66.6666666666667,4,2,2,70,0,0
130203,-66.6666666666667,4,2,2,30,0,0
130284,-66.6666666666667,4,2,2,70,0,0

[Colours]
Combo1 : 255,0,0
Combo2 : 192,192,192
Combo3 : 64,128,128
Combo4 : 128,255,255
Combo5 : 0,180,190
Combo6 : 119,187,255
Combo7 : 34,145,255

[HitObjects]
256,192,20677,12,8,24962,0:0:0:0:
228,329,25820,5,0,3:0:0:0:
162,259,26034,1,0,3:0:0:0:
205,178,26248,1,0,3:0:0:0:
299,193,26463,1,0,3:0:0:0:
313,287,26677,1,0,3:2:0:0:
283,101,26891,5,0,3:0:0:0:
281,83,26998,1,0,3:0:0:0:
380,102,27105,85,2,3:0:0:0:
378,119,27212,1,0,3:0:0:0:
375,137,27319,1,0,3:0:0:0:
373,155,27426,1,0,3:0:0:0:
433,208,27534,22,0,P|368:199|297:192,1,135.000005149842,4|0,3:2|0:0,0:0:0:0:
321,327,27855,2,0,P|340:263|313:204,1,135.000005149842,2|0,0:0|0:0,0:0:0:0:
183,279,28177,2,0,L|250:270,1,67.5000025749208,2|0,3:2|0:0,0:0:0:0:
158,103,28391,1,8,0:3:0:0:
158,103,28605,5,0,0:0:0:0:
158,103,28712,1,2,0:0:0:0:
189,130,28820,2,0,L|256:121,1,67.5000025749208,0|0,3:0|0:0,0:0:0:0:
427,143,29034,2,0,L|360:152,1,67.5000025749208,2|0,0:0|0:0,0:0:0:0:
304,289,29248,85,2,0:0:0:0:
302,309,29355,1,2,0:0:0:0:
241,228,29462,1,0,3:0:0:0:
243,208,29570,2,0,L|252:142,1,67.5000025749208,2|0,0:0|3:0,0:0:0:0:
95,240,29784,1,0,0:0:0:0:
98,260,29891,2,0,L|108:326,1,67.5000025749208,2|0,0:0|0:0,0:0:0:0:
304,289,30105,6,0,L|439:300,1,135.000005149842,8|0,0:3|0:0,0:0:0:0:
452,315,30427,1,2,0:0:0:0:
509,169,30534,2,0,L|441:173,1,67.5000025749208
427,187,30748,1,10,0:0:0:0:
427,187,30962,86,0,B|441:139|441:139|420:57,1,135.000005149842,0|0,3:0|0:0,0:0:0:0:
216,145,31284,2,0,L|350:137,1,135.000005149842,2|0,0:0|0:0,0:0:0:0:
210,164,31605,2,0,P|223:196|225:228,1,67.5000025749208,2|0,0:0|0:0,0:0:0:0:
212,350,31820,1,8,0:3:0:0:
212,350,32034,5,0,0:0:0:0:
191,353,32141,2,0,L|124:361,1,67.5000025749208,2|0,0:0|0:0,0:0:0:0:
15,191,32355,1,0,0:0:0:0:
35,193,32462,2,0,L|102:201,1,67.5000025749208,2|0,0:0|0:0,0:0:0:0:
116,186,32677,1,2,0:0:0:0:
116,186,32891,85,0,3:0:0:0:
128,170,32998,2,0,L|118:103,1,67.5000025749208,2|0,0:0|3:0,0:0:0:0:
272,21,33212,1,0,0:0:0:0:
269,41,33319,2,0,L|259:108,1,67.5000025749208,2|0,0:0|0:0,0:0:0:0:
217,335,33534,1,8,0:3:0:0:
217,335,33748,5,0,0:0:0:0:
163,275,33855,1,2,0:0:0:0:
243,258,33962,1,2,0:3:0:0:
243,258,34177,1,0,0:0:0:0:
200,136,34391,86,0,L|336:156,1,135.000005149842,0|0,3:0|0:0,0:0:0:0:
324,172,34712,2,0,L|312:36,1,135.000005149842,2|0,0:0|0:0,0:0:0:0:
464,80,35034,2,0,L|456:148,1,67.5000025749208,2|0,3:2|0:0,0:0:0:0:
432,348,35248,1,8,0:3:0:0:
432,348,35462,5,0,0:0:0:0:
432,348,35570,1,2,0:0:0:0:
408,316,35677,2,0,L|340:328,1,67.5000025749208,0|0,3:0|0:0,0:0:0:0:
216,203,35891,2,0,L|284:215,1,67.5000025749208,10|0,0:0|0:0,0:0:0:0:
456,147,36105,86,0,P|444:83|364:67,1,135.000005149842,2|0,0:0|3:0,0:0:0:0:
365,67,36427,1,2,0:0:0:0:
367,162,36534,2,0,L|370:229,1,67.5000025749208,2|0,3:2|0:0,0:0:0:0:
361,0,36748,2,0,L|364:67,1,67.5000025749208,2|0,0:0|0:0,0:0:0:0:
456,147,36962,54,0,L|476:143,4,16.8750006437302,8|0|0|0|0,0:3|0:0|0:0|0:0|0:0,0:0:0:0:
298,118,37177,37,0,0:0:0:0:
279,113,37284,2,0,B|234:104|234:104|191:121|191:121|149:112,1,135.000005149842,2|0,0:0|0:0,0:0:0:0:
59,72,37605,2,0,P|50:101|52:137,1,67.5000025749208,2|0,0:0|0:0,0:0:0:0:
122,203,37820,1,0,3:0:0:0:
122,203,38034,5,0,0:0:0:0:
119,223,38141,2,0,L|101:356,1,135.000005149842,2|0,0:0|0:0,0:0:0:0:
266,328,38462,2,0,L|257:262,1,67.5000025749208,2|0,0:0|0:0,0:0:0:0:
230,58,38677,1,8,0:3:0:0:
143,206,38891,85,0,0:0:0:0:
122,203,38998,2,0,L|54:195,1,67.5000025749208,2|0,0:0|0:0,0:0:0:0:
184,368,39212,1,0,0:0:0:0:
204,364,39320,2,0,L|337:346,1,135.000005149842,10|2,0:0|0:0,0:0:0:0:
337,345,39748,5,0,3:0:0:0:
326,329,39855,2,0,P|314:302|314:264,1,67.5000025749208,2|0,0:0|3:0,0:0:0:0:
404,140,40070,1,0,0:0:0:0:
408,158,40177,2,0,P|410:187|397:223,1,67.5000025749208,2|0,0:0|0:0,0:0:0:0:
92,192,40391,1,8,0:3:0:0:
92,192,40605,85,8,0:0:0:0:
166,221,40712,1,2,0:0:0:0:
154,140,40820,1,2,0:3:0:0:
154,140,41034,1,8,0:0:0:0:
397,222,41248,5,0,0:0:0:0:
310,159,41462,1,0,0:0:0:0:
312,179,41570,2,0,L|316:268,1,90,2|0,0:0|0:0,0:0:0:0:
317,289,41891,1,2,0:0:0:0:
110,252,42105,85,8,0:3:0:0:
190,324,42320,1,0,0:0:0:0:
192,304,42428,2,0,L|201:172,1,90,2|0,0:0|0:0,0:0:0:0:
129,154,42748,6,0,L|92:159,1,33.75,8|0,0:1|0:0,0:0:0:0:
163,45,43177,85,0,3:0:0:0:
163,45,43284,1,2,0:0:0:0:
193,73,43391,2,0,L|261:65,1,67.5000025749208,0|0,3:0|0:0,0:0:0:0:
322,200,43605,2,0,P|310:170|313:131,1,67.5000025749208,2|0,0:0|0:0,0:0:0:0:
348,57,43820,54,0,L|365:54,4,16.8750006437302,8|0|0|0|0,0:3|0:0|0:0|0:0|0:0,0:0:0:0:
405,253,44034,53,0,0:0:0:0:
385,250,44141,2,0,L|250:233,1,135.000005149842,2|0,0:0|0:0,0:0:0:0:
166,182,44462,2,0,P|152:212|152:245,1,67.5000025749208,10|0,0:0|0:0,0:0:0:0:
214,321,44677,85,0,3:0:0:0:
214,321,44891,1,0,0:0:0:0:
211,340,44998,1,2,0:0:0:0:
232,374,45105,1,0,0:0:0:0:
385,250,45320,1,2,0:0:0:0:
166,182,45534,1,8,0:3:0:0:
284,19,45748,5,0,0:0:0:0:
284,19,45855,1,2,0:0:0:0:
277,58,45962,2,0,L|269:125,1,67.5000025749208
250,232,46177,1,10,0:0:0:0:
263,245,46391,85,2,0:0:0:0:
276,258,46605,6,0,L|344:249,1,67.5000025749208,0|2,3:0|0:0,0:0:0:0:
312,340,46820,2,0,L|246:349,1,67.5000025749208,0|0,3:0|0:0,0:0:0:0:
384,110,47034,86,0,L|451:119,1,67.5000025749208,2|0,0:0|0:0,0:0:0:0:
481,210,47248,2,0,L|413:201,1,67.5000025749208,8|0,0:3|0:0,0:0:0:0:
192,87,47462,5,0,0:0:0:0:
135,37,47570,1,2,0:0:0:0:
70,74,47677,1,10,0:0:0:0:
86,146,47784,1,2,0:0:0:0:
160,154,47891,1,10,0:0:0:0:
158,180,47998,1,0,0:0:0:0:
156,206,48105,1,0,3:0:0:0:
292,264,48320,85,0,0:0:0:0:
312,262,48427,2,0,L|448:250,1,135.000005149842,2|0,0:0|0:0,0:0:0:0:
426,167,48748,2,0,L|441:233,1,67.5000025749208,2|0,0:0|0:0,0:0:0:0:
391,2,48962,1,8,0:3:0:0:
323,118,49177,5,0,0:0:0:0:
323,118,49284,1,2,0:0:0:0:
288,139,49391,2,0,L|221:131,1,67.5000025749208
378,256,49605,2,0,L|445:249,1,67.5000025749208,10|0,0:0|0:0,0:0:0:0:
277,366,49820,85,2,0:0:0:0:
277,366,50034,1,0,3:0:0:0:
277,366,50141,1,2,0:0:0:0:
257,332,50248,2,0,L|190:324,1,67.5000025749208,0|0,3:0|0:0,0:0:0:0:
50,243,50462,2,0,L|117:251,1,67.5000025749208,2|0,0:0|0:0,0:0:0:0:
200,36,50677,6,0,L|184:172,1,135.000005149842,8|0,0:3|0:0,0:0:0:0:
182,190,50998,1,2,0:0:0:0:
269,226,51105,2,0,P|299:217|336:216,1,67.5000025749208
82,91,51320,2,0,P|114:100|149:101,1,67.5000025749208,2|0,0:0|0:0,0:0:0:0:
358,39,51534,86,0,P|423:45|448:105,1,135.000005149842,0|0,3:0|0:0,0:0:0:0:
381,173,51855,2,0,B|336:164|336:164|295:183|295:183|251:177,1,135.000005149842,2|0,0:0|0:0,0:0:0:0:
170,122,52177,2,0,P|155:152|154:186,1,67.5000025749208,2|0,0:0|0:0,0:0:0:0:
259,87,52391,1,8,0:3:0:0:
352,255,52605,5,0,0:0:0:0:
350,275,52712,2,0,L|343:344,1,67.5000025749208,2|0,0:0|0:0,0:0:0:0:
154,186,52927,1,0,0:0:0:0:
156,206,53034,2,0,L|163:275,1,67.5000025749208,10|0,0:0|0:0,0:0:0:0:
370,93,53248,1,0,0:0:0:0:
370,93,53462,85,0,3:0:0:0:
368,113,53569,2,0,L|361:182,1,67.5000025749208,2|0,0:0|3:0,0:0:0:0:
132,19,53784,1,0,0:0:0:0:
134,39,53891,2,0,L|141:108,1,67.5000025749208,2|0,0:0|0:0,0:0:0:0:
173,358,54105,1,8,0:3:0:0:
173,358,54320,5,0,0:0:0:0:
236,307,54427,1,2,0:0:0:0:
162,273,54534,1,2,0:3:0:0:
162,273,54748,1,0,0:0:0:0:
256,44,54962,53,6,3:2:0:0:
342,72,55284,1,2,0:0:0:0:
342,162,55605,1,2,0:0:0:0:
256,190,55927,1,2,0:0:0:0:
204,117,56248,1,2,0:0:0:0:
24,187,56677,5,2,0:0:0:0:
60,343,56998,1,2,0:0:0:0:
101,209,57320,1,2,0:0:0:0:
120,288,57641,1,2,0:0:0:0:
178,233,57962,1,2,0:0:0:0:
502,206,58391,85,2,0:0:0:0:
346,155,58712,1,2,0:0:0:0:
424,181,59034,1,2,0:0:0:0:
191,107,59355,1,2,0:0:0:0:
268,131,59677,1,2,0:0:0:0:
268,131,60105,5,2,0:0:0:0:
191,107,60427,1,2,0:0:0:0:
424,181,60748,1,2,0:0:0:0:
346,157,61070,1,2,0:0:0:0:
502,206,61391,1,2,0:0:0:0:
256,360,61605,85,2,0:0:0:0:
252,342,61712,1,2,0:0:0:0:
248,324,61820,1,2,0:0:0:0:
224,248,62141,1,2,0:0:0:0:
304,264,62462,1,2,0:0:0:0:
277,187,62784,1,2,0:0:0:0:
356,201,62998,1,0,0:0:0:0:
356,201,63105,1,2,0:0:0:0:
103,62,63534,5,2,0:0:0:0:
188,180,63748,1,0,0:0:0:0:
188,180,63855,1,2,0:0:0:0:
188,34,64177,1,2,0:0:0:0:
103,152,64498,1,2,0:0:0:0:
241,107,64712,1,0,0:0:0:0:
241,107,64820,1,2,0:0:0:0:
399,338,65248,85,2,0:0:0:0:
180,286,65462,1,0,0:0:0:0:
180,286,65570,1,2,0:0:0:0:
389,207,65784,1,0,0:0:0:0:
389,207,65891,1,2,0:0:0:0:
178,131,66212,1,2,0:0:0:0:
281,362,66427,1,0,0:0:0:0:
281,362,66534,1,2,0:0:0:0:
256,192,66962,5,2,0:0:0:0:
121,136,67177,85,0,0:0:0:0:
100,127,67284,1,2,0:0:0:0:
390,247,67498,1,0,0:0:0:0:
411,256,67605,1,2,0:0:0:0:
121,247,67820,5,0,0:0:0:0:
100,256,67927,1,2,0:0:0:0:
390,136,68141,1,0,0:0:0:0:
411,127,68248,1,2,0:3:0:0:
252,4,68462,85,2,0:0:0:0:
246,21,68570,1,2,0:0:0:0:
268,108,68677,6,0,L|275:144,1,33.75,12|0,3:2|0:0,0:0:0:0:
310,323,69105,2,0,L|303:287,1,33.75,8|0,0:0|0:0,0:0:0:0:
371,145,69534,86,0,L|343:169,1,33.75,8|0,0:0|0:0,0:0:0:0:
205,288,69962,2,0,L|232:263,1,33.75,8|0,0:0|0:0,0:0:0:0:
393,251,70391,6,0,L|358:239,1,33.75,8|0,0:0|0:0,0:0:0:0:
184,178,70820,2,0,L|168:182,1,11.25,10|0,0:0|0:0,0:0:0:0:
371,145,71034,2,0,L|354:148,1,11.25,2|0,0:0|0:0,0:0:0:0:
97,199,71248,70,0,L|81:197,8,11.25,8|0|0|0|0|0|0|0|2,0:0|0:0|0:0|0:0|0:0|0:0|0:0|0:0|0:0,0:0:0:0:
288,214,71677,5,8,0:0:0:0:
181,3,71891,1,2,0:0:0:0:
182,21,71998,1,0,0:0:0:0:
191,99,72105,6,0,L|194:137,1,33.75,8|0,0:0|0:0,0:0:0:0:
208,266,72534,2,0,L|211:304,1,33.75,8|0,0:0|0:0,0:0:0:0:
305,174,72962,86,0,L|307:207,1,33.75,8|0,0:0|0:0,0:0:0:0:
322,340,73391,2,0,L|324:373,1,33.75,8|0,0:0|0:0,0:0:0:0:
403,85,73820,6,0,L|406:123,1,33.75,8|0,0:0|0:0,0:0:0:0:
420,252,74249,2,0,L|423:290,1,33.75,8|0,0:0|0:0,0:0:0:0:
305,174,74677,86,0,L|308:212,1,33.75,8|0,0:0|0:0,0:0:0:0:
322,341,75105,1,8,0:0:0:0:
296,92,75320,5,8,0:0:0:0:
296,92,75427,1,8,0:0:0:0:
296,92,75534,1,8,0:0:0:0:
149,207,75748,1,8,0:0:0:0:
322,276,75962,1,8,0:0:0:0:
281,70,76177,85,8,0:0:0:0:
281,70,76284,1,8,0:0:0:0:
281,70,76391,1,8,0:0:0:0:
138,230,76605,1,8,0:0:0:0:
348,274,76819,1,8,0:0:0:0:
260,52,77034,5,8,0:0:0:0:
260,52,77141,1,8,0:0:0:0:
260,52,77248,1,8,0:0:0:0:
132,258,77462,1,8,0:0:0:0:
374,265,77676,1,8,0:0:0:0:
233,37,77891,85,8,0:0:0:0:
233,37,77998,1,8,0:0:0:0:
233,37,78105,1,8,0:0:0:0:
133,288,78319,1,8,0:0:0:0:
401,250,78533,1,8,0:0:0:0:
202,28,78748,5,8,0:0:0:0:
202,28,78855,1,8,0:0:0:0:
202,28,78962,85,8,0:0:0:0:
205,50,79069,1,8,0:0:0:0:
208,72,79176,1,8,0:0:0:0:
210,95,79283,1,8,0:0:0:0:
107,112,79391,5,8,0:0:0:0:
104,134,79498,1,8,0:0:0:0:
101,156,79605,1,8,0:0:0:0:
99,179,79712,1,8,0:0:0:0:
224,195,79819,85,8,0:0:0:0:
227,217,79926,1,8,0:0:0:0:
230,239,80033,1,8,0:0:0:0:
232,262,80140,1,8,0:0:0:0:
85,279,80248,5,8,0:0:0:0:
82,301,80355,1,8,0:0:0:0:
79,323,80462,1,8,0:0:0:0:
77,346,80569,1,8,0:0:0:0:
77,346,81962,85,2,0:3:0:0:
77,346,82391,54,0,L|64:189,1,157.500001502037,6|0,3:2|0:0,0:0:0:0:
142,145,82712,2,0,L|155:302,1,157.500001502037,2|0,0:0|0:0,0:0:0:0:
222,348,83034,2,0,P|255:336|298:339,1,78.7500007510185,2|0,0:0|0:0,0:0:0:0:
374,358,83248,1,8,0:3:0:0:
365,126,83355,2,0,L|352:282,1,157.500001502037,2|0,0:0|0:0,0:0:0:0:
218,176,83677,22,0,L|226:243,1,67.5,2|0,0:0|0:0,0:0:0:0:
217,250,84105,86,0,L|226:172,1,78.7500007510185,2|0,0:0|0:0,0:0:0:0:
79,33,84320,1,0,3:0:0:0:
79,33,84427,1,2,0:0:0:0:
94,110,84534,2,0,L|103:188,1,78.7500007510185,0|0,3:0|0:0,0:0:0:0:
266,86,84748,2,0,B|229:74|229:74|191:84,1,78.7500007510185,2|0,0:0|0:0,0:0:0:0:
175,91,84962,1,8,0:3:0:0:
312,164,85070,2,0,L|468:144,1,157.500001502037,2|0,0:0|0:0,0:0:0:0:
233,254,85391,2,0,L|154:244,1,78.7500007510185,2|0,0:0|0:0,0:0:0:0:
321,342,85605,2,0,L|400:332,1,78.7500007510185,8|0,0:0|0:0,0:0:0:0:
70,366,85820,86,0,B|54:247|54:247|36:280,1,157.500001502037,2|0,3:2|0:0,0:0:0:0:
118,59,86141,2,0,B|102:178|102:178|84:145,1,157.500001502037,2|0,0:0|0:0,0:0:0:0:
154,244,86462,2,0,P|190:237|233:254,1,78.7500007510185,2|0,0:0|0:0,0:0:0:0:
376,308,86677,1,8,0:3:0:0:
307,353,86784,2,0,B|299:291|299:291|312:262|312:262|304:199,1,157.500001502037,2|0,0:0|0:0,0:0:0:0:
274,119,87105,22,0,P|243:132|224:159,1,67.5,2|0,0:0|0:0,0:0:0:0:
359,135,87534,86,0,L|440:124,1,78.7500007510185,2|0,0:0|0:0,0:0:0:0:
512,267,87748,1,0,3:0:0:0:
512,267,87855,1,2,0:0:0:0:
453,319,87962,2,0,L|372:307,1,78.7500007510185,0|0,3:0|0:0,0:0:0:0:
208,368,88177,2,0,B|246:380|246:380|284:368,1,78.7500007510185,2|0,0:0|0:0,0:0:0:0:
306,361,88391,1,8,0:3:0:0:
172,220,88498,2,0,L|184:384,1,157.500001502037,2|0,0:0|0:0,0:0:0:0:
316,180,88820,2,0,L|309:260,1,78.7500007510185,2|0,0:0|0:0,0:0:0:0:
165,141,89034,2,0,L|171:219,1,78.7500007510185,8|0,0:0|0:0,0:0:0:0:
327,86,89248,86,0,B|283:79|252:108|252:108|236:68|200:56,1,157.500001502037,2|0,3:2|0:0,0:0:0:0:
81,163,89570,2,0,P|135:204|165:141,1,157.500001502037,2|0,0:0|0:0,0:0:0:0:
107,11,89891,2,0,B|93:48|93:48|103:86,1,78.7500007510185,2|0,0:0|0:0,0:0:0:0:
164,141,90105,1,8,0:3:0:0:
315,76,90212,2,0,B|199:55|199:55|232:34,1,157.500001502037,2|0,0:0|0:0,0:0:0:0:
248,29,90534,2,0,L|251:109,1,78.7500007510185,2|0,0:0|0:0,0:0:0:0:
318,258,90748,2,0,L|315:179,1,78.7500007510185,8|0,0:0|0:0,0:0:0:0:
472,136,90962,6,0,B|433:142|433:142|396:129,1,78.7500007510185,2|0,0:0|0:0,0:0:0:0:
441,62,91177,1,0,3:0:0:0:
441,62,91284,1,2,0:0:0:0:
427,219,91391,2,0,L|423:299,1,78.7500007510185,0|0,3:0|0:0,0:0:0:0:
318,258,91605,2,0,L|315:179,1,78.7500007510185,2|0,0:0|0:0,0:0:0:0:
0,193,91820,1,8,0:3:0:0:
62,243,91927,2,0,L|219:231,1,157.500001502037,2|0,0:0|0:0,0:0:0:0:
258,108,92248,2,0,L|182:128,1,78.7500007510185,2|0,0:0|0:0,0:0:0:0:
14,116,92462,2,0,L|90:136,1,78.7500007510185
131,28,92677,86,0,L|141:186,1,157.500001502037,2|0,3:2|0:0,0:0:0:0:
258,108,92998,2,0,L|237:265,1,157.500001502037,2|0,0:0|0:0,0:0:0:0:
377,254,93320,2,0,L|337:322,1,78.7500007510185,2|0,0:0|0:0,0:0:0:0:
7,279,93534,1,8,0:3:0:0:
83,263,93641,2,0,B|136:254|136:254|184:271|184:271|238:263,1,157.500001502037,2|0,0:0|0:0,0:0:0:0:
258,108,93962,2,0,B|245:144|245:144|257:183,1,78.7500007510185,2|0,0:0|0:0,0:0:0:0:
306,384,94177,2,0,B|318:347|318:347|307:309,1,78.7500007510185,10|0,0:0|0:0,0:0:0:0:
415,235,94391,6,0,L|336:228,1,78.7500007510185,2|0,0:0|0:0,0:0:0:0:
258,108,94605,1,0,3:0:0:0:
258,108,94712,1,2,0:0:0:0:
157,270,94820,2,0,L|236:263,1,78.7500007510185,0|0,3:0|0:0,0:0:0:0:
101,93,95034,2,0,L|257:107,1,157.500001502037,2|8,0:0|0:3,0:0:0:0:
318,57,95355,1,2,0:0:0:0:
334,209,95462,2,0,B|322:172|322:172|333:134,1,78.7500007510185,8|0,0:0|0:0,0:0:0:0:
501,132,95677,2,0,B|513:169|513:169|502:207,1,78.7500007510185,2|0,0:3|0:0,0:0:0:0:
422,329,95891,1,10,0:0:0:0:
420,250,95998,1,2,0:0:0:0:
418,171,96105,86,0,L|412:13,1,157.500001502037,6|0,3:2|0:0,0:0:0:0:
280,212,96427,2,0,L|328:61,1,157.500001502037,2|0,0:0|0:0,0:0:0:0:
154,153,96748,2,0,L|215:101,1,78.7500007510185,2|0,0:0|0:0,0:0:0:0:
248,30,96962,1,8,0:3:0:0:
10,61,97070,2,0,L|167:39,1,157.500001502037,2|0,0:0|0:0,0:0:0:0:
214,102,97391,22,0,L|204:173,1,67.5,2|0,0:0|0:0,0:0:0:0:
259,226,97820,86,0,L|337:215,1,78.7500007510185,2|0,0:0|0:0,0:0:0:0:
275,342,98034,1,0,3:0:0:0:
275,342,98141,1,2,0:0:0:0:
197,330,98248,2,0,L|118:319,1,78.7500007510185,0|0,3:0|0:0,0:0:0:0:
257,150,98462,2,0,B|269:187|269:187|259:225,1,78.7500007510185,2|0,0:0|0:0,0:0:0:0:
252,249,98677,1,8,0:3:0:0:
16,200,98784,2,0,L|176:192,1,157.500001502037,2|0,0:0|0:0,0:0:0:0:
79,76,99105,2,0,B|69:114|69:114|81:151,1,78.7500007510185,2|0,0:0|0:0,0:0:0:0:
110,318,99320,2,0,B|122:281|122:281|112:243,1,78.7500007510185,8|0,0:0|0:0,0:0:0:0:
330,200,99534,86,0,L|170:192,1,157.500001502037,2|0,3:2|0:0,0:0:0:0:
255,117,99855,2,0,L|247:277,1,157.500001502037,2|0,0:0|0:0,0:0:0:0:
375,282,100177,2,0,L|455:286,1,78.7500007510185,2|0,0:0|0:0,0:0:0:0:
477,288,100391,1,8,0:3:0:0:
410,362,100498,2,0,L|418:205,1,157.500001502037,2|0,0:0|0:0,0:0:0:0:
347,44,100820,22,0,L|343:114,1,67.5,2|0,0:0|0:0,0:0:0:0:
256,184,101248,86,0,L|176:172,1,78.7500007510185,2|0,0:0|0:0,0:0:0:0:
344,280,101462,1,0,3:0:0:0:
344,280,101570,1,2,0:0:0:0:
268,268,101677,2,0,L|188:256,1,78.7500007510185,0|0,3:0|0:0,0:0:0:0:
16,240,101891,86,0,L|96:228,1,78.7500007510185,2|0,0:0|0:0,0:0:0:0:
117,224,102105,1,8,0:3:0:0:
4,324,102212,2,0,L|164:300,1,157.500001502037,2|0,0:0|0:0,0:0:0:0:
191,98,102534,6,0,P|175:128|179:175,1,78.7500007510185,2|0,0:0|0:0,0:0:0:0:
238,288,102748,2,0,P|262:311|309:319,1,78.7500007510185
512,168,102962,86,0,B|440:140|440:204|360:168,1,157.500001502037,2|0,3:2|0:0,0:0:0:0:
442,94,103284,2,0,L|426:258,1,157.500001502037,2|0,0:0|0:0,0:0:0:0:
272,132,103605,2,0,L|280:214,1,78.7500007510185,2|0,0:0|0:0,0:0:0:0:
283,234,103820,1,8,0:3:0:0:
188,185,103927,2,0,P|112:189|76:125,1,157.500001502037,2|0,0:0|0:0,0:0:0:0:
81,102,104248,2,0,P|97:136|94:180,1,78.7500007510185,2|0,0:0|0:0,0:0:0:0:
19,328,104462,2,0,P|16:290|33:254,1,78.7500007510185,8|0,0:0|0:0,0:0:0:0:
168,370,104677,6,0,P|138:345|124:309,1,78.7500007510185,2|0,0:0|0:0,0:0:0:0:
211,295,104891,1,0,3:0:0:0:
211,295,104998,1,2,0:0:0:0:
253,218,105105,2,0,P|283:243|297:279,1,78.7500007510185,0|0,3:0|0:0,0:0:0:0:
449,299,105320,2,0,P|410:295|374:311,1,78.7500007510185,2|0,0:0|0:0,0:0:0:0:
310,356,105534,1,8,0:3:0:0:
370,211,105641,2,0,L|434:67,1,157.500001502037,2|0,0:0|0:0,0:0:0:0:
306,0,105962,2,0,L|326:76,1,78.7500007510185,2|0,0:0|0:0,0:0:0:0:
186,114,106177,2,0,L|257:146,1,78.7500007510185
155,246,106391,86,0,P|75:259|27:198,1,157.500001502037,2|0,3:2|0:0,0:0:0:0:
59,74,106712,2,0,P|139:61|187:122,1,157.500001502037,2|0,0:0|0:0,0:0:0:0:
252,236,107034,2,0,P|247:198|269:163,1,78.7500007510185,2|0,0:0|0:0,0:0:0:0:
469,288,107248,1,8,0:3:0:0:
391,274,107355,2,0,L|236:248,1,157.500001502037,2|0,0:0|0:0,0:0:0:0:
175,377,107677,2,0,B|189:340|189:340|175:304,1,78.7500007510185,2|0,0:0|0:0,0:0:0:0:
171,115,107891,2,0,B|157:152|157:152|171:188,1,78.7500007510185,8|0,0:0|0:0,0:0:0:0:
29,261,108105,6,0,L|108:250,1,78.7500007510185,2|0,0:0|0:0,0:0:0:0:
175,377,108320,1,0,3:0:0:0:
175,377,108427,1,2,0:0:0:0:
313,261,108534,2,0,L|236:248,1,78.7500007510185,0|0,3:0|0:0,0:0:0:0:
348,85,108748,2,0,L|193:111,1,157.500001502037,2|8,0:0|0:3,0:0:0:0:
123,73,109070,1,2,0:0:0:0:
125,151,109177,2,0,B|139:186|139:186|130:226,1,78.7500007510185,8|0,0:0|0:0,0:0:0:0:
183,366,109391,2,0,B|169:331|169:331|178:291,1,78.7500007510185,2|0,0:3|0:0,0:0:0:0:
366,246,109605,1,10,0:0:0:0:
442,229,109712,1,2,0:0:0:0:
443,342,109820,54,0,L|264:324,1,180,4|0,3:2|0:0,0:0:0:0:
166,217,110462,1,0,0:0:0:0:
256,103,110677,2,0,P|297:88|339:103,1,90,8|0,0:3|0:0,0:0:0:0:
468,39,111105,2,0,L|452:219,1,180
332,299,111748,1,0,3:0:0:0:
232,195,111962,6,0,B|189:205|189:205|146:191,1,90,0|0,3:0|0:0,0:0:0:0:
198,56,112391,1,8,0:3:0:0:
55,77,112605,1,0,0:0:0:0:
58,59,112712,1,0,0:0:0:0:
61,41,112820,1,0,0:0:0:0:
35,222,113034,1,8,0:0:0:0:
237,178,113248,86,0,P|288:175|326:280,1,180,0|0,3:0|0:0,0:0:0:0:
210,365,113891,1,0,0:0:0:0:
86,292,114105,1,8,0:3:0:0:
158,78,114320,1,0,3:0:0:0:
158,78,114534,2,0,L|170:257,1,180,0|0,3:0|0:0,0:0:0:0:
300,318,115177,5,0,0:0:0:0:
300,318,115284,1,0,0:0:0:0:
300,318,115391,1,0,3:0:0:0:
460,232,115605,1,0,0:0:0:0:
280,207,115820,1,8,0:3:0:0:
411,333,116034,1,0,0:0:0:0:
381,162,116248,86,0,L|370:95,1,67.5
370,95,116677,6,0,B|311:82|311:82|254:104|254:104|195:92,1,180,0|0,3:0|0:0,0:0:0:0:
55,61,117320,1,0,0:0:0:0:
71,203,117534,2,0,L|89:382,1,180,8|0,0:3|0:0,0:0:0:0:
224,241,118177,2,0,L|212:334,1,90,8|0,0:0|0:0,0:0:0:0:
361,247,118605,1,0,3:0:0:0:
361,247,118820,2,0,L|354:203,1,45,0|0,3:0|0:0,0:0:0:0:
365,59,119034,2,0,L|358:103,1,45
431,159,119248,38,0,L|448:156,4,11.25,8|0|0|0|0,0:3|0:0|0:0|0:0|0:0,0:0:0:0:
283,148,119462,38,0,B|224:135|224:135|167:157|167:157|108:145,1,180,2|2,0:0|0:0,0:0:0:0:
109,145,120105,5,0,3:0:0:0:
203,60,120320,2,0,L|187:242,1,180,2|2,0:0|0:0,0:0:0:0:
345,274,120962,2,0,P|300:268|261:288,1,90,8|2,0:3|0:0,0:0:0:0:
300,149,121391,1,0,0:0:0:0:
345,274,121605,2,0,P|377:314|417:230,1,180,8|0,0:0|3:0,0:0:0:0:
391,267,122248,2,0,L|408:178,1,90,0|8,3:0|0:0,0:0:0:0:
295,88,122677,85,8,0:3:0:0:
296,105,122891,1,8,0:0:0:0:
297,122,123105,2,0,L|288:166,1,45,2|8,0:3|0:0,0:0:0:0:
0,192,123534,5,2,0:0:0:0:
87,129,123748,1,0,0:0:0:0:
85,149,123855,2,0,L|78:238,1,90,2|0,0:0|0:0,0:0:0:0:
77,259,124177,1,2,0:0:0:0:
322,230,124391,85,8,0:3:0:0:
238,298,124605,1,0,0:0:0:0:
236,278,124712,2,0,L|230:188,1,90,2|0,0:0|0:0,0:0:0:0:
297,122,125034,6,0,L|334:127,1,33.75,8|0,0:1|0:0,0:0:0:0:
232,28,125462,85,0,3:0:0:0:
232,28,125570,1,2,0:0:0:0:
200,52,125677,2,0,L|132:44,1,67.5000025749208,0|0,3:0|0:0,0:0:0:0:
0,120,125891,2,0,L|68:112,1,67.5000025749208,2|0,0:0|0:0,0:0:0:0:
144,152,126105,54,0,L|148:168,4,16.8750006437302,8|0|0|0|0,0:3|0:0|0:0|0:0|0:0,0:0:0:0:
38,328,126320,53,0,0:0:0:0:
58,325,126427,2,0,L|191:308,1,135.000005149842,2|0,0:0|0:0,0:0:0:0:
240,169,126748,2,0,P|224:199|223:236,1,67.5000025749208,10|0,0:0|0:0,0:0:0:0:
275,299,126962,1,0,3:0:0:0:
275,299,127177,85,0,0:0:0:0:
295,305,127284,1,2,0:0:0:0:
333,294,127391,1,0,0:0:0:0:
141,235,127605,1,2,0:0:0:0:
354,146,127820,1,8,0:3:0:0:
220,12,128034,5,0,0:0:0:0:
220,12,128141,1,2,0:0:0:0:
195,45,128248,2,0,L|203:112,1,67.5000025749208
222,231,128462,1,10,0:0:0:0:
212,249,128677,85,2,0:0:0:0:
202,266,128891,6,0,L|136:257,1,67.5000025749208,0|2,3:0|0:0,0:0:0:0:
8,203,129105,2,0,L|74:212,1,67.5000025749208,0|0,3:0|0:0,0:0:0:0:
473,306,129320,86,0,L|407:297,1,67.5000025749208,2|0,0:0|0:0,0:0:0:0:
279,243,129534,2,0,L|345:252,1,67.5000025749208,8|0,0:3|0:0,0:0:0:0:
450,59,129748,5,2,0:0:0:0:
388,17,129855,1,2,0:0:0:0:
315,20,129962,1,10,0:0:0:0:
257,66,130069,1,2,0:0:0:0:
237,138,130177,1,10,0:0:0:0:
211,130,130284,1,0,0:0:0:0:
185,122,130391,85,0,3:0:0:0:
357,132,130605,1,0,0:0:0:0:
353,157,130712,2,0,L|343:291,1,135.000005149842,2|0,0:0|0:0,0:0:0:0:
184,251,131034,2,0,L|189:318,1,67.5000025749208,2|0,0:0|0:0,0:0:0:0:
334,367,131248,1,8,0:3:0:0:
512,226,131462,5,0,0:0:0:0:
512,226,131570,1,2,0:0:0:0:
480,250,131677,2,0,L|414:241,1,67.5000025749208
334,367,131891,2,0,L|268:358,1,67.5000025749208,10|0,0:0|0:0,0:0:0:0:
127,225,132105,86,0,P|145:166|224:157,1,135.000005149842,2|0,0:0|3:0,0:0:0:0:
228,160,132427,1,2,0:0:0:0:
222,66,132534,2,0,P|224:35|239:0,1,67.5000025749208,0|0,3:0|0:0,0:0:0:0:
328,99,132748,2,0,P|341:129|343:163,1,67.5000025749208,2|0,0:0|0:0,0:0:0:0:
245,266,132962,6,0,B|289:258|289:258|332:274|332:274|376:267,1,135.000005149842,8|0,0:3|0:0,0:0:0:0:
184,356,133284,2,0,L|48:344,1,135.000005149842,2|0,0:0|0:0,0:0:0:0:
164,196,133605,2,0,L|96:200,1,67.5000025749208,2|0,0:0|0:0,0:0:0:0:
12,208,133820,1,0,3:0:0:0:
191,57,134034,85,0,0:0:0:0:
189,77,134141,2,0,L|179:211,1,135.000005149842,2|0,0:0|0:0,0:0:0:0:
131,363,134462,2,0,P|162:374|195:369,1,67.5000025749208,2|0,0:0|0:0,0:0:0:0:
172,289,134677,1,8,0:3:0:0:
463,321,134891,5,0,0:0:0:0:
442,319,134998,2,0,L|374:311,1,67.5000025749208,2|0,0:0|0:0,0:0:0:0:
370,130,135212,1,0,0:0:0:0:
349,132,135319,2,0,L|281:140,1,67.5000025749208,10|0,0:0|0:0,0:0:0:0:
281,300,135534,1,0,0:0:0:0:
281,300,135748,85,0,3:0:0:0:
260,298,135855,2,0,L|192:290,1,67.5000025749208,2|0,0:0|3:0,0:0:0:0:
188,154,136069,1,0,0:0:0:0:
167,156,136176,2,0,L|99:164,1,67.5000025749208,2|0,0:0|0:0,0:0:0:0:
98,278,136391,1,8,0:3:0:0:
98,278,136605,5,0,0:0:0:0:
93,363,136712,1,2,0:0:0:0:
26,315,136819,1,2,0:3:0:0:
26,315,137033,1,0,0:0:0:0:
136,52,137248,85,4,0:0:0:0:
