osu file format v14

[General]
AudioFilename: audio.mp3
AudioLeadIn: 0
PreviewTime: 67287
Countdown: 0
SampleSet: Soft
StackLeniency: 0.5
Mode: 0
LetterboxInBreaks: 0
WidescreenStoryboard: 1

[Editor]
Bookmarks: 11841,40613,54134,67655,81176,94697
DistanceSpacing: 1.2
BeatDivisor: 4
GridSize: 32
TimelineZoom: 1

[Metadata]
Title:Change Your Mind (feat. Vancouver Sleep Clinic)
TitleUnicode:Change Your Mind (feat. Vancouver Sleep Clinic)
Artist:Said The Sky
ArtistUnicode:Said The Sky
Creator:Altai
Version:Normal
Source:
Tags:electronic chill drum english dance & edm Wide-Eyed fursum
BeatmapID:2144016
BeatmapSetID:1014338

[Difficulty]
HPDrainRate:3.5
CircleSize:3
OverallDifficulty:4
ApproachRate:5.5
SliderMultiplier:2.39999990463257
SliderTickRate:1

[Events]
//Background and Video events
0,0,"changeyourmind.jpg",0,0
//Break Periods
//Storyboard Layer 0 (Background)
//Storyboard Layer 1 (Fail)
//Storyboard Layer 2 (Pass)
//Storyboard Layer 3 (Foreground)
//Storyboard Layer 4 (Overlay)
//Storyboard Sound Samples

[TimingPoints]
3525,821.917808219178,4,2,1,40,1,0
5990,895.522388059701,4,2,1,40,1,0
6885,833.333333333333,4,2,1,40,1,0
10218,857.142857142857,4,2,1,40,1,0
11932,-133.333333333333,4,2,1,40,0,0
14289,-133.333333333333,4,2,1,5,0,0
14503,800,4,2,1,40,1,0
15303,-142.857142857143,4,2,1,40,0,0
16103,952.380952380952,4,2,1,40,1,0
16103,-125,4,2,1,40,0,0
17055,821.917808219178,4,2,1,40,1,0
17055,-133.333333333333,4,2,1,40,0,0
17671,-100,4,2,1,5,0,0
17876,-100,4,2,1,40,0,0
18693,967.741935483871,4,2,1,40,1,0
18693,-142.247510668563,4,2,1,40,0,0
19983,674.157303370787,4,2,1,40,1,0
20432,830.449826989619,4,2,1,40,1,0
20432,-133.333333333333,4,2,1,40,0,0
23753,843.28882642305,4,2,1,40,1,0
23753,-133.333333333333,4,2,1,40,0,0
26283,882.352941176471,4,2,1,40,1,0
26283,-128.205128205128,4,2,1,40,0,0
27165,851.063829787234,4,2,1,40,1,0
27165,-133.333333333333,4,2,1,40,0,0
28867,750,4,2,1,40,1,0
28867,-147.058823529412,4,2,1,40,0,0
29242,884.955752212389,4,2,1,40,1,0
29684,-121.951219512195,4,2,1,40,0,0
30569,827.586206896552,4,2,1,40,1,0
30569,-129.87012987013,4,2,1,40,0,0
31189,-100,4,2,1,5,0,0
31396,-100,4,2,1,40,0,0
32224,1038.96103896104,4,2,1,40,1,0
32224,-127.388535031847,4,2,1,40,0,0
33347,1212.12121212121,4,2,1,40,1,0
33953,800,4,2,1,40,1,0
33953,-136.986301369863,4,2,1,40,0,0
34753,845.070422535211,4,2,1,40,1,0
35596,857.142857142857,4,2,1,40,1,0
35596,-133.333333333333,4,2,1,40,0,0
36453,847.457627118644,4,2,1,40,1,0
36453,-142.857142857143,4,2,1,40,0,0
37300,-200,4,2,1,40,0,0
38995,800,4,2,1,40,1,0
39795,857.142857142857,4,2,1,40,1,0
40652,851.063829787234,4,2,1,40,1,0
41928,-200,4,2,1,40,0,0
42779,883.002207505519,4,2,1,40,1,0
44104,810.810810810811,4,2,1,40,1,0
45725,845.070422535211,4,2,1,40,1,0
45725,-200,4,2,1,40,0,0
46992,932.400932400932,4,2,1,40,1,0
46992,-190.47619047619,4,2,1,40,0,0
47458,845.070422535211,4,2,1,40,1,0
48725,821.917808219178,4,2,1,40,1,0
48725,-200,4,2,1,40,0,0
50368,882.352941176471,4,2,1,40,1,0
50809,845.070422535211,4,2,1,40,1,0
52921,-200,4,2,1,40,0,0
53555,-200,4,2,1,5,0,0
53766,-200,4,2,1,40,0,0
54189,-133.333333333333,4,2,2,50,0,0
60315,-133.333333333333,4,2,2,50,0,0
60527,-133.333333333333,4,2,2,50,0,0
64329,-133.333333333333,4,2,2,50,0,0
64330,-133.333333333333,4,2,3,20,0,0
67710,-111.111111111111,4,2,3,75,0,1
81231,-100,4,2,3,75,0,1
81548,-100,4,2,3,5,0,1
81654,-100,4,2,3,75,0,1
84928,-100,4,2,3,5,0,1
85034,-100,4,2,3,75,0,1
87041,-100,4,2,3,5,0,1
87146,-100,4,2,3,75,0,1
88308,-100,4,2,3,5,0,1
88414,-100,4,2,3,75,0,1
90421,-100,4,2,3,5,0,1
90527,-100,4,2,3,75,0,1
91689,-100,4,2,3,5,0,1
91794,-100,4,2,3,75,0,1
93907,-133.333333333333,4,2,3,75,0,1
94752,-200,4,2,3,40,0,0

[Colours]
Combo1 : 157,249,233
Combo2 : 121,144,207
Combo3 : 116,202,210
Combo4 : 59,96,192
Combo5 : 45,157,181

[HitObjects]
132,32,11932,6,0,P|187:20|227:41,1,89.9999998569489,2|0,0:0|0:0,0:0:0:0:
299,66,12789,2,0,P|341:79|389:64,1,89.9999998569489,0|0,0:0|0:0,0:0:0:0:
468,38,13646,6,0,B|475:114|475:114|487:136|487:136|493:217,1,179.999999713898,2|2,0:0|0:0,0:0:0:0:
371,346,15303,2,0,P|328:359|288:345,1,83.9999940986636,2|0,0:0|0:0,0:0:0:0:
234,286,16103,2,0,P|196:274|142:291,1,95.9999961853028,2|0,0:0|0:0,0:0:0:0:
67,360,17055,54,0,B|71:307|38:275|38:275|2:241|6:185,1,179.999999713898,2|2,0:0|0:0,0:0:0:0:
150,266,18693,2,0,P|250:221|220:117,1,224.999999642372,2|0,0:0|0:0,0:0:0:0:
138,88,20432,6,0,B|219:83|219:83|245:94|245:94|332:88,1,179.999999713898,2|0,0:0|0:0,0:0:0:0:
474,4,22092,2,0,L|462:206,1,179.999999713898,2|0,0:0|0:0,0:0:0:0:
372,334,23753,2,0,P|301:342|266:252,1,179.999999713898,2|0,0:0|0:0,0:0:0:0:
379,114,25439,54,0,P|348:98|279:113,1,89.9999998569489,2|0,0:0|0:0,0:0:0:0:
219,152,26283,2,0,P|188:168|125:150,1,93.5999994227601,2|0,0:0|0:0,0:0:0:0:
48,115,27165,6,0,P|95:186|49:281,1,179.999992847443,2|2,0:0|0:0,0:0:0:0:
247,242,28867,2,0,L|356:226,1,81.5999972555542,2|0,0:0|0:0,0:0:0:0:
323,328,29684,2,0,L|195:348,1,98.3999975914002,2|0,0:0|0:0,0:0:0:0:
146,283,30569,54,0,P|152:222|280:232,1,184.799988990937,2|2,0:0|0:0,0:0:0:0:
341,330,32224,2,0,B|326:286|326:286|361:130,1,203.99999578476,2|0,0:0|0:0,0:0:0:0:
240,217,33953,6,0,B|211:223|181:205|181:205|149:73,1,175.199997850189,2|2,0:0|0:0,0:0:0:0:
293,154,35596,2,0,L|382:170,1,89.9999998569489,2|0,0:0|0:0,0:0:0:0:
393,254,36453,2,0,L|297:238,1,83.9999940986636,2|0,0:0|0:0,0:0:0:0:
323,326,37300,54,0,L|442:345,2,119.999995231629,2|0|2,0:0|0:0|0:0,0:0:0:0:
206,222,39795,1,2,0:0:0:0:
248,369,40652,5,6,0:0:0:0:
389,183,41928,2,0,L|516:164,1,119.999995231629,0|2,0:0|0:0,0:0:0:0:
251,146,43662,1,0,0:0:0:0:
269,225,44103,53,2,0:0:0:0:
157,233,45725,2,0,L|144:163,2,59.9999976158143,2|0|2,0:0|0:0|0:0,0:0:0:0:
121,305,46992,2,0,P|71:318|19:261,1,119.999995231629,2|0,0:0|0:0,0:0:0:0:
70,166,48725,2,0,L|191:180,2,119.999995231629,2|0|0,0:0|0:0|0:0,0:0:0:0:
23,96,50809,5,2,0:0:0:0:
375,211,52499,1,2,0:0:0:0:
439,154,52921,2,0,L|449:71,1,59.9999976158143,2|0,0:0|0:0,0:0:0:0:
495,26,53766,1,2,0:0:0:0:
405,15,54189,54,0,P|356:15|325:43,2,89.9999998569489,14|0|8,0:0|0:0|0:0,0:0:0:0:
446,94,55456,2,0,L|432:210,1,89.9999998569489,2|8,0:0|0:0,0:0:0:0:
370,246,56301,2,0,L|384:361,1,89.9999998569489,2|8,0:0|0:0,0:0:0:0:
293,311,57147,1,0,0:0:0:0:
248,308,57358,1,0,0:0:0:0:
203,306,57569,6,0,L|86:299,2,89.9999998569489,10|0|8,0:0|0:0|0:0,0:0:0:0:
290,310,58837,1,0,0:0:0:0:
337,233,59259,1,10,0:0:0:0:
261,183,59682,2,0,L|91:169,1,134.999999785423,2|0,0:0|0:0,0:0:0:0:
82,162,60527,2,0,P|53:118|61:53,2,89.9999998569489,2|10|0,0:0|0:0|0:0,0:0:0:0:
171,156,61794,53,8,0:0:0:0:
177,245,62217,2,0,L|-6:269,2,179.999999713898,2|2|2,0:0|0:0|0:0,0:0:0:0:
253,200,64330,5,2,0:0:0:0:
276,289,64752,1,0,0:0:0:0:
188,266,65175,2,0,L|201:359,2,89.9999998569489,8|2|0,0:3|0:3|0:0,0:0:0:0:
298,124,66865,2,0,L|187:111,1,89.9999998569489
96,178,67710,21,14,0:0:0:0:
140,299,68132,1,8,0:0:0:0:
235,203,68555,2,0,L|351:219,1,107.999992412567,8|2,0:3|0:3,0:0:0:0:
243,301,69400,2,0,L|255:380,2,53.9999962062837,0|8|8,0:0|0:0|0:0,0:0:0:0:
211,244,70034,2,0,L|199:165,2,53.9999962062837,0|8|0,0:0|0:3|0:0,0:0:0:0:
89,288,70879,1,8,0:3:0:0:
100,351,71090,5,10,0:0:0:0:
181,249,71513,1,8,0:0:0:0:
280,331,71935,2,0,P|323:340|383:308,1,107.999992412567,8|2,0:3|0:3,0:0:0:0:
436,196,72780,2,0,L|427:136,2,53.9999962062837,0|8|8,0:0|0:0|0:0,0:0:0:0:
446,260,73414,1,0,0:0:0:0:
453,324,73625,2,0,P|414:359|362:352,1,107.999992412567,8|2,0:3|0:3,0:0:0:0:
362,222,74470,5,10,0:0:0:0:
299,108,74892,1,8,0:0:0:0:
222,212,75315,2,0,L|236:350,2,107.999992412567,8|2|0,0:3|0:3|0:0,0:0:0:0:
192,153,76372,2,0,L|182:50,1,53.9999962062837,8|8,0:0|0:0,0:0:0:0:
135,218,77006,1,8,0:3:0:0:
254,268,77428,1,0,0:0:0:0:
317,253,77639,1,8,0:3:0:0:
380,237,77851,5,10,0:0:0:0:
424,115,78273,1,8,0:0:0:0:
294,117,78696,2,0,L|278:223,2,107.999992412567,8|2|0,0:3|0:3|0:0,0:0:0:0:
268,57,79752,2,0,L|258:3,1,53.9999962062837,8|8,0:0|0:0,0:0:0:0:
216,126,80386,2,0,P|165:131|123:77,1,107.999992412567,8|2,0:3|0:3,0:0:0:0:
268,57,81231,5,14,0:0:0:0:
256,200,81653,1,8,0:0:0:0:
119,152,82076,2,0,L|85:-8,2,119.999995231629,8|2|0,0:3|0:3|0:0,0:0:0:0:
154,214,83132,1,8,0:0:0:0:
146,273,83343,1,8,0:0:0:0:
281,321,83766,1,8,0:3:0:0:
389,134,84400,1,8,0:3:0:0:
447,119,84611,5,10,0:0:0:0:
408,257,85034,1,8,0:0:0:0:
301,160,85456,2,0,P|276:123|193:95,2,119.999995231629,8|2|0,0:3|0:3|0:0,0:0:0:0:
321,229,86513,1,8,0:0:0:0:
295,296,86724,1,8,0:0:0:0:
156,257,87146,2,0,L|167:91,1,119.999995231629,8|0,0:3|0:0,0:0:0:0:
235,11,87992,5,10,0:0:0:0:
104,71,88414,1,8,0:0:0:0:
206,172,88837,2,0,L|328:156,2,119.999995231629,8|0|0,0:3|0:0|0:0,0:0:0:0:
154,222,89893,1,8,0:0:0:0:
82,213,90104,1,8,0:0:0:0:
179,319,90527,1,8,0:3:0:0:
291,135,91161,1,8,0:3:0:0:
298,63,91372,5,10,0:0:0:0:
372,185,91794,1,8,0:0:0:0:
499,118,92217,2,0,L|483:-5,2,119.999995231629,8|0|0,0:3|0:0|0:0,0:0:0:0:
457,176,93273,1,8,0:0:0:0:
471,246,93484,1,8,0:0:0:0:
371,287,93907,6,0,L|240:277,2,89.9999998569489,8|0|6,0:3|0:0|0:0,0:0:0:0:
