osu file format v14

[General]
AudioFilename: audio.mp3
AudioLeadIn: 0
PreviewTime: 23850
Countdown: 0
SampleSet: Normal
StackLeniency: 1
Mode: 1
LetterboxInBreaks: 0
WidescreenStoryboard: 1

[Editor]
DistanceSpacing: 2.9
BeatDivisor: 4
GridSize: 8
TimelineZoom: 0.8000001

[Metadata]
Title:Tsuna Kakusei
TitleUnicode:ツナ覚醒
Artist:Sahashi Toshihiko
ArtistUnicode:佐橋俊彥
Creator:4399guangguang
Version:Futsuu
Source:家庭教師ヒットマンREBORN!
Tags:katekyo katei kyoushi kateikyoushi hitman awakens anime home tutor ost original soundtrack instrumental orchestral violin trumpet
BeatmapID:3932904
BeatmapSetID:1907222

[Difficulty]
HPDrainRate:8
CircleSize:5
OverallDifficulty:3
ApproachRate:8
SliderMultiplier:1.4
SliderTickRate:1

[Events]
//Background and Video events
0,0,"bg.jpg",0,60
//Break Periods
//Storyboard Layer 0 (Background)
//Storyboard Layer 1 (Fail)
//Storyboard Layer 2 (Pass)
//Storyboard Layer 3 (Foreground)
//Storyboard Layer 4 (Overlay)
//Storyboard Sound Samples

[TimingPoints]
475,588.235294117647,4,1,0,60,1,0
5180,588.235294117647,4,1,0,60,1,0
24003,-100,4,1,0,70,0,1
42827,-100,4,1,0,60,0,0
47532,588.235294117647,4,1,0,60,1,0
66355,-100,4,1,0,80,0,1
85179,-100,4,1,0,60,0,0

[HitObjects]
256,192,475,5,4,0:0:0:0:
256,192,2827,1,12,0:0:0:0:
256,192,5180,1,4,0:0:0:0:
256,192,5768,1,8,0:0:0:0:
256,192,6356,1,0,0:0:0:0:
256,192,6650,1,0,0:0:0:0:
256,192,6944,1,0,0:0:0:0:
256,192,7532,1,8,0:0:0:0:
256,192,8121,1,0,0:0:0:0:
256,192,8709,1,8,0:0:0:0:
256,192,9003,1,8,0:0:0:0:
256,192,9297,1,8,0:0:0:0:
256,192,9885,1,0,0:0:0:0:
256,192,10474,1,8,0:0:0:0:
256,192,11062,1,0,0:0:0:0:
256,192,11356,1,0,0:0:0:0:
256,192,11650,1,0,0:0:0:0:
256,192,12238,1,8,0:0:0:0:
256,192,12827,1,0,0:0:0:0:
256,192,13121,1,0,0:0:0:0:
256,192,13415,1,8,0:0:0:0:
248,192,14591,1,0,0:0:0:0:
256,192,15179,1,8,0:0:0:0:
256,200,15768,1,8,0:0:0:0:
256,200,16062,1,0,0:0:0:0:
256,192,16356,1,0,0:0:0:0:
256,192,16944,1,8,0:0:0:0:
256,192,17532,1,0,0:0:0:0:
256,192,18121,1,0,0:0:0:0:
256,192,18415,1,8,0:0:0:0:
256,192,18709,1,8,0:0:0:0:
256,192,19297,1,0,0:0:0:0:
256,192,19885,1,8,0:0:0:0:
256,192,20474,1,0,0:0:0:0:
256,200,20768,1,0,0:0:0:0:
256,192,21062,1,8,0:0:0:0:
256,208,21650,1,0,0:0:0:0:
256,192,24003,5,4,0:0:0:0:
256,192,24885,1,0,0:0:0:0:
256,184,25179,1,8,0:0:0:0:
256,192,25768,1,0,0:0:0:0:
248,192,26356,1,8,0:0:0:0:
256,200,26944,1,0,0:0:0:0:
256,200,27532,1,8,0:0:0:0:
248,192,27827,1,0,0:0:0:0:
248,208,28121,1,8,0:0:0:0:
256,200,28415,1,8,0:0:0:0:
256,192,28709,1,0,0:0:0:0:
256,192,29591,1,0,0:0:0:0:
256,192,29885,1,8,0:0:0:0:
256,192,30474,1,0,0:0:0:0:
256,192,31062,1,8,0:0:0:0:
248,192,31356,1,8,0:0:0:0:
256,192,31650,1,0,0:0:0:0:
256,192,32238,1,8,0:0:0:0:
256,200,32532,1,8,0:0:0:0:
256,192,32827,1,0,0:0:0:0:
256,192,33415,1,4,0:0:0:0:
256,200,34297,1,0,0:0:0:0:
256,200,34591,1,8,0:0:0:0:
256,200,35180,1,0,0:0:0:0:
256,200,35768,1,8,0:0:0:0:
256,200,36356,1,0,0:0:0:0:
256,200,36944,1,8,0:0:0:0:
256,200,37238,1,0,0:0:0:0:
256,200,37532,1,8,0:0:0:0:
256,200,37827,1,8,0:0:0:0:
256,200,38121,1,0,0:0:0:0:
256,200,39003,1,0,0:0:0:0:
256,200,39297,1,8,0:0:0:0:
256,200,39885,1,0,0:0:0:0:
248,192,40474,1,12,0:0:0:0:
248,192,41062,1,0,0:0:0:0:
256,192,41356,1,0,0:0:0:0:
256,192,41650,1,12,0:0:0:0:
248,192,42238,1,8,0:0:0:0:
256,192,42827,1,4,0:0:0:0:
256,192,45179,12,0,46944,0:0:0:0:
256,192,47532,5,4,0:0:0:0:
256,192,48120,1,8,0:0:0:0:
256,184,48708,1,0,0:0:0:0:
256,192,49002,1,0,0:0:0:0:
256,184,49296,1,0,0:0:0:0:
256,192,49884,1,8,0:0:0:0:
256,192,50473,1,0,0:0:0:0:
256,192,51061,1,8,0:0:0:0:
248,192,51355,1,8,0:0:0:0:
248,192,51649,1,8,0:0:0:0:
248,192,52237,1,0,0:0:0:0:
248,200,52826,1,8,0:0:0:0:
256,192,53414,1,0,0:0:0:0:
248,208,53708,1,0,0:0:0:0:
248,200,54002,1,0,0:0:0:0:
256,192,54590,1,8,0:0:0:0:
256,192,55179,1,0,0:0:0:0:
248,192,55473,1,0,0:0:0:0:
256,192,55767,1,8,0:0:0:0:
256,192,56943,1,4,0:0:0:0:
264,192,57532,1,8,0:0:0:0:
256,192,58120,1,8,0:0:0:0:
258,191,58414,1,0,0:0:0:0:
256,192,58708,1,0,0:0:0:0:
256,192,59296,1,8,0:0:0:0:
256,192,59884,1,0,0:0:0:0:
256,192,60473,1,0,0:0:0:0:
264,192,60767,1,8,0:0:0:0:
256,192,61061,1,8,0:0:0:0:
256,192,61649,1,0,0:0:0:0:
256,192,62237,1,8,0:0:0:0:
256,192,62826,1,0,0:0:0:0:
256,192,63120,1,0,0:0:0:0:
256,192,63414,1,8,0:0:0:0:
256,192,64002,1,0,0:0:0:0:
256,184,66355,5,4,0:0:0:0:
256,184,67237,1,0,0:0:0:0:
256,192,67532,1,8,0:0:0:0:
256,200,68120,1,0,0:0:0:0:
256,192,68708,1,8,0:0:0:0:
248,200,69002,1,0,0:0:0:0:
256,192,69296,1,8,0:0:0:0:
256,192,69884,1,8,0:0:0:0:
256,200,70179,1,8,0:0:0:0:
256,192,70473,1,0,0:0:0:0:
256,192,70767,1,8,0:0:0:0:
248,192,71061,1,0,0:0:0:0:
256,200,71943,1,0,0:0:0:0:
248,192,72237,1,8,0:0:0:0:
256,200,72826,1,0,0:0:0:0:
256,192,73414,1,8,0:0:0:0:
248,200,73708,1,0,0:0:0:0:
256,192,74002,1,8,0:0:0:0:
256,192,74590,1,8,0:0:0:0:
248,200,74884,1,0,0:0:0:0:
256,192,75179,1,8,0:0:0:0:
256,200,75767,1,4,0:0:0:0:
248,192,76649,1,0,0:0:0:0:
248,192,76943,1,8,0:0:0:0:
248,192,77532,1,0,0:0:0:0:
256,192,78120,1,8,0:0:0:0:
248,200,78414,1,0,0:0:0:0:
256,192,78708,1,8,0:0:0:0:
256,192,79296,1,8,0:0:0:0:
256,192,79590,1,8,0:0:0:0:
256,192,79884,1,0,0:0:0:0:
253,200,80179,1,8,0:0:0:0:
248,192,80473,1,0,0:0:0:0:
256,192,81355,1,0,0:0:0:0:
248,192,81649,1,8,0:0:0:0:
256,192,82237,1,0,0:0:0:0:
248,192,82826,1,12,0:0:0:0:
248,192,83414,1,0,0:0:0:0:
248,192,83708,1,0,0:0:0:0:
248,192,84002,1,12,0:0:0:0:
248,192,84590,1,8,0:0:0:0:
248,192,85179,1,4,0:0:0:0:
256,192,86061,1,0,0:0:0:0:
256,200,86355,1,8,0:0:0:0:
256,192,87237,1,0,0:0:0:0:
256,192,87532,1,0,0:0:0:0:
256,192,88414,1,8,0:0:0:0:
256,192,88708,1,8,0:0:0:0:
256,192,89884,1,4,0:0:0:0:
256,192,90473,1,8,0:0:0:0:
256,192,91061,1,4,0:0:0:0:
256,192,91649,1,8,0:0:0:0:
256,192,91943,1,8,0:0:0:0:
256,192,92237,1,4,0:0:0:0:
