osu file format v14

[General]
AudioFilename: audio.mp3
AudioLeadIn: 0
PreviewTime: 64297
Countdown: 0
SampleSet: Soft
StackLeniency: 0.3
Mode: 0
LetterboxInBreaks: 0
WidescreenStoryboard: 0

[Editor]
Bookmarks: 2668,13046,23424,33803,44181,54559,75316
DistanceSpacing: 1.5
BeatDivisor: 4
GridSize: 32
TimelineZoom: 2.1

[Metadata]
Title:Hoshizora no Ima
TitleUnicode:星空のいま
Artist:Sagara Kokoro
ArtistUnicode:相良心
Creator:Xahlt
Version:XahsuKo's Hard
Source:星空へ架かる橋AA
Tags:Sajinn Kyuukai Eimi Fukada yaleufeu AsuKow Synaelle AlBA- Hoshizora e Kakaru Hashi AA Feng Visual Novel Video Game Eroge Japanese Pop Jpop J-pop Ending ED
BeatmapID:2963129
BeatmapSetID:1437267

[Difficulty]
HPDrainRate:4
CircleSize:3.5
OverallDifficulty:6
ApproachRate:8
SliderMultiplier:1.4
SliderTickRate:1

[Events]
//Background and Video events
0,0,"bg4.jpg",0,0
//Break Periods
//Storyboard Layer 0 (Background)
//Storyboard Layer 1 (Fail)
//Storyboard Layer 2 (Pass)
//Storyboard Layer 3 (Foreground)
//Storyboard Layer 4 (Overlay)
//Storyboard Sound Samples

[TimingPoints]
2716,324.324324324324,4,2,1,50,1,0
2716,-125,4,2,1,50,0,0
13094,-111.111111111111,4,2,1,60,0,0
18283,-111.111111111111,4,2,1,40,0,0
18932,-111.111111111111,4,2,1,45,0,0
19580,-111.111111111111,4,2,1,50,0,0
20229,-111.111111111111,4,2,1,55,0,0
20878,-111.111111111111,4,2,1,60,0,0
21203,-111.111111111111,4,2,1,65,0,0
21527,-111.111111111111,4,2,1,70,0,0
21851,-111.111111111111,4,2,1,75,0,0
22175,-111.111111111111,4,2,1,80,0,0
23472,-99.9999999999999,4,2,1,70,0,0
29878,-99.9999999999999,4,2,1,5,0,0
29959,-99.9999999999999,4,2,1,70,0,0
31175,-99.9999999999999,4,2,1,5,0,0
31256,-99.9999999999999,4,2,1,70,0,0
33607,-99.9999999999999,4,2,2,70,0,0
33688,-99.9999999999999,4,2,1,70,0,0
33851,-125,4,2,1,40,0,0
43743,-125,4,2,1,60,0,0
44067,-125,4,2,2,60,0,0
44148,-125,4,2,1,60,0,0
44229,-111.111111111111,4,2,1,60,0,0
48932,-111.111111111111,4,2,2,60,0,0
49094,-111.111111111111,4,2,1,60,0,0
54607,-111.111111111111,4,2,1,65,0,0
62391,-111.111111111111,4,2,1,60,0,0
64337,-111.111111111111,4,2,10,60,0,0
64580,-111.111111111111,4,2,1,5,0,0
64661,-111.111111111111,4,2,13,70,0,0
64905,-111.111111111111,4,2,1,5,0,0
64986,-90.9090909090909,4,2,12,80,0,1
65310,-90.9090909090909,4,2,1,80,0,1
65472,-90.9090909090909,4,2,13,80,0,1
65634,-90.9090909090909,4,2,12,80,0,1
65959,-90.9090909090909,4,2,1,80,0,1
66121,-90.9090909090909,4,2,13,80,0,1
66283,-90.9090909090909,4,2,12,80,0,1
66607,-90.9090909090909,4,2,1,80,0,1
66770,-90.9090909090909,4,2,13,80,0,1
66932,-90.9090909090909,4,2,12,80,0,1
67094,-90.9090909090909,4,2,13,80,0,1
67256,-90.9090909090909,4,2,14,80,0,1
67418,-90.9090909090909,4,2,13,80,0,1
67580,-90.9090909090909,4,2,12,80,0,1
67905,-90.9090909090909,4,2,1,80,0,1
68067,-90.9090909090909,4,2,13,80,0,1
68229,-90.9090909090909,4,2,13,80,0,1
68553,-90.9090909090909,4,2,1,80,0,1
69526,-90.9090909090909,4,2,13,80,0,1
69851,-90.9090909090909,4,2,14,80,0,1
70175,-90.9090909090909,4,2,12,80,0,1
70499,-90.9090909090909,4,2,1,80,0,1
70824,-90.9090909090909,4,2,13,80,0,1
71148,-90.9090909090909,4,2,14,80,0,1
71472,-90.9090909090909,4,2,12,80,0,1
71797,-90.9090909090909,4,2,13,80,0,1
71959,-90.9090909090909,4,2,12,80,0,1
72121,-90.9090909090909,4,2,11,80,0,1
72445,-90.9090909090909,4,2,12,80,0,1
72770,-90.9090909090909,4,2,12,80,0,1
73094,-90.9090909090909,4,2,1,80,0,1
73256,-90.9090909090909,4,2,13,80,0,1
73418,-90.9090909090909,4,2,13,80,0,1
73743,-90.9090909090909,4,2,1,80,0,1
74715,-90.9090909090909,4,2,10,80,0,1
74878,-90.9090909090909,4,2,1,80,0,1
75040,-90.9090909090909,4,2,13,80,0,1
75121,-90.9090909090909,4,2,1,80,0,1
75283,-90.9090909090909,4,2,1,80,0,0
75364,-90.9090909090909,4,2,12,80,0,1
75688,-90.9090909090909,4,2,1,80,0,1
75851,-90.9090909090909,4,2,13,80,0,1
76013,-90.9090909090909,4,2,12,80,0,1
76338,-90.9090909090909,4,2,1,80,0,1
76499,-90.9090909090909,4,2,13,80,0,1
76661,-90.9090909090909,4,2,12,80,0,1
76987,-90.9090909090909,4,2,1,80,0,1
77148,-90.9090909090909,4,2,13,80,0,1
77310,-90.9090909090909,4,2,12,80,0,1
77472,-90.9090909090909,4,2,13,80,0,1
77634,-90.9090909090909,4,2,14,80,0,1
77797,-90.9090909090909,4,2,13,80,0,1
77959,-90.9090909090909,4,2,12,80,0,1
78283,-90.9090909090909,4,2,1,80,0,1
78445,-90.9090909090909,4,2,13,80,0,1
78607,-90.9090909090909,4,2,13,80,0,1
78933,-90.9090909090909,4,2,1,80,0,1
79094,-90.9090909090909,4,2,13,80,0,1
79175,-90.9090909090909,4,2,1,80,0,1
79256,-90.9090909090909,4,2,15,80,0,1
79418,-90.9090909090909,4,2,14,80,0,1
79580,-90.9090909090909,4,2,13,80,0,1
79743,-90.9090909090909,4,2,12,80,0,1
80067,-90.9090909090909,4,2,11,80,0,1
80148,-90.9090909090909,4,2,1,80,0,1
80391,-90.9090909090909,4,2,12,80,0,1
80472,-90.9090909090909,4,2,1,80,0,1
80878,-90.9090909090909,4,2,13,80,0,1
81040,-90.9090909090909,4,2,13,80,0,1
82499,-90.9090909090909,4,2,11,80,0,1
82824,-90.9090909090909,4,2,11,80,0,1
83148,-90.9090909090909,4,2,12,80,0,1
83634,-90.9090909090909,4,2,12,80,0,1
83797,-90.9090909090909,4,2,13,80,0,1
84445,-90.9090909090909,4,2,1,70,0,0
85743,-100,4,2,1,70,0,0
92148,-100,4,2,1,5,0,0
92229,-100,4,2,1,70,0,0
93445,-100,4,2,1,5,0,0
93526,-100,4,2,1,70,0,0
96770,-100,4,2,1,60,0,0
97418,-100,4,2,1,50,0,0
98067,-100,4,2,1,40,0,0
98715,-100,4,2,1,30,0,0
99364,-100,4,2,1,20,0,0
100013,-100,4,2,1,10,0,0
100661,-100,4,2,1,5,0,0

[Colours]
Combo1 : 128,128,255
Combo2 : 255,255,0
Combo3 : 128,255,255
Combo4 : 128,255,0

[HitObjects]
72,27,2716,6,0,P|28:52|24:116,1,112,2|0,0:2|0:0,0:0:0:0:
60,188,3202,1,2,0:2:0:0:
60,188,3364,2,0,P|115:177|170:169,1,112,2|0,0:2|0:0,0:0:0:0:
229,108,3851,1,2,0:2:0:0:
229,108,4013,2,0,P|284:115|339:124,1,112,2|0,0:2|0:0,0:0:0:0:
416,86,4499,1,2,0:2:0:0:
416,86,4661,2,0,P|423:113|430:140,1,56,2|2,0:2|0:2,0:0:0:0:
498,189,4986,2,0,P|491:216|486:243,1,56,2|2,0:2|0:2,0:0:0:0:
505,325,5310,6,0,B|420:316|438:392|341:376,1,168,2|2,0:2|0:2,0:0:0:0:
309,305,5959,2,0,P|270:272|202:304,1,112,2|0,0:2|0:0,0:0:0:0:
73,375,6607,6,0,P|69:349|63:319,1,56,0|0,0:0|0:0,0:0:0:0:
1,263,6932,2,0,P|7:237|15:208,1,56,0|0,0:0|0:0,0:0:0:0:
3,125,7256,1,2,0:2:0:0:
124,9,7580,1,2,0:2:0:0:
233,137,7905,6,0,P|248:190|262:244,1,112,2|0,0:2|0:0,0:0:0:0:
392,351,8553,1,2,0:2:0:0:
510,231,8878,1,2,0:2:0:0:
464,69,9202,6,0,B|409:78|425:117|352:123,1,112,2|2,0:2|0:2,0:0:0:0:
296,163,9688,1,2,0:2:0:0:
296,163,9851,2,0,P|287:136|279:109,1,56,2|0,0:2|0:0,0:0:0:0:
211,59,10175,2,0,P|203:85|194:112,1,56,2|0,0:2|0:0,0:0:0:0:
119,149,10499,6,0,P|80:82|8:109,1,168,2|2,0:2|0:2,0:0:0:0:
4,194,11148,2,0,P|19:247|33:301,1,112,2|0,0:2|0:0,0:0:0:0:
187,370,11797,6,0,B|271:378|253:302|350:318,1,168,0|0,0:0|0:0,0:0:0:0:
414,353,12445,2,0,P|417:325|422:297,1,56,2|0,0:2|0:0,0:0:0:0:
484,240,12770,2,0,P|480:212|475:184,1,56,2|4,0:2|3:0,0:0:0:0:
472,165,13013,1,4,3:0:0:0:
467,140,13094,6,0,P|412:113|356:138,1,125.999996154785,6|0,3:2|3:0,0:0:0:0:
304,217,13580,1,2,0:2:0:0:
220,171,13743,2,0,B|170:170|170:170|141:193|141:193|79:194,1,125.999996154785,2|0,3:2|3:2,0:0:0:0:
24,139,14229,1,2,0:2:0:0:
8,45,14391,6,0,P|49:88|119:60,1,125.999996154785,2|0,3:2|3:2,0:0:0:0:
188,20,14878,1,2,0:2:0:0:
188,20,15040,1,2,3:2:0:0:
265,83,15202,1,2,0:2:0:0:
265,83,15364,2,0,P|298:76|326:69,1,62.9999980773926,2|2,3:2|0:2,0:0:0:0:
423,10,15688,6,0,B|450:57|450:57|417:139,1,125.999996154785,2|0,3:2|3:2,0:0:0:0:
343,173,16175,1,2,0:2:0:0:
343,173,16337,2,0,P|405:163|450:202,1,125.999996154785,2|0,3:2|3:2,0:0:0:0:
499,289,16824,1,2,0:2:0:0:
499,289,16986,6,0,P|485:318|474:346,2,62.9999980773926,2|2|2,3:2|0:2|3:2,0:0:0:0:
405,273,17472,2,0,P|374:281|350:302,1,62.9999980773926,2|0,0:2|3:2,0:0:0:0:
270,352,17797,2,0,P|232:342|189:331,1,62.9999980773926,10|0,3:0|0:0,0:0:0:0:
96,343,18121,1,6,3:0:0:0:
96,343,18202,1,4,3:0:0:0:
96,343,18283,6,0,P|148:333|168:253,1,125.999996154785,12|10,3:2|3:2,0:0:0:0:
116,201,18770,1,10,0:2:0:0:
116,201,18932,2,0,P|145:182|176:178,1,62.9999980773926,8|8,3:2|0:2,0:0:0:0:
254,223,19256,2,0,P|288:219|315:200,1,62.9999980773926,8|8,3:2|0:2,0:0:0:0:
338,112,19580,6,0,P|326:75|313:33,1,62.9999980773926,8|8,3:2|0:2,0:0:0:0:
408,19,19905,2,0,P|420:56|433:94,1,62.9999980773926,8|8,3:2|0:2,0:0:0:0:
499,140,20229,2,0,P|493:174|473:202,1,62.9999980773926,10|8,3:2|0:2,0:0:0:0:
413,266,20553,1,10,3:2:0:0:
327,226,20715,1,8,0:2:0:0:
253,319,20878,6,0,B|183:305|202:354|128:338,1,125.999996154785,14|8,3:2|3:2,0:0:0:0:
42,334,21364,1,10,3:2:0:0:
42,334,21526,2,0,P|49:295|55:264,1,62.9999980773926,10|8,3:2|3:2,0:0:0:0:
117,202,21851,2,0,P|109:164|102:128,1,62.9999980773926,8|8,3:2|3:2,0:0:0:0:
44,67,22175,1,8,3:2:0:0:
7,86,23472,6,0,B|50:51|50:51|148:81,1,140,6|8,3:2|3:2,0:0:0:0:
147,179,23959,1,0,0:0:0:0:
240,132,24121,2,0,P|247:97|259:41,1,70,2|0,3:0|3:0,0:0:0:0:
341,5,24445,2,0,P|348:39|355:73,1,70,10|0,3:2|0:0,0:0:0:0:
445,127,24770,6,0,P|386:115|354:190,2,140,2|8|0,3:0|3:2|3:0,0:0:0:0:
498,216,25580,1,0,3:0:0:0:
482,320,25743,2,0,P|447:314|412:309,1,70,10|0,3:2|0:0,0:0:0:0:
298,275,26067,6,0,P|239:263|207:338,1,140,2|8,3:0|3:2,0:0:0:0:
33,373,26715,2,0,P|25:338|17:304,1,70,2|0,3:0|3:0,0:0:0:0:
88,226,27040,2,0,P|95:191|103:157,1,70,10|0,3:2|0:0,0:0:0:0:
42,71,27364,5,2,3:0:0:0:
42,71,27526,1,0,3:0:0:0:
130,15,27688,2,0,B|169:23|169:23|186:33|186:33|243:42,1,105,8|8,3:2|3:2,0:0:0:0:
250,29,28013,2,0,P|282:23|322:38,1,70,0|0,3:2|3:0,0:0:0:0:
420,17,28337,2,0,P|425:48|410:88,1,70,10|8,3:2|3:2,0:0:0:0:
404,94,28580,1,8,3:2:0:0:
396,102,28661,6,0,B|340:115|340:115|317:134|317:134|252:149,2,140,6|8|0,3:2|3:2|3:0,0:0:0:0:
482,163,29472,1,0,3:0:0:0:
504,265,29634,2,0,P|469:259|379:244,1,105,10|0,3:2|0:0,0:0:0:0:
387,234,29959,6,0,P|351:240|308:249,1,70,2|0,3:0|3:0,0:0:0:0:
218,215,30283,2,0,P|182:208|139:200,1,70,10|0,3:2|0:0,0:0:0:0:
50,226,30607,1,2,3:0:0:0:
50,226,30770,1,0,3:0:0:0:
36,330,30932,2,0,P|62:373|113:378,1,105,10|0,3:2|0:0,0:0:0:0:
124,369,31256,6,0,P|192:357|262:347,1,140,2|8,3:0|3:2,0:0:0:0:
362,382,31743,1,2,0:0:0:0:
367,372,31824,1,2,0:0:0:0:
371,363,31905,2,0,P|367:328|362:293,1,70,2|0,3:0|3:0,0:0:0:0:
427,211,32229,2,0,P|423:176|418:141,1,70,10|0,3:2|0:0,0:0:0:0:
333,46,32553,6,0,P|366:37|399:25,2,70,6|8|0,3:2|3:2|3:0,0:0:0:0:
233,9,33040,1,8,3:2:0:0:
163,88,33202,2,0,L|180:163,1,70,0|8,3:0|3:2,0:0:0:0:
172,169,33445,1,8,3:2:0:0:
166,182,33526,2,0,L|156:236,3,35,8|8|4|4,3:0|3:0|3:0|3:0,0:0:0:0:
411,368,34337,5,2,0:2:0:0:
411,368,34499,2,0,P|442:341|406:279,1,112,2|2,0:2|0:2,0:0:0:0:
363,219,34986,2,0,P|371:162|379:103,1,112,2|0,0:2|0:0,0:0:0:0:
332,42,35472,1,2,0:2:0:0:
332,42,35634,2,0,B|283:29|283:29|208:61,1,112,2|0,0:2|0:0,0:0:0:0:
180,123,36121,2,0,P|189:149|198:181,1,56,2|2,0:2|0:2,0:0:0:0:
152,247,36445,6,0,P|211:229|261:254,2,112,0|0|0,0:0|0:0|0:0,0:0:0:0:
18,349,37418,2,0,P|24:313|30:279,1,56,2|2,0:2|0:2,0:0:0:0:
63,217,37743,6,0,P|53:161|42:106,1,112,0|0,0:0|0:0,0:0:0:0:
65,26,38229,1,0,0:0:0:0:
65,26,38391,2,0,P|134:21|165:57,1,112,0|0,0:0|0:0,0:0:0:0:
210,209,39040,6,0,P|262:203|327:194,1,112,0|0,0:0|0:0,0:0:0:0:
385,140,39526,1,2,0:2:0:0:
385,140,39688,2,0,P|432:138|479:198,1,112,2|2,0:2|0:2,0:0:0:0:
432,253,40175,2,0,P|442:301|458:372,1,112,2|0,0:2|0:0,0:0:0:0:
371,362,40661,2,0,P|364:326|358:298,1,56,0|0,0:0|0:0,0:0:0:0:
325,230,40986,1,2,0:0:0:0:
240,374,41310,1,2,0:0:0:0:
70,316,41634,6,0,P|120:295|143:245,1,112,2|2,0:2|0:2,0:0:0:0:
188,173,42121,2,0,P|176:115|162:49,1,112,2|2,0:2|0:2,0:0:0:0:
328,24,42770,2,0,P|388:24|425:71,1,112,2|0,0:2|0:0,0:0:0:0:
466,130,43256,2,0,P|466:161|450:192,1,56,0|0,0:0|0:0,0:0:0:0:
397,243,43580,1,0,0:0:0:0:
397,243,43743,2,0,P|447:239|494:290,1,112,8|8,3:0|3:0,0:0:0:0:
494,289,44148,1,4,3:0:0:0:
497,299,44229,6,0,P|437:317|377:337,1,125.999996154785,4|0,3:2|3:0,0:0:0:0:
295,382,44715,1,2,0:2:0:0:
232,309,44878,2,0,P|235:277|238:246,1,62.9999980773926,2|0,3:0|0:0,0:0:0:0:
324,202,45202,1,2,3:0:0:0:
324,202,45364,2,0,P|309:140|295:79,1,125.999996154785,2|0,0:2|0:0,0:0:0:0:
325,0,45851,1,2,3:0:0:0:
325,0,46013,2,0,P|292:49|214:33,1,125.999996154785,2|0,0:2|0:0,0:0:0:0:
146,15,46499,1,2,3:0:0:0:
146,15,46661,1,10,0:2:0:0:
104,100,46824,6,0,P|116:161|129:223,1,125.999996154785,0|0,3:0|3:0,0:0:0:0:
261,357,47472,2,0,P|203:338|146:360,1,125.999996154785,0|2,3:0|3:0,0:0:0:0:
53,382,47959,1,2,0:2:0:0:
2,302,48121,6,0,P|13:240|24:178,1,125.999996154785,0|0,3:0|3:0,0:0:0:0:
9,89,48607,1,8,3:0:0:0:
9,89,48770,2,0,P|2:58|-1:26,1,62.9999980773926,0|0,3:0|0:0,0:0:0:0:
89,4,49094,1,2,3:0:0:0:
152,81,49256,1,4,3:0:0:0:
159,78,49337,1,4,3:0:0:0:
167,74,49418,6,0,P|226:69|304:63,1,125.999996154785,6|0,3:2|3:0,0:0:0:0:
371,11,49905,1,0,0:0:0:0:
429,85,50067,2,0,P|424:121|419:159,1,62.9999980773926,0|0,3:0|0:0,0:0:0:0:
491,218,50391,1,2,3:0:0:0:
491,218,50553,2,0,B|450:184|450:184|371:215,1,125.999996154785,2|0,0:2|0:0,0:0:0:0:
298,254,51040,1,0,3:0:0:0:
285,244,51364,6,0,L|275:172,1,62.9999980773926,2|0,3:0|0:0,0:0:0:0:
182,195,51688,2,0,L|190:257,1,62.9999980773926,2|8,3:0|0:2,0:0:0:0:
139,350,52013,6,0,P|174:300|236:312,1,125.999996154785,2|2,3:0|3:0,0:0:0:0:
297,378,52499,2,0,P|355:355|415:336,1,125.999996154785,2|0,0:2|0:0,0:0:0:0:
468,257,52986,1,2,3:0:0:0:
391,201,53148,1,10,0:2:0:0:
395,194,53229,1,8,0:2:0:0:
399,184,53310,6,0,L|392:113,1,62.9999980773926,4|0,3:2|0:0,0:0:0:0:
419,30,53634,2,0,P|351:43|289:53,1,125.999996154785,8|0,0:2|3:0,0:0:0:0:
210,9,54121,1,8,0:2:0:0:
149,81,54283,2,0,P|155:116|161:147,1,62.9999980773926,8|4,0:2|3:0,0:0:0:0:
170,236,54607,6,0,P|130:264|60:245,1,125.999996154785,6|0,3:2|3:0,0:0:0:0:
5,173,55094,1,2,0:2:0:0:
5,173,55256,2,0,P|12:231|22:306,1,125.999996154785,2|0,3:0|3:0,0:0:0:0:
96,363,55743,1,2,0:2:0:0:
177,328,55905,6,0,P|204:309|246:308,1,62.9999980773926,2|0,3:0|0:0,0:0:0:0:
325,326,56229,2,0,P|356:319|394:311,1,62.9999980773926,2|2,3:0|0:2,0:0:0:0:
477,337,56553,2,0,P|484:282|440:232,1,125.999996154785,2|0,3:0|3:0,0:0:0:0:
351,223,57040,1,2,0:2:0:0:
399,149,57202,6,0,P|388:85|375:2,1,125.999996154785,2|0,3:0|3:0,0:0:0:0:
296,10,57688,1,2,0:2:0:0:
296,10,57851,2,0,B|266:2|233:2|233:2|202:20|175:53,1,125.999996154785,2|0,3:0|3:0,0:0:0:0:
208,131,58337,1,2,0:2:0:0:
208,131,58499,6,0,P|201:163|193:207,1,62.9999980773926,2|0,3:0|3:0,0:0:0:0:
180,280,58824,2,0,P|189:308|206:361,1,62.9999980773926,10|0,2:0|3:0,0:0:0:0:
285,374,59148,1,10,3:0:0:0:
285,374,59310,1,4,3:0:0:0:
311,290,59472,2,0,P|300:260|291:230,1,62.9999980773926,4|8,3:0|2:0,0:0:0:0:
96,306,62391,6,0,P|133:288|140:205,1,125.999996154785,4|0,3:2|3:0,0:0:0:0:
73,147,62878,2,0,P|77:113|82:79,1,62.9999980773926,10|6,2:0|3:0,0:0:0:0:
154,24,63202,1,8,2:0:0:0:
154,24,63283,1,8,2:0:0:0:
154,24,63364,2,0,P|172:33|199:48,3,31.4999990386963,4|8|8|4,3:0|2:0|3:0|3:0,0:0:0:0:
493,368,64337,6,0,P|484:337|466:269,1,94.499997116089,2|0,0:2|0:0,0:0:0:0:
440,234,64661,2,0,P|403:262|357:257,1,94.499997116089,2|0,0:2|0:0,0:0:0:0:
309,231,64986,6,0,B|219:209|240:268|160:247,1,154.000004699707,6|0,3:2|3:0,0:0:0:0:
54,233,65472,1,2,0:2:0:0:
124,151,65634,2,0,P|111:79|96:-8,1,154.000004699707,2|8,3:2|3:2,0:0:0:0:
188,56,66121,1,2,0:2:0:0:
289,20,66283,6,0,B|341:31|341:31|383:9|383:9|435:19,1,154.000004699707,2|8,3:2|3:2,0:0:0:0:
501,111,66770,1,2,0:2:0:0:
501,111,66932,2,0,P|513:147|499:182,1,77.0000023498536,2|2,3:2|0:2,0:0:0:0:
401,227,67256,2,0,P|390:190|404:155,1,77.0000023498536,10|2,3:2|0:2,0:0:0:0:
512,287,67580,6,0,B|472:259|472:259|371:308,1,154.000004699707,2|8,3:2|3:2,0:0:0:0:
286,360,68067,1,2,0:2:0:0:
286,360,68229,2,0,P|236:308|164:324,1,154.000004699707,2|8,3:2|3:2,0:0:0:0:
63,363,68715,1,0,0:0:0:0:
63,363,68878,6,0,P|83:325|76:287,1,77.0000023498536,0|0,3:0|0:0,0:0:0:0:
9,210,69202,2,0,P|6:172|25:139,1,77.0000023498536,8|0,3:2|0:0,0:0:0:0:
117,84,69526,2,0,P|153:96|189:108,1,77.0000023498536,2|0,3:2|0:0,0:0:0:0:
201,216,69851,2,0,P|164:203|128:191,1,77.0000023498536,10|0,3:2|0:0,0:0:0:0:
258,155,70175,6,0,B|339:129|330:190|406:164,1,154.000004699707,2|8,3:2|3:2,0:0:0:0:
262,332,70824,2,0,P|225:340|190:326,1,77.0000023498536,2|0,3:2|0:0,0:0:0:0:
258,243,71148,2,0,P|295:234|330:248,1,77.0000023498536,10|0,0:2|0:0,0:0:0:0:
381,342,71472,2,0,P|381:260|382:155,1,154.000004699707,2|10,3:2|0:2,0:0:0:0:
429,92,71959,1,2,0:2:0:0:
429,92,72121,2,0,P|428:54|405:22,1,77.0000023498536,2|0,3:2|0:0,0:0:0:0:
298,17,72445,2,0,P|260:25|223:34,1,77.0000023498536,10|0,0:2|0:0,0:0:0:0:
131,93,72770,6,0,B|118:147|118:147|135:184|135:184|124:248,1,154.000004699707,2|8,3:2|3:2,0:0:0:0:
152,345,73256,1,2,0:2:0:0:
229,269,73418,2,0,P|270:249|320:261,1,77.0000023498536,2|0,3:2|0:0,0:0:0:0:
381,322,73743,2,0,P|418:314|472:302,1,77.0000023498536,8|8,3:2|2:0,0:0:0:0:
475,303,73986,1,8,2:0:0:0:
493,297,74067,5,0,3:0:0:0:
510,182,74229,1,12,2:0:0:0:
405,133,74391,2,0,P|349:121|303:153,1,115.50000352478,12|4,3:2|3:0,0:0:0:0:
273,198,74715,2,0,P|263:156|252:115,1,77.0000023498536,2|8,3:2|2:0,0:0:0:0:
175,49,75040,2,0,P|171:67|168:86,3,38.5000011749268,10|8|8|8,3:2|2:0|2:0|2:0,0:0:0:0:
163,110,75364,6,0,P|89:113|59:179,1,154.000004699707,6|8,3:2|3:2,0:0:0:0:
11,277,75851,1,2,2:0:0:0:
97,341,76013,2,0,B|155:326|155:326|188:340|188:340|259:322,1,154.000004699707,2|8,3:2|3:2,0:0:0:0:
344,365,76499,1,2,2:0:0:0:
409,279,76661,2,0,P|394:203|377:128,1,154.000004699707,2|8,3:2|3:2,0:0:0:0:
292,60,77148,1,2,2:0:0:0:
292,60,77310,2,0,L|199:80,1,77.0000023498536,2|2,3:2|2:0,0:0:0:0:
201,182,77634,2,0,L|276:165,1,77.0000023498536,10|2,3:2|2:0,0:0:0:0:
388,32,77959,6,0,P|442:17|486:104,1,154.000004699707,2|8,3:2|3:2,0:0:0:0:
437,183,78445,1,2,2:0:0:0:
437,183,78607,2,0,P|419:258|405:333,1,154.000004699707,2|12,3:2|3:2,0:0:0:0:
306,378,79094,1,2,3:2:0:0:
301,368,79175,1,4,3:0:0:0:
295,358,79256,6,0,P|257:364|219:371,1,77.0000023498536,2|14,3:2|2:2,0:0:0:0:
129,311,79580,1,14,2:2:0:0:
34,364,79743,2,0,P|28:325|23:287,1,77.0000023498536,10|4,2:0|3:2,0:0:0:0:
100,212,80067,1,10,2:0:0:0:
97,204,80148,1,8,0:0:0:0:
95,197,80229,2,0,L|82:141,3,38.5000011749268,0|8|10|8,3:0|2:0|3:2|3:0,0:0:0:0:
41,129,80553,6,0,P|15:86|93:37,1,154.000004699707,4|2,3:2|3:2,0:0:0:0:
185,82,81040,1,2,2:0:0:0:
185,82,81202,2,0,P|222:75|260:68,1,77.0000023498536,0|4,3:0|3:0,0:0:0:0:
349,7,81526,2,0,P|385:18|422:29,1,77.0000023498536,0|4,3:0|3:0,0:0:0:0:
499,133,81851,6,0,P|443:123|404:222,1,154.000004699707,0|0,3:0|3:0,0:0:0:0:
311,262,82337,1,4,3:0:0:0:
311,262,82499,2,0,P|295:226|285:189,1,77.0000023498536,10|8,3:2|2:0,0:0:0:0:
187,144,82824,2,0,P|177:181|172:219,1,77.0000023498536,10|8,3:2|2:0,0:0:0:0:
84,299,83148,6,0,B|165:303|127:368|239:359,1,154.000004699707,14|8,3:2|2:0,0:0:0:0:
298,287,83634,1,10,3:2:0:0:
381,356,83797,1,10,3:2:0:0:
381,356,83959,1,8,2:0:0:0:
473,299,84121,1,8,3:2:0:0:
473,299,84283,1,8,2:0:0:0:
446,194,84445,1,8,3:2:0:0:
497,19,85418,6,0,L|438:38,3,38.5000011749268,8|8|8|8,2:0|2:0|2:0|2:0,0:0:0:0:
444,49,85743,6,0,B|360:13|360:13|330:27|302:50,1,140,6|8,3:2|3:2,0:0:0:0:
358,134,86229,1,0,0:0:0:0:
253,124,86391,2,0,P|218:116|184:109,1,70,2|0,3:0|3:0,0:0:0:0:
109,36,86715,2,0,P|75:46|42:58,1,70,10|0,3:2|0:0,0:0:0:0:
0,164,87040,6,0,P|66:145|114:205,2,140,2|8|0,3:0|3:2|3:0,0:0:0:0:
29,265,87851,1,0,3:0:0:0:
1,362,88013,2,0,P|35:366|92:376,1,70,10|0,3:2|0:0,0:0:0:0:
194,381,88337,6,0,B|195:303|241:331|244:226,1,140,2|8,3:0|3:2,0:0:0:0:
388,82,88986,2,0,P|401:114|412:147,1,70,2|0,3:0|3:0,0:0:0:0:
503,197,89310,2,0,P|489:229|478:262,1,70,10|0,3:2|0:0,0:0:0:0:
509,367,89634,1,2,3:0:0:0:
509,367,89797,1,0,3:0:0:0:
404,354,89959,6,0,P|353:363|276:377,1,105,8|8,3:2|3:2,0:0:0:0:
282,379,90283,2,0,P|255:353|258:310,1,70,0|0,3:2|3:0,0:0:0:0:
306,231,90607,2,0,P|271:223|238:214,1,70,10|8,3:2|3:2,0:0:0:0:
231,207,90851,1,8,3:2:0:0:
224,199,90932,6,0,P|151:207|63:221,2,140,6|8|0,3:2|3:2|3:0,0:0:0:0:
303,129,91743,1,0,3:0:0:0:
240,44,91905,2,0,P|203:19|128:50,1,105,10|0,3:2|0:0,0:0:0:0:
137,41,92229,6,0,P|102:48|68:56,1,70,2|0,3:0|3:0,0:0:0:0:
0,136,92553,2,0,P|34:143|68:151,1,70,10|0,3:2|0:0,0:0:0:0:
144,232,92878,1,2,3:0:0:0:
144,232,93040,1,0,3:0:0:0:
46,272,93202,2,0,P|36:321|67:362,1,105,10|0,3:2|0:0,0:0:0:0:
84,368,93526,6,0,P|135:344|243:343,1,140,2|8,3:0|3:2,0:0:0:0:
306,281,94013,1,2,0:0:0:0:
314,287,94094,1,2,0:0:0:0:
321,292,94175,2,0,L|311:368,1,70,2|0,3:0|3:0,0:0:0:0:
414,384,94499,2,0,L|423:314,1,70,8|0,3:2|0:0,0:0:0:0:
502,244,94824,5,6,3:2:0:0:
502,244,94986,1,8,3:2:0:0:
442,164,95148,1,0,3:0:0:0:
442,164,95310,1,8,3:2:0:0:
496,75,95472,2,0,P|462:71|427:66,1,70,0|8,3:0|3:2,0:0:0:0:
419,58,95715,1,8,3:2:0:0:
408,50,95797,2,0,L|351:61,3,35,8|8|4|4,3:0|3:0|3:0|3:0,0:0:0:0:
323,71,96121,5,8,3:2:0:0:
228,25,96283,1,4,3:0:0:0:
216,29,96364,1,4,3:0:0:0:
205,33,96445,1,14,3:2:0:0:
256,192,96526,12,0,101310,0:0:0:0:
