osu file format v14

[General]
AudioFilename: audio.mp3
AudioLeadIn: 0
PreviewTime: 64297
Countdown: 0
SampleSet: Soft
StackLeniency: 0.4
Mode: 0
LetterboxInBreaks: 0
WidescreenStoryboard: 0

[Editor]
Bookmarks: 13046,23424,33803,44181,54559,75316
DistanceSpacing: 0.9
BeatDivisor: 4
GridSize: 32
TimelineZoom: 2.1

[Metadata]
Title:Hoshizora no Ima
TitleUnicode:星空のいま
Artist:Sagara Kokoro
ArtistUnicode:相良心
Creator:Xahlt
Version:Xahjinn's Starry Skies
Source:星空へ架かる橋AA
Tags:Sajinn Kyuukai Eimi Fukada yaleufeu AsuKow Synaelle AlBA- Hoshizora e Kakaru Hashi AA Feng Visual Novel Video Game Eroge Japanese Pop Jpop J-pop Ending ED
BeatmapID:2957175
BeatmapSetID:1437267

[Difficulty]
HPDrainRate:5.5
CircleSize:3.8
OverallDifficulty:8.8
ApproachRate:9.2
SliderMultiplier:1.9
SliderTickRate:1

[Events]
//Background and Video events
0,0,"bg4.jpg",0,0
//Break Periods
//Storyboard Layer 0 (Background)
//Storyboard Layer 1 (Fail)
//Storyboard Layer 2 (Pass)
//Storyboard Layer 3 (Foreground)
//Storyboard Layer 4 (Overlay)
//Storyboard Sound Samples

[TimingPoints]
2716,324.324324324324,4,2,1,50,1,0
2716,-166.666666666667,4,2,1,50,0,0
9121,-166.666666666667,4,2,1,5,0,0
9202,-166.666666666667,4,2,1,50,0,0
13094,-125,4,2,1,60,0,0
14310,-125,4,2,1,5,0,0
14391,-125,4,2,1,60,0,0
18283,-125,4,2,1,40,0,0
18932,-125,4,2,1,45,0,0
19175,-125,4,2,1,5,0,0
19256,-125,4,2,1,45,0,0
19580,-125,4,2,1,50,0,0
19824,-125,4,2,1,5,0,0
19905,-125,4,2,1,50,0,0
20229,-125,4,2,1,55,0,0
20878,-125,4,2,1,60,0,0
21203,-125,4,2,1,65,0,0
21527,-125,4,2,1,70,0,0
21851,-125,4,2,1,75,0,0
22175,-125,4,2,1,80,0,0
23472,-83.3333333333333,4,2,1,70,0,0
23715,-83.3333333333333,4,2,1,5,0,0
23797,-100,4,2,1,70,0,0
24688,-100,4,2,1,5,0,0
24770,-100,4,2,1,70,0,0
25337,-100,4,2,1,5,0,0
25418,-100,4,2,1,70,0,0
28661,-83.3333333333333,4,2,1,70,0,0
28905,-83.3333333333333,4,2,1,5,0,0
28986,-100,4,2,1,70,0,0
29878,-100,4,2,1,5,0,0
29959,-100,4,2,1,70,0,0
31175,-100,4,2,1,5,0,0
31256,-100,4,2,1,70,0,0
33607,-100,4,2,2,70,0,0
33688,-100,4,2,1,70,0,0
33851,-100,4,2,1,40,0,0
34499,-250.000000000001,4,2,1,40,0,0
43743,-125,4,2,1,60,0,0
44067,-142.857142857143,4,2,2,60,0,0
44148,-142.857142857143,4,2,1,60,0,0
48932,-142.857142857143,4,2,2,60,0,0
49094,-142.857142857143,4,2,1,60,0,0
50310,-142.857142857143,4,2,1,5,0,0
50391,-142.857142857143,4,2,1,60,0,0
53310,-100,4,2,1,60,0,0
53553,-100,4,2,1,5,0,0
53634,-100,4,2,1,60,0,0
54607,-111.111111111111,4,2,1,65,0,0
56148,-111.111111111111,4,2,1,5,0,0
56229,-111.111111111111,4,2,1,65,0,0
58499,-76.9230769230769,4,2,1,65,0,0
58743,-76.9230769230769,4,2,1,5,0,0
58824,-200,4,2,1,65,0,0
59067,-200,4,2,1,5,0,0
59148,-200,4,2,1,65,0,0
59797,-200,4,2,1,45,0,0
61094,-333.333333333333,4,2,1,45,0,0
62391,-100,4,2,1,60,0,0
62634,-100,4,2,1,5,0,0
62715,-100,4,2,1,60,0,0
63851,-200,4,2,1,30,0,0
64337,-100,4,2,10,60,0,0
64580,-100,4,2,1,5,0,0
64661,-250,4,2,13,70,0,0
64905,-250,4,2,1,5,0,0
64986,-83.3333333333333,4,2,12,80,0,1
65229,-83.3333333333333,4,2,21,5,0,1
65310,-83.3333333333333,4,2,1,80,0,1
65472,-83.3333333333333,4,2,13,80,0,1
65634,-83.3333333333333,4,2,12,80,0,1
65878,-83.3333333333333,4,2,12,5,0,1
65959,-83.3333333333333,4,2,1,80,0,1
66121,-83.3333333333333,4,2,13,80,0,1
66283,-83.3333333333333,4,2,12,80,0,1
66526,-83.3333333333333,4,2,12,5,0,1
66607,-83.3333333333333,4,2,1,80,0,1
66770,-83.3333333333333,4,2,13,80,0,1
66932,-83.3333333333333,4,2,12,80,0,1
67094,-83.3333333333333,4,2,13,80,0,1
67256,-83.3333333333333,4,2,14,80,0,1
67418,-83.3333333333333,4,2,13,80,0,1
67580,-83.3333333333333,4,2,12,80,0,1
67905,-83.3333333333333,4,2,1,80,0,1
68067,-83.3333333333333,4,2,13,80,0,1
68229,-83.3333333333333,4,2,13,80,0,1
68472,-83.3333333333333,4,2,13,5,0,1
68553,-83.3333333333333,4,2,1,80,0,1
69526,-83.3333333333333,4,2,13,80,0,1
69770,-83.3333333333333,4,2,13,5,0,1
69851,-166.666666666667,4,2,14,80,0,1
70094,-166.666666666667,4,2,14,5,0,1
70175,-83.3333333333333,4,2,12,80,0,1
70418,-83.3333333333333,4,2,21,5,0,1
70499,-83.3333333333333,4,2,1,80,0,1
70824,-83.3333333333333,4,2,13,80,0,1
71067,-83.3333333333333,4,2,13,5,0,1
71148,-166.666666666667,4,2,14,80,0,1
71391,-166.666666666667,4,2,14,5,0,1
71472,-83.3333333333333,4,2,12,80,0,1
71715,-83.3333333333333,4,2,12,5,0,1
71797,-83.3333333333333,4,2,13,80,0,1
71959,-83.3333333333333,4,2,12,80,0,1
72121,-83.3333333333333,4,2,11,80,0,1
72364,-83.3333333333333,4,2,11,5,0,1
72445,-83.3333333333333,4,2,12,80,0,1
72770,-83.3333333333333,4,2,12,80,0,1
73094,-83.3333333333333,4,2,1,80,0,1
73256,-83.3333333333333,4,2,13,80,0,1
73418,-83.3333333333333,4,2,13,80,0,1
73661,-83.3333333333333,4,2,13,5,0,1
73743,-83.3333333333333,4,2,1,80,0,1
74715,-83.3333333333333,4,2,10,80,0,1
74878,-83.3333333333333,4,2,1,80,0,1
75040,-83.3333333333333,4,2,13,80,0,1
75121,-83.3333333333333,4,2,1,80,0,1
75364,-83.3333333333333,4,2,12,80,0,1
75688,-83.3333333333333,4,2,1,80,0,1
75851,-83.3333333333333,4,2,13,80,0,1
76013,-83.3333333333333,4,2,12,80,0,1
76256,-83.3333333333333,4,2,12,5,0,1
76338,-83.3333333333333,4,2,1,80,0,1
76499,-83.3333333333333,4,2,13,80,0,1
76661,-83.3333333333333,4,2,12,80,0,1
76905,-83.3333333333333,4,2,12,5,0,1
76987,-83.3333333333333,4,2,1,80,0,1
77148,-83.3333333333333,4,2,13,80,0,1
77310,-83.3333333333333,4,2,12,80,0,1
77472,-83.3333333333333,4,2,13,80,0,1
77634,-83.3333333333333,4,2,14,80,0,1
77797,-83.3333333333333,4,2,13,80,0,1
77959,-83.3333333333333,4,2,12,80,0,1
78283,-83.3333333333333,4,2,1,80,0,1
78445,-83.3333333333333,4,2,13,80,0,1
78607,-83.3333333333333,4,2,13,80,0,1
78851,-83.3333333333333,4,2,13,5,0,1
78933,-83.3333333333333,4,2,1,80,0,1
79094,-83.3333333333333,4,2,13,80,0,1
79175,-83.3333333333333,4,2,1,80,0,1
79256,-83.3333333333333,4,2,15,80,0,1
79418,-83.3333333333333,4,2,14,80,0,1
79580,-83.3333333333333,4,2,13,80,0,1
79743,-83.3333333333333,4,2,12,80,0,1
79824,-83.3333333333333,4,2,12,80,0,1
80067,-83.3333333333333,4,2,11,80,0,1
80148,-83.3333333333333,4,2,1,80,0,1
80391,-83.3333333333333,4,2,12,80,0,1
80472,-83.3333333333333,4,2,1,80,0,1
80553,-83.3333333333333,4,2,1,80,0,1
80797,-83.3333333333333,4,2,1,5,0,1
80878,-83.3333333333333,4,2,13,80,0,1
80879,-83.3333333333333,4,2,13,80,0,1
81040,-83.3333333333333,4,2,13,80,0,1
82499,-83.3333333333333,4,2,11,80,0,1
82824,-83.3333333333333,4,2,11,80,0,1
83148,-83.3333333333333,4,2,12,80,0,1
83634,-83.3333333333333,4,2,12,80,0,1
83797,-83.3333333333333,4,2,13,80,0,1
84445,-83.3333333333333,4,2,1,70,0,0
85743,-100,4,2,1,70,0,0
85986,-100,4,2,1,5,0,0
86068,-100,4,2,1,70,0,0
86959,-100,4,2,1,5,0,0
87041,-100,4,2,1,70,0,0
87607,-100,4,2,1,5,0,0
87689,-100,4,2,1,70,0,0
92148,-100,4,2,1,5,0,0
92229,-100,4,2,1,70,0,0
96445,-526.315789473684,4,2,1,70,0,0
96770,-526.315789473684,4,2,1,60,0,0
97418,-526.315789473684,4,2,1,50,0,0
98067,-526.315789473684,4,2,1,40,0,0
98715,-526.315789473684,4,2,1,30,0,0
99364,-526.315789473684,4,2,1,20,0,0
100013,-526.315789473684,4,2,1,10,0,0
100661,-526.315789473684,4,2,1,5,0,0

[Colours]
Combo1 : 128,128,255
Combo2 : 255,255,0
Combo3 : 128,255,255
Combo4 : 128,255,0

[HitObjects]
143,125,2716,6,0,P|201:107|272:88,1,113.999996520996,2|0,0:2|0:0,0:0:0:0:
252,92,3202,1,2,0:2:0:0:
133,136,3364,2,0,P|98:167|121:244,1,113.999996520996,2|0,0:2|0:0,0:0:0:0:
104,229,3851,1,2,0:2:0:0:
211,384,4013,6,0,P|227:328|243:274,1,113.999996520996,2|0,0:2|0:0,0:0:0:0:
195,212,4499,1,2,0:2:0:0:
292,178,4661,5,2,0:2:0:0:
309,171,4824,1,2,0:2:0:0:
429,283,4986,5,2,0:2:0:0:
359,258,5148,1,2,0:2:0:0:
511,139,5310,6,0,P|480:174|403:151,1,113.999996520996,2|0,0:2|0:0,0:0:0:0:
370,93,5797,1,2,0:2:0:0:
229,105,5959,2,0,P|283:88|338:72,1,113.999996520996,2|0,0:2|0:0,0:0:0:0:
108,29,6526,5,0,0:0:0:0:
100,33,6607,2,0,P|95:61|90:89,1,56.9999982604981,0|0,0:0|0:0,0:0:0:0:
190,187,6932,2,0,P|163:177|136:166,1,56.9999982604981,0|0,0:0|0:0,0:0:0:0:
19,253,7256,5,2,0:2:0:0:
6,269,7580,1,2,0:2:0:0:
181,307,7905,6,0,B|87:272|100:368|3:347,1,170.999994781494,2|0,0:2|0:0,0:0:0:0:
192,299,8553,2,0,P|217:269|221:241,1,56.9999982604981,2|0,0:2|0:0,0:0:0:0:
265,355,8878,2,0,P|306:347|369:334,1,85.4999973907472,2|0,0:2|0:0,0:0:0:0:
355,333,9202,5,2,0:2:0:0:
415,241,9526,1,2,0:2:0:0:
463,300,9688,1,2,0:2:0:0:
355,333,9851,2,0,P|359:304|373:208,1,113.999996520996,2|2,0:2|0:2,0:0:0:0:
160,142,10499,6,0,B|187:119|203:55|203:55|200:101|236:139,1,170.999994781494,2|2,0:2|0:2,0:0:0:0:
291,60,11148,2,0,B|352:53|352:53|396:81|396:81|476:72,1,170.999994781494,2|0,0:2|0:0,0:0:0:0:
376,166,11797,5,0,0:0:0:0:
64,170,12445,2,0,P|91:139|174:155,1,113.999996520996,2|2,0:2|0:2,0:0:0:0:
281,329,12932,5,4,3:0:0:0:
285,334,13013,1,4,3:0:0:0:
290,339,13094,6,0,P|216:318|144:295,1,152,6|0,3:2|3:0,0:0:0:0:
41,361,13580,1,2,0:2:0:0:
138,281,13743,2,0,P|175:274|212:266,1,76,2|0,3:2|0:0,0:0:0:0:
302,185,14067,2,0,P|355:176|397:231,1,114,0|0,3:2|0:0,0:0:0:0:
403,232,14391,6,0,B|403:154|468:182|463:92,1,152,2|0,3:2|3:2,0:0:0:0:
399,13,14878,1,2,0:2:0:0:
319,83,15040,5,2,3:2:0:0:
299,91,15202,1,2,0:2:0:0:
212,28,15364,5,2,3:2:0:0:
129,15,15526,1,2,0:2:0:0:
38,100,15688,6,0,B|75:101|88:134|88:134|48:229,1,152,2|0,3:2|3:2,0:0:0:0:
7,313,16175,1,2,0:2:0:0:
172,289,16337,2,0,P|79:309|15:327,1,152,2|0,3:2|3:2,0:0:0:0:
123,381,16824,1,2,0:2:0:0:
188,287,16986,5,2,3:2:0:0:
207,283,17148,1,2,0:2:0:0:
295,211,17310,1,2,3:2:0:0:
291,384,17472,6,0,P|295:346|302:308,1,76,2|0,0:2|3:2,0:0:0:0:
201,192,17797,2,0,P|196:154|189:116,1,76,10|0,3:0|0:0,0:0:0:0:
290,15,18121,1,6,3:0:0:0:
294,11,18202,1,4,3:0:0:0:
298,5,18283,6,0,B|354:18|354:18|375:43|375:43|443:57,1,152,12|10,3:2|3:2,0:0:0:0:
509,146,18770,1,10,0:2:0:0:
431,266,18932,6,0,B|389:297|389:297|327:257,1,114,8|0,3:2|0:0,0:0:0:0:
326,252,19256,2,0,P|331:214|338:177,1,76,8|8,3:2|0:2,0:0:0:0:
177,32,19580,6,0,P|188:87|198:143,1,114,8|0,3:2|0:0,0:0:0:0:
198,158,19905,2,0,P|169:180|132:174,1,76,8|8,3:2|0:2,0:0:0:0:
7,279,20229,5,10,3:2:0:0:
20,282,20391,1,8,0:2:0:0:
84,349,20553,5,10,3:2:0:0:
163,324,20715,1,8,0:2:0:0:
263,231,20878,5,14,3:2:0:0:
393,272,21040,1,8,0:2:0:0:
286,357,21202,1,8,3:2:0:0:
396,164,21364,1,10,3:2:0:0:
487,374,21526,5,10,3:2:0:0:
396,147,21688,1,8,3:2:0:0:
281,372,21851,1,8,3:2:0:0:
501,238,22013,1,8,3:2:0:0:
391,4,22175,5,8,3:2:0:0:
357,186,23472,6,0,B|333:136|333:136|293:114|226:132|226:217,1,170.999994781494,6|0,3:2|0:0,0:0:0:0:
368,200,23797,2,0,P|419:183|469:166,1,95,8|0,3:2|0:0,0:0:0:0:
354,286,24121,1,2,3:0:0:0:
232,168,24283,1,0,3:0:0:0:
62,359,24445,2,0,B|83:335|100:281|100:281|102:330|144:355,1,142.5,10|0,3:2|0:0,0:0:0:0:
179,280,24770,6,0,P|234:295|269:257,1,95,2|0,3:0|3:0,0:0:0:0:
160,35,25094,2,0,P|149:98|132:205,1,142.5,8|0,3:2|0:0,0:0:0:0:
140,189,25418,1,0,3:0:0:0:
232,168,25580,1,0,3:0:0:0:
426,257,25743,1,10,3:2:0:0:
347,323,25905,5,2,0:0:0:0:
341,326,25986,1,2,0:0:0:0:
335,330,26067,2,0,B|288:236|406:246|329:115,1,190,2|8,3:0|3:2,0:0:0:0:
346,149,26553,1,0,0:0:0:0:
138,183,26715,2,0,P|201:173|237:166,1,95,2|0,3:0|3:0,0:0:0:0:
363,30,27040,2,0,B|327:38|327:38|315:55|315:55|258:69,1,95,10|0,3:2|0:0,0:0:0:0:
138,183,27364,6,0,B|105:298|105:298|132:262|172:247,1,190,2|8,3:0|3:2,0:0:0:0:
406,339,27932,1,8,3:2:0:0:
410,343,28013,1,0,3:2:0:0:
335,384,28175,1,0,3:0:0:0:
186,332,28337,1,10,3:2:0:0:
361,139,28499,5,8,3:2:0:0:
366,135,28580,1,8,3:2:0:0:
371,130,28661,2,0,P|344:246|329:311,1,170.999994781494,6|0,3:2|0:0,0:0:0:0:
327,304,28986,2,0,P|295:267|242:270,1,95,8|0,3:2|0:0,0:0:0:0:
112,376,29310,1,0,3:0:0:0:
186,332,29472,1,0,3:0:0:0:
32,190,29634,2,0,B|57:165|87:135|87:135|116:171|145:207,1,142.5,10|0,3:2|0:0,0:0:0:0:
134,197,29959,6,0,P|117:252|99:310,1,95,2|0,3:0|3:0,0:0:0:0:
292,169,30283,2,0,B|244:185|244:185|200:147,1,95,10|0,3:2|0:0,0:0:0:0:
345,30,30607,2,0,B|381:44|381:44|391:62|391:62|451:86,1,95,2|0,3:0|3:0,0:0:0:0:
498,213,30932,2,0,P|458:170|376:198,1,142.5,10|0,3:2|0:0,0:0:0:0:
326,245,31256,6,0,B|310:281|334:310|334:310|412:295|483:281,1,190,2|8,3:0|3:2,0:0:0:0:
490,130,31743,1,2,0:0:0:0:
490,124,31824,1,2,0:0:0:0:
491,117,31905,5,2,3:0:0:0:
420,76,32067,1,0,3:0:0:0:
292,169,32229,5,10,3:2:0:0:
410,157,32391,1,0,0:0:0:0:
251,52,32553,5,6,3:2:0:0:
177,164,32715,1,8,3:2:0:0:
95,5,32878,1,0,3:0:0:0:
185,174,33040,1,8,3:2:0:0:
47,343,33202,1,0,3:0:0:0:
4,226,33364,5,8,3:2:0:0:
35,194,33445,1,8,3:2:0:0:
83,197,33526,1,8,3:0:0:0:
112,230,33607,1,8,3:0:0:0:
136,269,33688,1,4,3:0:0:0:
187,276,33770,1,4,3:0:0:0:
195,266,34337,5,2,0:2:0:0:
288,278,34499,2,0,P|281:241|275:203,1,76,2|2,0:2|0:2,0:0:0:0:
211,153,34986,2,0,P|259:171|302:115,1,114,2|2,0:2|0:2,0:0:0:0:
292,52,35634,2,0,P|348:57|405:64,1,114,2|2,0:2|0:2,0:0:0:0:
466,115,36283,1,2,0:2:0:0:
466,115,37418,5,2,0:2:0:0:
415,177,37580,1,2,0:2:0:0:
163,335,39526,5,2,0:2:0:0:
90,384,39688,2,0,P|84:346|78:308,1,76,2|2,0:2|0:2,0:0:0:0:
23,249,40175,2,0,P|68:219|61:165,1,114,2|0,0:2|0:0,0:0:0:0:
5,87,40986,1,2,0:2:0:0:
13,78,41310,1,2,0:2:0:0:
21,69,41634,6,0,P|58:65|96:61,1,76,2|2,0:2|0:2,0:0:0:0:
163,15,42121,2,0,L|176:53,1,38,2|0,0:2|0:0,0:0:0:0:
241,95,42445,2,0,L|235:139,1,38,2|2,0:2|0:2,0:0:0:0:
181,191,42770,1,2,0:2:0:0:
245,286,43743,6,0,B|289:262|291:205|291:205|304:261|322:272,1,152,8|8,3:0|3:0,0:0:0:0:
317,262,44148,1,4,3:0:0:0:
324,266,44229,6,0,P|366:256|461:234,1,132.999995941162,4|0,3:2|3:0,0:0:0:0:
475,85,44715,1,2,0:2:0:0:
433,150,44878,2,0,P|394:165|329:96,1,132.999995941162,2|2,3:0|3:0,0:0:0:0:
261,28,45364,1,2,0:2:0:0:
261,28,45526,6,0,P|252:60|227:167,1,132.999995941162,0|2,3:0|3:0,0:0:0:0:
98,112,46013,1,2,0:2:0:0:
98,112,46175,2,0,P|129:91|168:100,1,66.4999979705811,0|0,3:0|0:0,0:0:0:0:
229,157,46499,1,2,3:0:0:0:
82,256,46661,1,10,0:2:0:0:
194,347,46824,6,0,P|178:282|162:217,2,132.999995941162,0|0|0,3:0|3:0|3:0,0:0:0:0:
438,266,47797,1,2,3:0:0:0:
384,317,47959,1,2,0:2:0:0:
290,264,48121,2,0,P|334:277|363:287,1,66.4999979705811,0|0,3:0|0:0,0:0:0:0:
456,145,48445,5,0,3:0:0:0:
352,183,48607,1,8,3:0:0:0:
283,148,48770,5,0,3:0:0:0:
420,29,48932,1,8,3:0:0:0:
394,96,49094,1,2,3:0:0:0:
276,29,49256,5,4,3:0:0:0:
269,26,49337,1,4,3:0:0:0:
260,22,49418,2,0,P|185:39|130:50,1,132.999995941162,6|0,3:2|3:0,0:0:0:0:
12,205,50067,2,0,P|41:234|111:219,1,99.7499969558717,0|0,3:0|0:0,0:0:0:0:
104,225,50391,1,2,3:0:0:0:
130,145,50553,1,2,0:2:0:0:
130,145,50715,6,0,B|153:122|174:135|174:135|192:223,1,132.999995941162,0|0,3:0|3:0,0:0:0:0:
326,353,51364,2,0,P|285:357|259:325,1,66.4999979705811,2|0,3:0|0:0,0:0:0:0:
189,220,51688,1,2,3:0:0:0:
117,348,51851,1,8,0:2:0:0:
15,321,52013,6,0,P|80:307|145:292,1,132.999995941162,2|2,3:0|3:0,0:0:0:0:
189,220,52499,1,2,0:2:0:0:
189,220,52661,2,0,P|230:228|262:233,1,66.4999979705811,0|0,3:0|0:0,0:0:0:0:
345,154,52986,1,2,3:0:0:0:
440,285,53148,1,10,0:2:0:0:
447,292,53229,1,8,0:2:0:0:
447,292,53310,6,0,B|459:256|418:226|418:226|431:256|419:298,1,142.5,4|0,3:2|0:0,0:0:0:0:
349,327,53634,1,8,0:2:0:0:
478,161,53878,5,0,0:0:0:0:
483,157,53959,1,0,3:0:0:0:
392,86,54121,5,8,0:2:0:0:
345,154,54283,1,8,0:2:0:0:
278,108,54445,1,4,3:0:0:0:
227,170,54607,6,0,B|245:216|272:303,2,128.249996086121,6|0|2,3:2|0:0|0:2,0:0:0:0:
92,263,55256,2,0,B|133:236|135:162|135:162|135:206|162:231,1,170.999994781494,2|0,3:0|3:0,0:0:0:0:
212,157,55743,1,2,0:2:0:0:
174,66,55905,6,0,P|111:79|48:93,1,128.249996086121,2|0,3:0|0:0,0:0:0:0:
36,103,56229,1,2,3:0:0:0:
115,2,56391,5,2,0:2:0:0:
189,49,56553,1,2,3:0:0:0:
278,15,56715,1,0,0:0:0:0:
338,76,56878,1,0,3:0:0:0:
259,98,57040,1,2,0:2:0:0:
416,7,57202,6,0,B|453:12|476:42|476:42|457:86|435:145,1,170.999994781494,2|0,3:0|3:0,0:0:0:0:
438,134,57688,1,2,0:2:0:0:
302,175,57851,2,0,B|363:190|363:190|385:219|385:219|471:240,1,170.999994781494,2|0,3:0|3:0,0:0:0:0:
454,235,58337,1,2,0:2:0:0:
340,384,58499,6,0,B|315:334|308:273|308:273|300:310|273:338,1,185.249991519928,2|0,3:0|0:0,0:0:0:0:
267,338,58824,2,0,P|233:330|198:323,1,71.25,10|0,2:0|0:0,0:0:0:0:
183,329,59148,5,10,3:0:0:0:
67,374,59310,1,4,3:0:0:0:
145,244,59472,1,4,3:0:0:0:
49,125,59634,1,8,2:0:0:0:
104,63,59797,5,2,0:2:0:0:
130,142,60121,1,2,0:2:0:0:
49,125,60445,1,2,0:2:0:0:
104,63,60770,1,2,0:2:0:0:
185,79,61094,6,0,P|212:73|242:64,1,56.9999982604981,2|0,0:2|0:0,0:0:0:0:
295,3,61743,2,0,P|308:8|321:13,1,28.4999991302491,2|0,0:2|0:0,0:0:0:0:
404,10,62067,2,0,P|410:22|417:35,1,28.4999991302491,2|0,0:2|0:0,0:0:0:0:
423,40,62310,1,0,0:0:0:0:
431,44,62391,6,0,P|421:117|411:207,1,142.5,4|0,3:2|0:0,0:0:0:0:
420,200,62715,5,0,3:0:0:0:
299,141,62878,1,10,2:0:0:0:
191,219,63040,1,6,3:0:0:0:
65,175,63202,2,0,P|71:197|78:228,1,47.5,8|8,2:0|2:0,0:0:0:0:
13,344,63364,5,4,3:0:0:0:
57,308,63445,1,8,2:0:0:0:
113,304,63526,1,8,3:0:0:0:
161,334,63607,1,4,3:0:0:0:
169,328,63851,6,0,L|159:379,2,47.5,0|0|0,0:0|0:0|0:0,0:0:0:0:
233,275,64337,6,0,B|271:263|301:289|301:289|310:328|352:342,1,142.5,2|0,0:2|0:0,0:0:0:0:
352,333,64661,2,0,P|319:347|315:372,1,57,2|0,0:2|0:0,0:0:0:0:
462,383,64986,6,0,P|450:310|429:186,1,170.999994781494,6|0,3:2|0:0,0:0:0:0:
440,203,65310,1,0,3:0:0:0:
500,106,65472,1,2,0:2:0:0:
377,28,65634,6,0,B|311:47|311:47|291:72|291:72|198:97,1,170.999994781494,2|0,3:2|0:0,0:0:0:0:
208,84,65959,1,8,3:2:0:0:
106,33,66121,1,2,0:2:0:0:
31,151,66283,6,0,B|80:133|111:160|111:160|123:204|190:212,1,170.999994781494,2|0,3:2|0:0,0:0:0:0:
188,201,66607,1,8,3:2:0:0:
294,158,66770,5,2,0:2:0:0:
383,262,66932,1,2,3:2:0:0:
250,286,67094,1,2,0:2:0:0:
408,155,67256,1,10,3:2:0:0:
468,355,67418,1,2,0:2:0:0:
383,262,67580,6,0,P|274:292|164:325,1,227.999993041992,2|8,3:2|3:2,0:0:0:0:
64,381,68067,1,2,0:2:0:0:
0,242,68229,2,0,B|30:202|35:131|35:131|45:174|68:196,1,170.999994781494,2|0,3:2|0:0,0:0:0:0:
64,183,68553,2,0,P|119:189|179:197,1,113.999996520996,8|0,3:2|0:0,0:0:0:0:
273,135,68878,5,0,3:0:0:0:
191,190,69040,1,0,0:0:0:0:
181,94,69202,1,8,3:2:0:0:
267,41,69364,1,0,0:0:0:0:
354,83,69526,6,0,B|391:124|374:164|374:164|329:193|350:255,1,170.999994781494,2|0,3:2|0:0,0:0:0:0:
355,246,69851,2,0,P|312:231|269:258,1,85.4999973907472,10|0,3:2|0:0,0:0:0:0:
238,338,70175,6,0,P|323:333|408:332,1,170.999994781494,2|0,3:2|0:0,0:0:0:0:
424,332,70499,2,0,P|467:296|448:242,1,113.999996520996,8|0,3:2|0:0,0:0:0:0:
493,84,70824,6,0,P|429:133|360:92,1,170.999994781494,2|0,3:2|0:0,0:0:0:0:
354,83,71148,2,0,P|362:42|374:-14,1,85.4999973907472,10|0,0:2|0:0,0:0:0:0:
270,13,71472,6,0,P|189:22|71:41,1,170.999994781494,2|0,3:2|0:0,0:0:0:0:
89,43,71797,1,10,0:2:0:0:
15,130,71959,1,2,0:2:0:0:
142,180,72121,6,0,P|223:189|341:208,1,170.999994781494,2|0,3:2|0:0,0:0:0:0:
325,205,72445,2,0,P|353:260|319:295,1,113.999996520996,10|0,0:2|0:0,0:0:0:0:
59,379,72770,6,0,B|57:264|177:308|136:154,1,227.999993041992,2|8,3:2|3:2,0:0:0:0:
76,58,73256,1,2,0:2:0:0:
267,0,73418,6,0,B|299:3|330:32|330:32|295:124,1,170.999994781494,2|0,3:2|0:0,0:0:0:0:
284,136,73743,1,8,3:2:0:0:
431,224,73905,1,8,2:0:0:0:
428,216,73986,1,8,2:0:0:0:
424,207,74067,1,0,3:0:0:0:
498,81,74229,5,12,2:0:0:0:
284,136,74391,1,12,3:2:0:0:
310,322,74553,5,4,3:0:0:0:
313,314,74634,1,4,3:0:0:0:
317,305,74715,1,2,3:2:0:0:
218,229,74878,5,8,2:0:0:0:
205,228,74959,5,8,2:0:0:0:
170,259,75040,5,10,3:2:0:0:
152,249,75121,5,8,2:0:0:0:
122,278,75202,5,8,2:0:0:0:
79,252,75283,5,8,2:0:0:0:
70,262,75364,6,0,B|31:154|171:157|110:48,1,227.999993041992,6|8,3:2|3:2,0:0:0:0:
255,11,75851,1,2,2:0:0:0:
396,134,76013,6,0,P|355:86|251:116,1,170.999994781494,2|0,3:2|0:0,0:0:0:0:
255,117,76337,1,8,3:2:0:0:
323,261,76499,1,2,2:0:0:0:
254,369,76661,6,0,P|266:303|286:185,1,170.999994781494,2|0,3:2|0:0,0:0:0:0:
275,194,76986,1,8,3:2:0:0:
82,370,77148,5,2,2:0:0:0:
158,201,77310,1,2,3:2:0:0:
254,369,77472,1,2,2:0:0:0:
146,308,77634,1,10,3:2:0:0:
38,249,77797,1,2,2:0:0:0:
101,130,77959,6,0,B|184:108|184:108|201:16|101:-3,1,227.999993041992,2|8,3:2|3:2,0:0:0:0:
0,3,78445,1,2,2:0:0:0:
90,139,78607,2,0,P|75:223|60:307,1,170.999994781494,2|0,3:2|0:0,0:0:0:0:
67,322,78932,5,12,3:2:0:0:
148,283,79094,1,2,3:2:0:0:
153,280,79175,1,4,3:0:0:0:
159,277,79256,1,2,3:2:0:0:
353,373,79418,5,14,2:2:0:0:
276,335,79580,1,14,2:2:0:0:
276,335,79743,6,0,L|265:266,1,56.9999982604981,10|8,2:0|2:0,0:0:0:0:
362,102,79905,1,4,3:2:0:0:
491,226,80067,5,10,2:0:0:0:
458,258,80148,1,8,2:0:0:0:
415,248,80229,2,0,P|386:235|346:225,1,56.9999982604981,0|8,3:0|2:0,0:0:0:0:
277,83,80391,2,0,P|249:91|223:103,1,56.9999982604981,2|8,2:0|3:0,0:0:0:0:
56,218,80553,6,0,B|46:170|88:135|88:135|76:184|101:227,1,170.999994781494,4|0,3:2|0:0,0:0:0:0:
127,277,80878,5,2,3:2:0:0:
141,302,81040,1,2,2:0:0:0:
197,351,81202,1,0,3:0:0:0:
292,351,81364,1,4,3:0:0:0:
367,292,81526,1,0,3:0:0:0:
380,191,81688,1,4,3:0:0:0:
282,333,81851,5,0,3:0:0:0:
256,187,82013,1,4,3:0:0:0:
391,99,82175,5,0,3:0:0:0:
359,276,82337,1,4,3:0:0:0:
241,78,82499,5,10,3:2:0:0:
457,222,82661,1,8,2:0:0:0:
191,245,82824,5,10,3:2:0:0:
413,100,82986,1,8,3:2:0:0:
167,259,83148,5,14,3:2:0:0:
332,39,83310,1,8,2:0:0:0:
377,296,83472,5,8,3:2:0:0:
218,68,83634,1,10,3:2:0:0:
478,210,83797,5,10,3:2:0:0:
191,245,83959,1,8,2:0:0:0:
432,79,84121,5,8,3:2:0:0:
158,4,84283,1,8,2:0:0:0:
510,124,84445,5,8,3:2:0:0:
252,58,85418,5,8,2:0:0:0:
207,42,85499,1,8,2:0:0:0:
157,58,85580,1,8,2:0:0:0:
131,100,85661,1,8,2:0:0:0:
127,108,85743,6,0,P|143:177|167:281,1,142.5,6|0,3:2|0:0,0:0:0:0:
226,285,86067,2,0,P|262:250|322:261,1,95,8|0,3:2|0:0,0:0:0:0:
404,342,86391,1,2,3:0:0:0:
466,258,86553,1,0,3:0:0:0:
398,121,86715,2,0,B|346:102|346:102|338:49|388:30,1,142.5,10|0,3:2|0:0,0:0:0:0:
404,128,87040,6,0,P|392:187|383:242,1,95,2|0,3:0|3:0,0:0:0:0:
199,361,87364,2,0,B|220:337|237:283|237:283|239:332|281:357,1,142.5,8|0,3:2|0:0,0:0:0:0:
315,277,87688,1,0,3:0:0:0:
191,370,87851,1,0,3:0:0:0:
185,156,88013,1,10,3:2:0:0:
58,180,88175,5,2,0:0:0:0:
54,184,88256,1,2,0:0:0:0:
50,188,88337,2,0,B|32:221|44:251|44:251|176:237,1,190,2|8,3:0|3:2,0:0:0:0:
167,237,88824,1,0,0:0:0:0:
316,51,88986,2,0,B|282:57|282:57|260:77|260:77|212:87,1,95,2|0,3:0|3:0,0:0:0:0:
283,296,89310,2,0,B|261:250|261:250|293:201,1,95,10|0,3:2|0:0,0:0:0:0:
489,125,89634,6,0,B|446:76|396:94|396:94|367:148|302:140,1,190,2|8,3:0|3:2,0:0:0:0:
464,345,90202,1,8,3:2:0:0:
468,351,90283,1,0,3:2:0:0:
397,298,90445,1,0,3:0:0:0:
255,372,90607,1,10,3:2:0:0:
87,311,90770,5,8,3:2:0:0:
82,308,90851,1,8,3:2:0:0:
77,305,90932,2,0,P|168:317|272:331,1,190,6|8,3:2|3:2,0:0:0:0:
330,239,91418,1,0,0:0:0:0:
295,107,91580,2,0,P|260:139|267:190,1,95,0|0,3:0|3:0,0:0:0:0:
492,20,91905,2,0,B|443:24|443:24|414:49|414:49|357:53,1,142.5,10|0,3:2|0:0,0:0:0:0:
295,107,92229,6,0,P|237:94|185:83,1,95,2|0,3:0|3:0,0:0:0:0:
38,229,92553,2,0,P|63:186|117:185,1,95,10|0,3:2|0:0,0:0:0:0:
227,306,92878,2,0,B|214:267|214:267|221:241|221:241|204:185,1,95,2|0,3:0|3:0,0:0:0:0:
73,361,93202,2,0,P|119:370|165:381,1,95,10|0,3:2|0:0,0:0:0:0:
376,376,93526,6,0,B|414:278|288:298|344:178,1,190,2|8,3:0|3:2,0:0:0:0:
440,80,94013,1,2,0:0:0:0:
446,79,94094,1,2,0:0:0:0:
453,80,94175,2,0,P|489:116|476:162,1,95,2|0,3:0|3:0,0:0:0:0:
302,126,94499,2,0,P|255:115|209:105,1,95,10|0,3:2|0:0,0:0:0:0:
18,242,94824,5,6,3:2:0:0:
90,210,94986,1,8,3:2:0:0:
126,98,95148,5,0,3:0:0:0:
81,293,95310,1,8,3:2:0:0:
234,381,95472,5,0,3:0:0:0:
166,172,95634,1,8,3:2:0:0:
201,137,95715,1,8,3:2:0:0:
251,140,95797,2,0,P|274:148|302:157,1,47.5,8|8,3:0|3:0,0:0:0:0:
436,255,95959,2,0,P|413:263|385:272,1,47.5,4|4,3:0|3:0,0:0:0:0:
261,296,96121,5,8,3:2:0:0:
261,296,96283,2,0,P|266:269|285:235,1,47.5,4|4,3:0|3:0,0:0:0:0:
409,171,96445,6,0,B|449:166|487:185|487:185|422:105|400:17|400:17|344:89|251:140|251:140|297:136|331:154,1,541.499993389893,14|0,3:2|0:0,0:0:0:0:
