osu file format v14

[General]
AudioFilename: audio.mp3
AudioLeadIn: 0
PreviewTime: 165761
Countdown: 0
SampleSet: Soft
StackLeniency: 0.3
Mode: 0
LetterboxInBreaks: 0
WidescreenStoryboard: 1

[Editor]
Bookmarks: 31491,52247,73004,93761,114518,135274,166410,187166,207923
DistanceSpacing: 0.3
BeatDivisor: 4
GridSize: 32
TimelineZoom: 2.899998

[Metadata]
Title:Hoshizora no Ima
TitleUnicode:星空のいま
Artist:Sagara Kokoro
ArtistUnicode:相良心
Creator:Reillia
Version:Starlight
Source:星空へ架かる橋AA
Tags:Eroge Kibbleru Dailycare Gimbab Game Kalibe Karen Collab japanese feng visual novel Curi [C_u_r_i] [Curi]
BeatmapID:1841906
BeatmapSetID:880854

[Difficulty]
HPDrainRate:6
CircleSize:4
OverallDifficulty:8.6
ApproachRate:9.4
SliderMultiplier:1.7
SliderTickRate:2

[Events]
//Background and Video events
0,0,"cache_70e51755-8032-4555-c5bc-13f524fa7087.jpg",0,0
//Break Periods
2,114718,123059
2,166610,176248
//Storyboard Layer 0 (Background)
//Storyboard Layer 1 (Fail)
//Storyboard Layer 2 (Pass)
//Storyboard Layer 3 (Foreground)
//Storyboard Sound Samples

[TimingPoints]
356,324.324324324324,4,2,12,45,1,0
356,-125,4,2,12,45,0,0
518,-125,4,2,10,45,0,0
680,-125,4,2,14,45,0,0
842,-125,4,2,10,45,0,0
1004,-125,4,2,12,45,0,0
1085,-125,4,2,10,45,0,0
1247,-125,4,2,1,45,0,0
1328,-125,4,2,14,45,0,0
1491,-125,4,2,10,45,0,0
1653,-125,4,2,12,45,0,0
1815,-125,4,2,10,45,0,0
1977,-125,4,2,14,45,0,0
2139,-125,4,2,10,45,0,0
2301,-125,4,2,12,45,0,0
2383,-125,4,2,10,45,0,0
2545,-125,4,2,1,45,0,0
2626,-125,4,2,14,45,0,0
2788,-125,4,2,10,45,0,0
2950,-125,4,2,13,45,0,0
3112,-125,4,2,10,45,0,0
3274,-125,4,2,14,45,0,0
3437,-125,4,2,10,45,0,0
3599,-125,4,2,13,45,0,0
3761,-125,4,2,10,45,0,0
3923,-125,4,2,14,45,0,0
4085,-125,4,2,10,45,0,0
4247,-125,4,2,11,45,0,0
4410,-125,4,2,10,45,0,0
4572,-125,4,2,12,45,0,0
4734,-125,4,2,10,45,0,0
4896,-125,4,2,11,45,0,0
5058,-125,4,2,10,45,0,0
5220,-125,4,2,12,45,0,0
5545,-125,4,2,12,45,0,0
5626,-125,4,2,10,45,0,0
5788,-125,4,2,1,45,0,0
5869,-125,4,2,14,45,0,0
6031,-125,4,2,10,45,0,0
6193,-125,4,2,12,45,0,0
6355,-125,4,2,10,45,0,0
6518,-125,4,2,14,45,0,0
6680,-125,4,2,10,45,0,0
6842,-125,4,2,12,45,0,0
6923,-125,4,2,10,45,0,0
7085,-125,4,2,1,45,0,0
7166,-125,4,2,14,45,0,0
7328,-125,4,2,10,45,0,0
7491,-125,4,2,12,45,0,0
7653,-125,4,2,10,45,0,0
7815,-125,4,2,14,45,0,0
7977,-125,4,2,10,45,0,0
8139,-125,4,2,13,45,0,0
8301,-125,4,2,10,45,0,0
8464,-125,4,2,14,45,0,0
8626,-125,4,2,13,45,0,0
8869,-125,4,2,1,45,0,0
8950,-125,4,2,10,45,0,0
9112,-125,4,2,14,45,0,0
9274,-125,4,2,13,45,0,0
9437,-125,4,2,11,45,0,0
9599,-125,4,2,10,45,0,0
9761,-125,4,2,12,45,0,0
9923,-125,4,2,10,45,0,0
10085,-125,4,2,11,45,0,0
10247,-125,4,2,10,45,0,0
10328,-125,4,2,12,45,0,0
10491,-125,4,2,10,45,0,0
10653,-125,4,2,1,45,0,0
10734,-111.111111111111,4,2,1,65,0,0
15923,-90.9090909090908,4,2,1,65,0,0
16166,-90.9090909090908,4,2,1,65,0,0
16247,-111.111111111111,4,2,1,65,0,0
20626,-111.111111111111,4,3,2,65,0,0
21112,-111.111111111111,4,2,1,50,0,0
24599,-111.111111111111,4,2,1,50,0,0
24680,-111.111111111111,4,2,1,50,0,0
25328,-76.9230769230769,4,2,1,50,0,0
25572,-76.9230769230769,4,2,1,50,0,0
25653,-111.111111111111,4,2,1,50,0,0
26301,-125,4,2,15,65,0,0
26626,-125,4,2,16,65,0,0
26950,-125,4,2,17,65,0,0
27274,-125,4,2,18,65,0,0
27599,-125,4,2,19,65,0,0
27923,-125,4,2,20,65,0,0
28247,-125,4,2,21,65,0,0
28572,-125,4,2,22,65,0,0
28896,-100,4,2,1,80,0,0
29139,-100,4,2,1,20,0,0
29220,-100,4,2,1,80,0,0
30355,-100,4,2,1,40,0,0
31166,-83.3333333333333,4,3,2,80,0,0
31247,-83.3333333333333,4,2,1,80,0,0
31410,-83.3333333333333,4,2,1,20,0,0
31491,-90.9090909090909,4,2,1,80,0,1
32220,-90.9090909090909,4,2,3,80,0,1
32383,-90.9090909090909,4,2,1,80,0,1
34166,-90.9090909090909,4,2,3,80,0,1
34328,-90.9090909090909,4,2,1,20,0,1
34410,-90.9090909090909,4,2,1,80,0,1
36761,-90.9090909090909,4,2,3,80,0,1
36923,-90.9090909090909,4,2,1,80,0,1
38058,-90.9090909090909,4,2,3,80,0,1
38220,-90.9090909090909,4,2,1,80,0,1
39355,-90.9090909090909,4,2,3,80,0,1
39518,-90.9090909090909,4,2,1,20,0,1
39599,-90.9090909090909,4,2,1,80,0,1
42599,-90.9090909090909,4,2,3,80,0,1
42761,-90.9090909090909,4,2,1,80,0,1
44545,-90.9090909090909,4,2,3,80,0,1
44707,-90.9090909090909,4,2,1,20,0,1
44788,-90.9090909090909,4,2,1,80,0,1
47058,-125,4,2,1,80,0,1
47707,-111.111111111111,4,2,1,80,0,1
48355,-100,4,2,1,80,0,1
50301,-100,4,3,2,80,0,1
51923,-100,4,2,1,65,0,1
52247,-142.857142857143,4,2,1,65,0,0
52491,-142.857142857143,4,2,1,20,0,0
52572,-90.9090909090909,4,2,1,65,0,0
52815,-90.9090909090909,4,2,1,20,0,0
52896,-90.9090909090909,4,2,1,65,0,0
54112,-90.9090909090909,4,2,1,20,0,0
54193,-90.9090909090909,4,2,1,65,0,0
55410,-90.9090909090909,4,2,1,20,0,0
55491,-90.9090909090909,4,2,1,65,0,0
59950,-90.9090909090909,4,2,1,20,0,0
60031,-100,4,2,1,65,0,0
62626,-125,4,2,12,65,0,0
63112,-125,4,2,10,45,0,0
63274,-125,4,2,12,45,0,0
63437,-125,4,2,10,45,0,0
63599,-125,4,2,14,45,0,0
63761,-125,4,2,10,45,0,0
63923,-125,4,2,12,45,0,0
64004,-125,4,2,10,45,0,0
64166,-125,4,2,1,45,0,0
64247,-125,4,2,14,45,0,0
64328,-125,4,2,10,45,0,0
64491,-125,4,2,1,45,0,0
64572,-125,4,2,12,45,0,0
64734,-125,4,2,10,45,0,0
64896,-125,4,2,14,45,0,0
65058,-125,4,2,10,45,0,0
65220,-125,4,2,13,45,0,0
65301,-125,4,2,10,45,0,0
65464,-125,4,2,1,45,0,0
65545,-125,4,2,14,45,0,0
65626,-125,4,2,13,45,0,0
66193,-125,4,2,14,45,0,0
66355,-125,4,2,13,45,0,0
66518,-125,4,2,11,45,0,0
66599,-125,4,2,10,45,0,0
66761,-125,4,2,1,45,0,0
66842,-125,4,2,12,45,0,0
66923,-125,4,2,10,45,0,0
67085,-125,4,2,1,45,0,0
67166,-125,4,2,11,45,0,0
67328,-125,4,2,10,45,0,0
67491,-125,4,2,12,45,0,0
67815,-125,4,2,12,45,0,0
67977,-125,4,2,10,45,0,0
68139,-125,4,2,14,45,0,0
68301,-125,4,2,10,45,0,0
68464,-125,4,2,12,45,0,0
68545,-125,4,2,10,45,0,0
68707,-125,4,2,1,45,0,0
68788,-125,4,2,14,45,0,0
68950,-125,4,2,10,45,0,0
69112,-125,4,2,12,45,0,0
69193,-125,4,2,10,45,0,0
69355,-125,4,2,1,45,0,0
69437,-125,4,2,14,45,0,0
69518,-125,4,2,10,45,0,0
69680,-125,4,2,1,45,0,0
69761,-125,4,2,12,45,0,0
70085,-125,4,2,14,45,0,0
70410,-125,4,2,13,45,0,0
70491,-125,4,2,10,45,0,0
70653,-125,4,2,1,45,0,0
70734,-125,4,2,14,45,0,0
70896,-125,4,2,13,45,0,0
71220,-125,4,2,10,45,0,0
71383,-125,4,2,14,45,0,0
71545,-125,4,2,13,45,0,0
71707,-125,4,2,11,45,0,0
71788,-125,4,2,10,45,0,0
71950,-125,4,2,1,45,0,0
72031,-125,4,2,12,45,0,0
72193,-83.3333333333333,4,2,10,45,0,0
72355,-83.3333333333333,4,2,11,45,0,0
72518,-166.666666666667,4,2,10,45,0,0
72680,-166.666666666667,4,2,12,45,0,0
72842,-166.666666666667,4,2,1,65,0,0
73004,-111.111111111111,4,2,1,65,0,0
79491,-111.111111111111,4,2,2,65,0,0
79815,-111.111111111111,4,2,1,65,0,0
82085,-83.3333333333333,4,2,1,65,0,0
82328,-83.3333333333333,4,2,1,20,0,0
82410,-83.3333333333333,4,2,1,65,0,0
82653,-83.3333333333333,4,2,1,20,0,0
82734,-83.3333333333333,4,2,1,65,0,0
83383,-111.111111111111,4,2,2,50,0,0
83626,-111.111111111111,4,2,2,20,0,0
83707,-111.111111111111,4,2,2,50,0,0
86220,-111.111111111111,4,2,2,20,0,0
86301,-111.111111111111,4,2,2,50,0,0
87274,-111.111111111111,4,2,1,50,0,0
87599,-83.3333333333333,4,2,1,50,0,0
87923,-111.111111111111,4,2,1,50,0,0
88572,-111.111111111111,4,2,1,65,0,0
89058,-111.111111111111,4,2,2,65,0,0
89545,-76.9230769230769,4,2,2,65,0,0
89585,-76.9230769230769,4,2,2,20,0,0
89869,-142.857142857143,4,2,2,65,0,0
91085,-142.857142857143,4,2,2,20,0,0
91166,-100,4,2,1,80,0,0
91815,-100,4,3,2,80,0,0
92464,-100,4,2,1,80,0,0
93274,-100,4,2,1,80,0,0
93761,-90.9090909090909,4,2,1,80,0,1
94491,-90.9090909090909,4,2,3,80,0,1
94653,-90.9090909090909,4,2,1,80,0,1
96437,-90.9090909090909,4,2,3,80,0,1
96599,-90.9090909090909,4,2,1,20,0,1
96680,-90.9090909090909,4,2,1,80,0,1
99031,-90.9090909090909,4,2,3,80,0,1
99193,-90.9090909090909,4,2,1,80,0,1
100328,-90.9090909090909,4,2,3,80,0,1
100491,-90.9090909090909,4,2,1,80,0,1
101626,-90.9090909090909,4,2,3,80,0,1
101788,-90.9090909090909,4,2,1,20,0,1
101869,-90.9090909090909,4,2,1,80,0,1
104869,-90.9090909090909,4,2,3,80,0,1
105031,-90.9090909090909,4,2,1,80,0,1
106815,-90.9090909090909,4,2,3,80,0,1
106977,-90.9090909090909,4,2,1,20,0,1
107058,-90.9090909090909,4,2,1,80,0,1
109328,-125,4,2,1,80,0,1
109977,-111.111111111111,4,2,1,80,0,1
110626,-100,4,2,1,80,0,1
112572,-100,4,3,2,80,0,1
114518,-100,4,2,1,50,0,0
123599,-166.666666666667,4,2,1,35,0,0
124896,-166.666666666667,4,2,1,35,0,0
128383,-166.666666666667,4,2,3,35,0,0
128545,-166.666666666667,4,2,1,35,0,0
128788,-166.666666666667,4,2,1,65,0,0
130085,-111.111111111111,4,2,1,50,0,0
132680,-111.111111111111,4,2,1,65,0,0
135274,-100,4,2,1,80,0,0
140139,-83.3333333333333,4,2,1,80,0,0
140383,-83.3333333333333,4,2,1,20,0,0
140464,-100,4,2,1,80,0,0
140707,-100,4,2,1,20,0,0
140788,-100,4,2,1,80,0,0
141842,-100,4,2,6,80,0,0
142004,-100,4,2,1,20,0,0
142085,-100,4,2,1,80,0,0
144599,-100,4,2,3,80,0,0
144761,-100,4,2,1,80,0,0
156031,-100,4,2,1,65,0,0
161220,-125,4,2,1,50,0,0
162761,-125,4,2,8,50,0,0
162923,-125,4,2,1,50,0,0
163815,-100,4,2,1,50,0,0
166410,-100,4,2,1,50,0,0
176788,-111.111111111111,4,2,1,65,0,0
177518,-111.111111111111,4,2,8,65,0,0
177680,-111.111111111111,4,2,1,65,0,0
178166,-111.111111111111,4,2,8,65,0,0
178328,-111.111111111111,4,2,1,65,0,0
179464,-111.111111111111,4,2,8,65,0,0
179626,-111.111111111111,4,2,1,65,0,0
180761,-111.111111111111,4,2,8,65,0,0
180923,-111.111111111111,4,2,1,65,0,0
181977,-111.111111111111,4,2,1,35,0,0
182626,-111.111111111111,4,2,1,50,0,0
183274,-111.111111111111,4,2,1,65,0,0
183923,-111.111111111111,4,2,1,80,0,0
186842,-71.4285714285714,4,2,1,80,0,0
187166,-90.9090909090909,4,2,1,80,0,1
187896,-90.9090909090909,4,2,3,80,0,1
188058,-90.9090909090909,4,2,1,80,0,1
189842,-90.9090909090909,4,2,3,80,0,1
190004,-90.9090909090909,4,2,1,20,0,1
190085,-90.9090909090909,4,2,1,80,0,1
192437,-90.9090909090909,4,2,3,80,0,1
192599,-90.9090909090909,4,2,1,80,0,1
193734,-90.9090909090909,4,2,3,80,0,1
193896,-90.9090909090909,4,2,1,80,0,1
195031,-90.9090909090909,4,2,3,80,0,1
195193,-90.9090909090909,4,2,1,20,0,1
195274,-90.9090909090909,4,2,1,80,0,1
198274,-90.9090909090909,4,2,3,80,0,1
198437,-90.9090909090909,4,2,1,80,0,1
200220,-90.9090909090909,4,2,3,80,0,1
200383,-90.9090909090909,4,2,1,20,0,1
200464,-90.9090909090909,4,2,1,80,0,1
202734,-125,4,2,1,80,0,1
203383,-111.111111111111,4,2,1,80,0,1
204031,-100,4,2,1,80,0,1
205977,-100,4,3,2,80,0,1
207599,-100,4,2,1,65,0,1
207923,-142.857142857143,4,2,1,65,0,0
208166,-142.857142857143,4,2,1,20,0,0
208247,-90.9090909090909,4,2,1,65,0,0
208491,-90.9090909090909,4,2,1,20,0,0
208572,-90.9090909090909,4,2,1,65,0,0
209869,-90.9090909090909,4,2,1,65,0,0
210761,-90.9090909090909,4,2,1,20,0,0
210842,-90.9090909090909,4,2,1,65,0,0
211086,-90.9090909090909,4,2,1,65,0,0
211167,-90.9090909090909,4,2,1,65,0,0
211734,-90.9090909090909,4,2,1,20,0,0
211815,-90.9090909090909,4,2,1,65,0,0
214328,-90.9090909090909,4,2,1,20,0,0
214410,-90.9090909090909,4,2,1,65,0,0
215707,-100,4,2,1,65,0,0
218301,-142.857142857143,4,2,1,65,0,0
218545,-142.857142857143,4,2,1,65,0,0
218625,-71.4285714285714,4,2,1,65,0,0
218869,-90.9090909090909,4,2,1,5,0,0
218950,-90.9090909090909,4,2,1,65,0,0
220166,-90.9090909090909,4,2,1,20,0,0
220247,-90.9090909090909,4,2,1,65,0,0
221545,-90.9090909090909,4,2,1,65,0,0
225355,-90.9090909090909,4,2,1,20,0,0
225437,-90.9090909090909,4,2,1,65,0,0
226004,-90.9090909090909,4,2,1,20,0,0
226085,-100,4,2,1,65,0,0
228031,-100,4,3,2,65,0,0
228680,-166.666666666667,4,2,1,65,0,0
229004,-285.714285714286,4,2,1,65,0,0
229085,-285.714285714286,4,2,1,20,0,0

[Colours]
Combo1 : 227,227,227
Combo2 : 0,255,255
Combo3 : 43,138,255
Combo4 : 255,255,55

[HitObjects]
125,355,356,5,2,0:0:0:0:
61,311,518,1,2,0:0:0:0:
130,278,680,2,0,L|214:288,1,68,2|2,0:0|0:0,0:0:0:0:
358,367,1004,2,0,B|385:300|337:296|364:229,1,136,2|2,0:0|0:0,0:0:0:0:
451,84,1491,1,2,0:0:0:0:
451,84,1653,6,0,P|463:133|455:160,1,68,2|2,0:0|0:0,0:0:0:0:
294,24,1977,2,0,P|282:73|290:100,1,68,2|2,0:0|0:0,0:0:0:0:
469,166,2301,2,0,B|417:153|417:153|393:165|393:165|325:150,1,136,2|2,0:0|0:0,0:0:0:0:
260,169,2788,1,2,0:0:0:0:
211,351,2950,6,0,P|200:318|197:277,1,68,2|2,0:0|0:0,0:0:0:0:
63,210,3274,2,0,P|73:177|77:144,1,68,2|2,0:0|0:0,0:0:0:0:
15,276,3599,2,0,P|61:294|82:290,1,68,2|2,0:0|0:0,0:0:0:0:
211,351,3923,2,0,P|257:333|278:337,1,68,2|2,0:0|0:0,0:0:0:0:
433,245,4247,6,0,L|422:321,1,68,2|2,0:0|0:0,0:0:0:0:
343,288,4572,2,0,L|352:220,1,68,2|2,0:0|0:0,0:0:0:0:
443,249,4896,2,0,L|432:325,1,68,2|2,0:0|0:0,0:0:0:0:
414,157,5220,1,2,0:0:0:0:
69,115,5545,6,0,B|142:95|129:143|207:119,1,136,2|2,0:0|0:0,0:0:0:0:
213,260,6031,1,2,0:0:0:0:
95,196,6193,2,0,P|46:208|31:219,1,68,2|2,0:0|0:0,0:0:0:0:
173,43,6518,2,0,P|124:31|109:20,1,68,2|2,0:0|0:0,0:0:0:0:
275,168,6842,6,0,P|335:175|401:114,1,136,2|2,0:0|0:0,0:0:0:0:
458,231,7328,1,2,0:0:0:0:
364,337,7491,2,0,P|348:300|357:266,1,68,2|2,0:0|0:0,0:0:0:0:
477,144,7815,2,0,P|493:107|484:73,1,68,2|2,0:0|0:0,0:0:0:0:
343,35,8139,5,2,0:0:0:0:
343,35,8301,2,0,P|379:28|431:24,1,68,2|2,0:0|0:0,0:0:0:0:
275,168,8626,2,0,P|211:160|123:146,1,136,2|2,0:0|0:0,0:0:0:0:
190,35,9112,2,0,P|226:28|278:24,1,68,2|2,0:0|0:0,0:0:0:0:
86,207,9437,6,0,P|65:165|71:132,1,68,2|2,0:0|0:0,0:0:0:0:
16,92,9761,2,0,P|58:71|91:77,1,68,2|2,0:0|0:0,0:0:0:0:
137,121,10085,1,2,0:0:0:0:
104,249,10247,2,0,B|95:259|88:277|88:277|47:211|66:145,1,170,10|0,0:0|1:2,0:0:0:0:
104,249,10734,6,0,P|132:308|120:350,1,76.4999976654053,4|0,1:2|0:0,0:0:0:0:
303,138,11058,2,0,P|275:197|288:238,1,76.4999976654053,2|0,1:2|0:0,0:0:0:0:
398,338,11383,2,0,B|323:312|328:372|232:331,1,152.999995330811,2|2,1:2|1:2,0:0:0:0:
400,214,11869,1,0,0:0:0:0:
303,138,12031,6,0,P|275:197|286:236,1,76.4999976654053,2|0,1:2|0:0,0:0:0:0:
415,93,12355,2,0,P|377:39|338:29,1,76.4999976654053,2|0,1:2|0:0,0:0:0:0:
400,214,12680,2,0,P|465:208|493:179,1,76.4999976654053,2|0,1:2|0:0,0:0:0:0:
303,138,13004,1,0,1:2:0:0:
329,360,13166,1,10,2:1:0:0:
248,337,13328,6,0,L|166:348,1,76.4999976654053,2|0,1:2|0:0,0:0:0:0:
18,269,13653,2,0,L|93:279,1,76.4999976654053,2|0,1:2|0:0,0:0:0:0:
204,159,13977,2,0,P|162:102|77:107,1,152.999995330811,2|2,1:2|1:2,0:0:0:0:
122,181,14464,1,0,0:0:0:0:
290,135,14626,6,0,P|284:186|279:235,1,76.4999976654053,2|0,1:2|0:0,0:0:0:0:
471,78,14950,2,0,P|477:129|482:178,1,76.4999976654053,0|2,1:2|2:3,0:0:0:0:
343,272,15274,1,0,1:2:0:0:
404,216,15437,1,4,2:3:0:0:
482,251,15599,2,0,P|482:312|460:341,1,76.4999976654053,8|0,2:3|0:0,0:0:0:0:
402,361,15842,1,0,1:2:0:0:
402,361,15923,6,0,P|302:350|257:348,1,140.25000428009,4|0,1:1|0:0,0:0:0:0:
206,295,16247,2,0,P|154:302|99:317,1,76.4999976654053,2|0,1:2|0:0,0:0:0:0:
306,185,16572,2,0,P|358:192|413:207,1,76.4999976654053,2|0,1:2|0:0,0:0:0:0:
243,32,16896,2,0,P|215:89|223:118,1,76.4999976654053,2|0,1:2|0:0,0:0:0:0:
130,307,17220,6,0,P|134:242|76:143,1,152.999995330811,2|2,1:2|1:2,0:0:0:0:
26,229,17707,1,0,0:0:0:0:
140,86,17869,2,0,P|194:95|234:101,1,76.4999976654053,2|0,1:2|0:0,0:0:0:0:
281,167,18193,1,0,1:2:0:0:
465,28,18355,1,10,2:1:0:0:
418,166,18518,6,0,P|399:110|407:89,1,76.4999976654053,2|0,1:2|0:0,0:0:0:0:
412,244,18842,2,0,P|375:237|350:210,1,76.4999976654053,2|0,1:2|0:0,0:0:0:0:
467,317,19166,2,0,P|412:330|307:336,1,152.999995330811,2|2,1:2|1:1,0:0:0:0:
45,294,19653,1,8,2:1:0:0:
45,294,19734,1,8,2:1:0:0:
45,294,19815,6,0,P|100:281|205:275,1,152.999995330811,4|8,1:1|2:1,0:0:0:0:
467,317,20301,1,0,0:0:0:0:
467,317,20382,1,0,1:2:0:0:
467,317,20464,1,0,1:2:0:0:
376,351,20626,1,8,0:0:0:0:
340,259,20788,1,8,0:0:0:0:
431,225,20950,1,8,0:0:0:0:
287,339,21112,6,0,P|248:347|194:365,1,76.4999976654053,4|0,1:2|0:0,0:0:0:0:
114,165,21437,2,0,B|203:155|169:216|265:201,1,152.999995330811,2|2,1:2|1:2,0:0:0:0:
85,327,21923,1,0,0:0:0:0:
85,327,22085,2,0,P|68:281|72:245,1,76.4999976654053,2|0,1:2|0:0,0:0:0:0:
192,7,22410,6,0,P|249:45|240:126,1,152.999995330811,2|2,1:2|1:2,0:0:0:0:
60,65,22896,1,0,0:0:0:0:
60,65,22977,1,0,1:0:0:0:
60,65,23058,2,0,P|108:70|144:79,1,76.4999976654053,2|0,1:2|0:0,0:0:0:0:
296,198,23383,2,0,P|344:193|380:184,1,76.4999976654053,2|0,1:2|0:0,0:0:0:0:
395,0,23707,6,0,P|451:40|444:122,1,152.999995330811,2|2,1:2|1:2,0:0:0:0:
343,94,24193,1,0,0:0:0:0:
404,288,24355,2,0,P|405:236|360:179,1,114.749996498108,2|0,1:2|0:0,0:0:0:0:
370,185,24680,2,0,P|333:193|295:197,1,76.4999976654053,2|0,1:2|0:0,0:0:0:0:
83,91,25004,5,2,1:1:0:0:
160,223,25166,1,0,0:0:0:0:
309,99,25328,2,0,B|220:83|245:157|146:135,1,165.749992412568,4|0,1:1|0:0,0:0:0:0:
83,91,25653,5,8,2:3:0:0:
72,75,25815,1,8,2:3:0:0:
68,56,25977,1,8,2:3:0:0:
70,37,26139,1,8,2:3:0:0:
24,174,26301,6,0,P|55:216|45:304,1,136,2|2,0:0|0:0,0:0:0:0:
263,357,26950,2,0,P|253:291|288:234,1,136,2|2,0:0|0:0,0:0:0:0:
151,250,27599,5,2,0:0:0:0:
213,192,27923,1,2,0:0:0:0:
287,234,28247,1,2,0:0:0:0:
272,318,28572,1,2,0:0:0:0:
189,326,28896,6,0,B|121:342|137:286|42:311,1,127.5,4|0,1:2|0:0,0:0:0:0:
66,305,29220,2,0,P|43:266|59:217,1,85,4|0,1:1|1:2,0:0:0:0:
211,82,29545,2,0,P|208:55|195:34,1,42.5,8|0,2:1|0:0,0:0:0:0:
146,161,29707,1,8,2:1:0:0:
179,186,29788,1,8,2:1:0:0:
220,192,29869,1,8,2:1:0:0:
259,175,29950,1,8,2:1:0:0:
299,162,30031,1,8,2:1:0:0:
338,176,30112,1,8,2:1:0:0:
480,354,30355,5,0,0:0:0:0:
443,303,30518,1,0,0:0:0:0:
502,323,30680,1,0,0:0:0:0:
443,342,30842,1,0,0:0:0:0:
480,292,31004,1,0,0:0:0:0:
480,354,31166,2,0,B|432:353|394:363|394:363|357:341|373:297,1,152.999995330811,8|0,0:0|0:0,0:0:0:0:
441,210,31491,6,0,L|333:192,1,93.5000028533936,4|0,1:1|0:0,0:0:0:0:
323,86,31815,1,8,2:1:0:0:
196,276,31977,1,2,2:1:0:0:
1,204,32139,2,0,P|41:150|155:151,1,187.000005706787,0|8,1:2|2:1,0:0:0:0:
332,375,32626,1,2,2:1:0:0:
332,375,32707,1,0,0:0:0:0:
332,375,32788,6,0,P|336:328|344:282,1,93.5000028533936,0|2,1:2|2:1,0:0:0:0:
381,195,33112,1,8,2:1:0:0:
209,312,33274,2,0,L|130:310,2,46.7500014266968,2|0|0,2:1|0:0|1:2,0:0:0:0:
428,338,33599,1,2,2:1:0:0:
282,206,33761,1,8,2:1:0:0:
453,120,33923,1,2,2:1:0:0:
209,312,34085,6,0,P|127:314|72:262,1,140.25000428009,0|0,1:2|0:0,0:0:0:0:
71,258,34410,1,8,2:1:0:0:
327,331,34572,1,2,2:1:0:0:
282,206,34734,2,0,L|401:224,1,93.5000028533936,0|2,1:2|2:1,0:0:0:0:
95,81,35058,1,8,2:1:0:0:
95,81,35139,1,0,0:0:0:0:
95,81,35220,2,0,L|49:91,1,46.7500014266968,2|0,2:1|0:0,0:0:0:0:
209,25,35383,5,0,1:2:0:0:
194,136,35545,1,2,2:1:0:0:
180,247,35707,1,8,2:1:0:0:
292,94,35869,5,2,2:1:0:0:
292,94,35950,1,0,0:0:0:0:
292,94,36031,1,0,1:2:0:0:
99,193,36193,1,2,2:1:0:0:
300,245,36355,5,8,2:1:0:0:
80,37,36518,1,2,2:1:0:0:
11,319,36680,6,0,P|49:264|181:259,1,187.000005706787,0|8,1:2|2:1,0:0:0:0:
303,353,37166,1,2,2:1:0:0:
303,353,37247,1,0,0:0:0:0:
303,353,37328,2,0,P|311:295|324:255,1,93.5000028533936,0|2,1:2|2:1,0:0:0:0:
109,123,37653,2,0,P|101:65|88:25,1,93.5000028533936,8|2,2:1|2:1,0:0:0:0:
445,106,37977,6,0,B|351:92|371:164|269:148,1,187.000005706787,0|8,1:2|2:1,0:0:0:0:
205,75,38464,1,2,2:1:0:0:
340,251,38626,1,0,1:2:0:0:
190,331,38788,1,2,2:1:0:0:
190,331,38869,1,0,0:0:0:0:
190,331,38950,2,0,L|205:236,1,93.5000028533936,8|2,2:1|2:1,0:0:0:0:
116,9,39274,6,0,B|79:47|79:47|98:132,1,140.25000428009,0|0,1:2|0:0,0:0:0:0:
105,154,39599,2,0,L|1:170,1,93.5000028533936,8|2,2:1|2:1,0:0:0:0:
72,264,39923,5,0,1:2:0:0:
205,75,40085,1,2,2:1:0:0:
394,209,40247,1,8,2:1:0:0:
293,189,40410,1,2,2:3:0:0:
293,189,40491,1,2,2:3:0:0:
293,189,40572,1,0,1:2:0:0:
487,48,40734,5,2,1:1:0:0:
317,283,40896,1,4,1:1:0:0:
422,317,41058,6,0,L|486:332,2,46.7500014266968,8|8|0,2:3|2:3|1:2,0:0:0:0:
66,88,41383,2,0,L|2:103,2,46.7500014266968,0|0|8,1:2|1:2|2:1,0:0:0:0:
104,60,41626,1,8,2:1:0:0:
149,56,41707,1,8,2:1:0:0:
190,77,41788,1,8,2:1:0:0:
215,115,41869,6,0,P|215:164|222:221,1,93.5000028533936,4|0,1:2|0:0,0:0:0:0:
270,303,42193,1,8,2:1:0:0:
115,174,42355,1,2,2:1:0:0:
470,224,42518,2,0,P|422:169|300:163,1,187.000005706787,0|8,1:2|2:1,0:0:0:0:
43,270,43004,1,2,2:1:0:0:
43,270,43085,1,0,0:0:0:0:
43,270,43166,6,0,P|89:273|134:284,1,93.5000028533936,0|2,1:2|2:1,0:0:0:0:
217,142,43491,1,8,2:1:0:0:
364,256,43653,2,0,P|366:279|370:302,2,46.7500014266968,2|0|0,2:1|0:0|1:2,0:0:0:0:
401,49,43977,1,2,2:1:0:0:
259,236,44139,1,8,2:1:0:0:
140,67,44301,1,2,2:1:0:0:
434,153,44464,6,0,P|365:150|309:111,1,140.25000428009,0|0,1:2|0:0,0:0:0:0:
299,89,44788,1,8,2:1:0:0:
265,251,44950,1,2,2:1:0:0:
44,188,45112,2,0,L|160:173,1,93.5000028533936,0|2,1:2|2:1,0:0:0:0:
404,344,45437,2,0,L|413:276,1,46.7500014266968,12|0,1:1|0:0,0:0:0:0:
363,157,45599,2,0,L|356:203,1,46.7500014266968,8|8,2:3|2:3,0:0:0:0:
271,267,45761,5,0,1:2:0:0:
459,185,45923,1,2,1:1:0:0:
325,61,46085,1,2,1:1:0:0:
426,262,46247,5,8,2:1:0:0:
444,266,46328,1,8,2:1:0:0:
462,270,46410,2,0,L|457:202,1,46.7500014266968,4|0,1:2|0:0,0:0:0:0:
400,32,46572,1,2,2:3:0:0:
357,14,46653,1,2,2:3:0:0:
311,20,46734,1,4,2:3:0:0:
273,46,46815,1,4,2:3:0:0:
253,88,46896,2,0,L|256:134,1,46.7500014266968,8|8,2:3|2:3,0:0:0:0:
284,235,47058,6,0,L|193:224,1,68,4|0,1:2|0:0,0:0:0:0:
67,112,47383,2,0,L|134:120,1,68,0|0,1:2|0:0,0:0:0:0:
445,112,47707,2,0,L|370:124,1,76.4999976654053,0|0,1:2|0:0,0:0:0:0:
120,279,48031,2,0,L|97:374,1,76.4999976654053,0|0,1:2|0:0,0:0:0:0:
403,360,48355,6,0,L|382:277,1,85,0|0,1:2|0:0,0:0:0:0:
257,38,48680,2,0,B|237:74|237:74|254:151,1,85,0|0,1:2|0:0,0:0:0:0:
330,168,49004,5,0,1:2:0:0:
190,231,49166,1,8,0:0:0:0:
330,168,49328,1,8,0:0:0:0:
147,66,49491,1,8,0:0:0:0:
108,336,49653,5,12,1:1:0:0:
224,143,49815,1,8,2:1:0:0:
126,330,49977,1,8,2:1:0:0:
206,149,50139,1,8,2:1:0:0:
348,307,50301,5,8,0:0:0:0:
218,3,50464,1,8,0:0:0:0:
144,324,50626,1,8,0:0:0:0:
393,107,50788,1,8,0:0:0:0:
65,136,50950,1,8,0:0:0:0:
472,4,51923,6,0,L|460:67,1,42.5,8|8,2:1|2:1,0:0:0:0:
393,107,52085,2,0,L|405:170,1,42.5,8|8,2:1|2:1,0:0:0:0:
474,289,52247,6,0,P|491:248|464:192,1,89.2499972763062,4|0,1:2|0:0,0:0:0:0:
274,228,52572,6,0,B|362:210|328:262|410:246,1,140.25000428009,10|0,2:1|0:0,0:0:0:0:
297,314,52896,1,2,1:2:0:0:
243,129,53058,1,0,1:2:0:0:
95,282,53220,2,0,B|110:233|110:233|88:183,1,93.5000028533936,10|0,2:1|0:0,0:0:0:0:
45,121,53464,1,0,0:0:0:0:
45,121,53545,5,2,1:2:0:0:
147,35,53707,2,0,L|76:48,1,46.7500014266968
21,240,53869,2,0,B|77:244|77:244|102:227|102:227|178:235,1,140.25000428009,10|0,2:1|0:0,0:0:0:0:
213,291,54193,5,2,1:2:0:0:
361,124,54355,1,0,1:2:0:0:
443,340,54518,1,10,2:1:0:0:
338,275,54680,1,0,0:0:0:0:
338,275,54761,1,0,0:0:0:0:
338,275,54842,5,2,1:2:0:0:
432,74,55004,2,0,P|446:102|447:130,1,46.7500014266968
443,340,55166,2,0,B|378:321|382:381|303:352,1,140.25000428009,10|0,2:1|0:0,0:0:0:0:
242,291,55491,1,2,1:2:0:0:
58,334,55653,1,0,1:2:0:0:
107,156,55815,2,0,P|137:229|122:261,1,93.5000028533936,10|0,2:1|0:0,0:0:0:0:
57,218,56058,1,0,0:0:0:0:
57,218,56139,5,0,1:2:0:0:
140,72,56301,2,0,L|127:18,2,46.7500014266968,0|0|10,1:2|0:0|2:1,0:0:0:0:
172,107,56545,1,0,0:0:0:0:
214,123,56626,1,0,1:2:0:0:
259,111,56707,1,8,2:1:0:0:
288,76,56788,2,0,L|356:84,1,46.7500014266968,2|0,1:2|0:0,0:0:0:0:
485,186,56950,2,0,L|438:191,1,46.7500014266968,0|0,1:2|0:0,0:0:0:0:
308,353,57112,2,0,P|318:306|326:250,1,93.5000028533936,10|8,2:1|2:1,0:0:0:0:
321,233,57355,1,8,2:1:0:0:
321,233,57437,6,0,B|223:194|237:282|132:239,1,187.000005706787,4|10,1:2|2:1,0:0:0:0:
50,38,57923,2,0,P|36:82|36:99,2,46.7500014266968,0|0|2,0:0|0:0|1:2,0:0:0:0:
127,90,58247,1,0,1:2:0:0:
298,22,58410,2,0,P|248:31|173:39,1,93.5000028533936,10|0,2:1|0:0,0:0:0:0:
365,86,58653,1,0,0:0:0:0:
365,86,58734,6,0,P|411:91|457:100,1,93.5000028533936,2|0,1:2|0:0,0:0:0:0:
181,163,59058,2,0,P|134:168|88:177,1,93.5000028533936,10|0,2:1|0:0,0:0:0:0:
237,237,59301,1,0,1:2:0:0:
237,237,59383,1,2,1:2:0:0:
79,95,59545,2,0,P|48:104|24:122,1,46.7500014266968,0|0,1:2|0:0,0:0:0:0:
66,295,59707,2,0,P|108:235|80:168,1,140.25000428009,10|0,2:1|0:0,0:0:0:0:
88,176,60031,6,0,B|178:195|168:129|269:153,1,170,2|10,1:2|2:1,0:0:0:0:
389,298,60518,1,0,0:0:0:0:
389,298,60599,1,0,0:0:0:0:
389,298,60680,2,0,B|349:308|349:308|292:278,1,85,2|0,1:2|1:2,0:0:0:0:
320,79,61004,2,0,B|348:108|348:108|351:173,1,85,10|0,2:1|0:0,0:0:0:0:
218,304,61328,6,0,L|228:258,1,42.5,0|0,1:2|0:0,0:0:0:0:
132,320,61491,2,0,L|142:274,1,42.5,0|0,1:2|0:0,0:0:0:0:
96,173,61653,2,0,L|86:214,1,42.5,8|0,2:1|0:0,0:0:0:0:
10,189,61816,2,0,L|0:230,1,42.5,8|0,2:1|0:0,0:0:0:0:
54,361,61977,5,0,1:2:0:0:
183,183,62139,1,8,2:1:0:0:
181,148,62220,1,8,2:1:0:0:
165,116,62301,1,4,2:3:0:0:
138,94,62382,1,4,2:3:0:0:
104,84,62463,1,8,2:3:0:0:
69,89,62544,1,8,2:3:0:0:
39,106,62625,5,4,1:2:0:0:
407,25,63112,1,2,0:0:0:0:
338,74,63274,2,0,P|323:111|326:145,1,68,2|2,0:0|0:0,0:0:0:0:
493,32,63599,2,0,P|508:69|505:103,1,68,2|2,0:0|0:0,0:0:0:0:
413,262,63923,6,0,B|436:187|389:202|422:122,2,136,2|2|2,0:0|0:0|0:0,0:0:0:0:
349,329,64734,1,2,0:0:0:0:
349,329,64896,2,0,P|297:323|266:312,1,68,2|2,0:0|0:0,0:0:0:0:
461,344,65220,6,0,P|499:314|503:228,2,136,2|2|2,0:0|0:0|0:0,0:0:0:0:
186,293,66193,2,0,L|200:367,1,68,2|2,0:0|0:0,0:0:0:0:
198,359,66518,6,0,B|147:351|147:351|124:363|124:363|51:350,2,136,2|2|2,0:0|0:0|0:0,0:0:0:0:
277,302,67328,1,2,0:0:0:0:
238,213,67491,1,2,0:0:0:0:
238,213,67815,6,0,P|224:169|223:126,1,68,2|2,0:0|0:0,0:0:0:0:
117,87,68139,2,0,P|131:43|132:0,1,68,2|2,0:0|0:0,0:0:0:0:
43,155,68464,2,0,P|75:187|139:188,1,102,2|0,0:0|0:0,0:0:0:0:
129,191,68788,2,0,P|115:235|114:278,1,68,2|2,0:0|0:0,0:0:0:0:
310,159,69112,6,0,P|303:103|267:20,2,136,2|2|2,0:0|0:0|0:0,0:0:0:0:
129,353,70085,1,2,0:0:0:0:
429,328,70410,6,0,P|378:301|327:306,1,102,2|0,0:0|0:0,0:0:0:0:
335,303,70734,1,2,0:0:0:0:
219,330,70896,2,0,P|231:297|232:254,1,68,2|2,0:0|0:0,0:0:0:0:
310,159,71220,2,0,P|298:127|295:93,1,68,2|2,0:0|0:0,0:0:0:0:
175,154,71545,1,2,0:0:0:0:
175,154,71707,6,0,B|102:137|111:184|34:161,1,136,2|2,0:0|0:0,0:0:0:0:
219,365,72193,6,0,L|234:257,1,101.999996887207,10|2,0:0|0:0,0:0:0:0:
459,169,72518,6,0,L|466:219,1,50.9999984436036,6|2,0:0|0:0,0:0:0:0:
385,105,72842,1,8,2:1:0:0:
385,105,72923,1,8,2:1:0:0:
385,104,73004,6,0,P|365:137|361:175,1,76.4999976654053,4|0,1:2|0:0,0:0:0:0:
233,263,73328,2,0,P|230:225|214:190,1,76.4999976654053,2|0,1:2|0:0,0:0:0:0:
121,46,73653,2,0,B|209:50|174:90|262:96,1,152.999995330811,2|2,1:2|1:2,0:0:0:0:
459,169,74139,1,0,0:0:0:0:
459,169,74301,6,0,P|378:182|336:243,1,152.999995330811,2|2,1:2|1:2,0:0:0:0:
255,285,74788,2,0,P|240:250|235:213,1,76.4999976654053,0|2,0:0|1:2,0:0:0:0:
184,125,75112,1,0,0:0:0:0:
184,125,75274,2,0,L|85:108,1,76.4999976654053,2|8,1:2|2:1,0:0:0:0:
62,191,75518,2,0,L|17:202,1,38.2499988327027,8|2,2:1|1:2,0:0:0:0:
141,375,75923,6,0,P|188:318|271:312,1,152.999995330811,2|2,1:2|1:2,0:0:0:0:
364,303,76410,2,0,P|371:340|387:375,1,76.4999976654053,0|2,0:0|1:2,0:0:0:0:
436,234,76734,2,0,P|504:247|543:243,1,76.4999976654053,0|2,0:0|1:2,0:0:0:0:
430,145,77058,5,0,0:0:0:0:
347,287,77220,1,2,1:2:0:0:
297,201,77383,2,0,L|207:181,1,76.4999976654053,8|0,2:1|1:2,0:0:0:0:
0,274,77707,2,0,L|74:290,1,76.4999976654053,8|0,2:1|1:2,0:0:0:0:
179,341,78031,1,0,1:2:0:0:
172,331,78112,1,0,1:2:0:0:
167,321,78193,6,0,P|150:246|141:170,1,152.999995330811,4|2,1:2|1:2,0:0:0:0:
145,83,78680,1,0,0:0:0:0:
226,56,78842,2,0,P|231:106|220:157,1,76.4999976654053,2|0,1:2|0:0,0:0:0:0:
258,220,79166,2,0,P|295:215|332:203,1,76.4999976654053,2|0,1:2|0:0,0:0:0:0:
418,183,79491,5,2,0:0:0:0:
388,363,79653,1,2,2:1:0:0:
471,347,79815,2,0,B|387:341|418:297|330:295,1,152.999995330811,2|2,1:2|1:2,0:0:0:0:
257,232,80301,1,4,2:3:0:0:
140,341,80464,1,8,2:3:0:0:
93,254,80626,2,0,L|56:244,2,38.2499988327027,8|8|4,2:1|2:1|1:1,0:0:0:0:
346,68,81112,6,0,L|261:92,1,76.4999976654053,0|8,1:2|2:1,0:0:0:0:
58,46,81437,1,8,1:2:0:0:
175,74,81599,1,8,0:0:0:0:
147,191,81761,1,8,2:1:0:0:
30,163,81923,1,8,2:1:0:0:
103,123,82085,6,0,B|165:137|165:137|187:166|187:166|238:177,1,152.999995330811,4|0,1:2|0:0,0:0:0:0:
317,130,82410,2,0,B|272:168|272:168|295:259,1,152.999995330811,8|0,2:1|0:0,0:0:0:0:
380,322,82734,2,0,P|385:297|386:271,1,50.9999984436036,0|0,1:2|0:0,0:0:0:0:
201,264,82896,5,8,2:1:0:0:
191,292,82977,1,8,2:1:0:0:
172,316,83058,1,8,2:1:0:0:
146,332,83139,1,8,2:1:0:0:
117,339,83220,1,8,2:1:0:0:
87,336,83301,1,8,2:1:0:0:
59,324,83383,6,0,P|56:266|40:212,1,114.749996498108,4|0,1:2|0:0,0:0:0:0:
28,188,83707,2,0,L|121:211,1,76.4999976654053,10|0,2:1|0:0,0:0:0:0:
110,64,84031,1,2,1:2:0:0:
181,264,84193,1,0,1:2:0:0:
245,153,84355,2,0,L|170:134,1,76.4999976654053,10|0,2:1|0:0,0:0:0:0:
373,34,84680,6,0,P|343:68|335:114,1,76.4999976654053,2|0,1:2|0:0,0:0:0:0:
374,267,85004,2,0,L|358:172,1,76.4999976654053,10|0,2:1|0:0,0:0:0:0:
361,191,85247,1,0,0:0:0:0:
361,191,85328,1,2,1:2:0:0:
463,320,85491,1,0,1:2:0:0:
280,281,85653,2,0,L|292:356,1,76.4999976654053,10|0,2:1|0:0,0:0:0:0:
199,221,85977,6,0,P|151:250|95:263,1,114.749996498108,2|0,1:2|0:0,0:0:0:0:
78,275,86301,2,0,P|71:237|55:202,1,76.4999976654053,10|0,2:1|0:0,0:0:0:0:
18,343,86626,1,2,1:2:0:0:
188,239,86788,1,0,1:2:0:0:
39,91,86950,2,0,P|75:104|104:129,1,76.4999976654053,10|0,2:1|0:0,0:0:0:0:
206,138,87274,6,0,L|291:122,1,76.4999976654053,0|0,1:2|0:0,0:0:0:0:
370,86,87599,2,0,L|404:213,1,101.999996887207,4|0,1:1|0:0,0:0:0:0:
240,236,87923,2,0,B|214:262|214:262|211:327,1,101.999996887207,10|8,2:1|2:1,0:0:0:0:
299,376,88247,1,2,2:3:0:0:
341,312,88355,1,4,2:3:0:0:
417,317,88464,1,8,2:3:0:0:
429,343,88572,5,4,1:2:0:0:
326,137,89058,2,0,L|340:49,2,76.4999976654053,0|2|0,1:2|2:3|2:2,0:0:0:0:
211,185,89545,2,0,L|203:139,7,27.6249987354279,0|0|0|0|0|0|0|0,1:2|0:0|0:0|0:0|0:0|0:0|0:0|0:0,0:0:0:0:
201,135,89869,2,0,L|143:120,1,59.4999981842042,0|2,1:2|2:3,0:0:0:0:
139,252,90193,2,0,L|74:271,1,59.4999981842042,0|0,0:0|1:0,0:0:0:0:
238,373,90518,2,0,L|250:305,1,59.4999981842042,0|0,1:2|0:0,0:0:0:0:
339,111,90842,2,0,L|322:217,1,89.2499972763062,8|0,2:1|0:0,0:0:0:0:
387,284,91166,6,0,B|299:267|334:226|235:213,1,170,4|8,1:2|2:1,0:0:0:0:
23,126,91653,1,8,0:0:0:0:
143,292,91815,1,8,0:0:0:0:
143,86,91977,1,8,0:0:0:0:
23,252,92139,1,8,0:0:0:0:
217,189,92301,1,8,0:0:0:0:
110,189,92464,1,0,1:2:0:0:
344,342,92626,5,2,1:1:0:0:
246,94,92788,1,2,1:1:0:0:
71,350,92950,1,0,1:2:0:0:
71,350,93031,1,0,0:0:0:0:
71,350,93112,1,8,2:1:0:0:
294,180,93274,6,0,L|258:222,1,42.5,2|2,2:3|2:3,0:0:0:0:
96,211,93437,2,0,L|150:221,1,42.5,4|4,2:3|2:3,0:0:0:0:
226,370,93599,2,0,L|207:317,1,42.5,8|8,2:3|2:3,0:0:0:0:
352,110,93761,6,0,P|381:160|373:215,1,93.5000028533936,4|0,1:1|0:0,0:0:0:0:
285,292,94085,1,8,2:1:0:0:
481,329,94247,1,2,2:1:0:0:
426,70,94410,2,0,B|317:52|355:121|229:90,1,187.000005706787,0|8,1:2|2:1,0:0:0:0:
152,279,94896,1,2,2:1:0:0:
152,279,94977,1,0,0:0:0:0:
152,279,95058,6,0,P|126:213|139:180,1,93.5000028533936,0|2,1:2|2:1,0:0:0:0:
152,103,95383,1,8,2:1:0:0:
46,242,95545,2,0,L|-6:235,2,46.7500014266968,2|0|0,2:1|0:0|1:2,0:0:0:0:
216,218,95869,1,2,2:1:0:0:
26,135,96031,1,8,2:1:0:0:
62,349,96193,1,2,2:1:0:0:
296,260,96355,6,0,P|367:249|450:243,1,140.25000428009,0|0,1:2|0:0,0:0:0:0:
460,247,96680,1,8,2:1:0:0:
243,190,96842,1,2,2:1:0:0:
261,339,97004,2,0,L|145:319,1,93.5000028533936,0|2,1:2|2:1,0:0:0:0:
393,112,97328,1,8,2:1:0:0:
393,112,97410,1,0,0:0:0:0:
393,112,97491,2,0,L|438:103,1,46.7500014266968,2|0,2:1|0:0,0:0:0:0:
283,57,97653,5,0,1:2:0:0:
171,42,97815,1,2,2:1:0:0:
60,26,97977,1,8,2:1:0:0:
144,235,98139,5,2,2:1:0:0:
144,235,98220,1,0,0:0:0:0:
144,235,98301,1,0,1:2:0:0:
283,57,98464,1,2,2:1:0:0:
135,262,98626,5,8,2:1:0:0:
60,26,98788,1,2,2:1:0:0:
62,335,98950,6,0,P|117:289|249:312,1,187.000005706787,0|8,1:2|2:1,0:0:0:0:
436,359,99437,1,2,2:1:0:0:
436,359,99518,1,0,0:0:0:0:
436,359,99599,2,0,P|419:292|418:260,1,93.5000028533936,0|2,1:2|2:1,0:0:0:0:
158,145,99923,2,0,P|175:78|176:46,1,93.5000028533936,8|2,2:1|2:1,0:0:0:0:
464,89,100247,6,0,B|374:67|383:150|288:124,1,187.000005706787,0|8,1:2|2:1,0:0:0:0:
176,53,100734,1,2,2:1:0:0:
251,260,100896,1,0,1:2:0:0:
65,156,101058,1,2,2:1:0:0:
65,156,101139,1,0,0:0:0:0:
65,156,101220,2,0,L|166:143,1,93.5000028533936,8|2,2:1|2:1,0:0:0:0:
486,305,101545,6,0,B|452:274|452:274|334:294,1,140.25000428009,0|0,1:2|0:0,0:0:0:0:
337,303,101869,2,0,L|353:204,1,93.5000028533936,8|2,2:1|2:1,0:0:0:0:
237,239,102193,5,0,1:2:0:0:
358,62,102355,1,2,2:1:0:0:
512,212,102518,1,8,2:1:0:0:
429,158,102680,1,8,2:3:0:0:
429,158,102761,1,8,2:3:0:0:
429,158,102842,1,0,1:2:0:0:
512,340,103004,5,4,1:1:0:0:
471,51,103166,1,4,1:2:0:0:
358,62,103328,6,0,L|298:50,2,46.7500014266968,8|8|0,2:3|2:3|1:2,0:0:0:0:
466,349,103653,2,0,L|511:339,2,46.7500014266968,0|0|8,1:2|1:2|2:1,0:0:0:0:
424,330,103896,1,8,2:1:0:0:
390,298,103977,1,8,2:1:0:0:
345,287,104058,1,8,2:1:0:0:
301,301,104139,6,0,P|254:292|191:291,1,93.5000028533936,4|2,1:2|2:1,0:0:0:0:
113,338,104464,1,8,2:1:0:0:
262,204,104626,1,2,2:1:0:0:
70,54,104788,2,0,P|99:120|113:242,1,187.000005706787,0|8,1:2|2:1,0:0:0:0:
358,375,105274,1,2,2:1:0:0:
358,375,105355,1,0,0:0:0:0:
358,375,105437,6,0,P|365:307|378:270,1,93.5000028533936,0|2,1:2|2:1,0:0:0:0:
475,146,105761,1,8,2:1:0:0:
320,44,105923,2,0,P|282:55|259:58,2,46.7500014266968,2|0|0,2:1|0:0|1:2,0:0:0:0:
262,204,106247,1,2,2:1:0:0:
415,60,106410,1,8,2:1:0:0:
502,250,106572,1,2,2:1:0:0:
220,128,106734,6,0,P|147:135|82:164,1,140.25000428009,0|0,1:2|0:0,0:0:0:0:
70,178,107058,1,8,2:1:0:0:
280,217,107220,1,2,2:1:0:0:
104,289,107383,2,0,P|147:298|193:317,1,93.5000028533936,0|2,1:2|2:1,0:0:0:0:
432,192,107707,6,0,L|446:117,1,46.7500014266968,12|0,1:1|0:0,0:0:0:0:
384,29,107869,2,0,L|375:74,1,46.7500014266968,8|8,2:3|2:3,0:0:0:0:
312,132,108031,1,0,1:2:0:0:
510,45,108193,1,2,1:1:0:0:
487,261,108355,1,2,1:1:0:0:
350,45,108518,5,8,2:1:0:0:
367,37,108599,1,8,2:1:0:0:
384,29,108680,2,0,L|375:74,1,46.7500014266968,4|0,1:2|0:0,0:0:0:0:
415,310,108842,1,2,2:3:0:0:
459,297,108923,1,2,2:3:0:0:
487,261,109004,1,4,2:3:0:0:
488,215,109085,1,4,2:3:0:0:
462,177,109166,2,0,L|453:222,1,46.7500014266968,8|8,2:3|2:3,0:0:0:0:
193,353,109328,6,0,L|176:262,1,68,4|0,1:2|0:0,0:0:0:0:
331,286,109653,2,0,L|319:353,1,68,0|0,1:2|0:0,0:0:0:0:
58,151,109977,6,0,B|92:133|92:133|129:139,1,76.4999976654053,0|0,1:2|0:0,0:0:0:0:
451,151,110301,2,0,B|416:133|416:133|379:139,1,76.4999976654053,0|0,1:2|0:0,0:0:0:0:
96,270,110626,6,0,L|180:285,1,85,0|0,1:2|0:0,0:0:0:0:
415,270,110950,2,0,L|331:285,1,85,0|0,1:2|0:0,0:0:0:0:
129,139,111274,5,0,1:2:0:0:
255,40,111437,1,8,0:0:0:0:
129,139,111599,1,8,0:0:0:0:
180,285,111761,1,8,0:0:0:0:
379,139,111923,5,8,2:1:0:0:
129,139,112085,1,8,2:1:0:0:
331,285,112247,1,8,2:1:0:0:
255,40,112410,1,8,2:1:0:0:
158,315,112572,5,8,0:0:0:0:
414,128,112734,1,8,0:0:0:0:
93,128,112897,1,8,0:0:0:0:
352,315,113059,1,8,0:0:0:0:
255,7,113221,1,8,0:0:0:0:
256,192,114518,5,4,1:1:0:0:
306,176,123599,6,0,P|380:174|433:233,2,152.999995330811,2|4|8,2:3|2:3|2:3,0:0:0:0:
174,229,124734,1,2,2:1:0:0:
209,127,124896,5,4,1:2:0:0:
275,288,125058,1,0,0:0:0:0:
229,115,125220,5,0,0:0:0:0:
255,300,125383,1,0,1:2:0:0:
72,215,125545,6,0,L|189:231,1,101.999996887207,8|2,2:1|2:1,0:0:0:0:
415,25,126193,5,4,1:2:0:0:
317,137,126355,1,0,0:0:0:0:
462,103,126518,5,0,0:0:0:0:
325,45,126680,1,0,1:2:0:0:
403,174,126842,6,0,P|411:224|412:275,1,101.999996887207,8|2,2:1|2:1,0:0:0:0:
68,244,127491,5,4,1:2:0:0:
265,229,127653,1,0,0:0:0:0:
60,225,127815,5,0,0:0:0:0:
273,248,127977,1,0,1:2:0:0:
148,158,128139,6,0,P|163:232|170:308,1,152.999995330811,8|0,2:1|1:2,0:0:0:0:
166,321,128707,1,0,1:2:0:0:
159,331,128788,5,8,2:1:0:0:
341,202,128950,1,0,1:2:0:0:
418,266,129112,1,0,1:2:0:0:
327,299,129274,5,8,2:1:0:0:
236,72,129437,1,0,1:2:0:0:
351,23,129599,1,0,1:2:0:0:
204,174,129761,6,0,L|154:163,1,50.9999984436036,8|8,2:1|2:3,0:0:0:0:
141,160,130004,1,8,2:3:0:0:
128,157,130085,6,0,P|150:230|158:306,1,152.999995330811,4|10,1:1|2:1,0:0:0:0:
274,343,130572,1,0,0:0:0:0:
0,308,130734,2,0,P|35:293|64:269,1,76.4999976654053,2|0,1:2|1:2,0:0:0:0:
149,57,131058,2,0,P|184:72|213:96,1,76.4999976654053,10|0,2:1|0:0,0:0:0:0:
374,253,131383,5,2,1:2:0:0:
401,227,131464,1,0,0:0:0:0:
407,190,131545,1,0,0:0:0:0:
391,156,131626,1,0,0:0:0:0:
357,139,131707,1,10,2:1:0:0:
320,144,131788,1,0,0:0:0:0:
294,171,131869,2,0,L|296:221,1,38.2499988327027
361,328,132031,2,0,L|374:248,1,76.4999976654053,2|0,1:2|1:2,0:0:0:0:
83,184,132355,2,0,L|70:104,1,76.4999976654053,10|0,2:1|1:2,0:0:0:0:
262,9,132599,1,0,1:2:0:0:
262,9,132680,5,4,1:1:0:0:
69,208,132923,1,4,2:3:0:0:
377,346,133166,1,4,1:2:0:0:
261,266,133328,5,0,0:0:0:0:
263,254,133410,1,4,2:3:0:0:
265,242,133491,1,4,2:3:0:0:
267,230,133572,1,4,2:3:0:0:
269,218,133653,1,4,1:1:0:0:
496,126,133815,5,4,2:3:0:0:
459,116,133896,1,4,2:3:0:0:
422,125,133977,1,8,2:3:0:0:
394,151,134058,1,8,2:3:0:0:
382,187,134139,1,4,1:2:0:0:
204,92,134301,5,4,2:3:0:0:
185,87,134383,1,4,2:3:0:0:
166,82,134464,1,8,2:3:0:0:
147,77,134545,1,8,2:3:0:0:
128,72,134626,2,8,L|137:132,1,38.2499988327027,2|0,1:1|0:0,2:3:0:0:
50,233,134788,5,8,0:0:0:0:
94,224,134869,1,8,0:0:0:0:
135,241,134950,1,8,2:1:0:0:
159,280,135031,1,8,2:1:0:0:
182,318,135112,1,8,2:1:0:0:
223,336,135193,1,8,2:1:0:0:
268,326,135274,6,0,P|306:332|385:335,1,85,4|0,1:2|0:0,0:0:0:0:
490,89,135599,2,0,B|409:79|410:139|323:117,1,170,10|2,2:1|1:1,0:0:0:0:
165,20,136085,1,0,0:0:0:0:
66,154,136247,1,10,2:1:0:0:
236,102,136410,1,0,0:0:0:0:
236,102,136491,1,0,0:0:0:0:
236,102,136572,6,0,B|252:140|252:140|238:192,1,85,2|0,1:1|0:0,0:0:0:0:
48,64,136896,2,0,B|18:116|18:116|42:232,1,170,10|2,2:1|1:1,0:0:0:0:
185,377,137383,1,0,0:0:0:0:
152,277,137545,1,10,2:1:0:0:
81,359,137707,1,0,0:0:0:0:
326,300,137869,5,2,1:1:0:0:
326,300,138031,2,0,P|369:304|411:314,1,85,0|10,0:0|2:1,0:0:0:0:
221,24,138355,1,0,0:0:0:0:
256,126,138518,1,2,1:1:0:0:
256,126,138680,2,0,P|214:116|172:112,1,85,0|10,0:0|2:1,0:0:0:0:
370,187,139004,1,0,0:0:0:0:
474,73,139166,5,2,1:1:0:0:
408,11,139328,2,0,P|385:71|386:97,1,85,0|10,0:0|2:1,0:0:0:0:
288,285,139653,1,0,0:0:0:0:
288,285,139815,2,0,P|284:242|265:205,1,85,2|0,1:1|0:0,0:0:0:0:
512,7,140139,2,0,P|488:45|477:155,1,152.999995330811,10|0,2:1|0:0,0:0:0:0:
512,232,140464,6,0,B|449:214|455:265|384:240,1,127.5,4|0,1:1|0:0,0:0:0:0:
388,241,140788,1,10,2:1:0:0:
224,353,140950,2,0,P|196:312|203:258,1,85,0|2,0:0|1:1,0:0:0:0:
265,205,141274,1,0,0:0:0:0:
48,92,141437,1,10,2:1:0:0:
68,128,141518,1,0,0:0:0:0:
103,150,141599,1,0,0:0:0:0:
145,152,141680,1,0,0:0:0:0:
183,132,141761,6,0,P|227:111|317:104,1,127.5,2|0,1:1|0:0,0:0:0:0:
304,102,142085,1,10,2:1:0:0:
493,345,142247,2,0,P|433:342|398:308,1,85,0|2,0:0|1:1,0:0:0:0:
388,241,142572,1,0,1:2:0:0:
429,15,142734,1,10,2:1:0:0:
465,35,142815,1,0,0:0:0:0:
485,72,142896,1,0,0:0:0:0:
483,114,142977,1,0,0:0:0:0:
460,149,143058,5,2,1:1:0:0:
340,20,143220,1,0,0:0:0:0:
290,192,143383,2,0,L|349:178,1,42.5,10|0,2:1|0:0,0:0:0:0:
506,53,143545,2,0,L|423:72,1,85,0|2,1:2|2:1,0:0:0:0:
263,285,143869,2,0,L|322:271,1,42.5,8|0,2:1|0:0,0:0:0:0:
512,38,144031,2,0,L|429:57,1,85,2|0,1:1|0:0,0:0:0:0:
165,254,144355,5,10,2:1:0:0:
185,158,144518,2,0,P|241:115|355:104,1,170,0|0,1:2|1:2,0:0:0:0:
488,279,145004,2,0,P|453:260|403:255,1,85,10|0,2:1|0:0,0:0:0:0:
117,44,145328,1,8,2:1:0:0:
84,70,145409,1,8,2:1:0:0:
68,109,145490,1,8,2:1:0:0:
72,150,145571,1,8,2:1:0:0:
96,185,145653,6,0,L|82:286,1,85,4|0,1:2|0:0,0:0:0:0:
233,360,145977,1,10,2:1:0:0:
188,152,146139,1,0,0:0:0:0:
188,152,146301,2,0,L|174:253,1,85,0|0,1:2|1:2,0:0:0:0:
346,378,146626,2,0,L|334:293,1,85,10|0,2:1|0:0,0:0:0:0:
500,40,146950,6,0,P|459:28|401:30,1,85,2|0,1:1|0:0,0:0:0:0:
377,43,147193,1,0,0:0:0:0:
342,67,147274,1,10,2:1:0:0:
316,100,147355,1,0,0:0:0:0:
275,115,147437,1,0,0:0:0:0:
232,114,147518,1,0,0:0:0:0:
194,93,147599,6,0,P|181:51|174:2,1,85,2|0,1:1|0:0,0:0:0:0:
438,145,147923,2,0,P|431:186|418:227,1,85,10|0,2:1|0:0,0:0:0:0:
107,232,148247,5,2,1:1:0:0:
270,201,148410,1,0,1:2:0:0:
369,331,148572,1,10,2:1:0:0:
121,215,148734,2,0,L|9:236,1,85,0|2,1:2|2:1,0:0:0:0:
361,348,149058,1,0,1:2:0:0:
361,348,149220,2,0,L|444:332,1,85,10|0,2:1|1:2,0:0:0:0:
462,320,149464,1,0,1:2:0:0:
462,320,149545,5,10,2:1:0:0:
347,80,149707,1,0,0:0:0:0:
361,348,149869,1,0,1:2:0:0:
469,107,150031,1,10,1:1:0:0:
265,280,150193,1,0,0:0:0:0:
512,215,150355,1,0,1:2:0:0:
253,170,150518,1,10,1:1:0:0:
337,218,150680,1,4,2:3:0:0:
337,218,150761,1,4,2:3:0:0:
337,218,150842,6,0,P|264:247|167:253,1,170,4|10,1:1|2:1,0:0:0:0:
132,244,151247,1,0,0:0:0:0:
100,215,151328,1,0,0:0:0:0:
89,173,151410,1,0,0:0:0:0:
97,131,151491,1,2,1:1:0:0:
131,105,151572,1,0,0:0:0:0:
173,99,151653,1,0,0:0:0:0:
213,111,151734,1,0,0:0:0:0:
248,134,151815,1,10,2:1:0:0:
288,145,151896,1,0,0:0:0:0:
330,146,151977,1,0,0:0:0:0:
371,137,152058,1,0,0:0:0:0:
403,109,152139,6,0,P|452:89|502:89,1,85,2|0,1:1|0:0,0:0:0:0:
173,253,152464,2,0,P|130:248|92:230,1,85,10|0,2:1|0:0,0:0:0:0:
281,166,152788,1,2,1:1:0:0:
446,335,152950,1,0,0:0:0:0:
446,335,153031,1,0,0:0:0:0:
446,335,153112,2,0,L|461:235,1,85,10|0,2:1|1:2,0:0:0:0:
474,176,153355,1,0,1:2:0:0:
474,176,153437,5,12,2:1:0:0:
221,271,153599,2,0,L|178:261,2,42.5
474,176,153923,5,10,2:1:0:0:
183,179,154085,2,0,L|140:169,2,42.5
474,176,154410,5,10,2:1:0:0:
171,93,154572,2,0,L|128:83,1,42.5
233,37,154734,5,8,2:1:0:0:
255,72,154815,1,8,2:1:0:0:
252,114,154896,1,0,1:2:0:0:
94,244,155058,2,0,L|53:236,2,42.5,8|0|0,2:3|0:0|0:0,0:0:0:0:
439,90,155383,5,12,1:2:0:0:
369,33,155545,1,8,2:1:0:0:
342,64,155626,1,8,2:1:0:0:
339,106,155707,1,4,2:3:0:0:
362,142,155788,1,4,2:3:0:0:
383,177,155869,1,8,2:3:0:0:
382,218,155950,1,8,2:3:0:0:
355,251,156031,5,4,1:2:0:0:
56,207,156193,1,8,2:1:0:0:
367,335,157166,5,10,2:1:0:0:
367,335,157328,2,0,L|352:232,1,85,0|10,1:2|2:1,0:0:0:0:
291,186,157653,1,0,1:2:0:0:
70,45,158139,5,0,0:0:0:0:
66,66,158302,1,0,1:2:0:0:
63,87,158464,1,0,0:0:0:0:
73,176,158626,5,8,2:1:0:0:
386,127,158788,1,8,2:1:0:0:
92,283,159761,5,10,2:1:0:0:
92,283,159923,2,0,L|8:266,1,85,0|10,1:2|2:1,0:0:0:0:
386,127,160247,2,0,L|469:110,1,85,0|0,1:2|1:2,0:0:0:0:
291,107,160572,5,2,2:3:0:0:
264,87,160680,1,2,2:3:0:0:
259,53,160788,1,4,2:3:0:0:
272,21,160896,2,0,L|337:10,2,56.6666666666667,4|8|8,2:3|2:3|2:3,0:0:0:0:
319,195,161220,6,0,B|252:179|260:227|187:215,1,136,4|0,1:1|0:0,0:0:0:0:
61,158,161707,1,0,1:2:0:0:
61,158,161869,2,0,P|77:226|91:315,1,136,10|2,2:1|1:2,0:0:0:0:
391,355,162518,5,2,1:2:0:0:
391,355,162680,2,0,P|402:287|418:221,1,136,8|0,2:1|1:2,0:0:0:0:
271,41,163166,2,0,P|289:100|294:125,1,68,2|0,1:2|1:2,0:0:0:0:
476,336,163491,2,0,P|484:303|495:270,1,68,10|0,2:1|0:0,0:0:0:0:
271,41,163815,6,0,P|210:37|103:101,1,170,4|0,1:2|1:2,0:0:0:0:
286,381,164301,1,0,1:2:0:0:
448,183,164464,1,2,2:3:0:0:
258,127,164626,1,2,2:3:0:0:
217,137,164707,1,2,2:3:0:0:
178,154,164788,1,4,2:3:0:0:
143,179,164869,1,4,2:3:0:0:
114,209,164950,1,8,2:3:0:0:
90,244,165031,1,8,2:3:0:0:
92,291,166410,5,4,1:2:0:0:
439,68,176788,6,0,B|364:82|395:125|310:143,1,152.999995330811,4|2,1:1|1:2,0:0:0:0:
221,106,177274,1,2,0:0:0:0:
85,127,177437,2,0,B|160:141|129:184|213:202,1,152.999995330811,2|2,1:2|1:2,0:0:0:0:
341,249,177923,1,2,0:0:0:0:
313,167,178085,6,0,L|288:322,1,152.999995330811,2|2,1:2|1:2,0:0:0:0:
114,365,178572,2,0,P|101:318|101:280,1,76.4999976654053,2|2,0:0|1:2,0:0:0:0:
159,216,178896,1,2,0:0:0:0:
12,328,179058,1,2,1:2:0:0:
67,194,179220,1,2,2:1:0:0:
197,309,179383,6,0,B|283:310|250:354|338:357,1,152.999995330811,2|2,1:2|1:2,0:0:0:0:
347,236,179869,1,2,0:0:0:0:
441,377,180031,2,0,P|428:328|431:291,1,76.4999976654053,2|2,1:2|0:0,0:0:0:0:
270,108,180355,2,0,P|269:146|257:182,1,76.4999976654053,2|2,1:2|0:0,0:0:0:0:
19,320,180680,6,0,P|54:276|158:268,1,152.999995330811,2|2,1:2|1:2,0:0:0:0:
448,167,181166,2,0,P|410:162|372:153,1,76.4999976654053,2|2,0:0|1:2,0:0:0:0:
77,56,181491,2,0,P|114:60|152:69,1,76.4999976654053,2|0,2:1|1:2,0:0:0:0:
256,192,181815,1,2,0:0:0:0:
171,253,181977,5,4,1:2:0:0:
171,253,182301,1,0,1:2:0:0:
360,192,182626,5,2,1:2:0:0:
360,192,182950,1,2,1:2:0:0:
171,130,183274,5,2,1:2:0:0:
171,130,183599,1,2,1:2:0:0:
288,291,183923,5,2,1:2:0:0:
288,291,184247,1,2,1:2:0:0:
288,92,184572,5,4,1:1:0:0:
288,92,184896,1,0,1:2:0:0:
393,271,185058,5,8,0:0:0:0:
97,208,185220,1,8,2:1:0:0:
374,85,185383,1,8,2:1:0:0:
222,347,185545,1,8,2:1:0:0:
191,46,185707,1,8,2:1:0:0:
256,192,185869,6,0,L|265:259,2,38.2499988327027,0|0|8,1:2|0:0|0:0,0:0:0:0:
244,201,186112,1,8,0:0:0:0:
232,210,186193,1,8,2:1:0:0:
348,79,186355,5,8,0:0:0:0:
336,88,186437,1,8,0:0:0:0:
324,97,186518,1,8,2:1:0:0:
505,109,186680,5,2,2:3:0:0:
493,118,186762,1,2,2:3:0:0:
481,127,186842,6,0,L|426:160,1,59.4999981842042,4|4,2:3|2:3,0:0:0:0:
152,148,187004,2,0,L|97:181,1,59.4999981842042,8|8,2:3|2:3,0:0:0:0:
272,30,187166,6,0,P|248:70|245:117,1,93.5000028533936,4|0,1:1|0:0,0:0:0:0:
364,266,187491,1,8,2:1:0:0:
160,310,187653,1,2,2:1:0:0:
331,168,187815,2,0,B|452:158|390:219|511:202,1,187.000005706787,0|8,1:2|2:1,0:0:0:0:
269,337,188301,1,2,2:1:0:0:
269,337,188383,1,0,0:0:0:0:
269,337,188464,6,0,P|250:283|256:240,1,93.5000028533936,0|2,1:2|2:1,0:0:0:0:
331,168,188788,1,8,2:1:0:0:
160,310,188950,2,0,L|104:304,2,46.7500014266968,2|0|0,2:1|0:0|1:2,0:0:0:0:
352,288,189274,1,2,2:1:0:0:
160,203,189437,1,8,2:1:0:0:
328,77,189599,1,2,2:1:0:0:
160,310,189761,6,0,P|85:326|25:284,1,140.25000428009,0|0,1:2|0:0,0:0:0:0:
23,279,190085,1,8,2:1:0:0:
167,102,190247,1,2,2:1:0:0:
64,161,190410,2,0,L|49:58,1,93.5000028533936,0|2,1:2|2:1,0:0:0:0:
343,302,190734,1,8,2:1:0:0:
343,302,190815,1,0,0:0:0:0:
343,302,190896,2,0,L|349:348,1,46.7500014266968,2|0,2:1|0:0,0:0:0:0:
455,127,191058,5,0,1:2:0:0:
345,148,191220,1,2,2:1:0:0:
234,168,191383,1,8,2:1:0:0:
421,227,191545,5,2,2:1:0:0:
421,227,191626,1,0,0:0:0:0:
421,227,191707,1,0,1:2:0:0:
271,81,191869,1,2,2:1:0:0:
244,274,192031,5,8,2:1:0:0:
424,33,192193,1,2,2:1:0:0:
489,333,192355,6,0,P|451:278|317:297,1,187.000005706787,0|8,1:2|2:1,0:0:0:0:
133,363,192842,1,2,2:1:0:0:
133,363,192923,1,0,0:0:0:0:
133,363,193004,2,0,P|148:307|151:259,1,93.5000028533936,0|2,1:2|2:1,0:0:0:0:
368,125,193328,2,0,P|353:69|350:21,1,93.5000028533936,8|2,2:1|2:1,0:0:0:0:
61,86,193653,6,0,B|177:63|128:131|240:104,1,187.000005706787,0|8,1:2|2:1,0:0:0:0:
349,33,194139,1,2,2:1:0:0:
197,195,194301,1,0,1:2:0:0:
356,335,194464,1,2,2:1:0:0:
356,335,194545,1,0,0:0:0:0:
356,335,194626,2,0,L|338:233,1,93.5000028533936,8|2,2:1|2:1,0:0:0:0:
501,12,194950,6,0,B|527:50|527:50|504:175,1,140.25000428009,0|0,1:2|0:0,0:0:0:0:
507,165,195274,2,0,L|412:150,1,93.5000028533936,8|2,2:1|2:1,0:0:0:0:
445,252,195599,5,0,1:2:0:0:
349,33,195761,1,2,2:1:0:0:
164,184,195923,1,8,2:1:0:0:
258,135,196085,1,2,2:3:0:0:
258,135,196166,1,2,2:3:0:0:
258,135,196247,1,0,1:2:0:0:
51,39,196410,5,2,1:1:0:0:
254,239,196572,1,4,1:1:0:0:
160,289,196734,6,0,L|99:278,2,46.7500014266968,8|8|0,2:3|2:3|1:2,0:0:0:0:
454,20,197058,2,0,L|515:9,2,46.7500014266968,0|0|8,1:2|1:2|2:1,0:0:0:0:
407,25,197301,1,8,2:1:0:0:
374,59,197383,1,8,2:1:0:0:
367,105,197464,1,8,2:1:0:0:
384,148,197545,6,0,P|401:199|406:239,1,93.5000028533936,4|0,1:2|0:0,0:0:0:0:
380,337,197869,1,8,2:1:0:0:
493,171,198031,1,2,2:1:0:0:
145,258,198193,2,0,P|205:211|320:212,1,187.000005706787,0|8,1:2|2:1,0:0:0:0:
501,17,198680,1,2,2:1:0:0:
501,17,198761,1,0,0:0:0:0:
501,17,198842,6,0,P|447:-1|406:0,1,93.5000028533936,0|2,1:2|2:1,0:0:0:0:
236,79,199166,1,8,2:1:0:0:
391,194,199328,2,0,L|383:147,2,46.7500014266968,2|0|0,2:1|0:0|1:2,0:0:0:0:
249,317,199653,1,2,2:1:0:0:
324,89,199815,1,8,2:1:0:0:
499,200,199977,1,2,2:1:0:0:
165,252,200139,6,0,P|224:216|293:213,1,140.25000428009,0|0,1:2|0:0,0:0:0:0:
315,221,200464,1,8,2:1:0:0:
49,280,200626,1,2,2:1:0:0:
141,112,200788,2,0,L|36:102,1,93.5000028533936,0|2,1:2|2:1,0:0:0:0:
346,323,201112,2,0,L|392:318,1,46.7500014266968,12|0,1:1|0:0,0:0:0:0:
499,200,201274,2,0,L|452:204,1,46.7500014266968,8|8,2:3|2:3,0:0:0:0:
358,127,201437,5,0,1:2:0:0:
491,306,201599,1,2,2:1:0:0:
491,80,201761,1,2,2:1:0:0:
315,221,201923,5,8,2:1:0:0:
298,229,202004,1,8,2:1:0:0:
281,237,202085,2,0,L|288:179,1,46.7500014266968,4|0,1:2|0:0,0:0:0:0:
399,49,202247,1,2,2:3:0:0:
357,28,202328,1,2,2:3:0:0:
310,21,202410,1,4,2:3:0:0:
266,37,202491,1,4,2:3:0:0:
235,72,202572,2,0,L|229:118,1,46.7500014266968,8|8,2:3|2:3,0:0:0:0:
382,354,202734,6,0,L|393:265,1,68,4|0,1:1|0:0,0:0:0:0:
121,286,203058,2,0,L|130:354,1,68,0|0,1:2|0:0,0:0:0:0:
460,215,203383,6,0,L|471:120,1,76.4999976654053,0|0,1:2|0:0,0:0:0:0:
43,139,203707,2,0,L|52:215,1,76.4999976654053,0|0,1:2|0:0,0:0:0:0:
300,56,204031,6,0,B|271:43|271:43|214:54,1,85,0|0,1:2|0:0,0:0:0:0:
121,286,204355,2,0,L|219:269,1,85,0|0,1:2|0:0,0:0:0:0:
133,121,204680,5,0,1:2:0:0:
257,213,204842,1,8,0:0:0:0:
133,121,205004,1,8,0:0:0:0:
174,353,205166,1,8,0:0:0:0:
329,202,205328,5,12,1:1:0:0:
187,184,205491,1,8,2:1:0:0:
293,283,205653,1,8,2:1:0:0:
265,141,205815,1,8,2:1:0:0:
204,271,205977,5,8,0:0:0:0:
512,170,206139,1,8,0:0:0:0:
205,65,206301,1,8,0:0:0:0:
391,334,206464,1,8,0:0:0:0:
396,7,206626,1,8,0:0:0:0:
172,342,207599,6,0,L|164:289,1,42.5,8|8,2:1|2:1,0:0:0:0:
13,181,207761,2,0,L|21:128,1,42.5,8|8,2:1|2:1,0:0:0:0:
127,31,207923,6,0,B|150:63|150:63|142:112,1,89.2499972763062,4|0,1:1|0:0,0:0:0:0:
116,197,208247,6,0,P|162:147|230:133,1,140.25000428009,10|0,2:1|0:0,0:0:0:0:
326,144,208572,1,2,1:2:0:0:
172,342,208734,1,0,1:2:0:0:
399,266,208896,2,0,L|308:249,1,93.5000028533936,10|0,2:1|0:0,0:0:0:0:
217,235,209139,1,0,1:2:0:0:
217,235,209220,5,2,1:2:0:0:
337,383,209383,2,0,L|331:336,1,46.7500014266968,0|0,1:2|0:0,0:0:0:0:
343,78,209545,2,0,B|366:120|366:120|357:165,1,93.5000028533936,10|0,2:1|0:0,0:0:0:0:
91,288,209869,5,2,1:2:0:0:
265,135,210031,1,0,1:2:0:0:
140,71,210193,5,10,2:1:0:0:
245,141,210355,1,0,0:0:0:0:
99,186,210518,6,0,B|151:198|151:198|174:228|174:228|221:241,1,140.25000428009,2|0,1:2|0:0,0:0:0:0:
310,257,210842,1,10,2:1:0:0:
140,71,211004,1,0,0:0:0:0:
140,71,211085,1,0,0:0:0:0:
140,71,211166,2,0,L|124:7,2,46.7500014266968,2|0|0,1:2|0:0|1:2,0:0:0:0:
367,338,211491,2,0,B|354:253|354:253|389:211,1,140.25000428009,10|0,2:1|0:0,0:0:0:0:
451,135,211815,6,0,L|348:112,1,93.5000028533936,2|0,1:2|0:0,0:0:0:0:
188,275,212139,2,0,B|210:234|210:234|199:184,1,93.5000028533936,10|0,2:1|0:0,0:0:0:0:
102,161,212383,2,0,L|116:214,1,46.7500014266968,8|2,2:1|1:2,0:0:0:0:
187,87,212626,1,0,1:2:0:0:
144,360,212788,1,10,2:1:0:0:
160,327,212869,1,0,0:0:0:0:
191,305,212950,1,8,2:1:0:0:
227,301,213031,1,8,2:1:0:0:
262,313,213112,6,0,L|383:332,1,93.5000028533936,4|0,1:2|0:0,0:0:0:0:
475,293,213437,1,10,2:1:0:0:
348,90,213599,2,0,P|355:112|359:135,1,46.7500014266968
454,384,213761,2,0,P|463:329|480:284,1,93.5000028533936,2|0,1:2|1:2,0:0:0:0:
492,193,214085,2,0,B|422:189|435:227|357:224,1,140.25000428009,10|0,2:1|0:0,0:0:0:0:
267,272,214410,6,0,L|277:364,1,93.5000028533936,2|0,1:2|1:2,0:0:0:0:
185,125,214734,2,0,L|195:32,1,93.5000028533936,8|0,2:1|0:0,0:0:0:0:
89,180,214977,1,0,1:2:0:0:
89,180,215058,2,0,L|81:233,1,46.7500014266968,2|0,1:2|0:0,0:0:0:0:
58,320,215220,1,0,1:2:0:0:
9,41,215383,2,0,P|54:50|92:81,1,93.5000028533936,10|0,2:1|0:0,0:0:0:0:
185,225,215626,1,0,0:0:0:0:
185,225,215707,6,0,P|267:229|321:168,1,170,2|10,1:2|2:1,0:0:0:0:
295,67,216193,1,0,0:0:0:0:
273,64,216274,1,0,0:0:0:0:
251,61,216355,1,2,1:2:0:0:
474,268,216518,5,8,0:0:0:0:
433,256,216599,1,8,0:0:0:0:
393,268,216680,1,8,2:1:0:0:
365,299,216761,1,8,2:1:0:0:
337,330,216842,1,8,2:1:0:0:
297,342,216923,1,8,2:1:0:0:
256,331,217004,1,0,1:2:0:0:
14,39,217166,6,0,L|21:80,1,42.5,2|0,1:1|0:0,0:0:0:0:
126,87,217328,2,0,L|133:128,1,42.5,4|0,1:2|0:0,0:0:0:0:
16,311,217491,1,8,0:0:0:0:
16,311,217572,1,8,0:0:0:0:
16,311,217653,1,8,2:1:0:0:
63,175,217815,5,8,2:1:0:0:
104,163,217896,1,8,2:1:0:0:
144,175,217977,1,8,2:1:0:0:
172,206,218058,1,8,2:1:0:0:
200,237,218139,1,8,2:1:0:0:
240,249,218220,1,8,2:1:0:0:
281,238,218301,2,0,L|365:227,1,59.4999981842042,8|8,2:3|2:3,0:0:0:0:
401,167,218545,5,8,2:3:0:0:
401,167,218626,2,0,B|308:162|340:222|235:219,1,178.499994552612,4|0,1:1|0:0,0:0:0:0:
156,184,218950,1,2,1:2:0:0:
370,302,219112,1,0,1:2:0:0:
148,83,219274,2,0,L|238:106,1,93.5000028533936,10|0,2:1|0:0,0:0:0:0:
322,71,219518,1,0,0:0:0:0:
322,71,219599,5,2,1:2:0:0:
246,290,219761,2,0,L|240:243,1,46.7500014266968,0|0,1:2|0:0,0:0:0:0:
402,22,219923,2,0,B|362:64|362:64|386:142,1,140.25000428009,10|0,2:1|0:0,0:0:0:0:
436,248,220247,1,2,1:2:0:0:
255,126,220410,1,0,1:2:0:0:
465,152,220572,2,0,L|367:174,1,93.5000028533936,10|0,2:1|0:0,0:0:0:0:
217,221,220815,1,0,0:0:0:0:
217,221,220896,5,2,1:2:0:0:
109,56,221058,2,0,L|154:67,1,46.7500014266968,0|0,0:0|0:0,0:0:0:0:
123,177,221220,2,0,B|106:216|106:216|118:265,1,93.5000028533936,10|0,2:1|0:0,0:0:0:0:
329,374,221545,2,0,L|315:276,1,93.5000028533936,2|0,1:2|0:0,0:0:0:0:
373,83,221869,2,0,L|425:68,2,46.7500014266968,10|0|0,2:1|0:0|0:0,0:0:0:0:
395,212,222193,6,0,P|355:187|298:181,1,93.5000028533936,2|0,1:2|1:2,0:0:0:0:
52,181,222518,2,0,L|97:191,1,46.7500014266968,4|0,1:1|0:0,0:0:0:0:
213,123,222680,2,0,L|167:112,1,46.7500014266968,0|0,1:2|0:0,0:0:0:0:
89,47,222842,1,8,2:1:0:0:
182,255,223004,1,0,1:2:0:0:
105,357,223166,1,8,2:1:0:0:
130,318,223247,1,8,2:1:0:0:
169,292,223328,1,8,2:1:0:0:
215,284,223409,1,8,2:1:0:0:
260,295,223491,6,0,L|368:316,1,93.5000028533936,4|0,1:2|0:0,0:0:0:0:
512,190,223815,2,0,L|420:172,1,93.5000028533936,10|0,2:1|0:0,0:0:0:0:
338,151,224058,1,0,1:2:0:0:
338,151,224139,1,2,1:2:0:0:
477,81,224301,1,0,1:2:0:0:
433,370,224464,2,0,P|448:326|449:279,1,93.5000028533936,10|0,2:1|0:0,0:0:0:0:
241,30,224788,6,0,B|263:69|263:69|254:116,1,93.5000028533936,2|0,1:2|1:2,0:0:0:0:
76,384,225112,2,0,B|47:342|47:342|64:254,1,140.25000428009,4|0,1:2|0:0,0:0:0:0:
42,155,225437,2,0,L|102:168,1,46.7500014266968,0|0,1:2|0:0,0:0:0:0:
204,283,225599,2,0,L|158:273,1,46.7500014266968,0|0,0:0|0:0,0:0:0:0:
168,103,225761,2,0,P|236:113|275:182,1,140.25000428009,12|0,1:1|0:0,0:0:0:0:
272,195,226085,6,0,L|389:175,1,85,4|0,1:2|0:0,0:0:0:0:
435,111,226410,1,8,2:1:0:0:
371,277,226572,2,0,L|389:339,2,42.5,0|0|8,1:2|0:0|2:1,0:0:0:0:
332,82,226896,1,0,1:2:0:0:
215,256,227058,1,8,2:1:0:0:
34,116,227220,1,0,1:2:0:0:
9,237,227383,5,8,0:0:0:0:
134,148,227545,1,8,0:0:0:0:
222,276,227707,1,8,2:1:0:0:
363,111,227869,1,8,2:1:0:0:
175,55,228031,5,8,0:0:0:0:
391,208,228193,1,8,0:0:0:0:
101,339,228355,5,8,0:0:0:0:
465,139,228518,1,8,0:0:0:0:
175,55,228680,6,0,L|186:125,1,50.9999984436036,2|8,2:1|2:3,0:0:0:0:
299,223,228923,1,8,2:3:0:0:
299,223,229004,6,0,B|304:316|304:316|234:257|234:257|146:291|146:291|181:208|181:208|122:136|122:136|213:143|213:143|264:66|264:66|284:154|284:154|375:179|375:179|313:214,1,892.499972763062,4|0,1:2|0:0,0:0:0:0:
