osu file format v14

[General]
AudioFilename: audio.mp3
AudioLeadIn: 0
PreviewTime: 64208
Countdown: 0
SampleSet: Soft
StackLeniency: 0.5
Mode: 2
LetterboxInBreaks: 0
WidescreenStoryboard: 1

[Editor]
DistanceSpacing: 1.8
BeatDivisor: 4
GridSize: 4
TimelineZoom: 2.04

[Metadata]
Title:Hoshizora no Ima
TitleUnicode:星空のいま
Artist:Sagara Kokoro
ArtistUnicode:相良心
Creator:Nelly
Version:Shining Star
Source:星空へ架かる橋AA
Tags:Hoshizora e Kakaru Hashi AA feng chickenbible -luminate xetopia imai lisa
BeatmapID:1885428
BeatmapSetID:903137

[Difficulty]
HPDrainRate:7
CircleSize:4
OverallDifficulty:9.2
ApproachRate:9.2
SliderMultiplier:1.69
SliderTickRate:2

[Events]
//Background and Video events
0,0,"bg.jpg",0,0
//Break Periods
//Storyboard Layer 0 (Background)
//Storyboard Layer 1 (Fail)
//Storyboard Layer 2 (Pass)
//Storyboard Layer 3 (Foreground)
//Storyboard Layer 4 (Overlay)
//Storyboard Sound Samples

[TimingPoints]
1371,324.324324324324,4,2,7,50,1,0
2019,-113.636363636364,4,2,7,50,0,0
2668,-100,4,2,7,50,0,0
13046,-100,4,2,7,60,0,0
23425,-100,4,2,7,70,0,0
33803,-100,4,2,6,30,0,0
44181,-100,4,2,7,60,0,0
59749,-100,4,2,7,40,0,0
62343,-100,4,2,7,70,0,0
64938,-100,4,2,7,80,0,1
74992,-90.9090909090909,4,2,7,80,0,0
75316,-100,4,2,7,80,0,1
80181,-90.9090909090909,4,2,7,80,0,0
80506,-100,4,2,7,80,0,1
84398,-100,4,2,7,80,0,0
85695,-100,4,2,7,70,0,0
96398,-100,4,2,7,70,0,0
99965,-100,4,2,7,5,0,0

[Colours]
Combo1 : 157,133,188
Combo2 : 255,162,117
Combo3 : 109,39,239
Combo4 : 255,128,128

[HitObjects]
165,232,2019,6,0,L|313:230,1,148.720004538574,0|0,0:0|0:0,0:0:0:0:
31,196,2668,6,0,P|43:155|143:89,1,169,2|0,0:0|0:0,0:0:0:0:
244,91,3154,1,0,0:0:0:0:
377,188,3316,2,0,L|206:187,1,169,0|0,0:0|0:0,0:0:0:0:
106,185,3803,1,0,0:0:0:0:
264,295,3965,6,0,P|340:262|376:187,1,169,2|0,0:0|0:0,0:0:0:0:
236,176,4452,1,0,0:0:0:0:
376,175,4614,2,0,L|379:88,1,84.5,0|0,0:0|0:0,0:0:0:0:
253,62,4938,2,0,L|168:59,1,84.5,0|0,0:0|0:0,0:0:0:0:
457,233,5262,6,0,P|477:198|365:58,1,253.5,2|0,0:0|0:0,0:0:0:0:
204,67,5911,2,0,P|184:109|316:283,1,295.75,0|0,0:0|0:0,0:0:0:0:
118,341,6560,6,0,L|114:256,1,84.5,2|0,0:0|0:0,0:0:0:0:
248,238,6884,2,0,L|251:153,1,84.5,0|0,0:0|0:0,0:0:0:0:
98,291,7208,2,0,L|94:206,1,84.5
228,188,7532,2,0,L|231:103,1,84.5,0|0,0:0|0:0,0:0:0:0:
9,60,7857,6,0,L|181:56,1,169,2|0,0:0|0:0,0:0:0:0:
396,191,8506,2,0,L|224:187,1,169,0|0,0:0|0:0,0:0:0:0:
9,60,9154,6,0,L|181:56,1,169,2|0,0:0|0:0,0:0:0:0:
52,156,9641,1,0,0:0:0:0:
187,318,9803,2,0,L|191:233,1,84.5,0|0,0:0|0:0,0:0:0:0:
52,156,10127,2,0,L|49:241,1,84.5,0|0,0:0|0:0,0:0:0:0:
308,332,10452,6,0,P|341:302|266:144,1,253.5,2|0,0:0|0:0,0:0:0:0:
100,234,11100,2,0,P|67:204|142:46,1,253.5,2|0,0:0|0:0,0:0:0:0:
286,44,11749,6,0,P|389:64|461:184,1,253.5,2|0,0:0|0:0,0:0:0:0:
303,266,12398,2,0,L|216:263,1,84.5,2|0,0:0|0:0,0:0:0:0:
357,185,12722,2,0,L|444:182,1,84.5,0|2,0:0|0:0,0:0:0:0:
398,138,12965,1,2,0:0:0:0:
132,51,13046,5,6,0:0:0:0:
87,139,13208,1,0,0:0:0:0:
110,235,13370,1,2,0:0:0:0:
210,298,13532,1,0,0:0:0:0:
351,286,13695,2,0,L|266:282,1,84.5,2|0,0:0|0:0,0:0:0:0:
131,198,14019,2,0,L|216:194,1,84.5,2|0,0:0|0:0,0:0:0:0:
445,286,14343,5,2,0:0:0:0:
490,198,14505,1,0,0:0:0:0:
467,102,14667,1,2,0:0:0:0:
367,39,14829,1,0,0:0:0:0:
231,45,14992,1,2,0:0:0:0:
382,125,15154,1,0,0:0:0:0:
246,131,15317,1,2,0:0:0:0:
394,209,15479,1,0,0:0:0:0:
111,303,15641,6,0,L|106:216,1,84.5,2|0,0:0|0:0,0:0:0:0:
241,215,15965,2,0,L|246:128,1,84.5,2|0,0:0|0:0,0:0:0:0:
97,292,16289,2,0,L|92:205,1,84.5,2|0,0:0|0:0,0:0:0:0:
227,204,16614,1,2,0:0:0:0:
92,198,16776,1,0,0:0:0:0:
340,74,16938,6,0,L|425:78,1,84.5,2|0,0:0|0:0,0:0:0:0:
289,152,17262,2,0,L|204:156,2,84.5,2|0|2,0:0|0:0|0:0,0:0:0:0:
429,289,17749,1,2,0:0:0:0:
395,288,17830,1,2,0:0:0:0:
361,286,17911,1,2,0:0:0:0:
204,267,18073,2,0,L|249:263,1,42.25,2|2,0:0|0:0,0:0:0:0:
477,219,18235,6,0,L|480:132,1,84.5,4|0,0:0|0:0,0:0:0:0:
335,70,18560,2,0,L|337:154,1,84.5,2|0,0:0|0:0,0:0:0:0:
202,154,18884,2,0,L|204:69,1,84.5,2|0,0:0|0:0,0:0:0:0:
59,134,19209,2,0,L|61:218,1,84.5,2|0,0:0|0:0,0:0:0:0:
202,154,19533,6,0,L|204:69,1,84.5,2|2,0:0|0:0,0:0:0:0:
335,70,19857,2,0,L|337:154,1,84.5,2|2,0:0|0:0,0:0:0:0:
202,154,20181,2,0,L|292:158,1,84.5,10|2,0:0|0:0,0:0:0:0:
432,273,20506,2,0,L|342:277,1,84.5,10|2,0:0|0:0,0:0:0:0:
95,288,20830,5,14,0:0:0:0:
229,281,20992,1,2,0:0:0:0:
470,272,21154,1,10,0:0:0:0:
336,265,21316,1,2,0:0:0:0:
67,188,21479,1,10,0:0:0:0:
201,181,21641,1,10,0:0:0:0:
67,188,21803,1,10,0:0:0:0:
324,165,21965,1,10,0:0:0:0:
50,62,22127,1,14,0:0:0:0:
475,340,23425,6,0,L|304:338,1,169,4|8,0:0|0:0,0:0:0:0:
441,243,23911,1,0,0:0:0:0:
222,239,24073,2,0,L|138:236,1,84.5,2|2,0:0|0:0,0:0:0:0:
270,150,24398,2,0,L|354:147,1,84.5,8|0,0:0|0:0,0:0:0:0:
111,48,24722,6,0,P|70:70|115:158,1,169,2|8,0:0|0:0,0:0:0:0:
248,152,25208,1,0,0:0:0:0:
18,342,25370,2,0,L|16:257,1,84.5,2|2,0:0|0:0,0:0:0:0:
150,161,25695,2,0,L|65:163,1,84.5,8|0,0:0|0:0,0:0:0:0:
355,266,26019,6,0,P|369:224|284:153,1,169,2|8,0:0|0:0,0:0:0:0:
150,161,26506,1,0,0:0:0:0:
399,42,26668,2,0,L|311:43,1,84.5,2|2,0:0|0:0,0:0:0:0:
179,154,26992,2,0,L|175:241,1,84.5,8|0,0:0|0:0,0:0:0:0:
472,349,27316,6,0,L|303:345,1,169,2|8,0:0|0:0,0:0:0:0:
155,293,27803,2,0,L|206:291,1,42.25,0|8,0:0|0:0,0:0:0:0:
376,224,27965,2,0,L|290:222,1,84.5,0|2,0:0|0:0,0:0:0:0:
142,123,28289,2,0,L|228:121,1,84.5,8|0,0:0|0:0,0:0:0:0:
272,118,28533,1,8,0:0:0:0:
458,227,28614,6,0,P|472:185|387:114,1,169,6|8,0:0|0:0,0:0:0:0:
253,122,29101,1,0,0:0:0:0:
479,323,29262,1,2,0:0:0:0:
486,177,29424,1,2,0:0:0:0:
220,223,29586,1,8,0:0:0:0:
341,214,29748,1,0,0:0:0:0:
102,301,29911,6,0,L|186:299,1,84.5,2|0,0:0|0:0,0:0:0:0:
429,136,30235,2,0,L|345:134,1,84.5,8|0,0:0|0:0,0:0:0:0:
209,131,30560,2,0,L|195:216,1,84.5,2|2,0:0|0:0,0:0:0:0:
416,332,30884,2,0,L|500:330,1,84.5,8|0,0:0|0:0,0:0:0:0:
111,48,31208,6,0,P|70:70|115:158,1,169,2|8,0:0|0:0,0:0:0:0:
255,151,31695,2,0,L|298:148,1,42.25,0|0,0:0|0:0,0:0:0:0:
51,345,31856,2,0,L|137:342,1,84.5,2|2,0:0|0:0,0:0:0:0:
272,334,32181,2,0,L|358:331,1,84.5,8|0,0:0|0:0,0:0:0:0:
25,211,32506,5,12,0:0:0:0:
160,205,32668,1,8,0:0:0:0:
25,211,32830,1,8,0:0:0:0:
316,121,32992,1,8,0:0:0:0:
181,115,33154,1,8,0:0:0:0:
446,266,33316,2,0,L|449:224,1,42.25,2|2,0:0|0:0,0:0:0:0:
245,180,33479,2,0,L|287:176,1,42.25,8|10,0:0|0:0,0:0:0:0:
491,97,33641,2,0,L|449:93,1,42.25,2|2,0:0|0:0,0:0:0:0:
237,77,33803,5,0,0:0:0:0:
133,262,34289,1,0,0:0:0:0:
261,256,34452,2,0,P|293:241|261:140,1,169
160,146,34938,1,0,0:0:0:0:
288,53,35100,6,0,L|459:63,1,169
327,153,35587,1,0,0:0:0:0:
454,161,35749,2,0,L|458:256,1,84.5,0|0,0:0|0:0,0:0:0:0:
326,258,36073,2,0,L|322:353,1,84.5
450,351,36398,6,0,L|278:344,2,169,2|2|2,0:0|0:0|0:0,0:0:0:0:
199,322,37370,2,0,L|196:237,1,84.5,2|0,0:0|0:0,0:0:0:0:
325,132,37695,6,0,L|157:138,2,169,2|2|2,0:0|0:0|0:0,0:0:0:0:
475,128,38506,2,0,L|480:219,1,84.5,0|2,0:0|0:0,0:0:0:0:
226,345,38992,6,0,P|190:323|232:229,1,169,2|0,0:0|0:0,0:0:0:0:
316,228,39479,1,0,0:0:0:0:
462,229,39641,2,0,P|498:207|456:113,1,169
375,113,40128,1,0,0:0:0:0:
228,123,40289,6,2,L|140:126,1,84.5,0|0,0:0|0:0,0:0:0:0:
277,207,40614,2,0,L|280:295,1,84.5
139,328,40938,2,0,P|103:306|145:212,1,169
248,213,41425,1,0,0:0:0:0:
396,314,41587,6,0,L|225:310,1,169,2|0,0:0|0:0,0:0:0:0:
80,216,42073,2,0,L|251:212,2,169,2|2|2,0:0|0:0|0:0,0:0:0:0:
208,33,42884,6,0,L|210:117,1,84.5,0|0,0:0|0:0,0:0:0:0:
80,216,43208,2,0,L|165:214,1,84.5
292,212,43533,1,0,0:0:0:0:
39,348,43695,2,0,P|21:296|62:149,1,211.25,2|2,0:0|0:0,0:0:0:0:
319,165,44181,6,0,L|323:254,1,84.5,6|0,0:0|0:0,0:0:0:0:
180,267,44506,2,0,L|177:182,1,84.5,2|0,0:0|0:0,0:0:0:0:
319,165,44830,2,0,L|323:254,1,84.5,2|0,0:0|0:0,0:0:0:0:
180,267,45155,2,0,L|177:182,1,84.5,2|0,0:0|0:0,0:0:0:0:
319,165,45479,6,0,L|323:254,1,84.5,2|0,0:0|0:0,0:0:0:0:
466,235,45803,2,0,L|463:150,1,84.5,2|0,0:0|0:0,0:0:0:0:
319,165,46127,2,0,L|316:80,1,84.5,2|0,0:0|0:0,0:0:0:0:
180,267,46452,1,2,0:0:0:0:
322,256,46614,1,8,0:0:0:0:
45,165,46776,6,0,L|48:80,1,84.5,2|0,0:0|0:0,0:0:0:0:
187,122,47101,2,0,L|184:206,1,84.5,2|0,0:0|0:0,0:0:0:0:
45,165,47425,2,0,L|48:80,1,84.5,2|0,0:0|0:0,0:0:0:0:
187,122,47750,2,0,L|273:117,1,84.5,2|0,0:0|0:0,0:0:0:0:
135,259,48073,6,0,L|131:174,1,84.5,2|0,0:0|0:0,0:0:0:0:
274,159,48398,1,2,0:0:0:0:
130,155,48560,1,10,0:0:0:0:
274,159,48722,1,2,0:0:0:0:
278,285,48884,1,10,0:0:0:0:
133,299,49046,1,10,0:0:0:0:
278,285,49208,2,0,L|324:277,1,42.25,10|10,0:0|0:0,0:0:0:0:
144,177,49370,6,0,L|140:90,1,84.5,6|0,0:0|0:0,0:0:0:0:
284,83,49695,2,0,L|287:167,1,84.5,2|0,0:0|0:0,0:0:0:0:
144,177,50019,2,0,L|140:90,1,84.5,2|0,0:0|0:0,0:0:0:0:
284,83,50343,1,2,0:0:0:0:
144,177,50506,1,0,0:0:0:0:
284,83,50668,6,0,L|287:167,1,84.5,2|0,0:0|0:0,0:0:0:0:
430,163,50992,2,0,L|433:247,1,84.5,2|0,0:0|0:0,0:0:0:0:
284,83,51316,2,0,L|287:167,1,84.5,2|0,0:0|0:0,0:0:0:0:
430,163,51641,1,2,0:0:0:0:
287,167,51803,1,8,0:0:0:0:
39,305,51965,6,0,L|124:300,1,84.5,2|0,0:0|0:0,0:0:0:0:
265,223,52289,2,0,L|180:218,1,84.5,2|0,0:0|0:0,0:0:0:0:
39,305,52614,2,0,L|124:300,1,84.5,2|0,0:0|0:0,0:0:0:0:
265,223,52938,2,0,L|180:218,1,84.5,2|10,0:0|0:0,0:0:0:0:
137,214,53181,1,10,0:0:0:0:
347,65,53262,6,0,L|350:149,1,84.5,14|0,0:0|0:0,0:0:0:0:
205,158,53587,2,0,L|202:74,1,84.5,8|2,0:0|0:0,0:0:0:0:
347,65,53911,1,2,0:0:0:0:
118,295,54073,1,8,0:0:0:0:
244,288,54235,1,8,0:0:0:0:
118,295,54398,1,8,0:0:0:0:
420,192,54560,6,0,L|291:186,2,126.75,4|0|0,0:0|0:0|0:0,0:0:0:0:
118,303,55208,2,0,L|115:216,1,84.5,2|0,0:0|0:0,0:0:0:0:
242,209,55533,2,0,L|245:122,1,84.5,2|0,0:0|0:0,0:0:0:0:
26,54,55857,6,0,L|112:55,1,84.5,2|0,0:0|0:0,0:0:0:0:
238,159,56181,2,0,L|152:160,1,84.5,2|0,0:0|0:0,0:0:0:0:
102,163,56425,1,0,0:0:0:0:
293,235,56506,2,0,L|377:234,1,84.5,2|0,0:0|0:0,0:0:0:0:
249,339,56830,2,0,L|164:338,1,84.5,2|0,0:0|0:0,0:0:0:0:
450,122,57154,6,0,L|281:119,1,169,2|2,0:0|0:0,0:0:0:0:
179,117,57641,1,0,0:0:0:0:
325,309,57803,2,0,P|379:256|323:204,1,169,2|2,0:0|0:0,0:0:0:0:
222,209,58289,1,0,0:0:0:0:
72,280,58452,6,0,L|173:280,1,84.5,2|0,0:0|0:0,0:0:0:0:
408,116,58776,2,0,L|324:116,1,84.5,4|0,0:0|0:0,0:0:0:0:
70,147,59100,1,8,0:0:0:0:
187,139,59262,1,8,0:0:0:0:
70,147,59425,1,8,0:0:0:0:
318,250,59587,1,8,0:0:0:0:
70,56,59749,6,0,P|52:92|64:219,1,169,2|0,0:1|0:0,0:0:0:0:
299,285,60398,2,0,L|121:281,1,169,2|0,0:1|0:0,0:0:0:0:
375,210,61046,2,0,P|394:128|368:49,1,169,2|2,0:1|0:1,0:0:0:0:
131,49,61695,1,2,0:1:0:0:
368,49,62019,2,0,P|394:85|383:173,1,126.75,2|2,0:0|0:0,0:0:0:0:
107,289,62343,6,0,L|276:287,1,169,6|8,0:0|0:0,0:0:0:0:
144,202,62830,1,8,0:0:0:0:
375,153,62992,1,8,0:0:0:0:
249,152,63154,2,0,L|245:108,1,42.25,8|8,0:0|0:0,0:0:0:0:
438,62,63316,2,0,L|394:58,1,42.25,8|8,0:0|0:0,0:0:0:0:
150,291,63479,2,0,L|194:287,1,42.25,8|8,0:0|0:0,0:0:0:0:
462,259,63641,6,0,L|472:171,3,84.5,0|2|2|2,0:0|0:1|0:1|0:1,0:0:0:0:
346,161,64289,2,0,L|336:73,1,84.5,2|2,0:1|0:1,0:0:0:0:
488,38,64614,2,0,L|363:23,1,126.75,2|0,0:0|0:0,0:0:0:0:
71,284,64938,6,0,L|239:281,1,169,4|8,0:0|0:0,0:0:0:0:
113,183,65425,1,0,0:0:0:0:
367,132,65587,2,0,L|282:129,1,84.5,2|0,0:0|0:0,0:0:0:0:
155,47,65911,2,0,L|240:44,1,84.5,8|0,0:0|0:0,0:0:0:0:
483,323,66235,6,0,L|486:236,1,84.5,2|0,0:0|0:0,0:0:0:0:
360,225,66560,1,8,0:0:0:0:
487,219,66722,1,0,0:0:0:0:
179,134,66884,2,0,L|267:131,1,84.5,2|0,0:0|0:0,0:0:0:0:
392,39,67208,2,0,L|304:36,1,84.5,8|0,0:0|0:0,0:0:0:0:
29,323,67533,6,0,L|26:236,1,84.5,2|0,0:0|0:0,0:0:0:0:
152,225,67858,1,8,0:0:0:0:
25,219,68020,1,0,0:0:0:0:
303,254,68181,2,0,L|308:167,1,84.5,2|0,0:0|0:0,0:0:0:0:
181,159,68506,2,0,L|178:74,1,84.5,8|0,0:0|0:0,0:0:0:0:
435,30,68830,5,2,0:0:0:0:
459,126,68992,1,0,0:0:0:0:
415,214,69154,1,8,0:0:0:0:
303,254,69316,1,0,0:0:0:0:
46,234,69479,2,0,L|131:238,1,84.5,2|0,0:0|0:0,0:0:0:0:
395,104,69803,2,0,L|311:108,1,84.5,8|0,0:0|0:0,0:0:0:0:
30,352,70127,6,0,L|26:268,1,84.5,2|0,0:0|0:0,0:0:0:0:
163,253,70452,2,0,L|249:254,1,84.5,8|0,0:0|0:0,0:0:0:0:
9,111,70776,2,0,L|93:107,1,84.5,2|0,0:0|0:0,0:0:0:0:
321,92,71100,2,0,L|405:88,1,84.5,8|0,0:0|0:0,0:0:0:0:
62,344,71425,6,0,L|58:260,1,84.5,2|0,0:0|0:0,0:0:0:0:
184,244,71749,1,8,0:0:0:0:
58,248,71911,1,0,0:0:0:0:
299,140,72073,2,0,L|385:135,1,84.5,2|0,0:0|0:0,0:0:0:0:
251,140,72398,2,0,L|165:135,1,84.5,8|0,0:0|0:0,0:0:0:0:
417,315,72722,6,0,L|502:316,2,84.5,2|0|8,0:0|0:0|0:0,0:0:0:0:
325,315,73208,1,0,0:0:0:0:
148,310,73370,2,0,L|144:222,1,84.5,2|0,0:0|0:0,0:0:0:0:
272,218,73695,1,8,0:0:0:0:
144,123,73857,2,0,L|188:121,1,42.25,2|2,0:0|0:0,0:0:0:0:
462,271,74019,6,0,L|373:267,1,84.5,2|8,0:0|0:0,0:0:0:0:
143,208,74343,2,0,L|269:203,1,126.75,12|2,0:0|0:0,0:0:0:0:
41,141,74668,2,0,P|23:110|35:64,1,84.5,2|2,0:0|0:0,0:0:0:0:
373,340,74992,2,0,L|327:337,1,46.4750014183045,8|8,0:0|0:0,0:0:0:0:
118,298,75154,2,0,L|164:301,1,46.4750014183045,8|8,0:0|0:0,0:0:0:0:
453,259,75316,6,0,L|369:255,1,84.5,12|0,0:0|0:0,0:0:0:0:
242,246,75641,1,8,0:0:0:0:
369,254,75803,1,0,0:0:0:0:
96,213,75965,2,0,L|90:126,1,84.5,2|0,0:0|0:0,0:0:0:0:
217,115,76289,2,0,L|130:113,1,84.5,8|0,0:0|0:0,0:0:0:0:
384,243,76614,6,0,L|468:240,2,84.5,2|0|8,0:0|0:0|0:0,0:0:0:0:
254,256,77100,1,0,0:0:0:0:
501,96,77262,2,0,L|409:92,1,84.5,2|0,0:0|0:0,0:0:0:0:
131,267,77587,2,0,L|223:263,1,84.5,8|0,0:0|0:0,0:0:0:0:
479,258,77911,6,0,L|483:172,1,84.5,2|0,0:0|0:0,0:0:0:0:
358,157,78235,1,8,0:0:0:0:
486,151,78398,1,0,0:0:0:0:
203,92,78560,2,0,L|117:89,2,84.5,2|0|8,0:0|0:0|0:0,0:0:0:0:
339,198,79046,2,0,L|294:202,1,42.25,2|2,0:0|0:0,0:0:0:0:
76,312,79208,6,0,L|163:314,1,84.5,2|8,0:0|0:0,0:0:0:0:
288,315,79533,1,4,0:0:0:0:
32,225,79695,2,0,L|27:176,1,42.25,8|8,0:0|0:0,0:0:0:0:
204,126,79857,1,8,0:0:0:0:
330,143,80019,2,0,L|335:185,1,42.25,10|10,0:0|0:0,0:0:0:0:
147,317,80181,2,0,L|101:314,1,46.4750014183045,10|10,0:0|0:0,0:0:0:0:
371,251,80343,2,0,L|418:248,1,46.4750014183045,10|10,0:0|0:0,0:0:0:0:
50,45,80506,6,0,L|47:133,1,84.5,14|0,0:0|0:0,0:0:0:0:
195,77,80830,2,0,L|198:165,1,84.5,2|0,0:0|0:0,0:0:0:0:
325,161,81154,2,0,L|328:76,1,84.5,2|0,0:0|0:0,0:0:0:0:
476,129,81478,2,0,L|474:44,1,84.5,2|0,0:0|0:0,0:0:0:0:
244,298,81803,5,2,0:0:0:0:
128,288,81965,1,2,0:0:0:0:
244,298,82127,1,2,0:0:0:0:
118,287,82289,1,2,0:0:0:0:
383,188,82452,2,0,L|299:185,1,84.5,10|2,0:0|0:0,0:0:0:0:
52,99,82776,2,0,L|136:96,1,84.5,10|2,0:0|0:0,0:0:0:0:
464,91,83100,5,14,0:0:0:0:
338,85,83262,1,2,0:0:0:0:
464,91,83425,1,10,0:0:0:0:
196,239,83587,1,2,0:0:0:0:
322,233,83749,1,10,0:0:0:0:
48,91,83911,1,10,0:0:0:0:
174,85,84073,1,10,0:0:0:0:
48,91,84236,1,10,0:0:0:0:
458,245,84398,1,14,0:0:0:0:
134,315,85208,5,0,0:0:0:0:
272,288,85370,2,0,L|227:282,1,42.25,8|8,0:0|0:0,0:0:0:0:
21,173,85533,2,0,L|64:167,1,42.25,8|8,0:0|0:0,0:0:0:0:
378,335,85695,6,0,P|433:281|381:224,1,169,12|8,0:0|0:0,0:0:0:0:
246,225,86181,1,0,0:0:0:0:
468,127,86343,2,0,L|384:124,1,84.5,2|2,0:0|0:0,0:0:0:0:
248,117,86668,2,0,L|164:114,1,84.5,8|0,0:0|0:0,0:0:0:0:
491,97,86992,6,0,L|322:95,1,169,2|8,0:0|0:0,0:0:0:0:
441,181,87478,1,0,0:0:0:0:
172,351,87640,2,0,L|170:266,1,84.5,2|2,0:0|0:0,0:0:0:0:
317,168,87965,2,0,L|320:257,1,84.5,8|0,0:0|0:0,0:0:0:0:
21,97,88289,6,0,L|190:95,1,169,0|8,0:0|0:0,0:0:0:0:
71,181,88775,1,0,0:0:0:0:
361,191,88938,2,0,L|273:192,1,84.5,2|2,0:0|0:0,0:0:0:0:
146,270,89262,2,0,L|234:271,1,84.5,8|0,0:0|0:0,0:0:0:0:
472,349,89586,6,0,L|303:345,1,169,2|8,0:0|0:0,0:0:0:0:
155,293,90073,2,0,L|206:291,1,42.25,0|8,0:0|0:0,0:0:0:0:
376,224,90235,2,0,L|379:139,1,84.5,0|2,0:0|0:0,0:0:0:0:
230,124,90559,2,0,L|145:126,1,84.5,8|0,0:0|0:0,0:0:0:0:
197,174,90803,1,8,0:0:0:0:
458,227,90884,6,0,P|472:185|387:114,1,169,4|8,0:0|0:0,0:0:0:0:
253,122,91371,1,0,0:0:0:0:
479,323,91533,2,0,L|484:237,1,84.5,2|2,0:0|0:0,0:0:0:0:
350,221,91857,1,8,0:0:0:0:
485,215,92019,1,0,0:0:0:0:
130,298,92181,6,0,L|214:296,1,84.5,2|0,0:0|0:0,0:0:0:0:
350,221,92505,2,0,L|355:136,1,84.5,8|0,0:0|0:0,0:0:0:0:
114,92,92830,2,0,L|198:90,1,84.5,2|2,0:0|0:0,0:0:0:0:
334,86,93154,2,0,L|418:84,1,84.5,8|0,0:0|0:0,0:0:0:0:
111,48,93478,6,0,P|70:70|115:158,1,169,2|8,0:0|0:0,0:0:0:0:
255,151,93965,2,0,L|299:148,1,42.25,0|0,0:0|0:0,0:0:0:0:
51,345,94126,2,0,L|137:342,1,84.5,2|2,0:0|0:0,0:0:0:0:
272,334,94451,2,0,L|358:331,1,84.5,8|0,0:0|0:0,0:0:0:0:
25,211,94776,5,4,0:0:0:0:
160,205,94938,1,8,0:0:0:0:
25,211,95100,1,8,0:0:0:0:
316,121,95262,1,8,0:0:0:0:
181,115,95424,1,8,0:0:0:0:
446,266,95586,6,0,L|449:224,1,42.25,2|2,0:0|0:0,0:0:0:0:
237,176,95749,2,0,L|279:172,1,42.25,10|10,0:0|0:0,0:0:0:0:
487,97,95911,2,0,L|445:93,1,42.25,2|2,0:0|0:0,0:0:0:0:
209,66,96073,2,0,L|123:70,1,84.5,2|0,0:0|0:0,0:0:0:0:
181,115,96316,1,0,0:0:0:0:
450,199,96398,5,6,0:0:0:0:
256,192,96479,12,0,99965,0:0:0:0:
