osu file format v14

[General]
AudioFilename: audio.mp3
AudioLeadIn: 0
PreviewTime: 30715
Countdown: 0
SampleSet: Soft
StackLeniency: 0.7
Mode: 0
LetterboxInBreaks: 0
WidescreenStoryboard: 1

[Editor]
Bookmarks: 10688,21066,31445,41823,52201,62580,72958,83337,93715,104093,114472,124850,135228,145607,155985,166364,176742,187120,197499,207877,218255,228958
DistanceSpacing: 1.1
BeatDivisor: 2
GridSize: 8
TimelineZoom: 1.1

[Metadata]
Title:Hoshizora no Ima
TitleUnicode:星空のいま
Artist:Sagara Kokoro
ArtistUnicode:相良心
Creator:Hinsvar
Version:Normal
Source:星空へ架かる橋AA
Tags:Hoshizora e Kakaru Hashi AA A Bridge to the Starry Skies fandisc fandisk FD Japanese Pop J-Pop JPop Video Game visual novel vn galgame galge eroge ending ed feng full length version 塚本けむ Tsukamoto Kemu 堀江晶太 Horie Shota
BeatmapID:4034589
BeatmapSetID:1942135

[Difficulty]
HPDrainRate:3
CircleSize:3
OverallDifficulty:4.5
ApproachRate:6
SliderMultiplier:1.12
SliderTickRate:1

[Events]
//Background and Video events
0,0,"seira.jpg",0,0
//Break Periods
2,62780,71097
2,114672,122503
2,166564,175692
//Storyboard Layer 0 (Background)
//Storyboard Layer 1 (Fail)
//Storyboard Layer 2 (Pass)
//Storyboard Layer 3 (Foreground)
//Storyboard Layer 4 (Overlay)
//Storyboard Sound Samples

[TimingPoints]
310,324.324324324324,4,2,1,40,1,0
10688,-111.111111111111,4,2,1,50,0,0
19607,-111.111111111111,4,2,1,55,0,0
21066,-100,4,2,1,60,0,0
26255,-125,4,2,1,50,0,0
28850,-100,4,2,1,70,0,0
31445,-90.9090909090909,4,2,1,85,0,1
41499,-90.9090909090909,4,2,1,85,0,0
41823,-90.9090909090909,4,2,1,85,0,1
47012,-100,4,2,1,70,0,0
48309,-100,4,2,1,75,0,0
49607,-100,4,2,1,80,0,1
50255,-100,4,2,1,85,0,1
50904,-100,4,2,1,85,0,0
52201,-100,4,2,1,80,0,1
52282,-100,4,2,1,80,0,0
62580,-100,4,2,1,70,0,0
72147,-111.111111111111,4,2,1,50,0,0
81715,-111.111111111111,4,2,1,55,0,0
83337,-100,4,2,1,60,0,0
88526,-125,4,2,1,50,0,0
91120,-100,4,2,1,70,0,0
93715,-90.9090909090909,4,2,1,85,0,1
103769,-90.9090909090909,4,2,1,85,0,0
104093,-90.9090909090909,4,2,1,85,0,1
109282,-100,4,2,1,70,0,0
110580,-100,4,2,1,75,0,0
111877,-100,4,2,1,80,0,1
112526,-100,4,2,1,85,0,1
113174,-100,4,2,1,85,0,0
114472,-100,4,2,1,70,0,0
123553,-111.111111111111,4,2,1,50,0,0
124850,-111.111111111111,4,2,1,60,0,0
129877,-100,4,2,1,65,0,0
132472,-100,4,2,1,70,0,0
135228,-100,4,2,1,75,0,0
155985,-100,4,2,1,70,0,0
161174,-125,4,2,1,60,0,0
163769,-100,4,2,1,75,0,0
166364,-100,4,2,1,70,0,0
176742,-111.111111111111,4,2,1,60,0,0
185174,-100,4,2,1,65,0,0
185985,-100,4,2,1,70,0,0
187120,-90.9090909090909,4,2,1,85,0,1
197174,-90.9090909090909,4,2,1,85,0,0
197499,-90.9090909090909,4,2,1,85,0,1
202688,-100,4,2,1,70,0,0
203985,-100,4,2,1,75,0,0
205282,-100,4,2,1,80,0,1
205931,-100,4,2,1,85,0,1
206580,-100,4,2,1,85,0,0
207877,-100,4,2,1,80,0,1
207958,-100,4,2,1,80,0,0
218580,-100,4,2,1,80,0,1
218661,-100,4,2,1,80,0,0
226688,-100,4,2,1,80,0,0
227337,-100,4,2,1,60,0,0
227661,-100,4,2,1,65,0,0
227985,-100,4,2,1,70,0,0
228309,-100,4,2,1,75,0,0
228634,-100,4,2,1,80,0,0
229282,-100,4,2,1,70,0,0
229931,-100,4,2,1,60,0,0
230580,-100,4,2,1,50,0,0
231228,-100,4,2,1,40,0,0
231877,-100,4,2,1,30,0,0
232526,-100,4,2,1,20,0,0
233174,-100,4,2,1,10,0,0
233823,-100,4,2,1,5,0,0

[Colours]
Combo1 : 52,250,190
Combo2 : 235,217,54
Combo3 : 106,126,147
Combo4 : 239,184,191

[HitObjects]
309,352,10201,5,0,3:0:0:0:
204,203,10688,6,0,P|139:176|47:189,1,151.199995385742,4|0,3:2|0:0,0:0:0:0:
12,213,11337,1,2,3:2:0:0:
21,323,11661,1,2,3:2:0:0:
21,323,11823,2,0,L|174:340,1,151.199995385742,0|0,0:0|3:0,0:0:0:0:
218,369,12472,2,0,L|371:352,1,151.199995385742,2|0,0:0|3:0,0:0:0:0:
375,301,13120,5,10,0:0:0:0:
375,301,13282,1,0,3:0:0:0:
463,234,13607,1,0,3:0:0:0:
370,172,13931,1,0,3:0:0:0:
282,239,14255,2,0,P|252:242|229:267,2,50.3999984619141,2|0|0,3:2|0:0|3:0,0:0:0:0:
374,176,14904,1,0,3:0:0:0:
374,176,15066,2,0,L|375:117,1,50.3999984619141,0|0,3:0|3:0,0:0:0:0:
319,125,15391,2,0,L|320:66,1,50.3999984619141,0|0,3:0|3:0,0:0:0:0:
211,47,15877,6,0,L|212:147,2,100.799996923828,6|0|0,3:2|3:0|3:0,0:0:0:0:
101,30,16850,2,0,P|85:45|48:56,1,50.3999984619141,2|0,3:2|0:0,0:0:0:0:
25,99,17174,1,0,3:0:0:0:
115,162,17499,1,0,3:0:0:0:
184,247,17823,6,0,P|200:292|198:351,1,100.799996923828,2|0,3:2|3:0,0:0:0:0:
149,358,18309,1,8,0:0:0:0:
149,358,18472,2,0,P|104:374|45:372,1,100.799996923828,2|0,3:2|3:0,0:0:0:0:
38,323,18958,2,0,P|14:255|17:167,1,151.199995385742,2|0,0:0|3:0,0:0:0:0:
32,126,19607,1,10,0:0:0:0:
32,126,19769,5,12,0:0:0:0:
132,78,20093,1,8,0:0:0:0:
243,78,20418,2,0,L|291:103,1,50.3999984619141,0|8,3:0|0:0,0:0:0:0:
327,139,20742,2,0,L|329:193,1,50.3999984619141,8|8,0:0|0:0,0:0:0:0:
316,242,21066,6,0,P|212:262|181:331,1,168,6|2,3:2|0:0,0:0:0:0:
190,365,21715,2,0,P|266:368|371:379,1,168,2|0,3:2|0:0,0:0:0:0:
400,340,22364,1,2,3:2:0:0:
509,319,22688,1,2,3:2:0:0:
488,210,23012,1,2,3:2:0:0:
321,142,23499,5,2,0:0:0:0:
321,142,23661,2,0,P|281:210|189:216,1,168,2|0,3:2|0:0,0:0:0:0:
142,225,24309,2,0,P|74:185|68:93,1,168,2|0,3:2|0:0,0:0:0:0:
59,46,24958,1,2,3:2:0:0:
169,30,25282,1,14,0:0:0:0:
275,64,25607,2,0,L|278:139,1,56,2|0,3:2|3:0,0:0:0:0:
324,149,25931,2,0,L|321:224,1,56,0|8,3:0|0:0,0:0:0:0:
361,244,26255,6,0,P|389:280|387:331,1,89.6,2|0,0:0|0:0,0:0:0:0:
290,373,26904,2,0,P|262:337|264:286,2,89.6,2|0|2,0:0|0:0|0:0,0:0:0:0:
506,315,28201,2,0,P|504:270|476:236,1,89.6,2|0,0:0|0:0,0:0:0:0:
468,124,28850,6,0,P|459:70|358:33,1,168,6|2,3:2|0:0,0:0:0:0:
312,49,29499,1,8,0:0:0:0:
312,49,29661,2,0,P|313:84|320:108,2,56,8|8|8,0:0|0:0|0:0,0:0:0:0:
24,367,31120,1,0,3:0:0:0:
49,246,31445,6,0,P|121:221|245:219,1,184.800005639649,6|2,3:2|0:0,0:0:0:0:
282,246,32093,2,0,P|257:174|255:50,1,184.800005639649,2|2,3:2|0:0,0:0:0:0:
282,13,32742,1,2,3:2:0:0:
81,44,33228,1,2,0:0:0:0:
81,44,33391,2,0,P|56:25|13:26,2,61.6000018798829,0|2|10,3:0|0:0|0:0,0:0:0:0:
91,109,33877,1,2,0:0:0:0:
91,109,34039,6,0,P|158:160|274:157,1,184.800005639649,2|2,3:2|0:0,0:0:0:0:
296,118,34688,1,2,3:2:0:0:
403,57,35012,2,0,P|433:39|459:32,2,61.6000018798829,8|0|0,0:0|3:0|3:0,0:0:0:0:
399,180,35661,2,0,P|432:188|456:201,1,61.6000018798829,8|0,0:0|0:0,0:0:0:0:
501,242,35985,2,0,P|484:309|456:355,1,123.200003759766,2|10,3:2|0:0,0:0:0:0:
336,383,36634,5,2,3:2:0:0:
226,326,36958,2,0,P|207:295|201:269,1,61.6000018798829,8|0,0:0|3:0,0:0:0:0:
201,208,37282,2,0,P|218:149|250:97,2,123.200003759766,2|10|2,3:2|0:0|3:2,0:0:0:0:
85,252,38255,2,0,L|21:263,1,61.6000018798829,10|0,0:0|0:0,0:0:0:0:
15,201,38580,1,2,3:2:0:0:
55,84,38904,1,10,0:0:0:0:
177,73,39228,6,0,P|263:82|332:2,1,184.800005639649,2|2,3:2|0:0,0:0:0:0:
384,42,39877,2,0,P|378:99|431:145,1,123.200003759766,2|8,3:2|0:0,0:0:0:0:
314,198,40526,2,0,L|243:203,1,61.6000018798829,8|8,0:0|0:0,0:0:0:0:
191,205,40850,1,4,3:2:0:0:
119,304,41174,1,2,3:2:0:0:
231,355,41499,2,0,L|302:360,1,61.6000018798829,10|8,0:0|0:0,0:0:0:0:
353,368,41823,6,0,P|398:302|488:249,1,184.800005639649,6|2,3:2|0:0,0:0:0:0:
489,187,42472,2,0,P|423:142|370:52,1,184.800005639649,2|2,3:2|0:0,0:0:0:0:
308,51,43120,1,2,3:2:0:0:
202,224,43607,1,2,0:0:0:0:
202,224,43769,2,0,P|203:253|193:291,2,61.6000018798829,0|2|10,3:0|0:0|0:0,0:0:0:0:
170,170,44255,1,2,0:0:0:0:
170,170,44418,6,0,P|156:54|79:27,1,184.800005639649,2|2,3:2|0:0,0:0:0:0:
46,48,45066,1,2,3:2:0:0:
23,172,45391,1,8,0:0:0:0:
23,172,45553,2,0,P|18:203|32:251,2,61.6000018798829,0|6|8,3:0|3:2|0:0,0:0:0:0:
87,166,46039,1,10,0:0:0:0:
87,166,46201,1,10,0:0:0:0:
198,219,46526,2,0,P|218:244|226:278,1,61.6000018798829,10|8,0:0|0:0,0:0:0:0:
223,337,46850,1,8,0:0:0:0:
223,337,47012,6,0,L|101:357,1,112,4|0,3:2|3:0,0:0:0:0:
57,364,47499,2,0,L|47:303,1,56,0|0,3:0|3:0,0:0:0:0:
102,211,47985,1,0,3:0:0:0:
209,181,48309,2,0,L|229:59,1,112,0|0,3:0|3:0,0:0:0:0:
285,70,48796,1,0,3:0:0:0:
284,70,48958,2,0,L|303:181,1,112,8|8,0:0|0:0,0:0:0:0:
285,290,49607,5,14,0:0:0:0:
386,343,49931,2,0,P|413:325|426:302,1,56,8|10,0:0|0:0,0:0:0:0:
465,263,50255,2,0,P|457:231|439:212,1,56,10|8,0:0|0:0,0:0:0:0:
414,163,50580,2,0,P|381:160|357:171,1,56,8|8,0:0|0:0,0:0:0:0:
303,181,50904,1,8,0:0:0:0:
303,181,51877,2,0,L|291:125,1,56,10|8,0:0|0:0,0:0:0:0:
280,71,52201,6,0,L|160:54,2,112,6|10|0,3:2|0:0|3:0,0:0:0:0:
321,33,53012,1,0,3:0:0:0:
321,33,53174,1,10,0:0:0:0:
431,51,53499,1,2,3:2:0:0:
468,156,53823,2,0,L|432:272,1,112,8|0,0:0|3:0,0:0:0:0:
448,316,54309,2,0,L|383:323,1,56,0|10,3:0|0:0,0:0:0:0:
285,289,54796,6,0,P|294:232|276:175,1,112,2|8,3:2|0:0,0:0:0:0:
167,188,55445,2,0,P|162:216|171:245,1,56,2|0,3:2|3:0,0:0:0:0:
178,303,55769,1,10,0:0:0:0:
82,361,56093,2,0,L|13:343,1,56,2|0,3:2|3:0,0:0:0:0:
4,295,56418,2,0,L|73:277,1,56,8|0,0:0|0:0,0:0:0:0:
80,229,56742,1,8,0:0:0:0:
61,118,57066,1,10,0:0:0:0:
147,46,57391,6,0,P|197:21|261:13,2,112,6|8|0,3:2|0:0|3:0,0:0:0:0:
170,102,58201,1,0,3:0:0:0:
170,102,58364,1,10,0:0:0:0:
276,134,58688,1,0,3:0:0:0:
295,244,59012,2,0,L|317:358,1,112,10|0,0:0|3:0,0:0:0:0:
376,357,59499,1,0,3:0:0:0:
376,357,59661,1,10,0:0:0:0:
406,249,59985,6,0,P|442:212|501:181,1,112,2|8,3:2|0:0,0:0:0:0:
488,131,60472,1,2,3:2:0:0:
488,131,60634,2,0,P|437:118|381:82,1,112,0|10,3:0|0:0,0:0:0:0:
298,18,61282,6,0,L|237:39,1,56,6|0,3:2|3:0,0:0:0:0:
199,71,61607,2,0,L|191:132,2,56,8|8|8,0:0|0:0|0:0,0:0:0:0:
292,131,62255,2,0,L|300:192,1,56,8|8,0:0|0:0,0:0:0:0:
307,242,62580,1,4,0:0:0:0:
58,263,72147,5,0,3:0:0:0:
157,212,72472,1,0,3:0:0:0:
260,264,72796,1,0,3:0:0:0:
260,264,72958,2,0,P|287:217|290:103,1,151.199995385742,4|0,3:2|0:0,0:0:0:0:
282,67,73607,1,2,3:2:0:0:
178,46,73931,1,2,3:2:0:0:
178,46,74093,2,0,P|151:93|148:207,1,151.199995385742,0|0,0:0|3:0,0:0:0:0:
156,242,74742,2,0,P|109:215|-5:212,1,151.199995385742,2|0,0:0|3:0,0:0:0:0:
12,266,75391,5,2,3:2:0:0:
12,266,75553,1,0,3:0:0:0:
75,355,75877,1,0,3:0:0:0:
185,344,76201,1,0,3:0:0:0:
230,243,76526,2,0,P|238:224|262:194,2,50.3999984619141,2|0|0,3:2|0:0|3:0,0:0:0:0:
340,278,77174,1,0,3:0:0:0:
340,278,77337,2,0,L|405:275,1,50.3999984619141,8|0,0:0|3:0,0:0:0:0:
445,271,77661,2,0,L|442:206,1,50.3999984619141,8|0,0:0|3:0,0:0:0:0:
438,109,78147,6,0,P|435:49|477:22,2,100.799996923828,6|0|0,3:2|3:0|3:0,0:0:0:0:
342,165,79120,2,0,P|312:166|298:145,1,50.3999984619141,2|0,3:2|0:0,0:0:0:0:
285,98,79445,1,0,3:0:0:0:
201,24,79769,1,0,3:0:0:0:
127,108,80093,2,0,P|82:130|24:131,1,100.799996923828,2|0,3:2|3:0,0:0:0:0:
45,191,80580,1,0,3:0:0:0:
45,191,80742,6,0,L|73:300,1,100.799996923828,2|0,3:2|3:0,0:0:0:0:
167,342,81391,2,0,L|179:293,1,50.3999984619141,0|0,3:0|3:0,0:0:0:0:
229,268,81715,2,0,L|241:219,1,50.3999984619141,8|8,0:0|0:0,0:0:0:0:
291,194,82039,2,0,P|317:162|312:96,1,100.799996923828,12|8,0:0|0:0,0:0:0:0:
426,75,82688,1,8,0:0:0:0:
426,75,82850,2,0,P|424:50|438:30,2,50.3999984619141,8|8|8,0:0|0:0|0:0,0:0:0:0:
448,126,83337,6,0,P|466:173|483:308,1,168,6|2,3:2|0:0,0:0:0:0:
443,327,83985,2,0,P|395:345|261:362,1,168,2|0,3:2|0:0,0:0:0:0:
242,322,84634,2,0,L|247:256,2,56,2|0|2,3:2|3:0|0:3,0:0:0:0:
143,374,85282,2,0,L|138:308,1,56,2|0,3:2|3:0,0:0:0:0:
98,279,85607,2,0,L|93:213,1,56,2|2,0:3|0:0,0:0:0:0:
145,200,85931,6,0,P|72:166|65:67,1,168,2|0,3:2|0:0,0:0:0:0:
107,60,86580,2,0,P|172:13|262:57,1,168,2|0,3:2|0:0,0:0:0:0:
247,97,87228,1,2,3:2:0:0:
342,155,87553,1,14,0:0:0:0:
389,256,87877,2,0,L|502:248,1,112,10|8,0:0|0:0,0:0:0:0:
500,135,88526,6,0,P|497:89|506:34,1,89.6,4|0,0:0|0:0,0:0:0:0:
393,24,89174,2,0,P|347:27|292:18,2,89.6,10|0|0,0:0|0:0|0:0,0:0:0:0:
273,212,90472,2,0,P|275:234|274:256,2,44.8,2|0|8,0:0|3:0|0:0,0:0:0:0:
185,142,91120,6,0,P|94:144|15:91,1,168,6|2,3:2|3:2,0:0:0:0:
40,51,91769,1,10,0:0:0:0:
40,51,91931,2,0,L|105:41,1,56,8|8,0:0|0:0,0:0:0:0:
150,36,92255,1,8,0:0:0:0:
262,42,92580,1,8,0:0:0:0:
262,42,92742,2,0,L|385:64,1,112,8|10,0:0|0:0,0:0:0:0:
448,143,93391,2,0,L|437:204,1,56,8|8,0:0|0:0,0:0:0:0:
467,252,93715,6,0,P|413:276|321:373,1,184.800005639649,6|2,3:2|0:0,0:0:0:0:
263,360,94364,2,0,P|239:306|142:214,1,184.800005639649,2|2,3:2|0:0,0:0:0:0:
155,156,95012,1,2,3:2:0:0:
339,70,95499,1,2,0:0:0:0:
339,70,95661,2,0,P|344:36|350:8,2,61.6000018798829,0|2|10,3:0|0:0|0:0,0:0:0:0:
315,129,96147,1,2,0:0:0:0:
315,129,96309,6,0,P|225:99|206:12,1,184.800005639649,2|2,3:2|0:0,0:0:0:0:
142,21,96958,1,2,3:2:0:0:
38,87,97282,2,0,P|12:110|-8:154,2,61.6000018798829,8|0|0,0:0|3:0|3:0,0:0:0:0:
156,121,97931,2,0,P|163:150|160:181,1,61.6000018798829,8|0,0:0|0:0,0:0:0:0:
219,201,98255,2,0,P|280:197|361:229,1,123.200003759766,2|10,3:2|0:0,0:0:0:0:
404,319,98904,5,2,3:2:0:0:
284,322,99228,2,0,P|255:331|218:357,1,61.6000018798829,8|0,0:0|3:0,0:0:0:0:
168,360,99553,2,0,P|123:320|54:336,2,123.200003759766,2|10|2,3:2|0:0|3:2,0:0:0:0:
211,244,100526,2,0,P|209:213|179:195,1,61.6000018798829,10|0,0:0|0:0,0:0:0:0:
125,207,100850,1,2,3:2:0:0:
26,133,101174,1,10,0:0:0:0:
93,28,101499,6,0,P|169:46|280:6,1,184.800005639649,2|2,3:2|0:0,0:0:0:0:
323,42,102147,2,0,P|311:92|337:166,1,123.200003759766,2|8,3:2|0:0,0:0:0:0:
249,250,102796,2,0,P|279:273|319:273,1,61.6000018798829,8|8,0:0|0:0,0:0:0:0:
363,275,103120,1,4,3:2:0:0:
453,359,103445,1,2,3:2:0:0:
475,237,103769,2,0,P|498:207|498:167,1,61.6000018798829,10|8,0:0|0:0,0:0:0:0:
501,121,104093,6,0,P|413:87|353:21,1,184.800005639649,6|2,3:2|0:0,0:0:0:0:
291,21,104742,2,0,P|228:88|143:120,1,184.800005639649,2|2,3:2|0:0,0:0:0:0:
81,121,105391,1,2,3:2:0:0:
75,324,105877,1,2,0:0:0:0:
75,324,106039,2,0,L|8:329,2,61.6000018798829,0|0|10,3:0|0:0|0:0,0:0:0:0:
105,270,106526,1,2,0:0:0:0:
105,270,106688,6,0,P|181:281|224:380,1,184.800005639649,2|2,3:2|0:0,0:0:0:0:
286,363,107337,1,2,3:2:0:0:
399,309,107661,1,8,0:0:0:0:
399,309,107823,2,0,P|428:297|462:300,2,61.6000018798829,0|6|8,3:0|3:2|0:0,0:0:0:0:
359,270,108309,1,10,0:0:0:0:
359,270,108472,1,10,0:0:0:0:
288,168,108796,2,0,P|285:132|301:96,1,61.6000018798829,10|8,0:0|0:0,0:0:0:0:
324,55,109120,1,8,0:0:0:0:
324,55,109282,6,0,P|374:56|446:24,1,112,4|0,3:2|3:0,0:0:0:0:
434,90,109769,2,0,P|433:115|449:151,1,56,0|0,3:0|3:0,0:0:0:0:
477,250,110255,1,0,3:0:0:0:
408,338,110580,2,0,L|295:368,1,112,0|0,3:0|3:0,0:0:0:0:
255,341,111066,1,0,3:0:0:0:
255,341,111228,2,0,L|142:311,1,112,8|8,0:0|0:0,0:0:0:0:
76,223,111877,5,14,0:0:0:0:
29,122,112201,2,0,L|56:65,1,56,8|10,0:0|0:0,0:0:0:0:
105,44,112526,2,0,L|167:53,1,56,10|8,0:0|0:0,0:0:0:0:
202,93,112850,2,0,L|212:154,1,56,8|8,0:0|0:0,0:0:0:0:
187,205,113174,1,8,0:0:0:0:
187,205,114472,5,4,3:2:0:0:
285,167,123553,6,0,L|304:0,2,151.199995385742,0|0|0,3:0|3:0|3:0,0:0:0:0:
246,207,124688,1,2,0:0:0:0:
246,207,124850,6,0,P|170:197|102:240,1,151.199995385742,6|0,3:2|0:0,0:0:0:0:
70,274,125499,2,0,P|63:324|91:369,1,100.799996923828,12|0,0:0|0:0,0:0:0:0:
194,339,126147,2,0,L|348:325,1,151.199995385742,4|0,3:2|0:0,0:0:0:0:
393,351,126796,2,0,L|402:248,1,100.799996923828,12|0,0:0|0:0,0:0:0:0:
487,179,127445,2,0,P|453:149|411:41,1,151.199995385742,6|0,3:2|3:0,0:0:0:0:
362,27,128093,2,0,P|342:49|270:77,1,100.799996923828,12|0,0:0|0:0,0:0:0:0:
175,34,128742,5,10,0:0:0:0:
132,137,129066,1,0,3:0:0:0:
132,137,129228,1,10,0:0:0:0:
235,180,129553,2,0,P|238:208|241:239,2,50.3999984619141,0|0|0,3:0|3:0|3:0,0:0:0:0:
290,173,130039,6,0,P|373:198|457:195,1,168,6|2,3:2|0:0,0:0:0:0:
488,239,130688,2,0,P|424:298|385:372,1,168,2|0,3:2|0:0,0:0:0:0:
331,377,131337,1,0,3:0:0:0:
266,285,131661,1,8,0:0:0:0:
154,298,131985,2,0,P|125:312|103:329,2,56,2|0|8,0:0|3:0|0:0,0:0:0:0:
148,246,132472,1,0,3:0:0:0:
148,246,132634,6,0,P|142:189|134:128,1,112,6|8,3:2|0:0,0:0:0:0:
173,94,133120,2,0,P|230:88|291:80,1,112,6|8,3:2|0:0,0:0:0:0:
325,119,133607,1,12,0:0:0:0:
342,234,133931,1,8,0:0:0:0:
342,234,134093,2,0,P|396:241|451:273,1,112,4|8,3:2|0:0,0:0:0:0:
490,233,134580,1,8,0:0:0:0:
490,233,134742,2,0,L|495:168,1,56,8|8,0:0|0:0,0:0:0:0:
465,136,135066,1,8,0:0:0:0:
465,136,135228,6,0,L|455:6,2,112,6|8|0,3:2|0:0|3:0,0:0:0:0:
353,146,136201,2,0,L|297:150,1,56,8|2,0:0|0:0,0:0:0:0:
282,95,136526,2,0,P|253:48|186:23,1,112,2|10,3:2|0:0,0:0:0:0:
148,121,137174,2,0,P|162:144|196:157,2,56,2|0|10,3:2|3:0|0:0,0:0:0:0:
37,139,137823,6,0,P|40:193|50:254,1,112,2|8,3:2|0:0,0:0:0:0:
90,287,138309,2,0,P|144:284|205:274,1,112,2|0,0:0|0:0,0:0:0:0:
252,252,138796,2,0,P|255:198|265:137,1,112,10|0,0:0|0:0,0:0:0:0:
305,104,139282,2,0,P|359:107|420:117,1,112,2|0,3:2|0:0,0:0:0:0:
453,157,139769,1,2,0:0:0:0:
440,268,140093,1,10,0:0:0:0:
375,359,140418,6,0,L|256:372,1,112,6|8,3:2|0:0,0:0:0:0:
235,323,140904,2,0,L|222:204,1,112,2|0,0:0|3:0,0:0:0:0:
194,163,141391,1,8,0:0:0:0:
81,174,141715,2,0,P|43:139|55:73,1,112,2|8,3:2|0:0,0:0:0:0:
80,37,142201,2,0,P|129:21|180:64,1,112,2|0,0:0|3:0,0:0:0:0:
231,56,142688,1,10,0:0:0:0:
309,136,143012,5,2,3:2:0:0:
417,108,143337,1,8,0:0:0:0:
417,108,143499,2,0,L|439:220,1,112,2|8,3:2|0:0,0:0:0:0:
448,272,143985,1,10,0:0:0:0:
340,300,144309,1,8,0:0:0:0:
340,300,144472,2,0,L|318:188,1,112,2|8,3:2|0:0,0:0:0:0:
309,136,144957,1,10,0:0:0:0:
208,185,145282,2,0,L|197:241,1,56,10|8,0:0|0:0,0:0:0:0:
181,293,145607,6,0,P|111:296|44:217,1,168,6|2,3:2|0:0,0:0:0:0:
53,174,146255,2,0,L|74:61,1,112,2|10,0:0|0:0,0:0:0:0:
177,22,146904,2,0,P|236:19|273:63,1,112,0|8,3:0|0:0,0:0:0:0:
279,110,147391,1,0,3:0:0:0:
279,110,147553,2,0,P|220:107|183:151,1,112,2|10,0:0|0:0,0:0:0:0:
197,253,148201,6,0,L|228:360,1,112,2|8,0:0|0:0,0:0:0:0:
283,360,148688,2,0,L|315:253,1,112,2|0,3:2|3:0,0:0:0:0:
329,199,149174,1,10,0:0:0:0:
386,102,149499,2,0,L|381:36,2,56,10|0|0,0:0|3:0|3:0,0:0:0:0:
441,102,149985,2,0,L|507:97,2,56,10|0|0,0:0|3:0|3:0,0:0:0:0:
441,157,150472,2,0,L|446:223,1,56,10|8,0:0|0:0,0:0:0:0:
449,268,150796,5,6,3:2:0:0:
371,348,151120,1,8,0:0:0:0:
262,321,151445,2,0,L|202:308,1,56,0|0,3:0|0:0,0:0:0:0:
152,295,151769,1,10,0:0:0:0:
188,189,152093,2,0,L|248:176,1,56,0|0,3:0|0:0,0:0:0:0:
298,163,152417,1,10,0:0:0:0:
262,57,152742,2,0,L|202:44,1,56,0|0,3:0|0:0,0:0:0:0:
152,31,153066,1,10,0:0:0:0:
47,72,153391,6,0,P|21:118|37:182,1,112,14|0,0:0|0:0,0:0:0:0:
19,228,153877,2,0,P|65:254|129:238,1,112,10|0,0:0|0:0,0:0:0:0:
175,256,154364,1,10,0:0:0:0:
247,170,154688,2,0,L|248:112,2,56,10|8|0,0:0|0:0|3:0,0:0:0:0:
339,234,155337,1,14,0:0:0:0:
408,321,155661,2,0,P|434:326|459:313,1,56,8|8,0:0|0:0,0:0:0:0:
485,264,155985,5,6,3:2:0:0:
485,264,156147,1,8,0:0:0:0:
454,81,156634,1,0,3:0:0:0:
332,101,156958,1,0,3:0:0:0:
332,101,157120,2,0,L|282:71,1,56,10|0,0:0|3:0,0:0:0:0:
228,72,157445,2,0,L|180:101,1,56,10|0,0:0|3:0,0:0:0:0:
76,59,157931,1,0,3:0:0:0:
31,161,158255,1,0,3:0:0:0:
96,250,158580,6,0,P|96:277|87:309,2,56,10|0|0,3:2|3:0|3:0,0:0:0:0:
190,190,159228,1,0,3:0:0:0:
289,242,159553,1,0,3:0:0:0:
289,242,159715,2,0,P|312:228|344:220,1,56,10|0,0:0|3:0,0:0:0:0:
385,253,160039,2,0,P|398:276|406:308,1,56,10|0,0:0|3:0,0:0:0:0:
489,229,160526,2,0,P|462:182|445:117,1,112,8|8,0:0|0:0,0:0:0:0:
384,33,161174,6,0,L|284:40,1,89.6,6|0,3:2|0:0,0:0:0:0:
182,31,161823,2,0,L|138:121,1,89.6,10|0,0:0|0:0,0:0:0:0:
79,204,162472,2,0,L|135:287,1,89.6,2|0,3:2|0:0,0:0:0:0:
177,379,163120,1,10,0:0:0:0:
288,370,163445,1,8,0:0:0:0:
324,264,163769,6,0,P|334:170|349:92,1,168,6|2,3:2|0:0,0:0:0:0:
406,87,164418,1,10,0:0:0:0:
406,87,164580,2,0,P|433:81|461:79,2,56,8|8|8,0:0|0:0|0:0,0:0:0:0:
406,87,166364,5,6,3:2:0:0:
323,364,176742,6,0,P|317:284|349:212,1,151.199995385742,6|2,3:2|0:0,0:0:0:0:
398,209,177391,1,2,3:2:0:0:
364,46,177877,1,2,0:0:0:0:
315,61,178039,2,0,P|235:67|163:35,1,151.199995385742,2|2,3:2|0:0,0:0:0:0:
115,34,178688,2,0,L|103:93,1,50.3999984619141,0|0,3:0|0:0,0:0:0:0:
51,98,179012,2,0,L|39:157,1,50.3999984619141,2|2,3:2|0:0,0:0:0:0:
81,185,179337,6,0,L|115:354,1,151.199995385742,2|2,3:2|0:0,0:0:0:0:
166,339,179985,1,2,3:2:0:0:
346,339,180472,1,2,0:0:0:0:
400,333,180634,2,0,L|420:234,1,100.799996923828,2|2,3:2|3:2,0:0:0:0:
367,218,181120,1,2,0:0:0:0:
256,232,181445,1,2,0:0:0:0:
145,218,181769,1,2,0:0:0:0:
145,218,181931,6,0,P|94:196|75:151,1,100.799996923828,6|0,3:2|3:0,0:0:0:0:
144,69,182580,2,0,P|188:35|237:41,1,100.799996923828,2|0,3:2|3:0,0:0:0:0:
273,142,183228,2,0,P|279:197|249:236,1,100.799996923828,2|0,3:2|3:0,0:0:0:0:
192,324,183877,1,2,3:2:0:0:
293,368,184201,1,0,3:0:0:0:
401,341,184526,6,0,P|415:286|491:219,1,151.199995385742,2|2,3:2|0:0,0:0:0:0:
491,167,185174,2,0,L|478:113,1,56,8|8,0:0|0:0,0:0:0:0:
431,80,185499,2,0,L|444:26,2,56,8|8|8,0:0|0:0|0:0,0:0:0:0:
379,91,185985,1,8,0:0:0:0:
379,91,186147,1,8,0:0:0:0:
288,157,186472,1,10,0:0:0:0:
221,246,186796,2,0,L|167:233,1,56,10|8,0:0|0:0,0:0:0:0:
125,278,187120,6,0,P|41:245|9:161,1,184.800005639649,6|2,3:2|0:0,0:0:0:0:
11,99,187769,2,0,P|81:43|169:57,1,184.800005639649,2|2,3:2|0:0,0:0:0:0:
223,89,188418,1,2,3:2:0:0:
418,33,188904,1,2,0:0:0:0:
418,33,189066,2,0,L|482:38,2,61.6000018798829,0|2|10,3:0|0:0|0:0,0:0:0:0:
373,75,189553,1,2,0:0:0:0:
373,75,189715,6,0,P|395:137|395:262,1,184.800005639649,2|2,3:2|0:0,0:0:0:0:
379,314,190364,1,2,3:2:0:0:
260,346,190688,2,0,L|183:379,2,61.6000018798829,8|0|0,0:0|3:0|3:0,0:0:0:0:
263,222,191337,2,0,L|295:144,1,61.6000018798829,8|0,0:0|0:0,0:0:0:0:
228,142,191661,2,0,P|210:90|206:9,1,123.200003759766,2|10,3:2|0:0,0:0:0:0:
82,31,192309,5,2,3:2:0:0:
96,153,192634,2,0,L|29:165,1,61.6000018798829,8|0,0:0|3:0,0:0:0:0:
22,224,192958,2,0,L|156:248,2,123.200003759766,2|10|2,3:2|0:0|3:2,0:0:0:0:
25,347,193931,2,0,P|57:363|77:385,1,61.6000018798829,10|0,0:0|0:0,0:0:0:0:
135,373,194255,1,2,3:2:0:0:
230,295,194580,1,10,0:0:0:0:
348,329,194904,6,0,P|356:244|385:140,1,184.800005639649,2|2,3:2|0:0,0:0:0:0:
439,126,195553,2,0,P|455:185|461:246,1,123.200003759766,2|8,3:2|0:0,0:0:0:0:
510,359,196201,2,0,L|442:370,1,61.6000018798829,8|8,0:0|0:0,0:0:0:0:
391,346,196526,1,4,3:2:0:0:
294,268,196850,1,2,3:2:0:0:
247,154,197174,2,0,L|179:143,1,61.6000018798829,10|8,0:0|0:0,0:0:0:0:
128,167,197499,6,0,P|160:259|105:337,1,184.800005639649,6|2,3:2|0:0,0:0:0:0:
85,381,198147,2,0,P|11:317|19:222,1,184.800005639649,2|2,3:2|0:0,0:0:0:0:
30,176,198796,1,2,3:2:0:0:
190,50,199282,1,2,0:0:0:0:
190,50,199445,2,0,P|156:39|137:17,2,61.6000018798829,0|2|10,3:0|0:0|0:0,0:0:0:0:
254,43,199931,1,2,0:0:0:0:
254,43,200093,6,0,P|325:122|342:208,1,184.800005639649,2|2,3:2|0:0,0:0:0:0:
334,257,200742,1,2,3:2:0:0:
244,341,201066,1,8,0:0:0:0:
244,341,201228,2,0,P|213:359|191:379,2,61.6000018798829,0|6|8,3:0|3:2|0:0,0:0:0:0:
224,287,201715,1,10,0:0:0:0:
224,287,201877,1,10,0:0:0:0:
192,167,202201,2,0,P|158:155|125:150,1,61.6000018798829,10|8,0:0|0:0,0:0:0:0:
81,178,202526,1,8,0:0:0:0:
81,178,202688,6,0,L|73:300,1,112,4|0,3:2|3:0,0:0:0:0:
124,313,203174,2,0,L|120:374,1,56,0|0,3:0|3:0,0:0:0:0:
231,350,203661,1,0,3:0:0:0:
342,363,203985,2,0,P|398:362|457:327,1,112,0|0,3:0|3:0,0:0:0:0:
459,285,204472,1,0,3:0:0:0:
459,285,204634,2,0,P|430:237|370:203,1,112,8|8,0:0|0:0,0:0:0:0:
272,222,205282,5,14,0:0:0:0:
160,217,205607,2,0,L|142:162,1,56,8|10,0:0|0:0,0:0:0:0:
131,108,205931,2,0,P|151:83|172:72,1,56,10|8,0:0|0:0,0:0:0:0:
225,47,206255,2,0,L|271:81,1,56,8|8,0:0|0:0,0:0:0:0:
312,118,206580,1,8,0:0:0:0:
312,118,207553,2,0,L|318:180,1,56,10|8,0:0|0:0,0:0:0:0:
319,229,207877,6,0,L|307:353,2,112,6|8|2,3:2|0:0|3:2,0:0:0:0:
378,239,208688,1,0,3:0:0:0:
378,239,208850,1,10,0:0:0:0:
446,150,209174,1,2,3:2:0:0:
405,45,209499,2,0,P|356:26|287:64,1,112,8|0,0:0|3:0,0:0:0:0:
248,62,209985,2,0,P|238:86|257:121,1,56,0|10,3:0|0:0,0:0:0:0:
329,191,210472,6,0,L|298:311,1,112,2|8,3:2|0:0,0:0:0:0:
203,354,211120,2,0,L|188:299,1,56,2|0,3:2|3:0,0:0:0:0:
138,275,211445,1,10,0:0:0:0:
47,209,211769,2,0,P|61:183|65:149,1,56,2|0,3:2|3:0,0:0:0:0:
97,111,212093,2,0,P|126:110|157:96,1,56,10|0,0:0|0:0,0:0:0:0:
206,105,212418,1,8,0:0:0:0:
299,43,212742,1,10,0:0:0:0:
379,121,213066,6,0,P|405:76|446:17,2,112,6|8|0,3:2|0:0|3:0,0:0:0:0:
409,174,213877,1,0,3:0:0:0:
409,174,214039,1,10,0:0:0:0:
479,261,214364,1,2,3:2:0:0:
426,359,214688,2,0,P|376:343|302:330,1,112,10|0,0:0|3:0,0:0:0:0:
266,330,215174,1,0,3:0:0:0:
266,330,215337,1,10,0:0:0:0:
159,364,215661,6,0,P|111:373|63:328,1,112,2|8,3:2|0:0,0:0:0:0:
43,289,216147,1,2,3:2:0:0:
43,289,216309,2,0,P|34:241|79:193,1,112,0|10,3:0|0:0,0:0:0:0:
110,153,216796,2,0,P|114:129|92:105,1,56,8|0,0:0|3:0,0:0:0:0:
44,97,217120,5,14,0:0:0:0:
44,97,217282,1,2,3:2:0:0:
119,13,217607,2,0,L|181:21,1,56,8|8,0:0|0:0,0:0:0:0:
215,58,217931,2,0,L|277:50,1,56,8|8,0:0|0:0,0:0:0:0:
311,88,218255,1,10,0:0:0:0:
416,49,218580,6,0,P|454:89|465:165,1,112,6|8,3:2|0:0,0:0:0:0:
470,202,219066,1,0,3:0:0:0:
470,202,219228,1,10,0:0:0:0:
357,208,219553,1,2,3:2:0:0:
286,295,219877,2,0,L|163:321,1,112,8|0,0:0|3:0,0:0:0:0:
124,331,220364,1,0,3:0:0:0:
124,331,220526,1,10,0:0:0:0:
48,248,220850,6,0,P|28:194|46:134,1,112,2|8,3:2|0:0,0:0:0:0:
148,107,221499,2,0,P|157:133|148:163,1,56,2|0,3:2|3:0,0:0:0:0:
148,215,221823,1,10,0:0:0:0:
224,296,222147,2,0,L|283:301,1,56,2|0,3:2|3:0,0:0:0:0:
316,343,222472,2,0,L|434:353,1,112,12|10,0:0|0:0,0:0:0:0:
492,261,223120,2,0,P|497:228|479:195,1,56,10|2,0:0|0:0,0:0:0:0:
464,156,223445,6,0,L|454:36,2,112,6|8|0,3:2|0:0|3:0,0:0:0:0:
412,166,224255,1,0,3:0:0:0:
412,166,224418,1,10,0:0:0:0:
334,84,224742,2,0,L|266:77,1,56,0|0,3:0|3:0,0:0:0:0:
246,32,225066,1,14,0:0:0:0:
135,52,225391,2,0,L|128:120,1,56,0|0,3:0|3:0,0:0:0:0:
83,140,225715,1,14,0:0:0:0:
103,251,226039,6,0,L|216:262,1,112,6|0,3:2|3:0,0:0:0:0:
218,322,226526,1,2,3:2:0:0:
218,322,226688,2,0,L|331:333,1,112,0|10,3:0|0:0,0:0:0:0:
433,290,227337,6,0,L|459:233,1,56,10|8,0:0|0:0,0:0:0:0:
474,186,227661,2,0,L|427:143,1,56,10|8,0:0|0:0,0:0:0:0:
387,114,227985,2,0,L|332:144,1,56,10|8,0:0|0:0,0:0:0:0:
292,174,228309,2,0,L|304:235,1,56,10|8,0:0|0:0,0:0:0:0:
320,283,228634,1,10,0:0:0:0:
224,343,228958,5,6,3:2:0:0:
256,192,229120,12,0,233823,0:0:0:0:
