osu file format v14

[General]
AudioFilename: audio.mp3
AudioLeadIn: 0
PreviewTime: 30715
Countdown: 0
SampleSet: Soft
StackLeniency: 0.7
Mode: 0
LetterboxInBreaks: 0
WidescreenStoryboard: 1

[Editor]
Bookmarks: 10688,21066,31445,41823,52201,62580,72958,83337,93715,104093,114472,124850,135228,145607,155985,166364,176742,187120,197499,207877,218255,228958
DistanceSpacing: 1.2
BeatDivisor: 4
GridSize: 4
TimelineZoom: 1.6

[Metadata]
Title:Hoshizora no Ima
TitleUnicode:星空のいま
Artist:Sagara Kokoro
ArtistUnicode:相良心
Creator:Hinsvar
Version:Hard
Source:星空へ架かる橋AA
Tags:Hoshizora e Kakaru Hashi AA A Bridge to the Starry Skies fandisc fandisk FD Japanese Pop J-Pop JPop Video Game visual novel vn galgame galge eroge ending ed feng full length version 塚本けむ Tsukamoto Kemu 堀江晶太 Horie Shota
BeatmapID:4032940
BeatmapSetID:1942135

[Difficulty]
HPDrainRate:4
CircleSize:3.5
OverallDifficulty:6.5
ApproachRate:8
SliderMultiplier:1.36
SliderTickRate:1

[Events]
//Background and Video events
0,0,"seira.jpg",0,0
//Break Periods
2,62780,71397
2,114672,122803
2,166564,175992
//Storyboard Layer 0 (Background)
//Storyboard Layer 1 (Fail)
//Storyboard Layer 2 (Pass)
//Storyboard Layer 3 (Foreground)
//Storyboard Layer 4 (Overlay)
//Storyboard Sound Samples

[TimingPoints]
310,324.324324324324,4,2,1,40,1,0
10201,-125,4,2,1,40,0,0
10688,-125,4,2,1,50,0,0
19607,-125,4,2,1,55,0,0
21066,-111.111111111111,4,2,1,60,0,0
26255,-125,4,2,1,50,0,0
28850,-100,4,2,1,70,0,0
31445,-90.9090909090909,4,2,1,85,0,1
41499,-90.9090909090909,4,2,1,85,0,0
41823,-90.9090909090909,4,2,1,85,0,1
47012,-125,4,2,1,70,0,0
48309,-125,4,2,1,75,0,0
49607,-125,4,2,1,80,0,1
50255,-125,4,2,1,85,0,1
50904,-100,4,2,1,85,0,0
52201,-100,4,2,1,80,0,1
52282,-100,4,2,1,80,0,0
62580,-100,4,2,1,70,0,0
72147,-125,4,2,1,50,0,0
81715,-125,4,2,1,55,0,0
83337,-111.111111111111,4,2,1,60,0,0
88526,-125,4,2,1,50,0,0
91120,-100,4,2,1,70,0,0
93715,-90.9090909090909,4,2,1,85,0,1
103769,-90.9090909090909,4,2,1,85,0,0
104093,-90.9090909090909,4,2,1,85,0,1
109282,-125,4,2,1,70,0,0
110580,-125,4,2,1,75,0,0
111877,-125,4,2,1,80,0,1
112526,-125,4,2,1,85,0,1
113174,-125,4,2,1,85,0,0
114472,-125,4,2,1,70,0,0
123553,-125,4,2,1,50,0,0
124850,-125,4,2,1,60,0,0
129877,-111.111111111111,4,2,1,65,0,0
132472,-100,4,2,1,70,0,0
135228,-100,4,2,1,75,0,0
155985,-100,4,2,1,70,0,0
161174,-125,4,2,1,60,0,0
163769,-100,4,2,1,75,0,0
166364,-100,4,2,1,70,0,0
176742,-125,4,2,1,60,0,0
185174,-125,4,2,1,65,0,0
185985,-125,4,2,1,70,0,0
187120,-90.9090909090909,4,2,1,85,0,1
197174,-90.9090909090909,4,2,1,85,0,0
197499,-90.9090909090909,4,2,1,85,0,1
202688,-125,4,2,1,70,0,0
203985,-125,4,2,1,75,0,0
205282,-125,4,2,1,80,0,1
205931,-125,4,2,1,85,0,1
206580,-125,4,2,1,85,0,0
207877,-100,4,2,1,80,0,1
207958,-100,4,2,1,80,0,0
218580,-100,4,2,1,80,0,1
218661,-100,4,2,1,80,0,0
226688,-125,4,2,1,80,0,0
227337,-125,4,2,1,60,0,0
227661,-125,4,2,1,65,0,0
227985,-125,4,2,1,70,0,0
228309,-125,4,2,1,75,0,0
228634,-125,4,2,1,80,0,0
229282,-125,4,2,1,70,0,0
229931,-125,4,2,1,60,0,0
230580,-125,4,2,1,50,0,0
231228,-125,4,2,1,40,0,0
231877,-125,4,2,1,30,0,0
232526,-125,4,2,1,20,0,0
233174,-125,4,2,1,10,0,0
233823,-125,4,2,1,5,0,0

[Colours]
Combo1 : 52,250,190
Combo2 : 235,217,54
Combo3 : 106,126,147
Combo4 : 239,184,191

[HitObjects]
27,298,10201,6,0,P|97:306|160:358,1,136,0|0,3:0|3:0,0:0:0:0:
159,355,10688,6,0,P|150:279|173:180,1,163.2,4|0,3:2|0:0,0:0:0:0:
205,122,11337,1,2,3:2:0:0:
205,122,11661,2,0,L|192:55,1,54.4,2|0,3:2|0:0,0:0:0:0:
255,14,11985,2,0,L|371:34,1,108.8,0|0,3:0|3:0,0:0:0:0:
410,98,12472,1,2,0:0:0:0:
435,175,12634,2,0,L|327:193,1,108.8,0|0,3:0|3:0,0:0:0:0:
279,259,13120,1,10,0:0:0:0:
213,211,13282,5,0,3:0:0:0:
213,211,13607,1,0,3:0:0:0:
213,211,13931,1,0,3:0:0:0:
213,211,14255,2,0,L|215:155,2,54.4,2|0|0,3:2|0:0|3:0,0:0:0:0:
135,355,14904,1,0,3:0:0:0:
54,340,15066,2,0,L|52:285,1,54.4,0|0,3:0|3:0,0:0:0:0:
28,207,15391,2,0,L|82:205,1,54.4,0|0,3:0|3:0,0:0:0:0:
113,134,15715,5,0,3:0:0:0:
113,134,15796,1,8,0:0:0:0:
113,134,15877,2,0,L|38:54,2,108.8,6|0|0,3:2|3:0|3:0,0:0:0:0:
217,266,16850,2,0,P|250:270|280:252,1,54.4,2|0,3:2|0:0,0:0:0:0:
337,215,17174,5,0,3:0:0:0:
337,215,17499,1,0,3:0:0:0:
337,215,17823,2,0,L|344:88,1,108.8,2|0,3:2|3:0,0:0:0:0:
298,37,18309,1,8,0:0:0:0:
216,33,18472,6,0,L|209:160,1,108.8,2|0,3:2|3:0,0:0:0:0:
147,193,18958,2,0,P|63:196|36:272,1,163.2,2|0,0:0|3:0,0:0:0:0:
98,327,19607,5,10,0:0:0:0:
98,327,19688,1,10,0:0:0:0:
98,327,19769,1,12,0:0:0:0:
256,363,20093,1,8,0:0:0:0:
414,327,20418,5,0,3:0:0:0:
492,305,20580,1,8,0:0:0:0:
470,227,20742,1,8,0:0:0:0:
392,249,20904,1,8,0:0:0:0:
410,169,21066,6,0,P|417:113|400:38,1,122.399996264649,6|0,3:2|3:0,0:0:0:0:
326,23,21553,1,2,0:0:0:0:
263,75,21715,2,0,P|252:159|278:271,1,183.599994396973,2|0,3:2|0:0,0:0:0:0:
293,333,22364,5,2,3:2:0:0:
137,379,22688,1,2,3:2:0:0:
11,275,23012,1,2,3:2:0:0:
167,229,23337,2,0,P|179:194|180:165,1,61.1999981323243,0|2,3:0|0:0,0:0:0:0:
216,96,23661,6,0,P|137:29|73:64,1,183.599994396973,2|0,3:2|0:0,0:0:0:0:
76,142,24309,2,0,P|9:220|44:284,1,183.599994396973,2|0,3:2|0:0,0:0:0:0:
104,332,24958,1,2,3:2:0:0:
305,312,25282,1,14,0:0:0:0:
285,111,25607,6,0,L|295:35,2,61.1999981323243,2|0|0,3:2|3:0|3:0,0:0:0:0:
351,158,26093,1,8,0:0:0:0:
407,99,26255,6,0,P|458:123|475:172,1,108.8,2|0,0:0|0:0,0:0:0:0:
420,323,26904,2,0,P|373:355|322:345,1,108.8,2|0,0:0|0:0,0:0:0:0:
219,222,27553,1,2,0:0:0:0:
219,222,28201,2,0,P|214:165|248:126,1,108.8,2|0,0:0|0:0,0:0:0:0:
49,33,28850,6,0,P|83:75|96:161,1,136,6|0,3:2|3:0,0:0:0:0:
83,235,29337,2,0,L|15:248,1,68,2|8,0:0|0:0,0:0:0:0:
37,335,29661,1,8,0:0:0:0:
37,335,29742,1,8,0:0:0:0:
37,335,29823,2,0,L|71:341,3,34,8|8|8|8,0:0|0:0|0:0|0:0,0:0:0:0:
70,341,31120,1,0,3:0:0:0:
296,357,31445,6,0,P|368:342|378:245,1,149.60000456543,6|8,3:2|0:0,0:0:0:0:
413,189,31931,1,2,0:0:0:0:
460,113,32093,2,0,P|411:58|322:97,1,149.60000456543,2|8,3:2|0:0,0:0:0:0:
256,95,32580,1,2,0:0:0:0:
166,92,32742,2,0,P|142:161|221:219,1,149.60000456543,2|8,3:2|0:0,0:0:0:0:
252,277,33229,1,2,0:0:0:0:
296,357,33391,2,0,P|332:349|337:301,1,74.8000022827149,0|2,3:0|0:0,0:0:0:0:
414,261,33715,2,0,P|406:225|358:220,1,74.8000022827149,10|2,0:0|0:0,0:0:0:0:
402,128,34039,6,0,P|343:131|244:159,1,149.60000456543,2|8,3:2|0:0,0:0:0:0:
188,214,34526,1,2,0:0:0:0:
99,199,34688,2,0,P|102:258|130:357,1,149.60000456543,2|8,3:2|0:0,0:0:0:0:
202,299,35174,1,0,3:0:0:0:
283,337,35337,2,0,P|299:297|318:270,1,74.8000022827149,0|0,3:0|0:0,0:0:0:0:
330,182,35661,2,0,P|314:142|295:115,1,74.8000022827149,8|0,0:0|0:0,0:0:0:0:
243,43,35985,1,2,3:2:0:0:
64,27,36309,2,0,P|16:47|3:110,1,112.200003424072,10|0,0:0|0:0,0:0:0:0:
7,118,36634,6,0,P|79:119|132:180,1,149.60000456543,2|8,3:2|0:0,0:0:0:0:
202,224,37120,1,0,3:0:0:0:
289,241,37282,2,0,P|288:313|227:366,2,149.60000456543,2|10|2,3:2|0:0|3:2,0:0:0:0:
193,88,38255,2,0,P|193:52|224:25,1,74.8000022827149,10|0,0:0|0:0,0:0:0:0:
307,48,38580,2,0,P|373:60|461:54,1,149.60000456543,2|10,3:2|0:0,0:0:0:0:
484,139,39066,1,0,3:0:0:0:
455,223,39228,6,0,P|389:211|301:217,1,149.60000456543,2|8,3:2|0:0,0:0:0:0:
221,245,39715,1,2,0:0:0:0:
137,213,39877,2,0,P|125:279|131:367,1,149.60000456543,2|8,3:2|0:0,0:0:0:0:
40,370,40364,1,8,0:0:0:0:
40,370,40445,1,8,0:0:0:0:
40,370,40526,1,8,0:0:0:0:
10,261,40688,5,8,0:0:0:0:
38,152,40850,2,0,P|103:125|127:47,1,149.60000456543,4|2,3:2|3:2,0:0:0:0:
305,24,41499,2,0,P|324:37|348:44,3,37.4000011413575,10|8|8|8,0:0|0:0|0:0|0:0,0:0:0:0:
362,69,41823,6,0,L|510:52,1,149.60000456543,6|8,3:2|0:0,0:0:0:0:
490,139,42309,1,2,0:0:0:0:
468,226,42472,2,0,L|319:245,1,149.60000456543,2|8,3:2|0:0,0:0:0:0:
299,330,42958,1,2,0:0:0:0:
209,334,43120,2,0,L|189:185,1,149.60000456543,2|8,3:2|0:0,0:0:0:0:
105,165,43606,1,2,0:0:0:0:
23,126,43769,2,0,L|32:51,1,74.8000022827149,0|2,3:0|0:0,0:0:0:0:
113,13,44093,2,0,L|187:22,1,74.8000022827149,10|2,0:0|0:0,0:0:0:0:
276,36,44418,6,0,P|343:82|348:152,1,149.60000456543,2|8,3:2|0:0,0:0:0:0:
294,215,44904,1,2,0:0:0:0:
270,301,45066,2,0,P|275:336|307:355,1,74.8000022827149,2|0,3:2|0:0,0:0:0:0:
396,360,45391,1,8,0:0:0:0:
461,269,45553,6,0,L|501:267,2,37.4000011413575,0|0|6,3:0|3:0|3:2,0:0:0:0:
415,191,45877,1,8,0:0:0:0:
326,179,46039,1,10,0:0:0:0:
244,176,46201,1,10,0:0:0:0:
244,176,46282,1,8,0:0:0:0:
244,176,46364,1,12,0:0:0:0:
185,243,46526,1,10,0:0:0:0:
185,243,46607,1,8,0:0:0:0:
185,243,46688,2,0,L|145:241,3,37.4000011413575,8|8|8|8,0:0|0:0|0:0|0:0,0:0:0:0:
125,241,47012,5,4,3:2:0:0:
125,241,47337,2,0,L|118:164,1,54.4,0|0,3:0|3:0,0:0:0:0:
83,113,47661,2,0,L|6:120,1,54.4,0|0,3:0|3:0,0:0:0:0:
9,197,47985,2,0,L|16:274,1,54.4,0|0,3:0|3:0,0:0:0:0:
51,325,48309,6,0,L|128:318,1,54.4,0|0,3:0|3:0,0:0:0:0:
171,368,48634,2,0,L|248:375,1,54.4,0|0,3:0|3:0,0:0:0:0:
291,325,48958,2,0,L|368:318,1,54.4,8|0,0:0|3:0,0:0:0:0:
411,368,49283,2,0,L|488:375,1,54.4,8|0,0:0|3:0,0:0:0:0:
506,272,49607,5,14,0:0:0:0:
498,108,49931,2,0,L|421:101,1,54.4,8|10,0:0|0:0,0:0:0:0:
363,91,50255,5,10,0:0:0:0:
291,54,50418,1,8,0:0:0:0:
233,112,50580,1,8,0:0:0:0:
270,184,50742,1,8,0:0:0:0:
351,171,50904,1,8,0:0:0:0:
351,171,51877,2,0,L|359:215,3,34,10|8|8|8,0:0|0:0|0:0|0:0,0:0:0:0:
380,228,52201,6,0,L|366:378,2,136,6|10|0,3:2|0:0|3:0,0:0:0:0:
451,187,53012,1,0,3:0:0:0:
414,114,53174,1,10,0:0:0:0:
234,16,53499,1,2,3:2:0:0:
197,89,53661,1,0,3:0:0:0:
197,89,53742,1,0,3:0:0:0:
197,89,53823,2,0,P|138:119|61:129,1,136,8|0,0:0|3:0,0:0:0:0:
36,203,54309,2,0,P|51:232|56:270,1,68,0|10,3:0|0:0,0:0:0:0:
216,233,54796,6,0,P|196:298|184:365,2,136,2|8|2,3:2|0:0|3:2,0:0:0:0:
237,153,55607,1,0,3:0:0:0:
290,91,55769,1,10,0:0:0:0:
459,207,56093,2,0,P|424:213|384:226,1,68,2|0,3:2|3:0,0:0:0:0:
317,251,56417,1,8,0:0:0:0:
259,309,56580,2,0,L|262:353,2,34,0|8|8,0:0|0:0|0:0,0:0:0:0:
60,262,57066,1,10,0:0:0:0:
91,187,57228,5,0,3:0:0:0:
91,187,57309,1,0,3:0:0:0:
91,187,57391,2,0,P|151:194|207:134,2,136,6|8|0,3:2|0:0|3:0,0:0:0:0:
47,118,58201,1,0,3:0:0:0:
74,40,58364,1,10,0:0:0:0:
277,25,58688,1,0,3:0:0:0:
304,103,58851,1,0,3:0:0:0:
357,163,59012,2,0,L|507:183,1,136,10|0,0:0|3:0,0:0:0:0:
485,262,59499,1,0,3:0:0:0:
420,311,59661,2,0,P|376:318|324:372,1,102,10|0,0:0|0:0,0:0:0:0:
350,353,59985,6,0,P|300:308|234:295,1,136,2|8,3:2|0:0,0:0:0:0:
228,214,60472,1,2,3:2:0:0:
228,214,60553,1,2,3:2:0:0:
228,214,60634,2,0,L|221:135,2,68,0|0|10,3:0|3:0|0:0,0:0:0:0:
100,373,61282,5,6,3:2:0:0:
22,347,61445,1,0,3:0:0:0:
22,266,61607,1,8,0:0:0:0:
100,240,61769,1,8,0:0:0:0:
147,306,61931,2,0,L|221:293,1,68,8|0,0:0|3:0,0:0:0:0:
295,296,62255,2,0,L|336:307,3,34,8|8|8|8,0:0|0:0|0:0|0:0,0:0:0:0:
361,315,62580,1,4,0:0:0:0:
242,30,72147,5,0,3:0:0:0:
256,192,72472,1,0,3:0:0:0:
270,354,72796,5,0,3:0:0:0:
270,354,72877,1,0,3:0:0:0:
270,354,72958,2,0,P|345:368|441:338,1,163.2,4|0,3:2|0:0,0:0:0:0:
449,266,73607,1,2,3:2:0:0:
449,266,73931,2,0,P|433:245|434:203,1,54.4,2|0,3:2|0:0,0:0:0:0:
369,163,74255,2,0,P|331:191|255:189,1,108.8,2|0,3:2|3:0,0:0:0:0:
221,131,74742,1,2,0:0:0:0:
249,54,74904,2,0,P|286:25|362:27,1,108.8,0|0,3:0|3:0,0:0:0:0:
405,94,75391,5,2,3:2:0:0:
405,94,75472,1,8,0:0:0:0:
405,94,75553,1,0,3:0:0:0:
477,240,75877,1,0,3:0:0:0:
331,312,76201,1,0,3:0:0:0:
259,166,76526,2,0,L|264:99,2,54.4,2|0|0,3:2|0:0|3:0,0:0:0:0:
97,190,77174,1,0,3:0:0:0:
61,263,77337,2,0,P|27:264|-8:292,1,54.4,8|0,0:0|3:0,0:0:0:0:
21,353,77661,2,0,P|55:352|90:324,1,54.4,8|0,0:0|3:0,0:0:0:0:
158,326,77985,5,0,3:0:0:0:
158,326,78066,1,0,3:0:0:0:
158,326,78147,2,0,P|211:329|273:373,2,108.8,6|0|0,3:2|3:0|3:0,0:0:0:0:
299,243,79120,2,0,P|295:211|303:186,1,54.4,2|0,3:2|0:0,0:0:0:0:
317,109,79445,5,0,3:0:0:0:
477,79,79769,1,0,3:0:0:0:
507,239,80093,2,0,P|512:280|494:359,1,108.8,2|0,3:2|3:0,0:0:0:0:
415,353,80580,5,0,3:0:0:0:
415,353,80661,1,0,3:0:0:0:
415,353,80742,2,0,P|409:311|428:233,1,108.8,2|0,3:2|3:0,0:0:0:0:
390,171,81228,1,2,0:0:0:0:
351,98,81391,2,0,L|286:90,1,54.4,0|0,3:0|3:0,0:0:0:0:
237,35,81715,1,8,0:0:0:0:
157,55,81877,1,8,0:0:0:0:
53,23,82039,5,12,0:0:0:0:
29,100,82201,2,0,L|-11:118,2,27.2,0|0|8,0:0|3:0|0:0,0:0:0:0:
185,152,82688,1,8,0:0:0:0:
217,237,82850,1,8,0:0:0:0:
217,237,82931,1,8,0:0:0:0:
217,237,83012,2,0,L|257:255,3,27.2,8|8|8|8,0:0|0:0|0:0|0:0,0:0:0:0:
255,275,83337,6,0,P|315:264|384:266,1,122.399996264649,6|2,3:2|0:3,0:0:0:0:
403,188,83823,1,2,0:0:0:0:
377,106,83985,2,0,P|285:107|195:90,1,183.599994396973,2|0,3:2|0:0,0:0:0:0:
122,129,84634,2,0,P|98:101|92:64,1,61.1999981323243,2|0,3:2|3:0,0:0:0:0:
151,23,84958,1,2,0:3:0:0:
281,120,85282,2,0,P|271:148|250:170,2,61.1999981323243,2|0|2,3:2|3:0|0:3,0:0:0:0:
275,38,85769,1,2,0:0:0:0:
350,74,85931,6,0,P|379:67|464:174,1,183.599994396973,2|0,3:2|0:0,0:0:0:0:
446,247,86580,2,0,P|453:276|346:361,1,183.599994396973,2|0,3:2|0:0,0:0:0:0:
335,282,87228,1,2,3:2:0:0:
256,97,87553,1,14,0:0:0:0:
177,282,87877,6,0,L|185:339,2,40.7999987548829,10|8|8,0:0|0:0|0:0,0:0:0:0:
124,270,88201,2,0,L|89:315,2,40.7999987548829,8|8|8,0:0|0:0|0:0,0:0:0:0:
94,223,88526,6,0,P|66:195|63:124,1,108.8,4|0,0:0|0:0,0:0:0:0:
212,67,89174,2,0,P|240:39|311:36,1,108.8,10|0,0:0|0:0,0:0:0:0:
369,184,89823,2,0,P|397:212|400:283,1,108.8,2|0,0:0|0:0,0:0:0:0:
246,339,90472,2,0,P|232:353|196:354,2,54.4,2|0|8,0:0|3:0|0:0,0:0:0:0:
43,365,91120,6,0,P|69:311|64:232,1,136,6|0,3:2|3:0,0:0:0:0:
32,161,91607,1,2,3:2:0:0:
81,95,91769,1,10,0:0:0:0:
162,104,91931,1,8,0:0:0:0:
194,177,92093,1,8,0:0:0:0:
145,242,92255,1,8,0:0:0:0:
336,327,92580,5,8,0:0:0:0:
347,246,92742,2,0,P|326:216|317:175,1,68,8|0,0:0|0:0,0:0:0:0:
307,105,93066,1,10,0:0:0:0:
381,65,93228,1,8,0:0:0:0:
381,65,93309,1,8,0:0:0:0:
381,65,93391,2,0,P|392:52|399:37,3,34,8|8|8|8,0:0|0:0|0:0|0:0,0:0:0:0:
436,29,93715,6,0,P|469:88|461:186,1,149.60000456543,6|8,3:2|0:0,0:0:0:0:
479,257,94201,1,2,0:0:0:0:
427,330,94364,2,0,P|368:363|270:355,1,149.60000456543,2|8,3:2|0:0,0:0:0:0:
199,373,94850,1,2,0:0:0:0:
126,321,95012,2,0,P|93:262|101:164,1,149.60000456543,2|8,3:2|0:0,0:0:0:0:
83,93,95498,1,2,0:0:0:0:
134,19,95661,2,0,P|167:36|209:39,1,74.8000022827149,0|2,3:0|0:0,0:0:0:0:
262,107,95985,2,0,P|245:140|242:182,1,74.8000022827149,10|2,0:0|0:0,0:0:0:0:
298,244,96309,6,0,P|335:247|384:153,1,149.60000456543,2|8,3:2|0:0,0:0:0:0:
352,80,96796,1,2,0:0:0:0:
275,33,96958,2,0,P|237:29|189:124,1,149.60000456543,2|8,3:2|0:0,0:0:0:0:
221,197,97445,1,0,3:0:0:0:
175,274,97607,2,0,P|171:314|173:349,1,74.8000022827149,0|0,3:0|0:0,0:0:0:0:
83,345,97931,2,0,P|86:304|85:270,1,74.8000022827149,8|0,0:0|0:0,0:0:0:0:
23,204,98255,1,2,3:2:0:0:
9,24,98580,2,0,P|51:57|121:57,1,112.200003424072,10|0,0:0|0:0,0:0:0:0:
107,42,98904,6,0,P|180:46|239:91,1,149.60000456543,2|8,3:2|0:0,0:0:0:0:
292,164,99391,1,0,3:0:0:0:
345,91,99553,2,0,P|403:46|477:41,2,149.60000456543,2|10|2,3:2|0:0|3:2,0:0:0:0:
299,265,100526,2,0,L|312:344,1,74.8000022827149,10|0,0:0|0:0,0:0:0:0:
400,334,100850,2,0,L|374:176,1,149.60000456543,2|10,3:2|0:0,0:0:0:0:
285,177,101337,1,0,3:0:0:0:
194,167,101499,6,0,P|164:104|169:19,1,149.60000456543,2|8,3:2|0:0,0:0:0:0:
78,30,101985,1,2,0:0:0:0:
35,109,102147,2,0,P|39:182|8:250,1,149.60000456543,2|8,3:2|0:0,0:0:0:0:
55,338,102633,1,8,0:0:0:0:
55,338,102715,1,8,0:0:0:0:
55,338,102796,1,8,0:0:0:0:
166,342,102958,5,8,0:0:0:0:
277,347,103120,2,0,L|435:331,1,149.60000456543,4|2,3:2|3:2,0:0:0:0:
356,165,103769,2,0,L|316:161,3,37.4000011413575,10|8|8|8,0:0|0:0|0:0|0:0,0:0:0:0:
299,193,104093,6,0,P|233:174|193:106,1,149.60000456543,6|8,3:2|0:0,0:0:0:0:
232,26,104580,1,2,0:0:0:0:
305,78,104742,2,0,P|353:30|433:30,1,149.60000456543,2|8,3:2|0:0,0:0:0:0:
483,104,105229,1,2,0:0:0:0:
401,140,105391,2,0,P|417:205|378:274,1,149.60000456543,2|8,3:2|0:0,0:0:0:0:
290,281,105878,1,2,0:0:0:0:
203,258,106039,2,0,P|197:289|194:343,1,74.8000022827149,0|0,3:0|0:0,0:0:0:0:
106,355,106364,2,0,P|103:317|96:280,1,74.8000022827149,10|2,0:0|0:0,0:0:0:0:
58,200,106688,6,0,P|118:181|159:104,1,149.60000456543,2|8,3:2|0:0,0:0:0:0:
215,38,107174,1,2,0:0:0:0:
295,79,107337,2,0,P|311:111|345:124,1,74.8000022827149,2|0,3:2|0:0,0:0:0:0:
441,105,107661,1,8,0:0:0:0:
512,191,107823,6,0,L|508:238,2,37.4000011413575,0|0|6,3:0|3:0|3:2,0:0:0:0:
422,201,108147,1,8,0:0:0:0:
332,211,108309,1,10,0:0:0:0:
271,278,108472,1,10,0:0:0:0:
271,278,108553,1,8,0:0:0:0:
271,278,108634,1,12,0:0:0:0:
281,368,108796,1,10,0:0:0:0:
281,368,108877,1,8,0:0:0:0:
281,368,108958,2,0,L|236:374,3,37.4000011413575,8|8|8|8,0:0|0:0|0:0|0:0,0:0:0:0:
220,378,109282,5,4,3:2:0:0:
220,378,109607,2,0,L|154:346,1,54.4,0|0,3:0|3:0,0:0:0:0:
181,273,109931,2,0,L|115:241,1,54.4,0|0,3:0|3:0,0:0:0:0:
142,168,110255,2,0,L|76:136,1,54.4,0|0,3:0|3:0,0:0:0:0:
71,65,110580,6,0,P|92:45|105:5,1,54.4,0|0,3:0|3:0,0:0:0:0:
184,22,110904,2,0,P|195:46|215:64,1,54.4,0|0,3:0|3:0,0:0:0:0:
297,65,111228,2,0,P|318:45|331:5,1,54.4,8|0,0:0|3:0,0:0:0:0:
410,22,111552,2,0,P|421:46|441:64,1,54.4,8|0,0:0|3:0,0:0:0:0:
478,167,111877,5,14,0:0:0:0:
315,184,112201,2,0,L|259:176,1,54.4,8|10,0:0|0:0,0:0:0:0:
193,129,112526,5,10,0:0:0:0:
119,97,112688,1,8,0:0:0:0:
65,159,112850,1,8,0:0:0:0:
107,228,113012,1,8,0:0:0:0:
186,210,113174,1,8,0:0:0:0:
186,210,114472,5,4,3:2:0:0:
23,31,123553,5,0,3:0:0:0:
106,278,124039,1,0,3:0:0:0:
373,318,124526,5,0,3:0:0:0:
373,318,124688,1,2,0:0:0:0:
443,359,124850,2,0,L|518:353,1,54.4,6|0,3:2|0:0,0:0:0:0:
494,273,125174,2,0,L|488:198,1,54.4,0|0,3:0|0:0,0:0:0:0:
407,222,125499,2,0,L|257:234,1,108.8,12|0,0:0|0:0,0:0:0:0:
156,311,126147,6,0,P|129:304|108:282,1,54.4,4|0,3:2|0:0,0:0:0:0:
83,208,126472,2,0,P|75:181|84:151,1,54.4,0|0,3:0|0:0,0:0:0:0:
96,76,126796,2,0,P|135:36|194:21,1,108.8,12|0,0:0|0:0,0:0:0:0:
349,14,127445,6,0,L|368:81,1,54.4,6|0,3:2|3:0,0:0:0:0:
436,103,127769,2,0,L|417:170,1,54.4,0|0,3:0|3:0,0:0:0:0:
341,173,128093,2,0,L|379:307,1,108.8,12|0,0:0|0:0,0:0:0:0:
222,346,128742,5,10,0:0:0:0:
60,326,129066,1,0,3:0:0:0:
60,326,129228,1,10,0:0:0:0:
80,164,129553,1,0,3:0:0:0:
80,164,129715,1,0,3:0:0:0:
175,197,129877,5,0,3:0:0:0:
175,197,129958,1,0,3:0:0:0:
175,197,130039,2,0,P|213:250|273:236,1,122.399996264649,6|8,3:2|0:0,0:0:0:0:
320,184,130526,1,2,0:0:0:0:
344,106,130688,2,0,P|306:53|246:67,1,122.399996264649,2|8,3:2|0:0,0:0:0:0:
94,32,131337,2,0,L|51:42,3,30.5999990661621,0|2|2|2,3:0|0:0|0:0|0:0,0:0:0:0:
46,63,131661,2,0,L|56:106,3,30.5999990661621,8|2|2|2,0:0|0:0|0:0|0:0,0:0:0:0:
56,123,131985,2,0,L|41:184,2,61.1999981323243,2|0|8,0:0|3:0|0:0,0:0:0:0:
150,184,132472,5,0,3:0:0:0:
150,184,132553,1,0,3:0:0:0:
150,184,132634,1,6,3:2:0:0:
224,150,132796,2,0,L|216:116,2,34,0|8|8,0:0|0:0|0:0,0:0:0:0:
302,214,133120,1,6,3:2:0:0:
383,221,133282,2,0,L|393:187,2,34,8|8|8,0:0|0:0|0:0,0:0:0:0:
418,315,133607,1,12,0:0:0:0:
485,362,133769,2,0,L|510:338,2,34,8|8|8,0:0|0:0|0:0,0:0:0:0:
490,249,134093,5,4,3:2:0:0:
508,169,134255,2,0,L|499:128,3,34,8|8|8|8,0:0|0:0|0:0|0:0,0:0:0:0:
495,101,134580,1,8,0:0:0:0:
415,118,134742,1,8,0:0:0:0:
415,118,134823,1,8,0:0:0:0:
415,118,134904,2,0,L|424:159,3,34,8|8|8|8,0:0|0:0|0:0|0:0,0:0:0:0:
428,186,135228,6,0,P|378:223|352:290,2,136,6|8|0,3:2|0:0|3:0,0:0:0:0:
362,36,136201,2,0,P|331:50|298:45,1,68,8|2,0:0|0:0,0:0:0:0:
217,31,136526,2,0,P|151:22|79:23,1,136,2|10,3:2|0:0,0:0:0:0:
17,172,137174,1,2,3:2:0:0:
56,243,137337,1,0,3:0:0:0:
136,244,137499,2,0,L|145:137,1,102,10|0,0:0|0:0,0:0:0:0:
161,138,137823,6,0,P|213:188|281:152,1,136,2|8,3:2|0:0,0:0:0:0:
349,171,138309,2,0,P|412:186|455:138,1,136,2|0,0:0|0:0,0:0:0:0:
510,77,138796,2,0,P|458:27|390:63,1,136,10|0,0:0|0:0,0:0:0:0:
322,44,139282,2,0,P|258:28|215:76,1,136,2|0,3:2|0:0,0:0:0:0:
161,138,139769,2,0,P|127:134|77:120,1,68,2|0,0:0|3:0,0:0:0:0:
15,111,140093,1,10,0:0:0:0:
75,308,140418,6,0,P|109:312|190:374,1,136,6|8,3:2|0:0,0:0:0:0:
253,324,140904,2,0,P|239:292|252:191,1,136,2|0,0:0|3:0,0:0:0:0:
178,162,141391,2,0,P|172:168|149:178,3,34,8|2|2|2,0:0|0:0|0:0|0:0,0:0:0:0:
116,166,141715,6,0,L|104:5,1,136,2|8,3:2|0:0,0:0:0:0:
187,24,142201,2,0,L|348:12,1,136,2|0,0:0|3:0,0:0:0:0:
329,95,142688,1,10,0:0:0:0:
407,115,142850,1,0,3:0:0:0:
460,176,143012,6,0,P|456:238|475:314,1,136,2|8,3:2|0:0,0:0:0:0:
408,359,143499,1,2,3:2:0:0:
245,362,143823,1,8,0:0:0:0:
180,312,143985,1,10,0:0:0:0:
162,149,144309,1,8,0:0:0:0:
212,84,144472,2,0,L|219:12,2,68,2|0|8,3:2|0:0|0:0,0:0:0:0:
131,72,144958,2,0,L|63:65,1,68,2|0,0:0|3:0,0:0:0:0:
23,136,145282,2,0,L|31:179,3,34,10|8|8|8,0:0|0:0|0:0|0:0,0:0:0:0:
63,163,145607,6,0,P|128:173|168:240,1,136,6|8,3:2|0:0,0:0:0:0:
94,265,146093,1,2,0:0:0:0:
21,302,146255,2,0,P|59:356|125:367,1,136,2|10,0:0|0:0,0:0:0:0:
280,318,146904,2,0,L|356:327,1,68,0|0,3:0|3:0,0:0:0:0:
355,244,147228,2,0,L|279:235,1,68,8|0,0:0|3:0,0:0:0:0:
227,180,147553,2,0,P|221:114|209:28,1,136,2|10,0:0|0:0,0:0:0:0:
372,20,148201,6,0,P|403:39|459:42,1,68,2|0,0:0|3:0,0:0:0:0:
477,114,148526,1,8,0:0:0:0:
433,182,148688,2,0,P|366:195|309:231,1,136,2|0,3:2|3:0,0:0:0:0:
252,288,149174,2,0,P|239:321|241:362,1,68,10|0,0:0|0:0,0:0:0:0:
157,356,149499,6,0,L|82:351,2,68,10|0|0,0:0|3:0|3:0,0:0:0:0:
164,274,149985,2,0,L|89:269,2,68,10|0|0,0:0|3:0|3:0,0:0:0:0:
171,192,150472,1,10,0:0:0:0:
251,162,150634,5,8,0:0:0:0:
251,162,150715,1,8,0:0:0:0:
251,162,150796,2,0,P|270:102|224:41,1,136,6|8,3:2|0:0,0:0:0:0:
68,31,151445,2,0,L|26:93,1,68,0|0,3:0|0:0,0:0:0:0:
100,127,151769,2,0,L|94:201,1,68,10|0,0:0|0:0,0:0:0:0:
175,194,152093,2,0,L|207:261,1,68,0|0,3:0|0:0,0:0:0:0:
273,214,152418,2,0,L|335:256,1,68,10|0,0:0|0:0,0:0:0:0:
367,182,152742,2,0,L|441:187,1,68,0|0,3:0|0:0,0:0:0:0:
432,107,153066,2,0,L|499:74,1,68,10|0,0:0|0:0,0:0:0:0:
400,33,153391,6,0,P|340:40|243:20,1,136,14|0,0:0|0:0,0:0:0:0:
196,70,153877,2,0,P|203:130|183:227,1,136,10|0,0:0|0:0,0:0:0:0:
233,274,154364,2,0,P|229:304|239:352,1,68,10|0,0:0|3:0,0:0:0:0:
162,363,154688,1,10,0:0:0:0:
162,363,154769,1,8,0:0:0:0:
162,363,154850,1,8,0:0:0:0:
74,350,155012,2,0,P|77:320|67:271,1,68,0|0,3:0|3:0,0:0:0:0:
37,185,155337,5,14,0:0:0:0:
122,216,155499,1,8,0:0:0:0:
122,216,155580,1,8,0:0:0:0:
122,216,155661,2,0,P|144:217|167:213,3,34,8|8|8|8,0:0|0:0|0:0|0:0,0:0:0:0:
189,209,155985,5,6,3:2:0:0:
262,174,156147,1,8,0:0:0:0:
262,174,156634,1,0,3:0:0:0:
277,336,156958,1,0,3:0:0:0:
359,368,157120,2,0,P|377:344|384:301,1,68,10|0,0:0|3:0,0:0:0:0:
466,307,157445,2,0,P|471:340|491:367,1,68,10|0,0:0|3:0,0:0:0:0:
501,204,157931,1,0,3:0:0:0:
338,191,158255,1,0,3:0:0:0:
174,191,158580,5,10,3:2:0:0:
92,198,158742,1,0,3:0:0:0:
11,204,158904,1,0,3:0:0:0:
19,41,159228,1,0,3:0:0:0:
182,28,159552,1,0,3:0:0:0:
223,99,159715,2,0,P|257:102|295:120,1,68,10|0,0:0|3:0,0:0:0:0:
288,196,160039,2,0,P|256:209|223:212,1,68,10|0,0:0|3:0,0:0:0:0:
72,274,160526,6,0,P|50:247|46:222,2,45.3333333333333,8|8|8,0:0|0:0|0:0,0:0:0:0:
62,326,160850,2,0,P|35:347|10:351,2,45.3333333333333,8|8|8,0:0|0:0|0:0,0:0:0:0:
114,336,161174,6,0,P|160:362|215:341,1,108.8,6|0,3:2|0:0,0:0:0:0:
373,357,161823,2,0,P|399:311|378:256,1,108.8,10|0,0:0|0:0,0:0:0:0:
394,98,162472,2,0,P|348:72|293:93,1,108.8,2|0,3:2|0:0,0:0:0:0:
135,77,163120,2,0,P|109:123|130:178,1,108.8,10|8,0:0|0:0,0:0:0:0:
206,183,163607,1,8,0:0:0:0:
308,185,163769,6,0,L|451:173,1,136,6|0,3:2|0:0,0:0:0:0:
489,240,164255,2,0,L|495:311,1,68,2|10,0:0|0:0,0:0:0:0:
444,372,164580,1,8,0:0:0:0:
444,372,164661,1,8,0:0:0:0:
444,372,164742,2,0,L|408:375,3,34,8|8|8|8,0:0|0:0|0:0|0:0,0:0:0:0:
410,374,166364,5,6,3:2:0:0:
428,44,176742,6,0,P|469:85|475:156,1,108.8,6|0,3:2|3:0,0:0:0:0:
434,201,177228,1,2,0:0:0:0:
352,195,177391,2,0,P|311:154|305:83,1,108.8,2|0,3:2|3:0,0:0:0:0:
256,37,177877,1,2,0:0:0:0:
211,105,178039,2,0,P|198:157|160:195,1,108.8,2|0,3:2|3:0,0:0:0:0:
78,201,178526,2,0,L|73:143,2,54.4,2|0|0,0:0|3:0|0:0,0:0:0:0:
84,282,179012,2,0,L|29:286,1,54.4,2|2,3:2|0:0,0:0:0:0:
18,367,179337,6,0,P|105:366|187:375,1,163.2,2|2,3:2|0:0,0:0:0:0:
235,313,179985,2,0,P|190:238|157:162,1,163.2,2|2,3:2|0:0,0:0:0:0:
80,152,180634,2,0,P|65:177|49:199,2,54.4,2|0|2,3:2|0:0|3:2,0:0:0:0:
61,72,181120,1,2,0:0:0:0:
223,56,181445,1,2,0:0:0:0:
239,218,181769,1,2,0:0:0:0:
219,297,181931,6,0,P|270:317|313:366,1,108.8,6|0,3:2|3:0,0:0:0:0:
436,255,182580,2,0,P|456:204|505:161,1,108.8,2|0,3:2|3:0,0:0:0:0:
354,83,183228,2,0,P|303:63|260:14,1,108.8,2|0,3:2|3:0,0:0:0:0:
137,125,183877,2,0,P|117:176|68:219,1,108.8,2|0,3:2|3:0,0:0:0:0:
149,360,184526,6,0,P|228:347|314:337,1,163.2,2|2,3:2|0:0,0:0:0:0:
339,261,185174,2,0,L|339:196,1,54.4,8|8,0:0|0:0,0:0:0:0:
265,170,185499,2,0,L|265:105,2,54.4,8|8|8,0:0|0:0|0:0,0:0:0:0:
190,204,185985,1,8,0:0:0:0:
190,204,186066,1,8,0:0:0:0:
190,204,186147,1,8,0:0:0:0:
101,191,186309,2,0,L|57:196,2,27.2,8|8|10,0:0|0:0|0:0,0:0:0:0:
196,323,186796,2,0,L|223:326,3,27.2,10|8|8|8,0:0|0:0|0:0|0:0,0:0:0:0:
260,330,187120,6,0,P|321:353|414:343,1,149.60000456543,6|8,3:2|0:0,0:0:0:0:
459,275,187607,1,2,0:0:0:0:
387,220,187769,2,0,P|326:243|233:233,1,149.60000456543,2|8,3:2|0:0,0:0:0:0:
188,165,188256,1,2,0:0:0:0:
260,112,188418,2,0,P|321:135|414:125,1,149.60000456543,2|8,3:2|0:0,0:0:0:0:
459,57,188905,1,2,0:0:0:0:
376,23,189066,2,0,P|340:26|295:32,1,74.8000022827149,0|2,3:0|0:0,0:0:0:0:
210,30,189391,2,0,P|173:26|136:23,1,74.8000022827149,10|2,0:0|0:0,0:0:0:0:
49,47,189715,6,0,P|28:91|98:158,1,149.60000456543,2|8,3:2|0:0,0:0:0:0:
176,147,190201,1,2,0:0:0:0:
264,135,190364,2,0,P|320:178|303:247,1,149.60000456543,2|8,3:2|0:0,0:0:0:0:
240,310,190850,1,0,3:0:0:0:
150,304,191012,2,0,P|147:267|136:224,1,74.8000022827149,0|0,3:0|0:0,0:0:0:0:
87,158,191337,2,0,P|50:160|7:171,1,74.8000022827149,8|0,0:0|0:0,0:0:0:0:
55,248,191661,1,2,3:2:0:0:
233,265,191985,2,0,P|290:274|333:329,1,112.200003424072,10|0,0:0|0:0,0:0:0:0:
338,326,192309,6,0,P|321:228|325:171,1,149.60000456543,2|8,3:2|0:0,0:0:0:0:
323,88,192796,1,0,3:0:0:0:
250,35,192958,2,0,P|152:52|95:48,2,149.60000456543,2|10|2,3:2|0:0|3:2,0:0:0:0:
429,27,193931,2,0,P|470:42|476:88,1,74.8000022827149,10|0,0:0|0:0,0:0:0:0:
482,158,194255,2,0,P|455:231|372:242,1,149.60000456543,2|10,3:2|0:0,0:0:0:0:
302,237,194742,1,0,3:0:0:0:
220,199,194904,6,0,P|196:257|189:360,1,149.60000456543,2|8,3:2|0:0,0:0:0:0:
99,363,195391,1,2,0:0:0:0:
82,274,195553,2,0,P|76:199|49:130,1,149.60000456543,2|8,3:2|0:0,0:0:0:0:
16,49,196039,1,8,0:0:0:0:
16,49,196120,1,8,0:0:0:0:
16,49,196201,1,8,0:0:0:0:
128,36,196364,5,8,0:0:0:0:
239,23,196526,2,0,L|213:182,1,149.60000456543,4|2,3:2|3:2,0:0:0:0:
349,289,197174,2,0,L|355:249,3,37.4000011413575,10|8|8|8,0:0|0:0|0:0|0:0,0:0:0:0:
338,218,197499,6,0,P|398:229|475:171,1,149.60000456543,6|8,3:2|0:0,0:0:0:0:
511,261,197985,1,2,0:0:0:0:
472,342,198147,2,0,P|412:331|335:389,1,149.60000456543,2|8,3:2|0:0,0:0:0:0:
299,299,198633,1,2,0:0:0:0:
209,284,198796,2,0,P|198:224|256:147,1,149.60000456543,2|8,3:2|0:0,0:0:0:0:
166,111,199282,1,2,0:0:0:0:
85,150,199444,2,0,P|90:180|61:218,1,74.8000022827149,0|2,3:0|0:0,0:0:0:0:
25,295,199769,2,0,P|19:325|48:363,1,74.8000022827149,10|2,0:0|0:0,0:0:0:0:
132,351,200093,6,0,L|282:302,1,149.60000456543,2|8,3:2|0:0,0:0:0:0:
314,224,200580,1,2,0:0:0:0:
223,227,200742,2,0,L|148:202,1,74.8000022827149,2|0,3:2|0:0,0:0:0:0:
118,120,201066,1,8,0:0:0:0:
210,54,201228,6,0,L|216:15,2,37.4000011413575,0|0|6,3:0|3:0|3:2,0:0:0:0:
252,135,201553,1,8,0:0:0:0:
341,130,201715,1,10,0:0:0:0:
438,133,201877,1,10,0:0:0:0:
438,133,201958,1,8,0:0:0:0:
438,133,202039,1,12,0:0:0:0:
469,227,202201,1,10,0:0:0:0:
469,227,202282,1,8,0:0:0:0:
469,227,202364,2,0,L|423:232,3,37.4000011413575,8|8|8|8,0:0|0:0|0:0|0:0,0:0:0:0:
408,237,202688,5,4,3:2:0:0:
408,237,203012,2,0,P|400:266|398:306,1,54.4,0|0,3:0|3:0,0:0:0:0:
334,342,203337,2,0,P|312:320|279:298,1,54.4,0|0,3:0|3:0,0:0:0:0:
280,225,203661,2,0,P|309:217|344:199,1,54.4,0|0,3:0|3:0,0:0:0:0:
379,141,203985,6,0,L|382:76,1,54.4,0|0,3:0|3:0,0:0:0:0:
300,81,204309,2,0,L|297:146,1,54.4,0|0,3:0|3:0,0:0:0:0:
215,129,204634,2,0,L|218:75,1,54.4,8|0,0:0|3:0,0:0:0:0:
135,68,204958,2,0,L|133:123,1,54.4,8|0,0:0|3:0,0:0:0:0:
45,186,205282,5,14,0:0:0:0:
74,346,205607,2,0,L|135:360,1,54.4,8|10,0:0|0:0,0:0:0:0:
207,343,205931,5,10,0:0:0:0:
214,262,206093,1,8,0:0:0:0:
292,242,206255,1,8,0:0:0:0:
336,311,206418,1,8,0:0:0:0:
284,374,206580,1,8,0:0:0:0:
284,374,207553,2,0,L|310:367,3,27.2,10|8|8|8,0:0|0:0|0:0|0:0,0:0:0:0:
333,342,207877,6,0,L|481:366,2,136,6|8|2,3:2|0:0|3:2,0:0:0:0:
273,286,208688,1,0,3:0:0:0:
208,336,208850,1,10,0:0:0:0:
85,173,209174,1,2,3:2:0:0:
169,208,209336,1,0,3:0:0:0:
169,208,209418,1,0,3:0:0:0:
169,208,209499,2,0,P|211:191|224:104,1,136,8|0,0:0|3:0,0:0:0:0:
291,59,209985,2,0,P|324:59|341:87,1,68,0|10,3:0|0:0,0:0:0:0:
411,234,210472,6,0,P|464:183|495:105,2,136,2|8|2,3:2|0:0|3:2,0:0:0:0:
330,249,211282,1,0,3:0:0:0:
345,330,211445,1,10,0:0:0:0:
142,353,211769,2,0,L|67:363,1,68,2|0,3:2|3:0,0:0:0:0:
43,286,212093,1,10,0:0:0:0:
47,201,212255,2,0,L|53:158,2,34,0|8|8,0:0|0:0|0:0,0:0:0:0:
249,233,212742,1,10,0:0:0:0:
241,153,212904,5,0,3:0:0:0:
241,153,212985,1,0,3:0:0:0:
241,153,213066,2,0,P|223:78|188:19,2,136,6|8|0,3:2|0:0|3:0,0:0:0:0:
320,173,213877,1,0,3:0:0:0:
388,128,214039,1,10,0:0:0:0:
414,289,214364,1,2,3:2:0:0:
335,269,214526,1,0,3:0:0:0:
267,314,214688,2,0,L|121:300,1,136,10|0,0:0|3:0,0:0:0:0:
76,240,215174,1,0,3:0:0:0:
71,158,215337,2,0,L|180:147,1,102,10|0,0:0|0:0,0:0:0:0:
177,164,215661,6,0,P|147:105|180:31,1,136,2|8,3:2|0:0,0:0:0:0:
248,28,216147,2,0,L|279:6,2,34,2|2|0,3:2|3:2|3:0,0:0:0:0:
300,104,216472,1,8,0:0:0:0:
300,104,216553,1,8,0:0:0:0:
300,104,216634,2,0,L|337:110,3,34,10|8|8|8,0:0|0:0|0:0|0:0,0:0:0:0:
367,114,216958,1,0,3:0:0:0:
457,161,217120,5,14,0:0:0:0:
499,253,217282,2,0,P|508:290|506:331,1,68,2|0,3:2|3:0,0:0:0:0:
436,360,217607,1,8,0:0:0:0:
367,323,217769,1,8,0:0:0:0:
367,323,217850,1,8,0:0:0:0:
367,323,217931,2,0,P|362:304|363:284,3,34,8|8|8|8,0:0|0:0|0:0|0:0,0:0:0:0:
365,255,218255,1,10,0:0:0:0:
295,199,218418,5,0,3:0:0:0:
295,199,218499,1,0,3:0:0:0:
295,199,218580,2,0,P|232:226|150:205,1,136,6|8,3:2|0:0,0:0:0:0:
187,135,219066,1,0,3:0:0:0:
108,157,219228,1,10,0:0:0:0:
264,25,219553,1,2,3:2:0:0:
350,55,219715,1,0,3:0:0:0:
350,55,219796,1,0,3:0:0:0:
350,55,219877,2,0,P|367:94|455:126,1,136,8|0,0:0|3:0,0:0:0:0:
472,205,220364,2,0,P|463:224|483:267,1,68,0|10,3:0|0:0,0:0:0:0:
318,249,220850,6,0,P|290:301|264:398,2,136,2|8|2,3:2|0:0|3:2,0:0:0:0:
252,199,221661,1,0,3:0:0:0:
172,217,221823,1,10,0:0:0:0:
55,102,222147,2,0,P|73:69|117:51,1,68,2|0,3:2|3:0,0:0:0:0:
193,16,222472,2,0,P|253:49|285:128,1,136,12|10,0:0|0:0,0:0:0:0:
256,184,222958,1,0,3:0:0:0:
199,125,223120,2,0,L|158:132,3,34,10|2|2|2,0:0|0:0|0:0|0:0,0:0:0:0:
135,147,223445,6,0,L|-11:114,2,136,6|8|0,3:2|0:0|3:0,0:0:0:0:
148,227,224255,1,0,3:0:0:0:
68,240,224418,1,10,0:0:0:0:
255,319,224742,1,0,3:0:0:0:
335,332,224905,1,0,3:0:0:0:
431,363,225066,2,0,P|411:288|402:220,1,136,14|0,0:0|3:0,0:0:0:0:
339,177,225553,1,0,3:0:0:0:
246,133,225715,2,0,P|283:107|353:93,1,102,14|0,0:0|0:0,0:0:0:0:
344,78,226039,6,0,P|278:62|221:26,1,136,6|0,3:2|3:0,0:0:0:0:
149,54,226526,1,2,3:2:0:0:
149,54,226607,1,2,3:2:0:0:
149,54,226688,2,0,L|147:120,1,54.4,0|0,3:0|3:0,0:0:0:0:
99,174,227012,1,10,0:0:0:0:
180,315,227337,6,0,L|236:349,1,54.4,10|8,0:0|0:0,0:0:0:0:
306,356,227661,2,0,L|356:312,1,54.4,10|8,0:0|0:0,0:0:0:0:
383,248,227985,2,0,L|357:186,1,54.4,10|8,0:0|0:0,0:0:0:0:
305,140,228310,2,0,L|238:145,1,54.4,10|8,0:0|0:0,0:0:0:0:
179,182,228634,2,0,L|163:246,1,54.4,10|0,0:0|3:0,0:0:0:0:
166,235,228877,1,0,3:0:0:0:
166,235,228958,1,6,3:2:0:0:
256,192,229120,12,0,233823,0:0:0:0:
