osu file format v14

[General]
AudioFilename: audio.mp3
AudioLeadIn: 0
PreviewTime: 30715
Countdown: 0
SampleSet: Soft
StackLeniency: 0.7
Mode: 0
LetterboxInBreaks: 0
WidescreenStoryboard: 1

[Editor]
Bookmarks: 10688,21066,31445,41823,52201,62580,72958,83337,93715,104093,114472,124850,135228,145607,155985,166364,176742,187120,197499,207877,218255,228958
DistanceSpacing: 1.1
BeatDivisor: 2
GridSize: 8
TimelineZoom: 0.7

[Metadata]
Title:Hoshizora no Ima
TitleUnicode:星空のいま
Artist:Sagara Kokoro
ArtistUnicode:相良心
Creator:Hinsvar
Version:Easy
Source:星空へ架かる橋AA
Tags:Hoshizora e Kakaru Hashi AA A Bridge to the Starry Skies fandisc fandisk FD Japanese Pop J-Pop JPop Video Game visual novel vn galgame galge eroge ending ed feng full length version 塚本けむ Tsukamoto Kemu 堀江晶太 Horie Shota
BeatmapID:4036131
BeatmapSetID:1942135

[Difficulty]
HPDrainRate:2
CircleSize:2
OverallDifficulty:3
ApproachRate:4
SliderMultiplier:0.96
SliderTickRate:1

[Events]
//Background and Video events
0,0,"seira.jpg",0,0
//Break Periods
2,62780,71638
2,114672,122233
2,166564,175422
//Storyboard Layer 0 (Background)
//Storyboard Layer 1 (Fail)
//Storyboard Layer 2 (Pass)
//Storyboard Layer 3 (Foreground)
//Storyboard Layer 4 (Overlay)
//Storyboard Sound Samples

[TimingPoints]
310,324.324324324324,4,2,1,40,1,0
10688,-100,4,2,1,50,0,0
19607,-100,4,2,1,55,0,0
21066,-100,4,2,1,60,0,0
26255,-100,4,2,1,50,0,0
28850,-100,4,2,1,70,0,0
31445,-95.2380952380952,4,2,1,85,0,1
41499,-95.2380952380952,4,2,1,85,0,0
41823,-95.2380952380952,4,2,1,85,0,1
47012,-100,4,2,1,70,0,0
48309,-100,4,2,1,75,0,0
49607,-100,4,2,1,80,0,1
50255,-100,4,2,1,85,0,1
50904,-100,4,2,1,85,0,0
52201,-100,4,2,1,80,0,1
52282,-100,4,2,1,80,0,0
62580,-100,4,2,1,70,0,0
72147,-100,4,2,1,50,0,0
81715,-100,4,2,1,55,0,0
83337,-100,4,2,1,60,0,0
88526,-100,4,2,1,50,0,0
91120,-100,4,2,1,70,0,0
93715,-95.2380952380952,4,2,1,85,0,1
103769,-95.2380952380952,4,2,1,85,0,0
104093,-95.2380952380952,4,2,1,85,0,1
109282,-100,4,2,1,70,0,0
110580,-100,4,2,1,75,0,0
111877,-100,4,2,1,80,0,1
112526,-100,4,2,1,85,0,1
113174,-100,4,2,1,85,0,0
114472,-100,4,2,1,70,0,0
123553,-100,4,2,1,50,0,0
124850,-100,4,2,1,60,0,0
129877,-100,4,2,1,65,0,0
132472,-100,4,2,1,70,0,0
135228,-100,4,2,1,75,0,0
155985,-100,4,2,1,70,0,0
161174,-100,4,2,1,60,0,0
163769,-100,4,2,1,75,0,0
166364,-100,4,2,1,70,0,0
176742,-100,4,2,1,60,0,0
185174,-100,4,2,1,65,0,0
185985,-100,4,2,1,70,0,0
187120,-95.2380952380952,4,2,1,85,0,1
197174,-95.2380952380952,4,2,1,85,0,0
197499,-95.2380952380952,4,2,1,85,0,1
202688,-100,4,2,1,70,0,0
203985,-100,4,2,1,75,0,0
205282,-100,4,2,1,80,0,1
205931,-100,4,2,1,85,0,1
206580,-100,4,2,1,85,0,0
207877,-100,4,2,1,80,0,1
207958,-100,4,2,1,80,0,0
218580,-100,4,2,1,80,0,1
218661,-100,4,2,1,80,0,0
226688,-100,4,2,1,80,0,0
227337,-100,4,2,1,60,0,0
227661,-100,4,2,1,65,0,0
227985,-100,4,2,1,70,0,0
228309,-100,4,2,1,75,0,0
228634,-100,4,2,1,80,0,0
229282,-100,4,2,1,70,0,0
229931,-100,4,2,1,60,0,0
230580,-100,4,2,1,50,0,0
231228,-100,4,2,1,40,0,0
231877,-100,4,2,1,30,0,0
232526,-100,4,2,1,20,0,0
233174,-100,4,2,1,10,0,0
233823,-100,4,2,1,5,0,0

[Colours]
Combo1 : 52,250,190
Combo2 : 235,217,54
Combo3 : 106,126,147
Combo4 : 239,184,191

[HitObjects]
471,65,10688,6,0,P|393:49|299:111,1,192,4|2,3:2|3:2,0:0:0:0:
256,192,11661,1,2,3:2:0:0:
209,277,11985,2,0,P|133:331|41:319,1,192,0|0,3:0|3:0,0:0:0:0:
7,228,12958,1,0,3:0:0:0:
65,152,13282,1,0,3:0:0:0:
328,36,14255,2,0,P|376:40|430:84,1,96,2|0,3:2|3:0,0:0:0:0:
381,155,14904,2,0,L|280:164,2,96,0|0|0,3:0|3:0|3:0,0:0:0:0:
442,228,15877,6,0,P|342:311|155:330,1,288,6|2,3:2|3:2,0:0:0:0:
103,296,17174,1,0,3:0:0:0:
187,123,17823,2,0,P|196:74|188:17,1,96,2|0,3:2|3:0,0:0:0:0:
94,27,18472,2,0,P|80:100|92:186,2,144,2|2|0,3:2|0:0|3:0,0:0:0:0:
191,28,19769,5,12,0:0:0:0:
279,65,20093,1,8,0:0:0:0:
367,102,20418,2,0,L|467:88,1,96,0|8,3:0|0:0,0:0:0:0:
476,183,21066,6,0,P|455:271|357:315,2,192,6|2|2,3:2|3:2|3:2,0:0:0:0:
462,88,22688,1,2,3:2:0:0:
367,102,23012,1,2,3:2:0:0:
178,137,23661,2,0,P|199:49|297:5,2,192,2|2|2,3:2|3:2|3:2,0:0:0:0:
111,206,25283,1,14,0:0:0:0:
156,292,25607,1,2,3:2:0:0:
251,275,25931,1,0,3:0:0:0:
264,179,26255,5,2,0:0:0:0:
388,32,26904,1,2,0:0:0:0:
474,203,27553,1,2,0:0:0:0:
350,350,28201,1,2,0:0:0:0:
158,358,28850,6,0,P|96:313|109:194,1,192,6|8,3:2|0:0,0:0:0:0:
124,113,29823,2,0,P|122:67|112:9,1,96,8|0,0:0|0:0,0:0:0:0:
398,17,31120,1,0,3:0:0:0:
334,95,31445,6,0,P|375:182|482:205,2,201.599993847656,6|2|2,3:2|3:2|3:2,0:0:0:0:
141,35,33391,1,0,3:0:0:0:
48,73,33715,1,10,0:0:0:0:
20,170,34039,2,0,P|20:282|48:380,1,201.599993847656,2|2,3:2|3:2,0:0:0:0:
135,327,35012,1,8,0:0:0:0:
235,339,35337,2,0,P|235:283|221:234,1,100.799996923828,0|8,3:0|0:0,0:0:0:0:
293,167,35985,2,0,L|417:186,1,100.799996923828,2|10,3:2|0:0,0:0:0:0:
491,201,36634,5,2,3:2:0:0:
334,323,37282,2,0,L|234:338,1,100.799996923828,2|10,3:2|0:0,0:0:0:0:
136,357,37931,1,2,3:2:0:0:
90,267,38255,2,0,P|56:222|11:192,2,100.799996923828,10|2|10,0:0|3:2|0:0,0:0:0:0:
189,250,39228,6,0,P|204:138|183:32,1,201.599993847656,2|2,3:2|3:2,0:0:0:0:
287,25,40201,2,0,P|305:71|337:110,1,100.799996923828,8|8,0:0|0:0,0:0:0:0:
427,156,40850,1,4,3:2:0:0:
504,219,41174,1,2,3:2:0:0:
467,311,41499,1,10,0:0:0:0:
369,304,41823,6,0,P|270:314|161:368,2,201.599993847656,6|2|2,3:2|3:2|3:2,0:0:0:0:
447,118,43769,1,0,3:0:0:0:
382,41,44093,1,10,0:0:0:0:
323,123,44418,2,0,P|229:120|124:91,1,201.599993847656,2|2,3:2|3:2,0:0:0:0:
35,45,45391,1,8,0:0:0:0:
7,141,45715,2,0,P|3:192|22:249,1,100.799996923828,6|10,3:2|0:0,0:0:0:0:
42,336,46364,2,0,P|93:340|150:321,1,100.799996923828,12|8,0:0|0:0,0:0:0:0:
237,301,47012,5,4,3:2:0:0:
197,110,47661,1,0,3:0:0:0:
366,18,48309,1,0,3:0:0:0:
507,148,48958,1,8,0:0:0:0:
424,322,49607,6,0,P|390:353|332:356,1,96,14|8,0:0|0:0,0:0:0:0:
278,286,50255,2,0,P|287:240|332:204,1,96,10|8,0:0|0:0,0:0:0:0:
417,227,50904,1,8,0:0:0:0:
204,32,51877,1,10,0:0:0:0:
125,86,52201,6,0,P|78:90|8:106,2,96,6|10|0,3:2|0:0|3:0,0:0:0:0:
155,181,53174,1,10,0:0:0:0:
255,182,53499,2,0,P|302:236|176:366,1,288,2|10,3:2|0:0,0:0:0:0:
91,350,54796,1,2,3:2:0:0:
16,172,55445,1,2,3:2:0:0:
56,84,55769,1,10,0:0:0:0:
138,32,56093,2,0,P|280:38|440:77,1,288,2|10,3:2|0:0,0:0:0:0:
440,165,57391,6,0,L|152:198,1,288,6|10,3:2|0:0,0:0:0:0:
171,291,58688,2,0,P|217:302|265:304,1,96,0|10,3:0|0:0,0:0:0:0:
348,352,59337,2,0,P|372:310|389:266,1,96,0|10,3:0|0:0,0:0:0:0:
460,202,59985,2,0,P|430:113|338:67,1,192,2|0,3:2|3:0,0:0:0:0:
256,97,60958,1,10,0:0:0:0:
165,67,61282,6,0,P|118:79|81:118,1,96,6|8,3:2|0:0,0:0:0:0:
55,202,61931,2,0,P|67:249|106:286,1,96,8|8,0:0|0:0,0:0:0:0:
190,312,62580,1,4,0:0:0:0:
295,322,72958,6,0,P|331:252|344:117,1,192,4|2,3:2|3:2,0:0:0:0:
313,50,73931,1,2,3:2:0:0:
217,42,74255,2,0,P|181:112|168:247,1,192,2|0,3:2|3:0,0:0:0:0:
199,314,75228,1,0,3:0:0:0:
116,363,75553,1,0,3:0:0:0:
23,90,76526,2,0,P|57:62|127:45,1,96,2|0,3:2|3:0,0:0:0:0:
189,92,77174,2,0,L|296:83,2,96,0|0|0,3:0|3:0|3:0,0:0:0:0:
194,188,78147,6,0,P|240:268|418:337,1,288,6|2,3:2|3:2,0:0:0:0:
488,274,79445,1,0,3:0:0:0:
478,82,80093,2,0,L|383:66,1,96,2|0,3:2|3:0,0:0:0:0:
292,33,80742,2,0,L|149:57,2,144,2|2|8,3:2|0:0|0:0,0:0:0:0:
306,128,82039,5,12,0:0:0:0:
395,162,82364,1,8,0:0:0:0:
405,257,82688,2,0,L|414:359,1,96,8|8,0:0|0:0,0:0:0:0:
321,360,83337,6,0,P|229:349|114:356,2,192,6|2|2,3:2|3:2|3:2,0:0:0:0:
378,283,84958,1,2,0:3:0:0:
322,204,85282,1,2,3:2:0:0:
131,226,85931,2,0,P|93:145|107:29,2,192,2|2|2,3:2|3:2|3:2,0:0:0:0:
208,169,87553,1,14,0:0:0:0:
301,190,87877,2,0,P|320:149|313:91,1,96,10|8,0:0|0:0,0:0:0:0:
252,27,88526,5,4,0:0:0:0:
62,57,89174,1,10,0:0:0:0:
92,247,89823,1,2,0:0:0:0:
282,217,90472,1,2,0:0:0:0:
366,172,90796,1,8,0:0:0:0:
446,222,91120,6,0,P|441:314|347:358,1,192,6|10,3:2|0:0,0:0:0:0:
278,311,92093,1,8,0:0:0:0:
125,355,92580,2,0,L|119:294,1,48,8|8,0:0|0:0,0:0:0:0:
113,211,93066,1,10,0:0:0:0:
27,166,93391,1,8,0:0:0:0:
86,87,93715,6,0,P|169:36|274:72,2,201.599993847656,6|2|2,3:2|3:2|3:2,0:0:0:0:
22,278,95661,1,0,3:0:0:0:
117,309,95985,1,10,0:0:0:0:
202,362,96309,2,0,P|265:329|288:200,1,201.599993847656,2|2,3:2|3:2,0:0:0:0:
190,210,97282,1,8,0:0:0:0:
132,126,97607,2,0,P|136:77|176:49,1,100.799996923828,0|8,3:0|0:0,0:0:0:0:
273,78,98255,2,0,L|375:61,1,100.799996923828,2|10,3:2|0:0,0:0:0:0:
472,45,98904,5,2,3:2:0:0:
500,244,99553,2,0,L|398:261,1,100.799996923828,2|10,3:2|0:0,0:0:0:0:
301,277,100202,1,2,3:2:0:0:
241,195,100526,2,0,P|234:142|244:85,2,100.799996923828,10|2|10,0:0|3:2|0:0,0:0:0:0:
204,289,101499,6,0,P|98:303|-16:283,1,201.599993847656,2|2,3:2|3:2,0:0:0:0:
9,188,102472,2,0,P|62:181|119:191,1,100.799996923828,8|8,0:0|0:0,0:0:0:0:
164,103,103120,1,4,3:2:0:0:
263,121,103445,2,0,L|285:19,1,100.799996923828,2|10,3:2|0:0,0:0:0:0:
381,48,104093,6,0,L|423:245,2,201.599993847656,6|2|2,3:2|3:2|3:2,0:0:0:0:
179,40,106039,1,0,3:0:0:0:
79,56,106364,1,10,0:0:0:0:
39,148,106688,2,0,P|23:242|80:339,1,201.599993847656,2|2,3:2|3:2,0:0:0:0:
162,288,107661,1,8,0:0:0:0:
237,355,107985,2,0,L|354:363,1,100.799996923828,6|10,3:2|0:0,0:0:0:0:
368,265,108634,2,0,L|485:273,1,100.799996923828,12|8,0:0|0:0,0:0:0:0:
499,175,109282,5,4,3:2:0:0:
370,31,109931,1,0,3:0:0:0:
193,109,110580,1,0,3:0:0:0:
212,301,111228,1,8,0:0:0:0:
401,342,111877,6,0,P|368:308|349:252,1,96,14|8,0:0|0:0,0:0:0:0:
413,190,112526,2,0,P|459:198|507:232,1,96,10|8,0:0|0:0,0:0:0:0:
497,319,113174,1,8,0:0:0:0:
497,319,114472,5,4,3:2:0:0:
434,251,123553,6,0,L|442:103,2,144,0|0|0,3:0|3:0|3:0,0:0:0:0:
410,344,124850,6,0,P|310:341|213:374,1,192,6|12,3:2|0:0,0:0:0:0:
94,225,126147,2,0,P|146:140|165:39,1,192,4|12,3:2|0:0,0:0:0:0:
355,10,127445,2,0,P|402:97|480:164,1,192,6|12,3:2|0:0,0:0:0:0:
307,261,128742,2,0,P|271:195|213:144,2,144,10|10|0,0:0|0:0|3:0,0:0:0:0:
260,345,130039,6,0,L|62:333,1,192,6|2,3:2|3:2,0:0:0:0:
23,248,131012,1,8,0:0:0:0:
80,171,131337,2,0,L|86:72,1,96,0|8,3:0|0:0,0:0:0:0:
181,83,131985,2,0,L|175:182,1,96,2|8,0:0|0:0,0:0:0:0:
233,254,132634,6,0,P|304:271|328:344,1,144,6|6,3:2|3:2,0:0:0:0:
460,241,133607,2,0,P|439:171|490:113,2,144,12|4|8,0:0|3:2|0:0,0:0:0:0:
472,336,134904,1,8,0:0:0:0:
377,348,135228,6,0,P|239:358|85:292,1,288,6|8,3:2|0:0,0:0:0:0:
43,227,136526,1,2,3:2:0:0:
96,148,136850,1,10,0:0:0:0:
189,128,137174,2,0,P|205:81|205:25,1,96,2|10,3:2|0:0,0:0:0:0:
305,35,137823,6,0,P|307:106|331:174,1,144,2|2,3:2|0:0,0:0:0:0:
361,330,138796,2,0,P|289:332|221:356,2,144,10|2|2,0:0|3:2|0:0,0:0:0:0:
448,370,140093,1,10,0:0:0:0:
482,280,140418,6,0,P|505:212|508:140,1,144,6|2,3:2|0:0,0:0:0:0:
388,36,141391,1,8,0:0:0:0:
301,77,141715,2,0,P|277:144|274:216,2,144,2|2|10,3:2|0:0|0:0,0:0:0:0:
219,25,143012,6,0,L|73:38,1,144,2|2,3:2|3:2,0:0:0:0:
40,192,143985,2,0,L|186:179,1,144,10|2,0:0|3:2,0:0:0:0:
328,243,144958,1,2,0:0:0:0:
337,339,145282,1,10,0:0:0:0:
248,377,145607,6,0,P|156:355|92:284,1,192,6|2,3:2|0:0,0:0:0:0:
73,190,146580,1,10,0:0:0:0:
130,113,146904,2,0,P|222:135|286:206,1,192,0|2,3:0|0:0,0:0:0:0:
305,300,147877,1,10,0:0:0:0:
400,295,148201,6,0,P|423:236|426:146,2,144,2|2|10,0:0|3:2|0:0,0:0:0:0:
305,300,149499,2,0,P|242:309|162:351,1,144,10|10,0:0|0:0,0:0:0:0:
28,275,150472,1,10,0:0:0:0:
14,180,150796,6,0,P|49:89|137:67,1,192,6|0,3:2|3:0,0:0:0:0:
207,128,151769,1,10,0:0:0:0:
305,128,152093,1,0,3:0:0:0:
378,66,152418,1,10,0:0:0:0:
440,139,152742,2,0,P|485:156|496:200,1,96,0|10,3:0|0:0,0:0:0:0:
439,276,153391,6,0,P|369:288|309:249,1,144,14|10,0:0|0:0,0:0:0:0:
201,133,154364,2,0,P|142:95|73:108,1,144,10|8,0:0|0:0,0:0:0:0:
19,257,155337,1,14,0:0:0:0:
46,348,155661,1,8,0:0:0:0:
141,341,155985,6,0,L|196:333,1,48,6|8,3:2|0:0,0:0:0:0:
475,361,157120,2,0,L|469:260,1,96,10|10,0:0|0:0,0:0:0:0:
187,25,158580,6,0,L|129:35,1,48,10|0,3:2|3:0,0:0:0:0:
12,291,159715,2,0,L|118:307,1,96,10|10,0:0|0:0,0:0:0:0:
238,217,160526,1,8,0:0:0:0:
331,200,160850,1,8,0:0:0:0:
335,295,161174,6,0,P|426:309|507:261,2,192,6|10|2,3:2|0:0|3:2,0:0:0:0:
149,344,163120,2,0,P|129:300|141:255,1,96,10|8,0:0|0:0,0:0:0:0:
203,181,163769,6,0,P|285:136|318:48,1,192,6|10,3:2|0:0,0:0:0:0:
223,38,164742,2,0,P|178:54|156:95,1,96,8|0,0:0|0:0,0:0:0:0:
155,96,166364,5,6,3:2:0:0:
74,294,176742,6,0,P|42:213|47:102,2,192,6|2|2,3:2|3:2|3:2,0:0:0:0:
255,357,178688,1,0,3:0:0:0:
342,318,179012,1,2,3:2:0:0:
331,222,179337,2,0,P|409:168|421:68,1,192,2|2,3:2|3:2,0:0:0:0:
238,26,180634,2,0,P|179:66|170:141,1,144,2|2,3:2|0:0,0:0:0:0:
172,230,181445,1,2,0:0:0:0:
244,370,181931,5,6,3:2:0:0:
53,348,182580,1,2,3:2:0:0:
75,157,183228,1,2,3:2:0:0:
266,178,183877,2,0,P|314:183|364:162,1,96,2|0,3:2|3:0,0:0:0:0:
393,77,184526,6,0,P|297:67|197:109,1,192,2|8,3:2|0:0,0:0:0:0:
159,182,185499,1,8,0:0:0:0:
76,230,185823,2,0,P|32:210|2:173,2,96,8|8|10,0:0|0:0|0:0,0:0:0:0:
250,330,187120,6,0,P|333:358|458:344,2,201.599993847656,6|2|2,3:2|3:2|3:2,0:0:0:0:
199,134,189066,1,0,3:0:0:0:
263,56,189391,1,10,0:0:0:0:
361,33,189715,2,0,P|456:65|501:163,1,201.599993847656,2|2,3:2|3:2,0:0:0:0:
465,245,190688,1,8,0:0:0:0:
392,314,191012,2,0,L|288:281,1,100.799996923828,0|8,3:0|0:0,0:0:0:0:
208,233,191661,2,0,L|127:306,1,100.799996923828,2|10,3:2|0:0,0:0:0:0:
53,362,192309,5,2,3:2:0:0:
15,163,192958,2,0,L|95:89,1,100.799996923828,2|10,3:2|0:0,0:0:0:0:
170,34,193606,1,2,3:2:0:0:
264,69,193931,2,0,P|314:75|369:55,2,100.799996923828,10|2|10,0:0|3:2|0:0,0:0:0:0:
223,161,194904,6,0,P|302:223|351:329,1,201.599993847656,2|2,3:2|3:2,0:0:0:0:
448,309,195877,2,0,P|445:259|464:212,1,100.799996923828,8|8,0:0|0:0,0:0:0:0:
504,120,196526,1,4,3:2:0:0:
435,45,196850,2,0,L|326:30,1,100.799996923828,2|10,3:2|0:0,0:0:0:0:
235,49,197499,6,0,L|35:76,2,201.599993847656,6|2|2,3:2|3:2|3:2,0:0:0:0:
355,210,199445,1,0,3:0:0:0:
304,297,199769,1,10,0:0:0:0:
221,355,200093,2,0,P|168:310|157:181,1,201.599993847656,2|2,3:2|3:2,0:0:0:0:
226,113,201066,1,8,0:0:0:0:
172,27,201391,2,0,P|121:29|60:56,1,100.799996923828,6|10,3:2|0:0,0:0:0:0:
12,125,202039,2,0,P|14:176|41:237,1,100.799996923828,12|8,0:0|0:0,0:0:0:0:
109,277,202688,5,4,3:2:0:0:
284,358,203337,1,0,3:0:0:0:
414,218,203985,1,0,3:0:0:0:
321,50,204634,1,8,0:0:0:0:
132,86,205282,6,0,P|80:104|44:131,1,96,14|8,0:0|0:0,0:0:0:0:
50,224,205931,2,0,P|102:240|147:239,1,96,10|8,0:0|0:0,0:0:0:0:
196,159,206580,1,8,0:0:0:0:
402,360,207553,1,10,0:0:0:0:
435,270,207877,6,0,P|455:224|490:185,2,96,6|8|2,3:2|0:0|3:2,0:0:0:0:
349,226,208850,1,10,0:0:0:0:
257,255,209174,2,0,P|200:123|108:13,1,288,2|10,3:2|0:0,0:0:0:0:
32,72,210472,1,2,3:2:0:0:
144,224,211120,1,2,3:2:0:0:
59,269,211445,1,10,0:0:0:0:
104,353,211769,2,0,P|244:365|350:257,1,288,2|10,3:2|0:0,0:0:0:0:
363,175,213066,6,0,P|215:185|71:205,1,288,6|10,3:2|0:0,0:0:0:0:
91,106,214364,2,0,P|124:74|171:78,1,96,2|10,3:2|0:0,0:0:0:0:
248,21,215012,2,0,P|294:22|324:58,1,96,0|10,3:0|0:0,0:0:0:0:
416,29,215661,2,0,P|420:61|399:227,1,192,2|0,3:2|3:0,0:0:0:0:
313,264,216634,2,0,L|329:373,1,96,10|0,0:0|3:0,0:0:0:0:
422,365,217282,5,2,3:2:0:0:
484,291,217607,1,8,0:0:0:0:
471,195,217931,2,0,L|455:86,1,96,8|10,0:0|0:0,0:0:0:0:
389,32,218580,5,6,3:2:0:0:
317,95,218904,2,0,P|271:110|221:90,1,96,8|10,0:0|0:0,0:0:0:0:
148,39,219553,2,0,P|61:82|30:269,1,288,2|10,3:2|0:0,0:0:0:0:
58,346,220850,1,2,3:2:0:0:
232,264,221499,1,2,3:2:0:0:
287,342,221823,2,0,P|335:345|388:330,1,96,10|2,0:0|3:2,0:0:0:0:
405,240,222472,1,12,0:0:0:0:
483,185,222796,2,0,P|486:137|471:84,1,96,10|10,0:0|0:0,0:0:0:0:
402,27,223445,6,0,P|331:27|245:201,1,288,6|10,3:2|0:0,0:0:0:0:
258,293,224742,1,0,3:0:0:0:
181,351,225066,2,0,L|79:334,1,96,14|0,0:0|3:0,0:0:0:0:
37,252,225715,1,14,0:0:0:0:
114,194,226039,1,6,3:2:0:0:
290,118,226688,2,0,P|299:73|298:21,2,96,0|10|10,3:0|0:0|0:0,0:0:0:0:
251,206,227661,5,10,0:0:0:0:
342,236,227985,1,10,0:0:0:0:
342,332,228309,1,10,0:0:0:0:
251,361,228634,1,10,0:0:0:0:
194,284,228958,1,6,3:2:0:0:
256,192,229282,12,0,233823,0:0:0:0:
