osu file format v14

[General]
AudioFilename: Hoshizora no Ima.mp3
AudioLeadIn: 0
PreviewTime: 67411
Countdown: 0
SampleSet: Normal
StackLeniency: 0.7
Mode: 0
LetterboxInBreaks: 1
WidescreenStoryboard: 1

[Editor]
Bookmarks: 25912,56156,78047
DistanceSpacing: 1
BeatDivisor: 4
GridSize: 4
TimelineZoom: 1.7

[Metadata]
Title:Hoshizora no Ima
TitleUnicode:星空のいま
Artist:Sagara Kokoro
ArtistUnicode:相良心
Creator:A r c a
Version:Insane
Source:Hoshizora e Kakaru Hashi AA
Tags:sagara kokoro feng
BeatmapID:1297868
BeatmapSetID:171771

[Difficulty]
HPDrainRate:7
CircleSize:4
OverallDifficulty:7
ApproachRate:9
SliderMultiplier:1.60000000596046
SliderTickRate:1

[Events]
//Background and Video events
0,0,"ss (2013-10-23 at 02.52.11).jpg",0,0
//Break Periods
//Storyboard Layer 0 (Background)
//Storyboard Layer 1 (Fail)
//Storyboard Layer 2 (Pass)
//Storyboard Layer 3 (Foreground)
//Storyboard Sound Samples

[TimingPoints]
5075,324.324324324324,4,2,0,50,1,0
5075,-133.333333333333,4,2,0,30,0,0
15452,-166.666666666667,4,2,0,40,0,0
15776,-133.333333333333,4,2,0,40,0,0
15939,-133.333333333333,4,2,0,40,0,0
16101,-100,4,2,0,50,0,0
36858,-133.333333333333,4,2,2,30,0,0
46750,-133.333333333333,4,1,2,30,0,0
47237,-117.647058823529,4,1,2,30,0,0
62804,-200,4,1,2,30,0,0
64750,-117.647058823529,4,1,2,85,0,0
67345,-100,4,1,2,30,0,0
67993,-100,4,1,2,85,0,1
87696,-200,4,1,0,30,0,1
88588,-100,4,2,0,50,0,0
99534,-100,4,2,0,40,0,0
100426,-100,4,2,0,30,0,0
101399,-100,4,2,0,20,0,0
102372,-100,4,2,0,10,0,0
103345,-80,4,2,0,5,0,0

[Colours]
Combo1 : 221,166,167
Combo2 : 207,201,254
Combo3 : 214,253,187
Combo4 : 237,232,194

[HitObjects]
120,72,5074,5,2,0:0:0:0:
124,96,5398,1,2,0:0:0:0:
128,120,5723,2,0,L|152:244,1,120.000005024671,2|0,0:0|0:0,0:0:0:0:
68,204,6210,1,2,0:0:0:0:
216,156,6372,2,0,P|232:96|216:40,1,120.000005024671,2|0,0:0|0:0,0:0:0:0:
76,96,6858,2,0,L|148:96,1,60.0000025123357,0|2,0:0|0:0,0:0:0:0:
420,60,7507,5,0,0:0:0:0:
352,144,7668,2,2,P|364:180|384:208,1,60.0000025123357
484,220,7993,2,2,P|472:256|452:284,1,60.0000025123357
360,308,8318,2,0,P|292:296|240:296,1,120.000005024671
404,276,8804,1,0,0:0:0:0:
256,340,8966,5,2,0:0:0:0:
68,192,9290,1,0,0:0:0:0:
256,44,9614,1,2,0:0:0:0:
444,192,9939,1,2,0:0:0:0:
444,192,10264,6,0,L|316:192,1,120.000005024671,2|0,0:0|0:0,0:0:0:0:
324,192,10750,1,0,0:0:0:0:
268,280,10912,1,2,0:0:0:0:
440,276,11237,1,0,0:0:0:0:
184,332,11561,6,0,L|56:332,1,120.000005024671
64,332,12047,1,0,0:0:0:0:
8,244,12210,1,2,0:0:0:0:
180,248,12534,1,0,0:0:0:0:
96,192,12696,1,0,0:0:0:0:
180,248,12858,6,0,L|180:184,1,60.0000025123357
332,136,13182,2,0,L|332:200,1,60.0000025123357
279,64,13507,6,0,P|334:44|388:68,1,120.000005024671,2|0,0:0|0:0,0:0:0:0:
416,168,13993,1,0,0:0:0:0:
416,168,14156,2,0,P|361:188|307:164,1,120.000005024671,2|0,0:0|0:0,0:0:0:0:
208,132,14642,1,0,0:0:0:0:
420,204,14804,5,2,0:0:0:0:
420,204,15129,1,2,0:0:0:0:
280,272,15453,6,0,P|232:276|184:272,1,95.9999974279402,2|0,0:0|0:0,0:0:0:0:
100,308,15939,1,2,0:0:0:0:
100,308,16020,1,2,0:0:0:0:
100,308,16102,2,0,P|92:268|108:216,1,80.000000298023,2|0,0:0|0:0,0:0:0:0:
228,164,16426,2,0,P|236:204|220:256,1,80.000000298023,2|0,0:0|0:0,0:0:0:0:
122,64,16750,2,0,L|220:72,1,80.000000298023
307,156,17074,2,0,L|228:164,1,80.000000298023
404,28,17399,2,0,L|404:108,1,80.000000298023,2|0,0:0|0:0,0:0:0:0:
228,164,17723,5,2,0:0:0:0:
384,164,17885,1,0,0:0:0:0:
264,96,18047,1,2,0:0:0:0:
344,228,18209,1,0,0:0:0:0:
344,96,18371,1,2,0:0:0:0:
264,228,18533,1,0,0:0:0:0:
428,304,18696,2,0,P|372:360|300:336,1,160.000000596046,2|0,0:0|0:0,0:0:0:0:
248,192,19182,1,0,0:0:0:0:
144,288,19345,6,0,L|128:368,1,80.000000298023
160,188,19669,1,0,0:0:0:0:
232,348,19831,1,0,0:0:0:0:
40,312,19993,2,0,P|44:232|112:188,1,160.000000596046,2|0,0:0|0:0,0:0:0:0:
220,88,20480,5,2,0:0:0:0:
220,88,20560,1,0,0:0:0:0:
220,88,20641,1,0,0:0:0:0:
364,200,20803,1,2,0:0:0:0:
364,200,20884,1,0,0:0:0:0:
364,200,20966,2,0,L|276:220,1,80.000000298023
135,290,21291,6,0,P|155:324|187:347,1,80.000000298023,2|0,0:0|0:0,0:0:0:0:
376,290,21615,2,0,P|356:324|324:348,1,80.000000298023,2|0,0:0|0:0,0:0:0:0:
135,289,21939,2,0,P|155:255|188:232,1,80.000000298023,2|0,0:0|0:0,0:0:0:0:
375,288,22264,2,0,P|355:254|323:231,1,80.000000298023,2|0,0:0|0:0,0:0:0:0:
120,215,22588,6,0,P|155:199|195:198,1,80.000000298023,2|0,0:0|0:0,0:0:0:0:
391,215,22912,2,0,P|355:199|316:198,1,80.000000298023,2|0,0:0|0:0,0:0:0:0:
164,171,23237,2,8,P|153:134|156:94,1,80.000000298023,2|0,0:0|0:0,0:0:0:0:
356,96,23561,2,8,P|357:135|345:173,1,80.000000298023,10|8,0:0|0:0,0:0:0:0:
156,96,23885,5,8,0:0:0:0:
356,96,24047,1,10,0:0:0:0:
256,160,24210,1,10,0:0:0:0:
256,16,24371,1,8,0:0:0:0:
387,234,24534,1,8,0:0:0:0:
124,234,24696,1,10,0:0:0:0:
337,80,24858,1,12,0:0:0:0:
256,330,25021,1,8,0:0:0:0:
174,80,25183,1,10,0:0:0:0:
337,80,25669,5,0,0:0:0:0:
337,80,25831,2,0,P|360:164|336:240,1,160.000000596046
340,232,26318,1,0,0:0:0:0:
148,152,26480,6,0,P|125:236|149:312,1,160.000000596046,2|0,0:0|0:0,0:0:0:0:
340,232,26966,1,0,0:0:0:0:
248,312,27129,2,0,P|284:324|340:324,1,80.000000298023
325,133,27453,2,0,P|285:135|248:148,1,80.000000298023
412,208,27777,2,0,P|448:136|404:60,1,160.000000596046,2|0,0:0|0:0,0:0:0:0:
325,133,28264,5,0,0:0:0:0:
340,232,28426,2,0,L|436:240,2,80.000000298023
325,133,28912,1,0,0:0:0:0:
148,120,29074,6,0,P|220:72|296:128,1,160.000000596046
340,180,29561,1,0,0:0:0:0:
416,131,29723,2,0,P|424:84|432:48,1,80.000000298023
252,202,30047,2,0,P|244:249|236:285,1,80.000000298023
416,252,30372,2,0,P|379:221|352:196,2,80.000000298023
252,320,30858,1,0,0:0:0:0:
140,260,31020,2,0,P|128:216|136:172,1,80.000000298023
236,88,31345,1,0,0:0:0:0:
372,124,31507,5,0,0:0:0:0:
372,124,31588,1,0,0:0:0:0:
372,124,31669,2,0,P|396:198|372:273,1,160.000000596046,2|0,0:0|0:0,0:0:0:0:
252,320,32156,1,0,0:0:0:0:
244,224,32318,2,2,L|263:146,1,80.000000298023,2|0,0:0|0:0,0:0:0:0:
140,260,32642,2,2,L|159:182,1,80.000000298023,2|0,0:0|0:0,0:0:0:0:
352,212,32966,2,0,P|360:252|352:296,2,80.000000298023
244,224,33453,1,0,0:0:0:0:
140,276,33615,2,0,P|164:308|196:332,1,80.000000298023,2|0,0:0|0:0,0:0:0:0:
272,240,33939,2,0,P|248:208|216:184,1,80.000000298023,2|0,0:0|0:0,0:0:0:0:
60,128,34264,6,0,P|84:56|152:8,1,160.000000596046,2|0,0:0|0:0,0:0:0:0:
328,100,34750,1,0,0:0:0:0:
328,100,34831,1,0,0:0:0:0:
328,100,34912,2,0,P|340:144|336:188,1,80.000000298023
184,284,35237,2,0,P|172:240|176:196,1,80.000000298023
324,284,35561,5,2,0:0:0:0:
252,67,35723,1,2,0:0:0:0:
182,284,35885,1,2,0:0:0:0:
367,149,36047,1,2,0:0:0:0:
139,150,36210,1,2,0:0:0:0:
324,284,36372,5,0,0:0:0:0:
324,284,36453,1,0,0:0:0:0:
324,284,36534,1,0,0:0:0:0:
324,284,36615,1,0,0:0:0:0:
324,284,36696,1,0,0:0:0:0:
324,284,36777,1,0,0:0:0:0:
324,284,36858,2,0,P|264:304|208:280,1,120.000005024671,4|0,0:0|0:0,0:0:0:0:
152,196,37345,5,0,0:0:0:0:
268,192,37507,2,0,P|248:128|204:96,1,120.000005024671
80,100,37993,1,0,0:0:0:0:
80,100,38156,2,0,L|216:80,1,120.000005024671
284,28,38642,1,0,0:0:0:0:
284,28,38804,2,0,P|304:80|276:152,2,120.000005024671
184,96,39777,1,0,0:0:0:0:
116,196,40102,1,0,0:0:0:0:
56,300,40426,6,0,B|46:331|56:362|56:362,1,60.0000025123357
148,313,40750,2,0,B|163:342|192:356|192:356,1,60.0000025123357
223,257,41074,2,0,B|253:267|285:257|285:257,1,60.0000025123357
427,234,41399,1,0,0:0:0:0:
427,234,41561,1,0,0:0:0:0:
331,234,41723,2,0,L|332:168,1,60.0000025123357
420,128,42047,6,0,P|380:80|316:80,1,120.000005024671,4|0,0:0|0:0,0:0:0:0:
254,145,42534,1,0,0:0:0:0:
116,84,42696,2,0,P|140:140|164:212,1,120.000005024671
254,145,43183,1,0,0:0:0:0:
253,145,43345,2,0,P|260:112|268:88,1,60.0000025123357
372,228,43669,2,0,P|381:199|387:170,1,60.0000025123357
252,268,43993,6,0,P|216:320|144:312,1,120.000005024671
68,268,44480,1,0,0:0:0:0:
68,164,44642,2,0,P|131:169|160:235,1,120.000005024671,0|0,0:3|0:3,0:3:0:0:
252,268,45129,1,0,0:0:0:0:
252,268,45291,6,0,L|200:320,1,60.0000025123357
260,168,45615,2,0,L|312:116,1,60.0000025123357
404,216,45939,1,0,0:0:0:0:
456,308,46102,1,0,0:0:0:0:
364,364,46264,2,0,L|288:348,2,60.0000025123357
456,308,46750,2,0,L|324:280,1,120.000005024671
243,363,47237,5,0,0:0:0:0:
243,363,47399,1,0,0:0:0:0:
124,336,47561,1,0,0:0:0:0:
124,336,47723,1,0,0:0:0:0:
40,248,47885,2,0,P|32:212|36:168,1,68.0000015503166
158,141,48210,2,0,P|159:174|152:208,1,68.0000015503166
256,108,48534,5,0,0:0:0:0:
80,108,48696,1,0,0:0:0:0:
244,196,48858,1,0,0:0:0:0:
160,40,49020,1,0,0:0:0:0:
244,196,49183,1,0,0:0:0:0:
272,20,49345,1,0,0:0:0:0:
244,196,49507,2,0,L|328:216,1,68.0000015503166,0|8,0:0|0:0,0:0:0:0:
420,72,49831,5,8,0:0:0:0:
464,164,49993,1,0,0:0:0:0:
488,264,50156,2,0,P|488:300|476:344,1,68.0000015503166,8|0,0:0|0:0,0:0:0:0:
464,164,50480,1,8,0:0:0:0:
400,244,50642,1,0,0:0:0:0:
320,308,50804,2,0,P|291:329|248:346,1,68.0000015503166,0|0,0:0|0:0,0:0:0:0:
132,348,51129,5,8,0:0:0:0:
56,196,51291,1,0,0:0:0:0:
160,272,51453,1,0,0:0:0:0:
84,120,51615,1,8,0:0:0:0:
60,288,51777,1,8,0:0:0:0:
180,168,51939,1,8,0:0:0:0:
232,332,52102,1,8,0:0:0:0:
180,168,52264,5,0,0:0:0:0:
180,168,52345,1,0,0:0:0:0:
180,167,52426,2,0,B|216:176|247:160|280:152|314:167,1,136.000003100633,0|0,0:0|0:0,0:0:0:0:
216,92,52912,1,0,0:0:0:0:
276,236,53074,2,0,P|312:248|360:240,1,68.0000015503166,0|0,0:0|0:0,0:0:0:0:
364,96,53399,2,0,P|328:84|280:92,1,68.0000015503166,8|0,0:0|0:0,0:0:0:0:
136,96,53723,5,0,0:0:0:0:
298,85,53885,1,0,0:0:0:0:
160,172,54047,1,0,0:0:0:0:
240,28,54210,1,0,0:0:0:0:
336,160,54372,6,0,L|408:152,1,68.0000015503166
280,260,54696,2,0,L|352:252,1,68.0000015503166,0|8,0:0|0:0,0:0:0:0:
184,240,55020,2,0,P|196:308|181:372,1,136.000003100633
180,372,55507,1,0,0:0:0:0:
92,212,55669,2,0,P|79:145|94:79,1,136.000003100633
231,64,56156,5,8,0:0:0:0:
231,64,56237,1,8,0:0:0:0:
231,64,56318,1,8,0:0:0:0:
332,184,56480,1,0,0:0:0:0:
300,32,56642,2,0,L|372:32,1,68.0000015503166
231,64,56966,1,8,0:0:0:0:
368,64,57129,1,8,0:0:0:0:
231,64,57291,1,8,0:0:0:0:
400,140,57453,1,8,0:0:0:0:
264,140,57615,6,0,B|236:184|264:232|264:232|244:280,1,136.000003100633
332,184,58102,1,0,0:0:0:0:
176,232,58264,2,0,P|168:264|176:304,1,68.0000015503166
148,152,58588,2,0,P|119:168|97:202,1,68.0000015503166
104,332,58912,2,0,P|176:344|252:328,1,136.000003100633
237,333,59399,1,0,0:0:0:0:
372,360,59561,2,0,P|408:368|452:356,1,68.0000015503166
508,244,59885,2,0,P|472:236|428:248,1,68.0000015503166
312,288,60210,6,0,P|296:216|316:144,1,136.000003100633
388,220,60696,1,0,0:0:0:0:
424,123,60858,2,0,P|405:61|342:41,1,136.000003100633
240,88,61345,1,0,0:0:0:0:
240,88,61507,2,0,L|240:168,1,68.0000015503166
152,42,61831,2,0,L|152:122,1,68.0000015503166
64,56,62156,5,8,0:0:0:0:
4,140,62318,1,8,0:0:0:0:
88,196,62480,1,8,0:0:0:0:
152,116,62642,1,8,0:0:0:0:
152,116,62804,6,0,P|192:112|248:120,1,80.000000298023
360,268,63453,2,0,P|320:272|264:264,1,80.000000298023
164,236,64102,1,0,0:0:0:0:
348,148,64426,1,0,0:0:0:0:
148,104,64750,5,0,0:0:0:0:
364,280,65074,1,0,0:0:0:0:
364,280,65156,1,0,0:0:0:0:
364,280,65237,1,0,0:0:0:0:
364,280,65318,1,0,0:0:0:0:
364,280,65399,2,0,P|368:216|348:148,1,136.000003100633
240,64,65885,1,0,0:0:0:0:
104,44,66047,2,0,P|88:76|76:112,1,68.0000015503166
77,106,66291,5,0,0:0:0:0:
77,106,66372,1,0,0:0:0:0:
77,106,66453,1,0,0:0:0:0:
77,106,66534,1,0,0:0:0:0:
77,106,66615,1,0,0:0:0:0:
77,106,66696,1,0,0:0:0:0:
124,212,66858,5,2,0:0:0:0:
374,253,67020,1,2,0:0:0:0:
196,72,67183,1,2,0:0:0:0:
234,323,67345,1,2,0:0:0:0:
351,98,67507,1,2,0:0:0:0:
244,180,67669,6,0,P|236:220|248:268,1,80.000000298023
356,332,67993,2,0,P|372:252|348:172,1,160.000000596046,2|0,0:0|0:0,0:0:0:0:
268,92,68480,1,0,0:0:0:0:
156,52,68642,2,0,P|140:132|164:212,1,160.000000596046,2|0,0:0|0:0,0:0:0:0:
252,284,69129,1,0,0:0:0:0:
252,284,69291,2,0,P|268:204|244:124,1,160.000000596046,2|0,0:0|0:0,0:0:0:0:
128,132,69777,5,0,0:0:0:0:
36,208,69939,2,0,P|72:232|116:236,1,80.000000298023,2|0,0:0|0:0,0:0:0:0:
108,32,70264,2,0,P|68:38|36:60,1,80.000000298023,2|0,0:0|0:0,0:0:0:0:
128,132,70588,2,0,B|184:128|216:68|216:68|276:72,1,160.000000596046,2|0,0:0|0:0,0:0:0:0:
380,72,71074,1,0,0:0:0:0:
460,160,71237,6,0,P|444:196|404:232,1,80.000000298023
300,188,71561,2,0,P|292:232|308:280,1,80.000000298023
328,296,71804,1,0,0:0:0:0:
328,296,71885,1,0,0:0:0:0:
436,348,72047,1,0,0:0:0:0:
328,380,72210,1,0,0:0:0:0:
212,348,72372,5,0,0:0:0:0:
96,296,72534,1,2,0:0:0:0:
212,348,72696,1,0,0:0:0:0:
96,296,72858,2,0,P|88:252|104:204,1,80.000000298023,2|0,0:0|0:0,0:0:0:0:
211,114,73183,2,0,P|224:193|212:272,1,160.000000596046,2|0,0:0|0:0,0:0:0:0:
119,105,73669,6,0,P|116:66|128:28,1,80.000000298023,0|2,0:0|0:0,0:0:0:0:
288,28,73993,1,0,0:0:0:0:
211,114,74156,1,2,0:0:0:0:
128,28,74318,1,0,0:0:0:0:
288,28,74480,2,0,P|300:88|292:156,1,120.000000447034,2|0,0:0|0:0,0:0:0:0:
294,146,74804,1,0,0:0:0:0:
211,114,74966,1,2,0:0:0:0:
376,116,75129,1,2,0:0:0:0:
444,260,75291,1,2,0:0:0:0:
244,320,75453,1,2,0:0:0:0:
244,320,75777,6,0,P|156:336|80:336,1,160.000000596046,2|0,0:0|0:0,0:0:0:0:
4,236,76264,1,0,0:0:0:0:
124,196,76426,2,0,P|132:236|120:280,1,80.000000298023
48,168,76750,5,0,0:0:0:0:
92,320,76912,1,0,0:0:0:0:
92,320,76993,1,0,0:0:0:0:
92,320,77074,1,0,0:0:0:0:
252,348,77237,1,0,0:0:0:0:
252,348,77399,2,0,P|244:308|252:264,1,80.000000298023,2|0,0:0|0:0,0:0:0:0:
408,304,77723,2,0,P|400:264|408:220,1,80.000000298023
408,64,78047,5,0,0:0:0:0:
388,56,78129,1,0,0:0:0:0:
368,52,78210,1,0,0:0:0:0:
348,48,78291,1,0,0:0:0:0:
328,48,78372,2,0,P|280:48|240:56,1,80.000000298023,2|0,0:0|0:0,0:0:0:0:
144,68,78696,2,0,P|168:109|194:140,1,80.000000298023,2|0,0:0|0:0,0:0:0:0:
268,200,79020,2,0,P|292:158|305:119,2,80.000000298023,2|0|0,0:0|0:0|0:0,0:0:0:0:
168,168,79507,1,0,0:0:0:0:
168,168,79669,2,0,P|152:252|172:332,1,160.000000596046,2|0,0:0|0:0,0:0:0:0:
304,376,80156,5,0,0:0:0:0:
436,324,80318,1,2,0:0:0:0:
328,232,80480,1,0,0:0:0:0:
380,376,80642,1,2,0:0:0:0:
444,236,80804,1,0,0:0:0:0:
420,84,80966,2,0,P|340:44|256:40,1,160.000000596046,2|0,0:0|0:0,0:0:0:0:
152,32,81453,1,0,0:0:0:0:
40,80,81615,1,2,0:0:0:0:
140,148,81777,2,0,P|180:156|232:140,1,80.000000298023
292,52,82102,5,0,0:0:0:0:
292,52,82183,1,0,0:0:0:0:
292,52,82264,2,0,P|328:128|328:216,1,160.000000596046,2|0,0:0|0:0,0:0:0:0:
312,320,82750,1,0,0:0:0:0:
80,380,83074,5,8,0:0:0:0:
72,364,83156,1,8,0:0:0:0:
64,348,83237,1,8,0:0:0:0:
60,332,83318,1,8,0:0:0:0:
56,316,83399,1,8,0:0:0:0:
52,300,83480,1,8,0:0:0:0:
52,284,83561,2,0,P|44:240|48:204,1,80.000000298023,8|0,0:0|0:0,0:0:0:0:
128,120,83885,6,0,P|140:164|144:200,1,80.000000298023,8|0,0:0|0:0,0:0:0:0:
200,284,84210,2,0,P|240:280|296:256,1,80.000000298023,8|0,0:0|0:0,0:0:0:0:
285,69,84534,2,0,P|247:55|208:52,1,80.000000298023,8|0,0:0|0:0,0:0:0:0:
384,120,84858,6,0,P|404:80|400:40,1,80.000000298023,8|0,0:0|0:0,0:0:0:0:
384,264,85183,2,0,P|404:304|400:344,1,80.000000298023,8|0,0:0|0:0,0:0:0:0:
280,300,85507,5,8,0:0:0:0:
160,248,85669,1,8,0:0:0:0:
300,90,85831,1,8,0:0:0:0:
366,202,85993,1,8,0:0:0:0:
173,118,86156,1,8,0:0:0:0:
208,304,86318,5,8,0:0:0:0:
183,94,86480,1,8,0:0:0:0:
376,177,86642,1,8,0:0:0:0:
135,206,86804,1,8,0:0:0:0:
304,80,86966,1,8,0:0:0:0:
328,289,87129,1,8,0:0:0:0:
135,206,87291,1,8,0:0:0:0:
376,177,87453,1,8,0:0:0:0:
376,177,87939,5,0,0:0:0:0:
376,177,88102,2,0,L|376:272,1,80.000000298023
376,264,88507,1,0,0:0:0:0:
372,276,88588,1,0,0:0:0:0:
368,288,88669,1,0,0:0:0:0:
364,300,88750,2,0,P|308:344|220:344,1,160.000000596046,2|0,0:0|0:0,0:0:0:0:
108,300,89237,5,0,0:0:0:0:
108,300,89399,2,0,P|100:348|108:388,1,80.000000298023,2|0,0:0|0:0,0:0:0:0:
218,344,89723,2,0,P|224:304|216:252,1,80.000000298023,2|0,0:0|0:0,0:0:0:0:
128,35,90047,2,0,P|111:113|124:192,1,160.000000596046,2|0,0:0|0:0,0:0:0:0:
216,116,90534,1,0,0:0:0:0:
228,220,90696,2,0,P|276:204|304:176,1,80.000000298023,2|0,0:0|0:0,0:0:0:0:
228,12,91020,2,0,P|276:28|304:56,1,80.000000298023,2|0,0:0|0:0,0:0:0:0:
408,0,91345,6,0,P|432:76|416:152,1,160.000000596046,2|0,0:0|0:0,0:0:0:0:
344,252,91831,1,0,0:0:0:0:
252,332,91993,2,0,P|228:256|244:180,1,160.000000596046,2|0,0:0|0:0,0:0:0:0:
244,179,92480,1,0,0:0:0:0:
360,148,92642,6,0,P|340:108|304:80,1,80.000000298023,2|0,0:0|0:0,0:0:0:0:
128,148,92966,2,0,P|144:112|184:80,1,80.000000298023,2|0,0:0|0:0,0:0:0:0:
244,179,93291,2,0,P|192:248|160:272,1,120.000000447034,2|0,0:0|0:0,0:0:0:0:
136,300,93615,2,0,P|160:328|216:344,1,80.000000298023,2|0,0:0|0:0,0:0:0:0:
199,343,93858,1,0,0:0:0:0:
199,343,93939,1,0,0:0:0:0:
320,356,94102,6,0,P|328:312|312:272,2,80.000000298023
375,184,94588,2,0,P|406:210|428:244,1,80.000000298023,2|0,0:0|0:0,0:0:0:0:
259,139,94912,2,0,P|281:105|312:80,1,80.000000298023,2|0,0:0|0:0,0:0:0:0:
208,16,95237,5,2,0:0:0:0:
92,36,95399,1,0,0:0:0:0:
8,120,95561,2,0,P|8:168|20:208,1,80.000000298023,2|0,0:0|0:0,0:0:0:0:
132,168,95885,5,2,0:0:0:0:
16,198,96047,1,0,0:0:0:0:
8,320,96210,2,0,P|36:344|88:364,1,80.000000298023,2|0,0:0|0:0,0:0:0:0:
196,364,96534,6,0,P|280:348|344:288,1,160.000000596046,2|0,0:0|0:0,0:0:0:0:
448,340,97020,1,0,0:0:0:0:
448,340,97102,1,0,0:0:0:0:
448,340,97183,1,0,0:0:0:0:
412,240,97345,2,0,L|448:160,2,80.000000298023
348,231,97831,1,8,0:0:0:0:
375,44,97993,1,8,0:0:0:0:
463,211,98156,1,8,0:0:0:0:
293,128,98317,1,8,0:0:0:0:
480,96,98480,1,8,0:0:0:0:
348,231,98642,2,8,L|356:192,1,40.0000001490115
375,44,98804,5,8,0:0:0:0:
356,40,98885,1,8,0:0:0:0:
336,36,98966,1,8,0:0:0:0:
316,32,99047,1,8,0:0:0:0:
296,28,99129,2,8,L|216:28,2,80.000000298023
256,192,99534,12,0,103993,0:0:0:0:
