osu file format v14

[General]
AudioFilename: audio.mp3
AudioLeadIn: 0
PreviewTime: 183923
Countdown: 0
SampleSet: Soft
StackLeniency: 0.7
Mode: 0
LetterboxInBreaks: 0
WidescreenStoryboard: 0

[Editor]
Bookmarks: 9112,10734,28896,51437,93031,99923,133815,150031,182301
DistanceSpacing: 1
BeatDivisor: 4
GridSize: 8
TimelineZoom: 3.5

[Metadata]
Title:Hoshizora no Ima
TitleUnicode:Hoshizora no Ima
Artist:Sagara Kokoro
ArtistUnicode:Sagara Kokoro
Creator:-Hoshizora
Version:Sternenhimmel
Source:Hoshizora e Kakaru Hashi
Tags:
BeatmapID:1257876
BeatmapSetID:594733

[Difficulty]
HPDrainRate:6
CircleSize:4
OverallDifficulty:8.5
ApproachRate:9
SliderMultiplier:1.6
SliderTickRate:2

[Events]
//Background and Video events
0,0,"bg7.jpg",0,0
//Break Periods
2,62826,71593
2,114718,122837
2,166610,176188
//Storyboard Layer 0 (Background)
//Storyboard Layer 1 (Fail)
//Storyboard Layer 2 (Pass)
//Storyboard Layer 3 (Foreground)
//Storyboard Sound Samples

[TimingPoints]
356,324.324324324324,4,2,1,60,1,0
356,-133.333333333333,4,2,1,60,0,0
8139,-117.647058823529,4,2,1,60,0,0
8626,-125,4,2,1,60,0,0
9437,-133.333333333333,4,2,1,60,0,0
10247,-83.3333333333333,4,2,1,75,0,0
10734,-117.647058823529,4,2,1,70,0,0
12031,-117.647058823529,4,2,2,70,0,0
12131,-117.647058823529,4,2,1,70,0,0
12680,-117.647058823529,4,2,2,70,0,0
12780,-117.647058823529,4,2,1,70,0,0
12842,-117.647058823529,4,2,1,70,0,0
19166,-117.647058823529,4,2,2,70,0,0
19266,-117.647058823529,4,2,1,70,0,0
26301,-133.333333333333,4,2,1,60,0,0
27923,-133.333333333333,4,2,2,60,0,0
28023,-133.333333333333,4,2,1,60,0,0
28896,-111.111111111111,4,2,1,75,0,0
29626,-111.111111111111,4,2,2,75,0,0
29707,-111.111111111111,4,2,1,75,0,0
31166,-133.333333333333,4,2,1,75,0,0
31491,-83.3333333333333,4,2,1,85,0,1
41301,-83.3333333333333,4,2,2,85,0,1
41383,-83.3333333333333,4,2,1,85,0,1
47058,-133.333333333333,4,2,1,85,0,1
47707,-100,4,2,1,85,0,1
51437,-133.333333333333,4,2,1,60,0,0
51761,-100,4,2,1,70,0,0
62220,-100,4,2,1,60,0,0
62301,-100,4,2,1,50,0,0
62383,-100,4,2,1,40,0,0
62464,-100,4,2,1,30,0,0
72193,-100,4,2,1,60,0,0
73004,-133.333333333333,4,2,1,75,0,0
83383,-100,4,2,1,75,0,0
88572,-133.333333333333,4,2,1,75,0,0
90193,-133.333333333333,4,2,2,75,0,0
90293,-133.333333333333,4,2,1,75,0,0
90842,-133.333333333333,4,2,1,75,0,0
92626,-100,4,2,1,75,0,0
93761,-83.3333333333333,4,2,1,85,0,1
103572,-83.3333333333333,4,2,2,85,0,1
103653,-83.3333333333333,4,2,1,85,0,1
109328,-133.333333333333,4,2,1,60,0,1
109977,-100,4,2,1,70,0,1
113707,-133.333333333333,4,2,1,60,0,0
123437,-200,4,2,1,60,0,0
125545,-100,4,2,1,65,0,0
128788,-100,4,2,1,75,0,0
132680,-100,4,2,1,85,0,0
133004,-100,4,2,1,65,0,0
133166,-100,4,2,1,85,0,0
136572,-133.333333333333,4,2,1,65,0,0
146950,-111.111111111111,4,2,1,65,0,0
147599,-100,4,2,1,70,0,0
150842,-100,4,2,1,80,0,0
155383,-100,4,2,1,85,0,0
156680,-100,4,2,1,65,0,0
157166,-100,4,2,1,65,0,0
157977,-100,4,2,1,65,0,0
158626,-100,4,2,1,65,0,0
159274,-100,4,2,1,65,0,0
161220,-133.333333333333,4,2,1,65,0,0
163815,-100,4,2,1,75,0,0
176788,-133.333333333333,4,2,1,60,0,0
181977,-133.333333333333,4,2,1,60,0,0
183274,-133.333333333333,4,2,1,65,0,0
183923,-133.333333333333,4,2,1,70,0,0
185869,-83.3333333333333,4,2,1,65,0,0
185950,-83.3333333333333,4,2,1,50,0,0
186031,-83.3333333333333,4,2,1,35,0,0
186112,-83.3333333333333,4,2,1,50,0,0
186193,-83.3333333333333,4,2,1,70,0,0
186355,-83.3333333333333,4,2,1,40,0,0
186437,-83.3333333333333,4,2,1,50,0,0
186518,-83.3333333333333,4,2,1,60,0,0
186680,-83.3333333333333,4,2,1,75,0,0
186761,-83.3333333333333,4,2,1,70,0,0
186842,-83.3333333333333,4,2,1,65,0,0
186923,-83.3333333333333,4,2,1,60,0,0
187004,-83.3333333333333,4,2,1,55,0,0
187085,-83.3333333333333,4,2,1,50,0,0
187166,-83.3333333333333,4,2,1,80,0,1
202734,-133.333333333333,4,2,1,60,0,1
203383,-100,4,2,1,65,0,1
204031,-100,4,2,1,70,0,1
206626,-100,4,2,1,70,0,0
207112,-133.333333333333,4,2,1,60,0,0
207599,-100,4,2,1,75,0,0
216518,-100,4,2,1,80,0,0
218383,-100,4,2,10,80,0,0
218464,-100,4,2,1,80,0,0
218788,-100,4,2,1,75,0,0
223166,-100,4,2,1,80,0,0
223653,-100,4,2,1,75,0,0
234518,-100,4,2,2,75,0,0

[HitObjects]
160,320,356,6,0,P|176:256|160:192,1,120.000004577637
128,112,842,1,0,0:0:0:0:
64,48,1004,2,0,P|24:52|-14:31,2,60.0000022888184
160,48,1491,1,0,0:0:0:0:
304,80,1653,6,0,P|320:144|304:208,1,120.000004577637
336,288,2139,1,0,0:0:0:0:
400,352,2301,2,0,P|432:368|464:368,2,60.0000022888184
408,248,2788,1,0,0:0:0:0:
432,64,2950,5,0,0:0:0:0:
304,80,3274,1,0,0:0:0:0:
464,144,3599,1,0,0:0:0:0:
209,267,3923,5,0,0:0:0:0:
351,237,4085,1,0,0:0:0:0:
254,129,4247,2,0,L|264:59,1,60.0000022888184
334,155,4572,1,0,0:0:0:0:
191,185,4734,1,0,0:0:0:0:
288,293,4896,2,0,L|311:357,1,60.0000022888184
254,129,5220,1,0,0:0:0:0:
96,336,5545,6,0,P|80:288|80:208,1,120.000004577637
112,144,6031,1,0,0:0:0:0:
160,80,6193,2,0,P|152:48|136:16,2,60.0000022888184
192,160,6680,1,0,0:0:0:0:
288,272,6842,6,0,P|352:272|416:240,1,120.000004577637
464,192,7328,1,0,0:0:0:0:
448,112,7491,1,0,0:0:0:0:
384,64,7653,1,0,0:0:0:0:
304,48,7815,2,0,P|264:56|232:48,1,60.0000022888184
112,32,8139,6,0,P|112:112|64:176,1,136.000002593994
136,280,8626,1,0,0:0:0:0:
280,168,8788,2,0,P|248:168|216:176,1,64
304,320,9112,2,0,P|336:320|368:312,1,64
432,136,9437,6,0,P|408:192|424:256,1,120.000004577637
464,352,9923,1,0,0:0:0:0:
328,248,10085,1,0,0:0:0:0:
152,280,10247,2,0,P|144:192|192:272,1,239.999992675781,8|0,0:0|0:0,0:0:0:0:
168,368,10734,6,0,P|128:360|96:344,1,68.0000012969971,6|0,0:0|0:0,0:0:0:0:
32,272,11058,1,2,0:0:0:0:
40,168,11220,1,0,0:0:0:0:
186,98,11383,2,0,P|153:90|120:96,1,68.0000012969971,2|0,0:0|0:0,0:0:0:0:
32,272,11707,1,2,0:0:0:0:
264,320,11869,6,0,P|280:256|264:176,1,136.000002593994
216,24,12355,1,2,0:0:0:0:
40,168,12518,2,0,P|24:232|40:312,1,136.000002593994
184,320,13004,1,2,0:0:0:0:
186,98,13166,1,8,0:0:0:0:
408,248,13328,5,2,0:0:0:0:
184,208,13653,1,2,0:0:0:0:
280,352,13977,1,2,0:0:0:0:
384,208,14301,5,2,0:0:0:0:
323,82,14464,1,0,0:0:0:0:
275,228,14626,2,0,P|254:195|248:161,1,68.0000012969971
406,114,14950,1,2,0:0:0:0:
247,75,15112,1,8,0:0:0:0:
384,208,15274,1,2,0:0:0:0:
352,64,15437,1,8,0:0:0:0:
272,192,15599,1,8,0:0:0:0:
352,336,15761,5,0,3:0:0:0:
352,336,15842,1,0,3:0:0:0:
352,336,15923,2,0,P|288:368|224:360,2,136.000002593994,6|2|2,3:2|0:0|0:0,0:0:0:0:
272,192,16734,1,0,0:0:0:0:
128,224,16896,1,2,0:0:0:0:
266,271,17058,1,0,0:0:0:0:
176,72,17220,6,0,P|144:56|96:56,1,68.0000012969971,2|0,0:0|0:0,0:0:0:0:
272,112,17545,2,0,P|316:112|348:96,1,68.0000012969971,2|0,0:0|0:0,0:0:0:0:
464,64,17869,2,0,P|488:144|464:192,1,136.000002593994,2|2,0:0|0:0,0:0:0:0:
240,224,18355,2,0,L|195:195,1,34.0000006484985,8|2,0:0|0:0,0:0:0:0:
192,288,18518,6,0,P|264:304|320:256,1,136.000002593994,2|2,0:0|0:0,0:0:0:0:
480,160,19004,2,0,P|408:144|352:192,1,136.000002593994
328,360,19491,1,2,0:0:0:0:
120,232,19653,1,0,3:0:0:0:
120,232,19734,1,0,3:0:0:0:
120,232,19815,6,0,L|108:154,1,68.0000012969971,12|0,3:2|0:0,0:0:0:0:
160,32,20139,1,8,3:2:0:0:
160,32,20301,1,0,3:0:0:0:
208,192,20464,1,0,3:0:0:0:
208,192,20626,1,0,3:0:0:0:
288,16,20788,1,8,3:2:0:0:
288,16,20950,1,0,3:0:0:0:
109,164,21112,6,0,P|57:167|12:140,2,102.000001945496,2|0|0,0:0|0:0|0:0,0:0:0:0:
304,88,21761,2,0,P|368:88|424:144,1,136.000002593994,2|0,0:0|0:0,0:0:0:0:
400,272,22247,1,0,0:0:0:0:
320,336,22410,6,0,P|285:349|254:351,1,68.0000012969971,2|0,0:0|0:0,0:0:0:0:
120,248,22734,2,0,P|152:240|192:240,1,68.0000012969971,2|0,0:0|0:0,0:0:0:0:
330,340,23058,2,0,P|266:361|185:356,1,136.000002593994,2|0,0:0|0:0,0:0:0:0:
288,240,23545,1,0,0:0:0:0:
480,216,23707,6,0,P|504:160|480:72,1,136.000002593994,2|0,0:0|0:0,0:0:0:0:
368,272,24193,1,0,0:0:0:0:
216,160,24355,2,0,P|192:104|216:16,1,136.000002593994,2|0,0:0|0:0,0:0:0:0:
408,144,24842,1,0,0:0:0:0:
288,240,25004,2,0,L|152:253,2,136.000002593994,2|2|2,0:0|0:0|0:0,0:0:0:0:
136,200,25815,1,4,3:0:0:0:
143,218,25977,1,4,3:0:0:0:
151,236,26139,1,4,3:0:0:0:
158,252,26301,6,0,P|200:296|264:296,1,120.000004577637
376,248,26950,2,0,P|334:204|270:204,1,120.000004577637
72,320,27599,6,0,L|48:176,1,120.000004577637
288,96,28247,2,0,L|360:88,1,60.0000022888184
192,128,28572,2,0,L|128:120,1,60.0000022888184
288,352,28896,6,0,P|352:320|368:240,1,143.999995605469,6|0,0:0|0:0,0:0:0:0:
352,96,29383,1,0,0:0:0:0:
304,176,29545,2,0,L|280:216,1,35.9999989013672,8|0,0:0|0:0,0:0:0:0:
176,288,29707,1,0,1:0:0:0:
140,296,29788,1,0,1:0:0:0:
104,296,29869,1,0,3:0:0:0:
68,288,29950,1,0,3:0:0:0:
40,268,30031,2,0,L|44:220,1,35.9999989013672,0|8,3:0|3:0,3:0:0:0:
224,48,30355,6,0,L|184:40,1,35.9999989013672,0|0,2:0|2:0,2:0:0:0:
336,96,30518,2,0,L|371:88,1,35.9999989013672,0|0,2:0|2:0,2:0:0:0:
224,144,30680,2,0,L|184:136,1,35.9999989013672,0|0,2:0|2:0,2:0:0:0:
336,192,30842,2,0,L|371:184,1,35.9999989013672,0|0,2:0|2:0,2:0:0:0:
224,240,31004,2,0,L|184:232,1,35.9999989013672,0|0,2:0|2:0,2:0:0:0:
336,288,31166,6,0,L|424:273,1,90.0000034332277,4|0,0:3|0:0,0:0:0:0:
384,344,31491,6,0,L|368:249,1,95.9999970703126,6|0,0:0|0:0,0:0:0:0:
450,68,31815,2,0,L|434:164,1,95.9999970703126,0|0,1:0|0:0,0:0:0:0:
288,192,32139,2,0,P|352:128|448:208,1,191.999994140625,2|0,0:0|1:0,0:0:0:0:
384,272,32626,1,0,0:0:0:0:
256,320,32788,6,0,P|208:320|160:288,1,95.9999970703126,2|0,0:0|0:0,0:0:0:0:
80,128,33112,2,0,P|128:128|176:160,1,95.9999970703126,0|0,1:0|0:0,0:0:0:0:
64,320,33437,2,0,P|64:272|96:224,1,95.9999970703126,2|0,0:0|0:0,0:0:0:0:
296,112,33761,1,0,1:0:0:0:
256,320,33923,1,0,0:0:0:0:
80,128,34085,6,0,L|64:33,1,95.9999970703126,2|0,0:0|0:0,0:0:0:0:
208,216,34410,1,0,1:0:0:0:
0,192,34572,1,0,0:0:0:0:
296,112,34734,2,0,P|328:200|296:288,1,191.999994140625,2|0,0:0|1:0,0:0:0:0:
87,231,35220,1,0,0:0:0:0:
192,48,35383,5,2,0:0:0:0:
192,288,35545,1,0,0:3:0:0:
48,104,35707,1,0,1:0:0:0:
296,112,35869,1,0,0:3:0:0:
87,231,36031,2,0,P|87:287|111:327,1,95.9999970703126,2|0,0:0|0:0,0:0:0:0:
408,320,36355,2,0,P|428:277|426:229,1,95.9999970703126,0|0,1:0|0:0,0:0:0:0:
256,24,36680,6,0,L|256:216,1,191.999994140625,2|0,0:0|1:0,0:0:0:0:
128,72,37166,1,0,0:0:0:0:
376,176,37328,2,0,L|392:64,1,95.9999970703126,2|0,0:0|0:0,0:0:0:0:
128,184,37653,2,0,L|141:279,1,95.9999970703126,0|0,1:0|0:0,0:0:0:0:
456,320,37977,6,0,P|500:238|464:152,1,191.999994140625,2|0,0:0|1:0,0:0:0:0:
256,216,38464,1,0,0:0:0:0:
208,40,38626,2,0,L|304:49,1,95.9999970703126,2|0,0:0|0:0,0:0:0:0:
128,184,38950,2,0,L|32:194,1,95.9999970703126,0|0,1:0|0:0,0:0:0:0:
304,296,39274,6,0,L|400:287,1,95.9999970703126,2|0,0:0|0:0,0:0:0:0:
304,79,39599,1,0,1:0:0:0:
179,296,39761,1,0,0:0:0:0:
368,192,39923,1,2,0:0:0:0:
117,187,40085,1,0,0:0:0:0:
304,296,40247,1,0,1:0:0:0:
179,79,40410,1,0,0:0:0:0:
179,79,40491,1,0,3:0:0:0:
179,79,40572,1,2,0:0:0:0:
440,136,40734,5,4,3:2:0:0:
240,328,40896,1,4,3:2:0:0:
272,48,41058,2,0,L|280:104,1,47.9999985351563,0|0,3:0|3:0,0:0:0:0:
400,160,41220,2,2,L|392:96,1,47.9999985351563,2|0,0:0|0:0,0:0:0:0:
288,184,41383,1,0,3:0:0:0:
407,261,41545,1,0,3:0:0:0:
392,300,41626,1,0,3:0:0:0:
363,327,41707,1,0,1:0:0:0:
327,343,41788,1,0,1:0:0:0:
289,345,41869,6,0,P|245:339|197:307,1,95.9999970703126,6|0,0:0|0:0,0:0:0:0:
96,64,42193,1,0,1:0:0:0:
24,219,42355,5,0,0:0:0:0:
96,64,42518,2,0,P|144:48|192:64,1,95.9999970703126,2|0,0:0|0:0,0:0:0:0:
288,208,42842,1,0,1:0:0:0:
448,160,43004,1,0,0:0:0:0:
288,208,43166,6,0,P|272:160|288:112,1,95.9999970703126,2|0,0:0|0:0,0:0:0:0:
448,64,43491,1,0,1:0:0:0:
480,224,43653,1,0,0:0:0:0:
448,64,43815,2,0,P|400:48|352:48,1,95.9999970703126,2|0,0:0|0:0,0:0:0:0:
152,128,44139,1,0,1:0:0:0:
408,192,44301,1,0,0:0:0:0:
256,160,44464,6,0,P|224:240|256:336,1,191.999994140625,2|0,0:0|1:0,0:0:0:0:
320,240,44950,1,0,0:0:0:0:
111,302,45112,2,0,B|88:112,1,191.999994140625,2|0,0:0|1:0,0:0:0:0:
256,160,45599,5,0,3:0:0:0:
288,168,45680,1,0,3:0:0:0:
320,176,45761,1,4,3:0:0:0:
232,80,45923,1,6,3:2:0:0:
232,256,46085,1,6,3:2:0:0:
408,192,46247,1,0,3:3:0:0:
422,162,46328,1,0,3:3:0:0:
437,132,46409,1,4,3:3:0:0:
288,320,46572,5,0,3:0:0:0:
244,340,46653,1,0,3:0:0:0:
196,332,46734,1,0,3:0:0:0:
162,305,46815,1,0,3:0:0:0:
148,269,46896,1,0,3:0:0:0:
151,235,46977,1,0,3:0:0:0:
176,208,47058,6,0,L|256:200,1,60.0000022888184,6|0,3:2|3:0,0:0:0:0:
321,125,47383,2,0,L|241:117,1,60.0000022888184,2|0,3:2|3:0,0:0:0:0:
356,246,47707,2,0,L|444:238,1,80,2|0,3:2|3:0,0:0:0:0:
231,313,48031,2,0,L|151:305,1,80,2|0,3:2|3:0,0:0:0:0:
316,267,48355,5,2,3:2:0:0:
359,136,48518,1,0,3:0:0:0:
248,216,48680,5,2,3:2:0:0:
383,214,48842,1,0,3:0:0:0:
274,136,49004,5,2,3:2:0:0:
316,267,49166,1,0,3:0:0:0:
171,164,49328,5,2,3:2:0:0:
350,161,49491,1,0,3:0:0:0:
204,267,49653,5,6,3:2:0:0:
259,93,49815,1,0,3:0:0:0:
330,284,49977,5,2,3:2:0:0:
171,164,50139,1,0,3:0:0:0:
425,154,50301,5,2,3:2:0:0:
176,73,50464,1,0,3:0:0:0:
350,305,50626,1,2,3:2:0:0:
330,23,50788,1,0,3:0:0:0:
142,231,50950,1,0,1:0:0:0:
304,32,51437,5,0,0:0:0:0:
304,32,51599,2,0,P|332:48|360:72,1,60.0000022888184,0|0,0:0|0:0,0:0:0:0:
472,164,51923,1,0,1:0:0:0:
428,202,52004,1,0,1:0:0:0:
399,253,52085,1,0,1:0:0:0:
402,311,52166,1,0,1:0:0:0:
436,356,52247,6,0,P|412:320|368:296,1,80,6|0,3:2|0:0,0:0:0:0:
224,276,52572,2,0,P|176:264|148:240,1,80,0|0,1:0|0:0,0:0:0:0:
200,120,52896,1,2,0:0:0:0:
316,236,53058,1,0,0:0:0:0:
192,356,53220,2,0,P|140:360|104:352,1,80,0|0,1:0|0:0,0:0:0:0:
68,220,53464,5,0,0:0:0:0:
68,220,53545,2,0,P|68:180|76:140,1,80,2|0,0:0|0:0,0:0:0:0:
192,16,53869,1,0,1:0:0:0:
276,168,54031,1,0,0:0:0:0:
336,16,54193,1,2,0:0:0:0:
336,16,54355,1,2,0:0:0:0:
376,160,54518,2,0,P|364:208|348:240,1,80,0|0,1:0|0:0,0:0:0:0:
240,348,54761,5,0,0:0:0:0:
240,348,54842,2,0,P|156:312|96:336,1,160,2|0,0:0|1:0,0:0:0:0:
48,180,55328,1,0,0:0:0:0:
188,212,55491,1,2,0:0:0:0:
160,80,55653,1,0,0:0:0:0:
264,192,55815,2,0,P|217:208|180:212,1,80,0|0,1:0|0:0,0:0:0:0:
48,180,56139,6,0,L|36:96,1,80,2|0,0:0|0:0,0:0:0:0:
147,164,56464,1,0,1:0:0:0:
153,171,56545,1,0,3:0:0:0:
158,177,56626,1,0,3:0:0:0:
163,183,56707,1,0,3:0:0:0:
168,190,56788,1,2,3:2:0:0:
392,196,56950,1,0,3:0:0:0:
239,98,57112,1,0,1:0:0:0:
312,320,57274,5,0,3:0:0:0:
312,320,57355,1,0,3:0:0:0:
312,320,57437,2,0,P|368:348|460:304,1,160,6|0,3:2|1:0,0:0:0:0:
441,121,57923,1,0,0:0:0:0:
312,192,58085,1,2,0:0:0:0:
312,192,58247,1,2,0:0:0:0:
240,40,58410,6,0,P|279:43|318:51,1,80,0|0,1:0|0:0,0:0:0:0:
400,216,58653,1,0,0:0:0:0:
400,216,58734,6,0,P|344:283|276:264,1,160,2|0,0:0|1:0,0:0:0:0:
184,240,59383,6,0,P|227:185|316:184,1,160,2|0,0:0|1:0,0:0:0:0:
60,100,60031,6,0,L|68:280,1,160,2|0,0:0|1:0,0:0:0:0:
235,172,60518,2,0,L|228:222,1,40
214,326,60680,1,2,0:0:0:0:
388,192,60842,1,0,0:0:0:0:
330,346,61004,2,0,L|313:260,1,80,0|0,1:0|0:0,0:0:0:0:
216,60,61328,5,4,1:2:0:0:
240,168,61491,1,0,3:0:0:0:
360,40,61653,2,0,L|448:32,1,80,0|0,1:0|3:0,0:0:0:0:
428,200,61977,1,0,1:2:0:0:
271,78,62139,5,0,1:0:0:0:
245,67,62220,1,0,1:0:0:0:
222,60,62301,1,0,1:0:0:0:
201,59,62383,1,0,1:0:0:0:
181,61,62464,1,0,3:0:0:0:
161,66,62545,1,0,3:0:0:0:
143,75,62626,1,4,3:2:0:0:
242,145,72193,5,0,1:0:0:0:
420,282,72518,1,4,3:0:0:0:
187,335,72842,5,0,3:0:0:0:
187,335,72923,1,0,3:0:0:0:
187,335,73004,2,0,P|179:298|180:264,1,60.0000022888184,4|0,3:0|0:0,0:0:0:0:
187,188,73328,1,2,0:0:0:0:
227,103,73491,2,0,L|228:40,2,60.0000022888184,0|2|0,0:0|0:0|0:0,0:0:0:0:
280,176,73977,1,2,0:0:0:0:
428,204,74139,1,0,0:0:0:0:
472,328,74301,6,0,L|391:331,1,60.0000022888184,2|0,0:0|0:0,0:0:0:0:
287,248,74626,2,0,L|368:245,1,60.0000022888184,2|0,0:0|0:0,0:0:0:0:
215,344,74950,2,0,L|134:347,1,60.0000022888184,2|0,0:0|0:0,0:0:0:0:
43,250,75274,2,0,L|124:247,1,60.0000022888184,2|0,0:0|0:0,0:0:0:0:
127,235,75518,1,0,3:0:0:0:
148,224,75599,5,2,3:2:0:0:
195,64,75761,1,0,0:0:0:0:
314,132,75923,2,0,L|392:136,1,60.0000022888184,2|0,0:0|0:0,0:0:0:0:
256,270,76247,2,0,L|178:266,1,60.0000022888184,2|0,0:0|0:0,0:0:0:0:
404,215,76572,2,0,L|482:219,1,60.0000022888184,2|0,0:0|0:0,0:0:0:0:
327,317,76896,5,2,0:0:0:0:
327,317,77058,1,0,0:0:0:0:
218,196,77220,1,2,0:0:0:0:
283,53,77383,2,0,L|287:91,1,30.0000011444092,0|0,3:0|3:0,0:0:0:0:
296,189,77545,1,2,0:0:0:0:
411,292,77707,2,0,L|407:254,1,30.0000011444092,0|0,3:0|3:0,0:0:0:0:
397,167,77869,1,2,0:0:0:0:
262,265,78031,5,0,3:0:0:0:
262,265,78112,1,0,3:0:0:0:
262,265,78193,2,0,L|184:269,1,60.0000022888184,6|0,0:0|0:0,0:0:0:0:
72,133,78518,2,0,L|150:129,1,60.0000022888184,2|0,0:0|0:0,0:0:0:0:
328,158,78842,2,0,L|250:162,1,60.0000022888184,2|0,0:0|0:0,0:0:0:0:
185,43,79166,2,0,L|263:39,1,60.0000022888184,2|0,0:0|0:0,0:0:0:0:
381,85,79491,5,2,0:0:0:0:
381,85,79653,1,0,0:0:0:0:
195,178,79815,1,2,0:0:0:0:
195,178,79977,1,0,0:0:0:0:
328,184,80139,2,0,L|387:187,1,60.0000022888184,2|0,0:0|0:0,0:0:0:0:
304,312,80464,2,0,L|244:309,1,60.0000022888184,2|0,0:0|0:0,0:0:0:0:
96,284,80707,5,0,0:0:0:0:
96,284,80788,2,0,P|64:276|24:252,1,60.0000022888184,2|0,3:2|0:0,0:0:0:0:
196,236,81112,2,0,P|228:228|268:204,1,60.0000022888184,2|0,3:2|0:0,0:0:0:0:
336,140,81437,1,0,3:0:0:0:
336,140,81599,1,0,3:0:0:0:
196,136,81761,1,0,3:0:0:0:
252,24,81923,1,0,3:0:0:0:
108,96,82085,5,4,3:2:0:0:
280,140,82247,1,0,3:0:0:0:
306,144,82328,1,0,3:0:0:0:
336,140,82410,1,0,3:0:0:0:
209,209,82572,1,0,3:0:0:0:
179,213,82653,1,0,3:0:0:0:
154,230,82734,1,0,3:0:0:0:
262,326,82896,1,0,3:0:0:0:
299,323,82977,1,0,3:0:0:0:
333,309,83058,1,0,3:0:0:0:
361,285,83139,1,0,3:0:0:0:
381,254,83220,1,0,3:0:0:0:
398,221,83301,1,0,3:0:0:0:
395,183,83383,6,0,B|348:185|318:145|318:145|292:109|251:111,1,160,4|2,3:2|0:3,0:0:0:0:
84,116,83869,1,0,0:0:0:0:
168,336,84031,2,0,P|236:292|238:194,1,160,0|2,3:0|3:0,0:0:0:0:
96,32,84518,1,0,0:0:0:0:
212,32,84680,6,0,P|260:32|296:30,1,80,0|0,3:0|0:0,0:0:0:0:
464,40,85004,2,0,P|440:80|412:104,1,80,2|0,0:3|0:0,0:0:0:0:
272,232,85328,2,0,P|273:302|328:264,1,160,0|2,3:0|0:3,0:0:0:0:
356,60,85815,1,0,0:0:0:0:
356,60,85977,6,0,P|280:32|196:22,1,160,0|2,0:0|3:0,0:0:0:0:
23,128,86464,1,0,0:0:0:0:
164,100,86626,6,0,P|248:104|326:133,1,160,0|2,0:0|0:3,0:0:0:0:
480,248,87112,1,0,0:0:0:0:
376,324,87274,2,0,P|334:334|290:334,1,80,0|0,3:0|0:0,0:0:0:0:
214,255,87599,2,0,P|175:245|135:244,1,80,2|0,0:3|0:0,0:0:0:0:
92,112,87923,5,0,3:0:0:0:
140,47,88031,5,0,3:0:0:0:
220,44,88139,5,0,3:0:0:0:
277,101,88247,5,0,3:0:0:0:
230,167,88355,5,0,3:0:0:0:
148,170,88464,5,0,3:0:0:0:
92,112,88572,6,0,L|230:106,1,120.000004577637,6|0,0:0|0:0,0:0:0:0:
386,257,89220,2,0,L|261:267,1,120.000004577637,0|0,0:0|0:0,0:0:0:0:
72,335,89869,2,0,P|43:286|54:217,1,120.000004577637,0|0,0:0|0:0,0:0:0:0:
224,96,90518,2,0,L|288:80,1,60.0000022888184,0|2,0:0|0:0,0:0:0:0:
456,152,90842,1,8,0:0:0:0:
224,256,91166,6,0,L|160:272,1,60.0000022888184,0|0,3:0|3:0,0:0:0:0:
60,296,91491,1,2,0:0:0:0:
172,104,91653,1,0,3:0:0:0:
284,296,91815,1,2,0:0:0:0:
60,168,91977,1,0,3:0:0:0:
172,360,92139,1,2,0:0:0:0:
284,168,92301,1,0,3:0:0:0:
60,296,92464,1,2,0:0:0:0:
172,104,92626,6,4,P|217:92|265:96,2,80,6|6|6,0:0|0:0|0:0,0:0:0:0:
232,224,93112,1,0,0:0:0:0:
368,128,93274,1,0,0:0:0:0:
379,166,93355,1,0,3:0:0:0:
371,205,93437,1,0,3:0:0:0:
342,232,93518,1,0,3:0:0:0:
328,272,93599,1,0,3:0:0:0:
337,314,93680,1,0,3:0:0:0:
356,358,93761,6,0,P|352:306|322:267,1,95.9999970703126,6|0,0:0|0:0,0:0:0:0:
170,156,94085,2,0,P|174:208|204:247,1,95.9999970703126,0|0,1:0|0:0,0:0:0:0:
430,176,94410,2,0,P|436:96|325:37,1,191.999994140625,2|0,0:0|1:0,0:0:0:0:
256,200,94896,1,0,0:0:0:0:
88,208,95058,6,0,P|72:160|88:112,1,95.9999970703126,2|0,0:0|0:0,0:0:0:0:
256,200,95383,2,0,P|272:248|256:296,1,95.9999970703126,0|0,1:0|0:0,0:0:0:0:
80,344,95707,1,2,0:0:0:0:
152,160,95869,1,0,0:0:0:0:
259,290,96031,1,0,1:0:0:0:
368,40,96193,1,0,0:0:0:0:
488,192,96355,6,0,P|504:240|488:288,1,95.9999970703126,2|0,0:0|0:0,0:0:0:0:
232,336,96680,1,0,1:0:0:0:
416,240,96842,1,0,0:0:0:0:
256,192,97004,2,0,B|208:96|304:96|256:0,1,191.999994140625,2|0,0:0|1:0,0:0:0:0:
112,32,97491,1,0,0:0:0:0:
320,144,97653,5,2,0:0:0:0:
192,240,97815,1,0,0:0:0:0:
192,48,97977,1,0,1:0:0:0:
32,192,98139,1,0,0:0:0:0:
208,320,98301,2,0,P|256:292|272:244,1,95.9999970703126,2|0,0:0|0:0,0:0:0:0:
128,176,98626,2,0,P|149:218|191:239,1,95.9999970703126,0|0,1:0|0:0,0:0:0:0:
416,240,98950,6,0,P|464:160|416:80,1,191.999994140625,2|0,0:0|1:0,0:0:0:0:
208,160,99437,1,0,0:0:0:0:
320,16,99599,2,0,P|336:64|320:112,1,95.9999970703126,2|0,0:0|0:0,0:0:0:0:
208,256,99923,2,0,P|192:208|208:160,1,95.9999970703126,0|0,1:0|0:0,0:0:0:0:
419,82,100247,6,0,L|408:299,1,191.999994140625,2|0,0:0|1:0,0:0:0:0:
224,336,100735,1,0,0:0:0:0:
96,224,100897,2,0,P|76:180|92:132,1,95.9999970703126,2|0,0:0|0:0,0:0:0:0:
288,32,101221,1,0,1:0:0:0:
272,208,101383,1,0,0:0:0:0:
136,64,101545,6,0,P|88:48|40:64,1,95.9999970703126,2|0,0:0|0:0,0:0:0:0:
16,240,101870,1,0,1:0:0:0:
208,160,102032,1,0,0:0:0:0:
152,336,102193,1,2,0:0:0:0:
88,136,102355,1,0,0:0:0:0:
272,208,102518,1,2,0:0:0:0:
208,8,102680,1,0,0:0:0:0:
208,8,102761,1,0,3:0:0:0:
208,8,102842,1,4,3:0:0:0:
88,136,103004,5,4,3:2:0:0:
364,47,103166,1,4,3:2:0:0:
315,309,103328,2,2,L|327:246,1,47.9999985351563,0|0,3:0|3:0,0:0:0:0:
442,212,103491,2,2,L|431:266,1,47.9999985351563,2|0,0:0|0:0,0:0:0:0:
413,352,103653,1,0,1:0:0:0:
230,297,103815,1,0,3:0:0:0:
206,265,103896,1,0,3:0:0:0:
198,225,103977,1,0,1:0:0:0:
206,185,104058,1,0,3:0:0:0:
227,150,104139,6,0,P|244:105|222:55,1,95.9999970703126,6|0,0:0|0:0,0:0:0:0:
108,229,104464,1,0,1:0:0:0:
300,229,104626,1,0,0:0:0:0:
108,229,104788,2,0,P|93:183|104:133,1,95.9999970703126,2|0,0:0|0:0,0:0:0:0:
326,110,105112,1,0,1:0:0:0:
368,283,105274,1,0,0:0:0:0:
326,110,105437,6,0,P|286:86|238:86,1,95.9999970703126,2|0,0:0|0:0,0:0:0:0:
86,238,105761,1,0,1:0:0:0:
270,270,105923,1,0,0:0:0:0:
86,238,106085,2,0,P|54:198|54:150,1,95.9999970703126,2|0,0:0|0:0,0:0:0:0:
218,27,106410,1,0,1:0:0:0:
270,270,106572,1,0,0:0:0:0:
481,169,106734,6,0,P|456:89|336:62,1,191.999994140625,2|0,0:0|1:0,0:0:0:0:
176,112,107220,1,0,0:0:0:0:
391,143,107383,2,0,L|413:333,1,191.999994140625,2|0,0:0|1:0,0:0:0:0:
254,311,107869,5,0,3:0:0:0:
214,307,107950,1,0,3:0:0:0:
182,283,108031,1,4,3:0:0:0:
266,119,108193,1,8,3:2:0:0:
341,242,108355,1,8,3:2:0:0:
173,163,108518,1,0,3:0:0:0:
144,134,108599,1,0,3:0:0:0:
135,95,108680,1,4,3:0:0:0:
344,128,108842,5,0,1:0:0:0:
377,162,108923,1,0,1:0:0:0:
388,203,109004,1,8,3:2:0:0:
387,241,109085,1,8,3:2:0:0:
375,272,109166,1,4,3:0:0:0:
362,298,109247,1,4,3:0:0:0:
348,318,109328,6,0,L|285:315,1,60.0000022888184,6|0,3:2|3:0,0:0:0:0:
160,280,109653,2,0,L|219:277,1,60.0000022888184,2|0,3:2|3:0,0:0:0:0:
400,248,109977,2,0,L|288:240,1,80,2|0,3:2|3:0,0:0:0:0:
120,208,110301,2,0,L|232:200,1,80,2|0,3:2|3:0,0:0:0:0:
376,184,110626,5,2,3:2:0:0:
309,236,110789,1,0,3:0:0:0:
268,160,110951,5,2,3:2:0:0:
373,271,111113,1,0,3:0:0:0:
334,117,111274,5,2,3:2:0:0:
234,234,111437,1,0,3:0:0:0:
264,80,111599,5,2,3:2:0:0:
439,232,111761,1,0,3:0:0:0:
234,234,111923,5,2,3:2:0:0:
414,118,112085,1,0,3:0:0:0:
309,309,112247,5,2,3:2:0:0:
202,116,112410,1,0,3:0:0:0:
414,118,112572,5,2,3:2:0:0:
160,208,112735,1,0,3:0:0:0:
418,286,112897,1,2,3:2:0:0:
255,71,113059,1,0,3:0:0:0:
261,341,113220,1,0,1:0:0:0:
282,168,113707,5,0,0:0:0:0:
282,168,113869,2,0,P|263:138|236:114,2,60.0000022888184
302,312,114355,5,0,3:0:0:0:
302,312,114437,1,0,3:0:0:0:
302,312,114518,1,4,3:2:0:0:
168,72,123437,6,0,L|185:81,1,20,8|0,3:0|3:0,3:0:0:0:
272,128,123599,1,8,3:0:0:0:
392,288,124085,6,0,L|444:312,2,40,8|0|0,3:0|0:0|0:0,0:0:0:0:
308,248,124572,1,8,3:0:0:0:
244,336,124734,1,12,3:0:0:0:
168,176,124896,5,0,3:0:0:0:
168,176,125058,1,0,3:0:0:0:
152,32,125220,1,0,3:0:0:0:
152,32,125383,1,0,3:0:0:0:
340,56,125545,2,0,B|380:72|424:76|424:76|356:96|296:172,1,240,8|0,0:0|0:0,0:0:0:0:
188,240,126193,5,0,3:0:0:0:
188,240,126355,1,0,3:0:0:0:
240,104,126518,1,0,3:0:0:0:
240,104,126680,1,0,3:0:0:0:
84,92,126842,2,0,B|52:72|28:36|28:36|68:136|68:208,1,240,8|0,0:0|0:0,0:0:0:0:
260,288,127491,5,0,3:0:0:0:
260,288,127653,1,0,3:0:0:0:
100,272,127815,1,0,3:0:0:0:
100,272,127977,1,0,3:0:0:0:
156,104,128139,2,0,P|172:144|180:188,1,80,8|0,0:0|0:0,0:0:0:0:
168,339,128464,1,0,0:0:0:0:
64,188,128626,2,0,L|108:200,1,40,2|0,3:2|0:0,0:0:0:0:
300,260,128788,5,8,0:0:0:0:
244,156,128950,1,0,0:0:0:0:
184,260,129112,1,0,0:0:0:0:
460,160,129274,1,8,0:0:0:0:
400,264,129437,1,0,0:0:0:0:
340,160,129599,1,0,0:0:0:0:
276,48,129761,1,8,0:0:0:0:
248,304,129923,5,0,0:0:0:0:
248,304,130004,1,0,0:0:0:0:
248,304,130085,2,0,P|276:344|324:364,1,80,12|0,0:0|0:0,0:0:0:0:
440,272,130410,2,0,P|418:238|385:216,1,80,8|0,0:0|0:0,0:0:0:0:
220,200,130734,1,8,0:0:0:0:
220,200,130896,1,8,0:0:0:0:
320,140,131058,2,0,P|356:111|384:80,1,80,8|0,0:0|0:0,0:0:0:0:
224,40,131383,6,0,L|188:76,1,40,2|0,0:0|0:0,0:0:0:0:
84,168,131545,2,0,L|112:208,1,40,2|0,0:0|0:0,0:0:0:0:
208,320,131707,2,0,L|260:344,3,40,8|0|0|0,0:0|0:0|0:0|0:0,0:0:0:0:
292,184,132031,2,0,P|248:196|216:216,1,80,0|2,0:0|0:0,0:0:0:0:
88,344,132355,1,8,0:0:0:0:
72,104,132518,5,2,3:2:0:0:
72,104,132599,1,2,3:2:0:0:
72,104,132680,2,0,L|152:88,1,80,6|0,3:2|0:0,0:0:0:0:
150,88,132923,1,0,1:0:0:0:
150,88,133004,1,0,1:0:0:0:
382,139,133166,1,4,1:0:0:0:
228,158,133328,5,0,1:0:0:0:
234,197,133410,1,0,1:0:0:0:
241,236,133491,1,0,1:0:0:0:
249,275,133572,1,0,1:0:0:0:
257,314,133653,1,0,1:0:0:0:
304,142,133815,5,0,1:0:0:0:
287,104,133897,1,0,1:0:0:0:
253,82,133978,1,0,1:0:0:0:
213,82,134059,1,0,1:0:0:0:
176,100,134140,1,0,1:0:0:0:
53,245,134301,5,0,1:0:0:0:
44,205,134383,1,0,1:0:0:0:
35,165,134464,1,0,1:0:0:0:
27,125,134545,1,0,1:0:0:0:
19,85,134626,1,0,1:0:0:0:
176,100,134788,5,0,1:0:0:0:
176,100,134869,1,0,1:0:0:0:
176,100,134950,2,0,L|168:145,1,40,0|0,1:0|1:0,0:0:0:0:
129,304,135112,2,0,L|119:240,1,40,0|0,1:0|1:0,0:0:0:0:
97,81,135274,6,0,B|125:5|205:1|265:45|257:129|257:129|256:193|297:224|342:222|375:199|417:214|442:257,1,480,6|0,0:0|1:0,0:0:0:0:
341,132,136410,1,0,0:0:0:0:
330,66,136572,6,0,L|398:98,1,60.0000022888184,2|0,0:3|0:0,0:0:0:0:
465,129,136896,1,2,1:3:0:0:
255,327,137220,2,0,L|196:304,1,60.0000022888184,2|0,0:3|0:0,0:0:0:0:
117,266,137544,1,2,1:3:0:0:
296,84,137869,6,2,P|216:48|120:68,2,180.000006866455,2|2|2,0:3|0:3|1:3,0:3:0:0:
192,168,139166,6,0,L|188:232,1,60.0000022888184,2|0,0:3|0:0,0:0:0:0:
176,360,139491,1,2,1:3:0:0:
272,324,139653,1,0,0:0:0:0:
364,284,139815,1,2,0:3:0:0:
192,168,140139,1,2,1:3:0:0:
376,80,140464,6,4,P|432:128|428:180,1,120.000004577637,6|2,0:0|1:0,0:0:0:0:
404,308,140950,1,0,0:0:0:0:
404,308,141112,2,0,L|332:316,1,60.0000022888184,2|0,0:3|0:0,0:0:0:0:
256,204,141437,1,2,1:3:0:0:
245,179,141518,1,2,0:3:0:0:
235,150,141599,1,2,0:3:0:0:
223,119,141680,1,2,0:3:0:0:
210,85,141761,6,0,P|170:53|94:53,1,120.000004577637,2|0,0:3|1:0,0:0:0:0:
52,200,142247,1,2,0:3:0:0:
52,200,142410,2,0,L|64:264,1,60.0000022888184
184,312,142734,1,2,1:3:0:0:
215,319,142815,1,2,0:3:0:0:
243,327,142896,1,2,0:3:0:0:
269,333,142977,1,2,0:3:0:0:
292,337,143058,6,0,P|340:325|332:265,1,120.000004577637,2|0,0:3|1:0,0:0:0:0:
224,160,143545,1,2,0:3:0:0:
352,96,143707,2,0,P|384:80|408:60,1,60.0000022888184,0|0,0:0|1:0,0:0:0:0:
384,184,144031,1,2,0:0:0:0:
264,80,144193,1,0,0:0:0:0:
224,248,144355,6,0,P|192:264|156:272,1,60.0000022888184,0|2,1:0|0:0,0:0:0:0:
16,200,144680,1,0,0:0:0:0:
80,264,144842,1,0,1:0:0:0:
136,136,145004,2,0,P|168:120|208:112,1,60.0000022888184,0|2,0:0|0:0,0:0:0:0:
376,144,145328,1,0,1:0:0:0:
404,164,145410,1,0,1:0:0:0:
420,192,145491,1,0,1:0:0:0:
420,224,145572,1,0,1:0:0:0:
416,256,145653,6,0,P|392:288|352:304,1,60.0000022888184,6|0,3:2|0:0,0:0:0:0:
240,352,145977,1,0,1:0:0:0:
152,256,146139,1,0,0:0:0:0:
280,224,146301,2,0,L|352:216,1,60.0000022888184,2|0,0:0|0:0,0:0:0:0:
176,136,146626,2,0,L|104:128,1,60.0000022888184,0|0,1:0|0:0,0:0:0:0:
320,96,146950,6,0,L|408:104,2,71.9999978027344,2|0|0,0:0|0:0|1:0,0:0:0:0:
72,48,147437,1,0,0:0:0:0:
72,48,147518,1,0,0:0:0:0:
72,48,147599,2,0,P|28:114|58:198,1,160,2|0,0:0|1:0,0:0:0:0:
208,240,148247,6,0,L|212:332,1,80,2|2,0:0|0:0,0:0:0:0:
376,368,148572,1,0,1:0:0:0:
376,368,148734,2,0,P|388:284|384:204,1,160,2|2,0:0|0:0,0:0:0:0:
361,50,149220,1,0,1:0:0:0:
194,154,149383,5,0,1:0:0:0:
194,154,149464,1,0,1:0:0:0:
194,154,149545,2,0,L|105:164,1,80,2|0,1:2|0:0,0:0:0:0:
360,132,149869,1,8,0:0:0:0:
182,44,150031,2,0,L|90:12,1,80,2|0,1:2|0:0,0:0:0:0:
279,143,150355,1,10,0:0:0:0:
218,287,150518,2,0,L|180:367,1,80,2|0,1:2|3:0,0:0:0:0:
354,339,150761,5,0,3:0:0:0:
354,339,150842,2,0,P|418:329|453:287,1,120,6|0,0:0|0:0,0:0:0:0:
400,152,151166,2,0,L|384:104,1,40,8|0,0:0|0:0,0:0:0:0:
224,32,151328,2,0,L|176:40,1,40
24,144,151491,1,2,0:0:0:0:
24,144,151572,1,0,0:0:0:0:
24,144,151653,2,0,L|73:147,1,40
129,255,151815,1,10,0:0:0:0:
129,255,151896,1,0,0:0:0:0:
129,255,151977,2,0,L|172:233,1,40
260,294,152139,5,2,0:0:0:0:
260,294,152220,1,0,0:0:0:0:
260,294,152301,2,0,L|284:257,1,40
379,265,152464,1,10,0:0:0:0:
379,265,152545,1,0,0:0:0:0:
379,265,152626,2,0,L|381:225,1,40
458,188,152788,1,2,0:0:0:0:
458,188,152869,1,0,0:0:0:0:
457,188,152950,2,0,L|439:152,1,40
484,92,153112,1,10,0:0:0:0:
484,92,153193,1,0,0:0:0:0:
484,92,153274,2,0,L|450:70,1,40
360,40,153437,6,0,L|281:50,1,80,6|0,0:0|0:0,0:0:0:0:
72,208,153761,1,0,0:0:0:0:
72,208,153923,2,0,L|168:224,1,80,0|0,1:0|0:0,0:0:0:0:
384,248,154247,1,0,0:0:0:0:
272,240,154410,1,0,1:0:0:0:
432,184,154572,5,0,3:0:0:0:
464,216,154653,1,0,3:0:0:0:
472,248,154734,1,0,3:0:0:0:
464,280,154815,1,0,3:0:0:0:
440,304,154896,1,0,3:0:0:0:
280,144,155058,2,0,L|392:128,1,80,4|0,3:0|3:0,0:0:0:0:
207,32,155383,6,2,L|212:62,1,20,2|2,0:3|0:3,0:3:0:0:
167,50,155464,2,2,L|179:77,1,20,2|2,0:3|0:3,0:3:0:0:
133,77,155545,2,2,L|152:101,1,20,2|2,0:3|0:3,0:3:0:0:
108,113,155626,2,2,L|132:131,1,20,2|2,0:3|0:3,0:3:0:0:
92,154,155707,2,2,L|121:165,1,20,2|2,0:3|0:3,0:3:0:0:
88,197,155788,2,2,L|119:200,1,20,2|2,0:3|0:3,0:3:0:0:
96,240,155869,2,2,L|126:236,1,20,2|2,0:3|0:3,0:3:0:0:
114,280,155950,2,2,L|141:268,1,20,2|2,0:3|0:3,0:3:0:0:
141,314,156031,5,12,0:0:0:0:
256,120,156193,1,4,0:3:0:0:
256,120,156355,1,4,0:3:0:0:
412,200,156680,1,2,0:0:0:0:
184,216,157004,1,2,0:0:0:0:
314,107,157166,6,0,L|272:112,1,40,2|0,0:0|0:0,0:0:0:0:
74,135,157328,1,8,0:0:0:0:
192,255,157491,6,0,L|182:208,1,40,2|0,0:0|0:0,0:0:0:0:
136,24,157653,1,8,0:0:0:0:
48,56,157977,5,2,0:0:0:0:
208,144,158139,2,0,L|304:192,2,80,8|2|8,0:0|0:0|0:0,0:0:0:0:
248,32,158626,5,2,0:0:0:0:
280,272,158788,1,4,0:3:0:0:
280,272,158950,1,4,0:3:0:0:
416,280,159274,1,2,0:0:0:0:
232,344,159599,1,2,0:0:0:0:
136,228,159761,2,0,L|128:176,1,40,2|0,0:0|0:0,0:0:0:0:
100,16,159923,5,8,0:0:0:0:
264,40,160085,2,0,L|220:52,1,40,2|0,0:0|0:0,0:0:0:0:
36,120,160247,2,0,P|16:168|32:220,1,106.666666666667,8|0,0:0|3:0,0:0:0:0:
88,272,160572,5,0,3:0:0:0:
164,268,160680,5,0,3:0:0:0:
212,208,160788,5,0,3:0:0:0:
224,132,160896,5,0,3:0:0:0:
272,72,161004,5,0,3:0:0:0:
348,64,161112,5,0,3:0:0:0:
420,88,161220,6,0,L|432:224,1,120.000004577637,6|0,3:2|0:0,0:0:0:0:
328,348,161707,1,2,0:0:0:0:
328,348,161869,2,0,L|320:220,1,120.000004577637,2|0,0:0|0:0,0:0:0:0:
248,80,162355,1,2,0:0:0:0:
248,80,162518,6,0,P|300:56|364:56,1,120.000004577637,2|0,0:0|0:0,0:0:0:0:
240,176,163004,1,2,0:0:0:0:
240,176,163166,2,0,L|172:180,1,60.0000022888184,8|2,0:0|0:0,0:0:0:0:
48,104,163491,2,0,L|112:100,1,60.0000022888184,8|2,0:0|0:0,0:0:0:0:
328,100,163815,6,0,P|380:144|368:228,1,160,12|2,0:0|0:0,0:0:0:0:
228,308,164301,1,8,0:0:0:0:
308,176,164464,1,8,0:0:0:0:
112,148,164626,1,0,3:0:0:0:
104,180,164707,1,0,3:0:0:0:
104,212,164788,1,0,3:0:0:0:
112,244,164869,1,0,3:0:0:0:
124,272,164950,2,0,L|144:320,1,40,0|4,3:0|3:0,0:0:0:0:
256,192,165112,12,6,166410,0:0:0:0:
134,123,176788,6,0,L|198:119,1,60.0000022888184,6|0,0:0|0:0,0:0:0:0:
294,108,177112,1,0,0:0:0:0:
367,184,177274,1,0,0:0:0:0:
367,184,177437,2,0,L|347:248,1,60.0000022888184,2|0,0:0|0:0,0:0:0:0:
322,334,177761,1,0,0:0:0:0:
165,369,177923,1,0,0:0:0:0:
165,369,178085,6,0,L|233:353,1,60.0000022888184,2|0,0:0|0:0,0:0:0:0:
254,265,178410,1,0,0:0:0:0:
251,172,178572,1,0,0:0:0:0:
352,127,178734,1,2,0:0:0:0:
436,200,178896,2,0,L|428:277,1,60.0000022888184
254,265,179220,1,0,0:0:0:0:
114,171,179383,6,0,P|103:112|119:56,1,120.000004577637,2|0,0:0|0:0,0:0:0:0:
272,56,179869,1,0,0:0:0:0:
32,216,180031,1,2,0:0:0:0:
242,142,180355,5,0,0:0:0:0:
338,226,180518,1,0,0:0:0:0:
357,334,180680,2,0,P|300:346|236:334,1,120.000004577637,2|0,0:0|0:0,0:0:0:0:
184,152,181166,2,0,P|212:144|255:150,1,60.0000022888184,0|2,0:0|0:0,0:0:0:0:
390,228,181491,1,0,0:0:0:0:
288,227,181653,1,0,0:0:0:0:
341,158,181815,1,0,0:0:0:0:
322,303,181977,6,0,L|262:310,1,60.0000022888184,6|0,0:0|0:0,0:0:0:0:
97,188,182301,2,0,L|157:181,1,60.0000022888184
142,325,182626,2,0,L|83:333,1,60.0000022888184,2|0,0:0|0:0,0:0:0:0:
274,168,182950,2,0,L|334:161,1,60.0000022888184
499,282,183274,6,0,L|439:289,1,60.0000022888184,6|0,0:0|0:0,0:0:0:0:
349,84,183599,2,0,L|409:77,1,60.0000022888184
219,230,183923,2,0,P|193:174|214:110,1,120.000004577637,2|2,0:0|0:0,0:0:0:0:
452,262,184572,2,0,P|478:206|457:142,1,120.000004577637,2|2,0:0|0:0,0:0:0:0:
349,84,185058,1,0,0:0:0:0:
274,168,185220,1,2,0:0:0:0:
399,197,185383,1,0,0:0:0:0:
232,262,185545,1,2,0:0:0:0:
451,321,185707,1,2,0:0:0:0:
200,336,185869,5,2,3:2:0:0:
160,304,185950,1,2,3:2:0:0:
152,256,186031,1,0,3:0:0:0:
168,208,186112,1,0,3:2:0:0:
208,184,186193,1,0,1:0:0:0:
439,128,186355,1,0,3:0:0:0:
462,135,186437,1,0,3:0:0:0:
485,140,186518,1,0,1:0:0:0:
340,44,186680,5,0,1:0:0:0:
297,75,186761,1,0,1:0:0:0:
282,114,186842,1,8,3:2:0:0:
291,156,186923,1,8,3:0:0:0:
320,187,187004,1,4,3:0:0:0:
356,200,187085,1,4,3:0:0:0:
389,197,187166,6,0,P|286:198|228:273,1,191.999994140625,6|0,3:2|1:0,0:0:0:0:
337,294,187653,1,0,0:0:0:0:
152,184,187815,2,0,B|120:280|184:280|153:371,1,191.999994140625,2|0,0:0|1:0,0:0:0:0:
52,222,188301,1,0,0:0:0:0:
196,23,188464,6,0,P|250:14|293:31,1,95.9999970703126,2|0,0:0|0:0,0:0:0:0:
368,192,188788,1,0,1:0:0:0:
160,152,188950,1,0,0:0:0:0:
248,320,189112,1,2,0:0:0:0:
328,80,189274,1,0,0:0:0:0:
248,320,189437,1,0,1:0:0:0:
80,130,189599,1,0,0:0:0:0:
240,232,189761,6,0,P|288:224|328:184,1,95.9999970703126,2|0,0:0|0:0,0:0:0:0:
359,19,190085,1,0,1:0:0:0:
258,156,190247,1,0,0:0:0:0:
488,144,190410,2,0,B|520:240|456:240|488:336,1,191.999994140625,2|0,0:0|1:0,0:0:0:0:
312,344,190896,1,0,0:0:0:0:
408,192,191058,5,2,0:0:0:0:
240,304,191220,1,0,0:0:0:0:
176,120,191383,1,0,1:0:0:0:
376,280,191545,1,0,0:0:0:0:
448,80,191707,2,0,P|400:64|352:80,1,95.9999970703126,2|0,0:0|0:0,0:0:0:0:
224,208,192031,2,0,P|272:224|320:208,1,95.9999970703126,0|0,1:0|0:0,0:0:0:0:
272,48,192355,6,0,P|176:16|80:48,1,191.999994140625,2|0,0:0|1:0,0:0:0:0:
192,256,192842,1,0,0:0:0:0:
400,160,193004,2,0,P|428:121|436:74,1,95.9999970703126,2|0,0:0|0:0,0:0:0:0:
176,112,193328,2,0,P|147:74|141:26,1,95.9999970703126,0|0,1:0|0:0,0:0:0:0:
320,176,193653,6,0,L|300:366,1,191.999994140625,2|0,0:0|1:0,0:0:0:0:
416,304,194139,1,0,0:0:0:0:
210,196,194301,2,0,P|178:148|178:100,1,95.9999970703126,2|0,0:0|0:0,0:0:0:0:
368,112,194626,2,0,P|400:160|400:208,1,95.9999970703126,0|0,1:0|0:0,0:0:0:0:
304,368,194950,5,2,0:0:0:0:
320,176,195112,1,0,0:0:0:0:
160,256,195274,1,0,1:0:0:0:
312,272,195437,1,0,0:0:0:0:
112,160,195599,1,2,0:0:0:0:
280,64,195761,1,0,0:0:0:0:
240,216,195923,1,0,1:0:0:0:
417,151,196085,5,0,3:0:0:0:
417,151,196166,1,0,3:0:0:0:
417,151,196247,1,4,3:0:0:0:
352,16,196410,1,6,0:0:0:0:
480,280,196572,1,6,0:0:0:0:
320,156,196734,1,0,3:0:0:0:
288,145,196815,1,0,3:0:0:0:
254,142,196896,2,0,P|222:110|202:62,2,95.9999970703126,2|0|4,3:2|0:0|3:0,0:0:0:0:
277,167,197301,1,0,3:0:0:0:
299,201,197383,1,0,1:0:0:0:
308,247,197464,1,0,1:0:0:0:
294,291,197545,6,0,P|238:299|190:295,1,95.9999970703126,6|0,3:2|0:0,0:0:0:0:
24,148,197869,1,0,1:0:0:0:
64,320,198031,1,0,0:0:0:0:
24,148,198193,2,0,L|133:138,1,95.9999970703126,2|0,0:0|0:0,0:0:0:0:
364,116,198518,1,0,1:0:0:0:
224,16,198680,1,0,0:0:0:0:
364,116,198842,6,0,L|355:228,1,95.9999970703126,2|0,0:0|0:0,0:0:0:0:
168,356,199166,1,0,1:0:0:0:
332,380,199328,1,0,0:0:0:0:
168,356,199491,2,0,L|155:257,1,95.9999970703126,2|0,0:0|0:0,0:0:0:0:
316,121,199815,1,0,1:0:0:0:
80,80,199977,1,0,0:0:0:0:
320,208,200139,6,0,P|400:176|400:80,1,191.999994140625,2|0,0:0|1:0,0:0:0:0:
208,128,200626,1,0,0:0:0:0:
48,208,200788,2,0,P|32:256|48:304,1,95.9999970703126,2|0,0:0|0:0,0:0:0:0:
192,352,201112,1,0,1:0:0:0:
276,180,201274,5,0,3:0:0:0:
296,152,201355,1,0,3:0:0:0:
336,144,201437,1,4,3:0:0:0:
416,248,201599,1,6,0:0:0:0:
184,160,201761,1,6,0:0:0:0:
336,280,201923,1,0,3:0:0:0:
344,248,202004,1,0,3:0:0:0:
343,217,202085,1,4,3:0:0:0:
265,74,202247,5,0,3:0:0:0:
312,81,202328,1,0,3:0:0:0:
355,88,202410,1,0,3:0:0:0:
392,94,202491,1,0,3:0:0:0:
424,100,202572,1,0,3:0:0:0:
452,105,202653,1,0,3:0:0:0:
474,108,202734,6,0,L|477:48,1,60.0000022888184,6|0,3:2|3:0,0:0:0:0:
420,188,203058,2,0,L|415:248,1,60.0000022888184,2|0,3:2|3:0,0:0:0:0:
330,132,203383,2,0,L|336:53,1,80,2|0,3:2|3:0,0:0:0:0:
282,234,203707,2,0,L|276:314,1,80,2|0,3:2|3:0,0:0:0:0:
111,234,204031,5,2,3:2:0:0:
198,92,204193,1,0,3:0:0:0:
282,234,204355,5,2,3:2:0:0:
109,134,204518,1,0,3:0:0:0:
193,276,204680,5,2,3:2:0:0:
280,134,204842,1,0,3:0:0:0:
295,290,205004,5,2,3:2:0:0:
198,92,205166,1,0,3:0:0:0:
193,276,205328,5,6,3:2:0:0:
273,51,205491,1,0,3:0:0:0:
385,210,205653,5,2,3:2:0:0:
123,133,205815,1,0,3:0:0:0:
405,360,205977,5,2,3:2:0:0:
273,51,206139,1,0,3:0:0:0:
217,371,206301,1,2,3:2:0:0:
473,133,206464,1,0,3:0:0:0:
105,197,206626,1,0,1:0:0:0:
336,128,207112,6,0,L|264:104,2,60.0000022888184
356,208,207599,5,0,1:0:0:0:
400,192,207680,1,0,1:0:0:0:
424,152,207761,1,0,1:0:0:0:
424,108,207842,1,0,1:0:0:0:
396,72,207923,6,0,P|356:44|312:40,1,80,6|0,3:2|0:0,0:0:0:0:
168,88,208247,2,0,P|129:79|97:54,1,80,0|0,1:0|0:0,0:0:0:0:
244,32,208572,1,2,0:0:0:0:
244,32,208733,1,0,0:0:0:0:
308,200,208896,2,0,P|284:232|252:256,1,80,0|0,1:0|0:0,0:0:0:0:
96,320,209139,5,0,0:0:0:0:
96,320,209220,2,0,P|80:288|84:244,1,80,2|0,0:0|0:0,0:0:0:0:
232,108,209544,1,0,1:0:0:0:
352,240,209706,1,0,0:0:0:0:
416,52,209868,1,2,0:0:0:0:
416,52,210030,1,0,0:0:0:0:
436,232,210193,2,0,P|428:276|400:312,1,80,0|0,1:0|0:0,0:0:0:0:
236,352,210436,5,0,0:0:0:0:
236,352,210517,2,0,P|164:352|104:288,1,160,2|0,0:0|1:0,0:0:0:0:
124,104,211003,1,0,0:0:0:0:
8,220,211166,1,2,0:0:0:0:
204,248,211328,1,0,0:0:0:0:
232,60,211490,2,0,P|224:108|240:144,1,80,0|0,1:0|0:0,0:0:0:0:
355,289,211814,6,0,L|364:208,1,80,2|0,0:0|0:0,0:0:0:0:
356,36,212139,1,0,1:0:0:0:
351,44,212220,1,0,3:0:0:0:
348,51,212301,1,0,3:0:0:0:
344,58,212382,1,0,1:0:0:0:
340,65,212463,1,2,3:2:0:0:
232,216,212626,1,0,0:0:0:0:
288,136,212787,1,0,1:0:0:0:
160,312,212950,5,0,3:0:0:0:
160,312,213030,1,0,3:0:0:0:
160,312,213112,2,0,P|100:272|104:188,1,160,6|0,3:2|1:0,0:0:0:0:
225,62,213598,1,0,0:0:0:0:
175,229,213760,1,2,0:0:0:0:
319,275,213922,1,0,0:0:0:0:
384,112,214085,2,0,L|296:104,1,80,0|0,1:0|0:0,0:0:0:0:
161,42,214328,5,0,0:0:0:0:
161,42,214410,2,0,P|89:43|43:133,1,160,2|0,0:0|1:0,0:0:0:0:
124,117,214896,1,0,3:0:0:0:
124,117,214977,1,0,3:0:0:0:
124,117,215058,2,0,L|99:280,1,160,2|0,3:2|1:0,0:0:0:0:
178,281,215545,5,0,3:0:0:0:
178,281,215626,1,0,3:0:0:0:
178,281,215707,2,0,P|131:349|49:339,1,160,2|0,3:2|1:0,0:0:0:0:
254,295,216193,2,0,L|252:242,2,40,0|0|2,3:0|3:0|3:2,0:0:0:0:
178,281,216518,1,0,1:0:0:0:
186,331,216599,1,0,1:0:0:0:
225,364,216680,1,0,1:0:0:0:
276,367,216761,1,0,1:0:0:0:
318,337,216842,1,0,1:0:0:0:
364,314,216923,1,0,1:0:0:0:
415,322,217004,5,4,3:0:0:0:
267,234,217166,1,6,0:0:0:0:
508,97,217328,1,6,0:0:0:0:
373,159,217491,2,0,L|362:199,2,40,0|0|2,3:0|3:0|3:2,3:0:0:0:
428,104,217815,1,0,1:0:0:0:
381,81,217896,1,0,1:0:0:0:
330,92,217977,1,0,1:0:0:0:
298,133,218058,1,0,1:0:0:0:
258,166,218139,1,0,1:0:0:0:
206,165,218220,1,0,1:0:0:0:
162,136,218301,6,0,L|136:96,1,40,4|0,3:0|0:0,0:0:0:0:
64,272,218464,1,2,0:0:0:0:
55,297,218545,1,2,0:0:0:0:
48,320,218626,1,6,0:0:0:0:
200,224,218788,1,2,0:0:0:0:
366,236,218950,2,0,P|378:196|369:151,1,80,2|0,0:0|0:0,0:0:0:0:
256,24,219274,2,0,P|244:64|253:109,1,80,0|0,1:0|0:0,0:0:0:0:
148,261,219599,6,0,P|192:253|236:237,1,80,2|0,0:0|0:0,0:0:0:0:
404,87,219923,2,0,P|380:123|372:171,1,80,0|0,1:0|0:0,0:0:0:0:
424,344,220247,1,2,0:0:0:0:
440,336,220409,1,0,0:0:0:0:
288,184,220572,2,0,P|248:164|204:160,1,80,0|0,1:0|0:0,0:0:0:0:
40,160,220815,5,0,0:0:0:0:
40,160,220896,2,0,P|52:120|48:76,1,80,2|0,0:0|0:0,0:0:0:0:
200,48,221220,1,0,1:0:0:0:
232,216,221382,1,0,0:0:0:0:
72,248,221544,1,2,0:0:0:0:
136,112,221706,1,0,0:0:0:0:
168,264,221869,2,0,P|208:292|256:296,1,80,0|0,1:0|0:0,0:0:0:0:
432,296,222112,5,0,0:0:0:0:
432,296,222193,2,0,P|392:220|388:144,1,160,2|4,0:0|1:2,0:0:0:0:
264,20,222679,1,0,0:0:0:0:
100,152,222842,1,2,0:0:0:0:
292,248,223004,1,0,0:0:0:0:
208,80,223166,1,0,3:0:0:0:
204,92,223247,1,0,3:0:0:0:
200,104,223328,2,0,L|192:148,1,40,0|0,3:0|3:0,0:0:0:0:
240,344,223490,6,0,P|220:304|224:264,1,80,6|0,0:0|0:0,0:0:0:0:
316,128,223815,2,0,P|356:120|400:124,1,80,0|0,1:0|0:0,0:0:0:0:
424,312,224139,1,2,0:0:0:0:
412,292,224301,1,0,0:0:0:0:
240,344,224464,2,0,P|192:340|160:332,1,80,0|0,1:0|0:0,0:0:0:0:
44,220,224707,5,0,0:0:0:0:
44,220,224788,2,0,P|80:200|104:164,1,80,2|0,0:0|0:0,0:0:0:0:
228,64,225112,2,0,P|308:40|388:48,2,160,6|2|6,1:2|3:2|1:2,0:2:0:0:
160,232,226085,6,0,P|220:176|300:160,1,160,6|0,0:0|1:0,0:0:0:0:
412,304,226572,1,0,0:0:0:0:
272,348,226734,2,0,P|260:304|272:256,1,80,2|0,0:0|0:0,0:0:0:0:
349,105,227058,2,0,P|316:125|290:176,1,80,2|0,0:0|0:0,0:0:0:0:
116,312,227383,6,0,P|144:280|164:240,1,80,2|0,0:0|0:0,0:0:0:0:
172,40,227707,2,0,P|192:80|228:108,1,80,2|0,0:0|0:0,0:0:0:0:
368,176,228031,1,0,3:0:0:0:
363,203,228112,1,0,3:0:0:0:
349,227,228193,1,0,3:0:0:0:
326,243,228274,1,0,3:0:0:0:
298,246,228355,1,0,3:0:0:0:
94,146,228518,6,2,L|157:156,1,40
291,171,228680,1,8,3:2:0:0:
452,99,228842,6,0,L|401:120,1,40,0|0,3:0|3:0,0:0:0:0:
204,210,229004,1,4,0:0:0:0:
256,192,229085,12,0,234518,0:0:0:0:
