osu file format v14

[General]
AudioFilename: audio.mp3
AudioLeadIn: 0
PreviewTime: 183923
Countdown: 1
SampleSet: Soft
StackLeniency: 0.7
Mode: 0
LetterboxInBreaks: 0
WidescreenStoryboard: 1

[Editor]
Bookmarks: 28896,34734,47707,51437,93031,150031,182301,192031
DistanceSpacing: 1.4
BeatDivisor: 4
GridSize: 8
TimelineZoom: 2.4

[Metadata]
Title:Hoshizora no Ima
TitleUnicode:Hoshizora no Ima
Artist:Sagara Kokoro
ArtistUnicode:Sagara Kokoro
Creator:-Hoshizora
Version:Normal
Source:Hoshizora e Kakaru Hashi
Tags:
BeatmapID:1374234
BeatmapSetID:594733

[Difficulty]
HPDrainRate:3
CircleSize:3
OverallDifficulty:3
ApproachRate:4
SliderMultiplier:0.800000005960464
SliderTickRate:1

[Events]
//Background and Video events
0,0,"bg4.jpg",0,0
//Break Periods
2,62826,70873
//Storyboard Layer 0 (Background)
//Storyboard Layer 1 (Fail)
//Storyboard Layer 2 (Pass)
//Storyboard Layer 3 (Foreground)
//Storyboard Sound Samples

[TimingPoints]
356,324.324324324324,4,2,1,40,1,0
31491,-100,4,2,1,65,0,1
50950,-100,4,2,1,65,0,0

[HitObjects]
158,129,356,6,0,L|163:211,1,80.0000005960464
212,283,1004,2,0,P|251:298|296:282,1,80.0000005960464
324,208,1653,6,0,L|409:202,1,80.0000005960464
475,151,2301,2,0,P|473:113|438:78,1,80.0000005960464
371,35,2950,5,0,0:0:0:0:
306,94,3274,1,0,0:0:0:0:
241,35,3599,1,0,0:0:0:0:
176,94,3923,2,0,P|163:115|157:143,1,40.0000002980232
241,155,4247,6,0,P|239:184|231:211,2,40.0000002980232
136,279,4896,6,0,P|109:284|87:290,1,40.0000002980232
126,366,5220,1,0,0:0:0:0:
207,333,5545,6,0,P|249:319|298:316,1,80.0000005960464
380,322,6193,2,0,P|419:317|457:304,1,80.0000005960464
475,218,6842,1,0,0:0:0:0:
236,194,7491,6,0,P|200:176|180:142,1,80.0000005960464
223,65,8139,6,0,P|156:56|94:123,1,160.000001192093
71,203,9112,1,0,0:0:0:0:
96,287,9437,2,0,L|56:290,2,40.0000002980232
260,342,10247,6,0,L|272:216,1,120.00000089407
352,188,11058,1,0,0:0:0:0:
400,112,11383,2,0,P|388:72|356:40,1,80.0000005960464
297,118,12031,6,0,L|200:111,1,80.0000005960464
173,188,12680,1,0,0:0:0:0:
260,192,13004,2,0,L|299:196,1,40.0000002980232
276,233,13328,5,0,0:0:0:0:
351,278,13653,1,0,0:0:0:0:
276,323,13977,1,0,0:0:0:0:
200,280,14301,2,0,P|173:279|149:284,1,40.0000002980232
88,328,14626,6,0,L|81:383,2,40.0000002980232
60,208,15274,2,0,L|25:163,2,40.0000002980232
160,281,15923,2,0,B|247:281|215:249|296:249|296:249|355:239|357:172,1,240.000001788139
335,96,17220,5,0,0:0:0:0:
259,50,17545,1,0,0:0:0:0:
179,88,17869,2,0,P|140:93|102:83,1,80.0000005960464
20,49,18518,6,0,L|24:144,1,80.0000005960464
99,173,19166,2,0,L|95:268,1,80.0000005960464
69,337,19815,6,0,P|118:333|157:344,1,80.0000005960464
235,347,20464,2,0,P|242:328|246:292,1,40.0000002980232
312,260,20788,2,0,P|305:241|301:205,1,40.0000002980232
224,180,21112,6,0,P|249:149|288:136,1,80.0000005960464
372,164,21761,2,0,P|398:134|402:95,1,80.0000005960464
479,52,22410,5,0,0:0:0:0:
479,139,22734,1,0,0:0:0:0:
402,95,23058,2,0,P|364:68|352:32,1,80.0000005960464
196,60,23707,6,0,P|136:41|80:65,1,120.00000089407
0,60,24355,2,0,P|24:118|78:145,1,120.00000089407
164,148,25004,5,0,0:0:0:0:
116,221,25328,1,0,0:0:0:0:
183,285,25653,2,0,L|221:313,1,40.0000002980232
269,240,25977,2,0,L|301:216,1,40.0000002980232
355,285,26301,6,0,P|397:308|441:295,1,80.0000005960464
486,238,26950,2,0,P|444:215|400:228,1,80.0000005960464
360,149,27599,5,0,0:0:0:0:
202,71,28247,2,0,L|115:79,1,80.0000005960464
48,127,28896,6,0,P|16:184|40:240,1,120.00000089407
111,263,29545,1,0,0:0:0:0:
196,188,29869,2,0,L|217:183,4,20.0000001490116
296,192,30518,6,0,L|344:200,4,40.0000002980232
364,340,31491,6,0,P|328:364|280:364,1,80.0000005960464
192,300,32139,2,0,P|228:276|276:276,1,80.0000005960464
336,196,32788,6,0,P|352:160|348:116,1,80.0000005960464
248,92,33437,2,0,P|224:88|196:76,1,40.0000002980232
142,37,33761,2,0,P|123:30|104:28,1,40.0000002980232
24,40,34085,6,0,L|32:168,1,120.00000089407
104,204,34734,2,0,L|96:296,1,80.0000005960464
176,352,35383,6,0,L|264:344,1,80.0000005960464
335,278,36031,2,0,L|415:286,1,80.0000005960464
484,208,36680,6,0,P|480:148|444:96,1,120.00000089407
364,112,37328,2,0,L|280:104,1,80.0000005960464
196,52,37977,5,0,0:0:0:0:
116,116,38301,2,0,L|76:104,2,40.0000002980232
208,156,38950,1,0,0:0:0:0:
124,216,39274,6,0,P|88:268|108:328,1,120.00000089407
184,348,39923,2,0,L|304:344,1,120.00000089407
384,344,40572,2,0,L|396:300,1,40.0000002980232
352,236,40896,5,0,0:0:0:0:
448,200,41220,2,0,P|476:172|480:124,1,80.0000005960464
352,88,41869,6,0,L|264:96,1,80.0000005960464
192,144,42518,2,0,L|104:136,1,80.0000005960464
24,84,43166,6,0,L|32:172,1,80.0000005960464
52,264,43815,2,0,L|92:260,1,40.0000002980232
168,208,44139,2,0,L|216:212,1,40.0000002980232
268,268,44464,6,0,P|328:284|356:340,1,120.00000089407
436,372,45112,2,0,L|452:276,1,80.0000005960464
480,196,45761,6,0,L|472:108,1,80.0000005960464
380,72,46247,2,0,L|372:151,1,80.0000005960464
208,312,47058,6,0,L|164:308,3,40.0000002980232
284,276,47707,2,0,L|328:272,3,40.0000002980232
208,232,48355,6,0,L|164:228,3,40.0000002980232
284,196,49004,2,0,L|328:192,3,40.0000002980232
216,144,49653,6,0,L|164:140,3,40.0000002980232
268,76,50301,2,0,L|268:24,1,40.0000002980232
316,144,50626,2,0,L|355:140,1,40.0000002980232
452,132,50950,5,0,0:0:0:0:
348,308,51599,6,0,L|304:304,1,40.0000002980232
232,332,51923,2,0,L|188:336,1,40.0000002980232
112,320,52247,6,0,P|76:288|64:244,1,80.0000005960464
104,176,52896,2,0,L|112:96,1,80.0000005960464
200,48,53545,6,0,P|252:40|292:48,1,80.0000005960464
344,124,54193,2,0,L|332:172,1,40.0000002980232
304,240,54518,2,0,L|256:236,1,40.0000002980232
232,160,54842,6,0,P|196:184|180:228,1,80.0000005960464
212,316,55491,2,0,P|256:316|304:320,1,80.0000005960464
396,300,56139,6,0,P|400:256|400:216,1,80.0000005960464
432,120,56788,2,0,P|408:116|380:104,1,40.0000002980232
346,45,57112,2,0,P|327:38|308:36,1,40.0000002980232
228,36,57437,6,0,L|240:128,1,80.0000005960464
280,208,58085,2,0,P|236:204|196:208,1,80.0000005960464
100,228,58734,6,0,L|112:136,1,80.0000005960464
72,56,59383,2,0,P|112:44|152:56,1,80.0000005960464
248,80,60031,6,0,P|240:120|240:160,1,80.0000005960464
188,252,60680,2,0,P|176:272|160:288,2,40.0000002980232
292,256,61328,6,0,L|340:248,1,40.0000002980232
412,256,61653,2,0,L|456:236,1,40.0000002980232
484,164,61977,2,0,P|480:116|456:88,1,80.0000005960464
368,44,62626,5,0,0:0:0:0:
104,268,72193,6,0,P|160:256|200:264,1,80.0000005960464
284,284,72842,6,0,L|284:316,2,20.0000001490116
392,248,73328,2,0,P|424:220|436:180,1,80.0000005960464
424,84,73977,1,0,0:0:0:0:
328,48,74301,6,0,P|284:56|232:56,1,80.0000005960464
144,68,74950,2,0,P|152:112|184:140,1,80.0000005960464
272,180,75599,5,0,0:0:0:0:
190,240,75923,1,0,0:0:0:0:
283,279,76247,1,0,0:0:0:0:
384,304,76572,2,0,L|392:256,1,40.0000002980232
440,200,76896,6,0,L|432:152,1,40.0000002980232
352,144,77220,2,0,L|344:96,1,40.0000002980232
264,88,77545,2,0,L|256:136,1,40.0000002980232
176,144,77869,1,0,0:0:0:0:
224,272,78193,6,0,P|140:284|72:232,1,160.000001192093
40,88,79166,2,0,L|48:40,1,40.0000002980232
128,32,79491,6,0,P|160:28|212:36,1,80.0000005960464
304,64,80139,1,0,0:0:0:0:
356,152,80464,1,0,0:0:0:0:
312,240,80788,6,0,P|272:256|232:288,1,80.0000005960464
136,360,81437,2,0,L|124:308,1,40.0000002980232
60,276,81761,2,0,L|72:224,1,40.0000002980232
136,192,82085,6,0,P|128:152|96:112,1,80.0000005960464
0,16,82734,2,0,L|52:8,1,40.0000002980232
120,17,83058,2,0,L|160:24,1,40.0000002980232
241,32,83383,6,0,P|284:40|328:32,1,80.0000005960464
484,32,84031,2,0,L|476:116,1,80.0000005960464
456,216,84680,5,0,0:0:0:0:
392,296,85004,1,0,0:0:0:0:
304,352,85328,2,0,P|268:352|224:340,1,80.0000005960464
112,332,85977,6,0,L|100:240,1,80.0000005960464
172,176,86626,2,0,L|184:84,1,80.0000005960464
268,52,87274,6,0,L|368:40,1,80.0000005960464
444,80,87923,2,0,L|452:124,2,26.6666668653488
400,172,88247,2,0,L|392:216,2,26.6666668653488
440,272,88572,6,0,L|464:380,1,80.0000005960464
360,348,89220,2,0,L|264:336,1,80.0000005960464
176,308,89869,5,0,0:0:0:0:
72,64,90518,2,0,L|156:68,1,80.0000005960464
256,84,91166,6,0,L|244:156,1,40.0000002980232
288,196,91491,2,0,L|300:268,1,40.0000002980232
256,308,91815,2,0,P|336:308|376:244,1,160.000001192093
480,168,92788,6,0,L|472:124,1,40.0000002980232
492,48,93112,2,0,P|448:40|396:44,1,80.0000005960464
264,48,93761,6,0,P|232:68|188:76,1,80.0000005960464
88,64,94410,2,0,L|100:160,1,80.0000005960464
192,188,95058,6,0,L|180:284,1,80.0000005960464
128,356,95707,2,0,L|192:344,1,40.0000002980232
244,324,96031,2,0,L|308:336,1,40.0000002980232
356,368,96355,6,0,P|408:324|424:268,1,120.00000089407
448,200,97004,2,0,L|356:188,1,80.0000005960464
240,232,97653,6,0,L|236:176,1,40.0000002980232
168,152,97977,2,0,L|170:112,1,40.0000002980232
216,44,98301,2,0,P|180:32|128:44,1,80.0000005960464
32,160,98950,6,0,L|40:244,1,80.0000005960464
