osu file format v14

[General]
AudioFilename: audio.mp3
AudioLeadIn: 0
PreviewTime: 120864
Countdown: 0
SampleSet: Soft
StackLeniency: 0.7
Mode: 0
LetterboxInBreaks: 0
WidescreenStoryboard: 0

[Editor]
Bookmarks: 47607,88170,121973,176057,189713
DistanceSpacing: 0.7
BeatDivisor: 16
GridSize: 32
TimelineZoom: 2.3

[Metadata]
Title:Anywhere But Here
TitleUnicode:Anywhere But Here
Artist:SafetySuit
ArtistUnicode:SafetySuit
Creator:HowRengar
Version:Insane
Source:
Tags:English Rock Life Left to Go
BeatmapID:2921031
BeatmapSetID:1417637

[Difficulty]
HPDrainRate:6
CircleSize:5
OverallDifficulty:8.8
ApproachRate:9
SliderMultiplier:2.8
SliderTickRate:1

[Events]
//Background and Video events
0,0,"bg.png",0,0
//Break Periods
2,187523,188837
//Storyboard Layer 0 (Background)
//Storyboard Layer 1 (Fail)
//Storyboard Layer 2 (Pass)
//Storyboard Layer 3 (Foreground)
//Storyboard Layer 4 (Overlay)
//Storyboard Sound Samples

[TimingPoints]
-13238,845.070422535211,4,2,1,40,1,0
71,-200,4,2,1,40,0,0
3980,-200,4,2,1,5,0,0
4085,-200,4,2,1,40,0,0
13804,-250,4,2,1,40,0,0
17501,-250,4,2,1,5,0,0
17607,-250,4,2,1,40,0,0
19614,-250,4,2,1,5,0,0
19720,-250,4,2,1,40,0,0
20881,-250,4,2,1,5,0,0
20987,-250,4,2,1,40,0,0
25107,-250,4,2,1,5,0,0
25213,-250,4,2,1,40,0,0
27325,-222.222222222222,4,2,1,40,0,0
27642,-222.222222222222,4,2,1,5,0,0
27747,-222.222222222222,4,2,1,40,0,0
31022,-222.222222222222,4,2,1,5,0,0
31127,-222.222222222222,4,2,1,40,0,0
34402,-222.222222222222,4,2,1,5,0,0
34507,-222.222222222222,4,2,1,40,0,0
35247,-222.222222222222,4,2,1,5,0,0
35352,-222.222222222222,4,2,1,40,0,0
36938,-222.222222222222,4,2,1,5,0,0
37043,-222.222222222222,4,2,1,40,0,0
37783,-222.222222222222,4,2,1,5,0,0
37888,-222.222222222222,4,2,1,40,0,0
40846,-200,4,2,1,50,0,0
46761,-200,4,2,1,5,0,0
47607,-111.111111111111,4,2,1,60,0,0
47923,-111.111111111111,4,2,1,5,0,0
48029,-111.111111111111,4,2,1,60,0,0
48769,-111.111111111111,4,2,1,5,0,0
48875,-111.111111111111,4,2,1,60,0,0
50459,-111.111111111111,4,2,1,5,0,0
50565,-111.111111111111,4,2,1,60,0,0
51304,-111.111111111111,4,2,1,5,0,0
51410,-111.111111111111,4,2,1,60,0,0
52149,-111.111111111111,4,2,1,5,0,0
52255,-111.111111111111,4,2,1,60,0,0
53839,-111.111111111111,4,2,1,5,0,0
53945,-111.111111111111,4,2,1,60,0,0
54684,-111.111111111111,4,2,1,5,0,0
54790,-111.111111111111,4,2,1,60,0,0
55529,-111.111111111111,4,2,1,5,0,0
55635,-111.111111111111,4,2,1,60,0,0
57219,-111.111111111111,4,2,1,5,0,0
57325,-111.111111111111,4,2,1,60,0,0
58909,-111.111111111111,4,2,1,5,0,0
59015,-111.111111111111,4,2,1,60,0,0
61445,-111.111111111111,4,2,1,5,0,0
61551,-111.111111111111,4,2,1,60,0,0
62290,-111.111111111111,4,2,1,5,0,0
62396,-111.111111111111,4,2,1,60,0,0
64825,-111.111111111111,4,2,1,5,0,0
64931,-111.111111111111,4,2,1,60,0,0
65670,-111.111111111111,4,2,1,5,0,0
65776,-111.111111111111,4,2,1,60,0,0
67360,-111.111111111111,4,2,1,5,0,0
67466,-111.111111111111,4,2,1,60,0,0
68205,-111.111111111111,4,2,1,5,0,0
68311,-111.111111111111,4,2,1,60,0,0
69050,-111.111111111111,4,2,1,5,0,0
69156,-111.111111111111,4,2,1,60,0,0
70740,-111.111111111111,4,2,1,5,0,0
70846,-111.111111111111,4,2,1,60,0,0
71163,-111.111111111111,4,2,1,5,0,0
71269,-111.111111111111,4,2,1,60,0,0
71374,-111.111111111111,4,2,1,5,0,0
71480,-111.111111111111,4,2,1,60,0,0
71797,-111.111111111111,4,2,1,5,0,0
71903,-111.111111111111,4,2,1,60,0,0
72219,-111.111111111111,4,2,1,5,0,0
72325,-111.111111111111,4,2,1,60,0,0
73064,-111.111111111111,4,2,1,5,0,0
73170,-111.111111111111,4,2,1,60,0,0
74121,-111.111111111111,4,2,1,5,0,0
74227,-111.111111111111,4,2,1,60,0,0
74649,-90.9090909090909,4,2,1,70,0,0
74966,-90.9090909090909,4,2,1,5,0,0
75071,-90.9090909090909,4,2,1,70,0,0
75177,-90.9090909090909,4,2,1,5,0,0
75282,-90.9090909090909,4,2,1,70,0,0
75388,-90.9090909090909,4,2,1,5,0,0
75493,-90.9090909090909,4,2,1,70,0,0
76022,-90.9090909090909,4,2,1,5,0,0
76127,-90.9090909090909,4,2,1,70,0,0
76233,-90.9090909090909,4,2,1,5,0,0
76338,-90.9090909090909,4,2,1,70,0,0
76656,-90.9090909090909,4,2,1,5,0,0
76761,-90.9090909090909,4,2,1,70,0,0
77078,-90.9090909090909,4,2,1,5,0,0
77183,-90.9090909090909,4,2,1,70,0,0
77501,-90.9090909090909,4,2,1,5,0,0
77606,-90.9090909090909,4,2,1,70,0,0
77923,-90.9090909090909,4,2,1,5,0,0
78028,-90.9090909090909,4,2,1,70,0,0
78346,-90.9090909090909,4,2,1,5,0,0
78451,-90.9090909090909,4,2,1,70,0,0
78557,-90.9090909090909,4,2,1,5,0,0
78662,-90.9090909090909,4,2,1,70,0,0
78769,-90.9090909090909,4,2,1,5,0,0
78874,-90.9090909090909,4,2,1,70,0,0
79402,-90.9090909090909,4,2,1,5,0,0
79507,-90.9090909090909,4,2,1,70,0,0
79614,-90.9090909090909,4,2,1,5,0,0
79719,-90.9090909090909,4,2,1,70,0,0
80036,-90.9090909090909,4,2,1,5,0,0
80141,-90.9090909090909,4,2,1,70,0,0
80459,-90.9090909090909,4,2,1,5,0,0
80564,-90.9090909090909,4,2,1,70,0,0
80881,-90.9090909090909,4,2,1,5,0,0
80986,-90.9090909090909,4,2,1,70,0,0
81304,-90.9090909090909,4,2,1,5,0,0
81409,-90.9090909090909,4,2,1,70,0,0
81726,-90.9090909090909,4,2,1,5,0,0
81831,-90.9090909090909,4,2,1,70,0,0
81938,-90.9090909090909,4,2,1,5,0,0
82043,-90.9090909090909,4,2,1,70,0,0
82149,-90.9090909090909,4,2,1,5,0,0
82254,-90.9090909090909,4,2,1,70,0,0
82783,-90.9090909090909,4,2,1,5,0,0
82888,-90.9090909090909,4,2,1,70,0,0
82994,-90.9090909090909,4,2,1,5,0,0
83099,-90.9090909090909,4,2,1,70,0,0
83416,-90.9090909090909,4,2,1,5,0,0
83521,-90.9090909090909,4,2,1,70,0,0
83839,-90.9090909090909,4,2,1,5,0,0
83944,-90.9090909090909,4,2,1,70,0,0
84261,-90.9090909090909,4,2,1,5,0,0
84366,-90.9090909090909,4,2,1,70,0,0
86480,-90.9090909090909,4,2,1,5,0,0
86902,-133.333333333333,4,2,1,60,0,0
86955,-133.333333333333,4,2,1,5,0,0
87114,-133.333333333333,4,2,1,60,0,0
87747,-666.666666666667,4,2,1,60,0,0
88064,-666.666666666667,4,2,1,5,0,0
88170,-100,4,2,1,60,0,0
88487,-100,4,2,1,5,0,0
88592,-100,4,2,1,60,0,0
91022,-100,4,2,1,5,0,0
91127,-100,4,2,1,60,0,0
91867,-100,4,2,1,5,0,0
91972,-100,4,2,1,60,0,0
94402,-100,4,2,1,5,0,0
94507,-100,4,2,1,60,0,0
95247,-100,4,2,1,5,0,0
95352,-100,4,2,1,60,0,0
96726,-100,4,2,1,5,0,0
96831,-100,4,2,1,60,0,0
97783,-100,4,2,1,5,0,0
97888,-100,4,2,1,60,0,0
98628,-100,4,2,1,5,0,0
98733,-100,4,2,1,60,0,0
99473,-100,4,2,1,5,0,0
99578,-100,4,2,1,60,0,0
100635,-80,4,2,1,60,0,0
100952,-80,4,2,1,5,0,0
101057,-80,4,2,1,60,0,0
101269,-500,4,2,1,60,0,0
101585,-500,4,2,1,5,0,0
101691,-100,4,2,1,60,0,0
102008,-100,4,2,1,5,0,0
102114,-100,4,2,1,60,0,0
102853,-100,4,2,1,5,0,0
102958,-100,4,2,1,60,0,0
105388,-100,4,2,1,5,0,0
105493,-100,4,2,1,60,0,0
107607,-400,4,2,1,60,0,0
108452,-100,4,2,1,60,0,0
108769,-100,4,2,1,5,0,0
108874,-100,4,2,1,60,0,0
109614,-100,4,2,1,5,0,0
109719,-100,4,2,1,60,0,0
111304,-100,4,2,1,5,0,0
111409,-100,4,2,1,60,0,0
112149,-100,4,2,1,5,0,0
112254,-100,4,2,1,60,0,0
113628,-100,4,2,1,5,0,0
113733,-100,4,2,1,60,0,0
114790,-666.666666666667,4,2,1,60,0,0
115107,-666.666666666667,4,2,1,5,0,0
115212,-86.9565217391304,4,2,1,60,0,0
115529,-86.9565217391304,4,2,1,5,0,0
115635,-86.9565217391304,4,2,1,60,0,0
118909,-86.9565217391304,4,2,1,5,0,0
119015,-86.9565217391304,4,2,1,60,0,0
119754,-86.9565217391304,4,2,1,5,0,0
119860,-66.6666666666667,4,2,1,60,0,0
120494,-400,4,2,1,40,0,0
120600,-400,4,2,1,5,0,0
120705,-133.333333333333,4,2,1,45,0,0
120811,-133.333333333333,4,2,1,5,0,0
120916,-100,4,2,1,50,0,0
121022,-100,4,2,1,5,0,0
121128,-66.6666666666667,4,2,1,55,0,0
121233,-66.6666666666667,4,2,1,5,0,0
121339,-50,4,2,1,60,0,0
121445,-50,4,2,1,5,0,0
121550,-40,4,2,1,65,0,0
121656,-40,4,2,1,5,0,0
121761,-33.3333333333333,4,2,1,70,0,0
121867,-33.3333333333333,4,2,1,5,0,0
121973,-50,4,2,1,80,0,1
122290,-50,4,2,1,5,0,1
122395,-50,4,2,1,80,0,1
123135,-50,4,2,1,5,0,1
123240,-50,4,2,1,80,0,1
124825,-50,4,2,1,5,0,1
124930,-50,4,2,1,80,0,1
125670,-50,4,2,1,5,0,1
125775,-50,4,2,1,80,0,1
126515,-50,4,2,1,5,0,1
126620,-50,4,2,1,80,0,1
128205,-50,4,2,1,5,0,1
128310,-50,4,2,1,80,0,1
129050,-50,4,2,1,5,0,1
129155,-50,4,2,1,80,0,1
129895,-50,4,2,1,5,0,1
130000,-50,4,2,1,80,0,1
131585,-50,4,2,1,5,0,1
131691,-200,4,2,1,80,0,1
132008,-200,4,2,1,5,0,1
132114,-50,4,2,1,80,0,1
132219,-50,4,2,1,5,0,1
132324,-50,4,2,1,80,0,1
132642,-50,4,2,1,5,0,1
132747,-50,4,2,1,80,0,1
132853,-50,4,2,1,5,0,1
132958,-50,4,2,1,80,0,1
133276,-50,4,2,1,5,0,1
133381,-50,4,2,1,80,0,1
133487,-50,4,2,1,5,0,1
133592,-50,4,2,1,80,0,1
133909,-50,4,2,1,5,0,1
134014,-50,4,2,1,80,0,1
134121,-50,4,2,1,5,0,1
134226,-50,4,2,1,80,0,1
134543,-50,4,2,1,5,0,1
134648,-50,4,2,1,80,0,1
135071,-400,4,2,1,80,0,1
135388,-400,4,2,1,5,0,1
135494,-50,4,2,1,80,0,1
135811,-50,4,2,1,5,0,1
135916,-50,4,2,1,80,0,1
136656,-50,4,2,1,5,0,1
136761,-50,4,2,1,80,0,1
139191,-50,4,2,1,5,0,1
139296,-50,4,2,1,80,0,1
140036,-50,4,2,1,5,0,1
140141,-50,4,2,1,80,0,1
141726,-50,4,2,1,5,0,1
141831,-50,4,2,1,80,0,1
142571,-50,4,2,1,5,0,1
142676,-50,4,2,1,80,0,1
143416,-50,4,2,1,5,0,1
143521,-50,4,2,1,80,0,1
145107,-50,4,2,1,5,0,1
145212,-200,4,2,1,80,0,1
145529,-200,4,2,1,5,0,1
145635,-50,4,2,1,80,0,1
145740,-50,4,2,1,5,0,1
145846,-50,4,2,1,80,0,1
146163,-50,4,2,1,5,0,1
146269,-50,4,2,1,80,0,1
146374,-50,4,2,1,5,0,1
146480,-50,4,2,1,80,0,1
146585,-50,4,2,1,5,0,1
146691,-50,4,2,1,80,0,1
147008,-50,4,2,1,5,0,1
147114,-50,4,2,1,80,0,1
149332,-50,4,2,1,5,0,1
149438,-50,4,2,1,80,0,1
149543,-50,4,2,1,5,0,1
149649,-50,4,2,1,80,0,1
149754,-50,4,2,1,5,0,1
149860,-50,4,2,1,80,0,1
150388,-50,4,2,1,5,0,1
150494,-50,4,2,1,80,0,1
150600,-50,4,2,1,5,0,1
150706,-50,4,2,1,80,0,1
151022,-50,4,2,1,5,0,1
151128,-50,4,2,1,80,0,1
151445,-50,4,2,1,5,0,1
151551,-50,4,2,1,80,0,1
151867,-50,4,2,1,5,0,1
151973,-50,4,2,1,80,0,1
152712,-50,4,2,1,5,0,1
152818,-50,4,2,1,80,0,1
152923,-50,4,2,1,5,0,1
153029,-50,4,2,1,80,0,1
153135,-50,4,2,1,5,0,1
153241,-50,4,2,1,80,0,1
153769,-50,4,2,1,5,0,1
153875,-50,4,2,1,80,0,1
153980,-50,4,2,1,5,0,1
154086,-50,4,2,1,80,0,1
154402,-50,4,2,1,5,0,1
154508,-50,4,2,1,80,0,1
154825,-50,4,2,1,5,0,1
154931,-50,4,2,1,80,0,1
155247,-50,4,2,1,5,0,1
155353,-50,4,2,1,80,0,1
156092,-50,4,2,1,5,0,1
156198,-50,4,2,1,80,0,1
156304,-50,4,2,1,5,0,1
156410,-50,4,2,1,80,0,1
156515,-50,4,2,1,5,0,1
156621,-50,4,2,1,80,0,1
157149,-50,4,2,1,5,0,1
157255,-50,4,2,1,80,0,1
157360,-50,4,2,1,5,0,1
157466,-50,4,2,1,80,0,1
157783,-50,4,2,1,5,0,1
157889,-50,4,2,1,80,0,1
158205,-50,4,2,1,5,0,1
158311,-50,4,2,1,80,0,1
158628,-50,4,2,1,5,0,1
158734,-50,4,2,1,80,0,1
159473,-50,4,2,1,5,0,1
159579,-50,4,2,1,80,0,1
160107,-50,4,2,1,5,0,1
160213,-50,4,2,1,80,0,1
160318,-50,4,2,1,5,0,1
160424,-50,4,2,1,80,0,1
162853,-50,4,2,1,5,0,1
162959,-50,4,2,1,80,0,1
163064,-50,4,2,1,5,0,1
163170,-50,4,2,1,80,0,1
163276,-50,4,2,1,5,0,1
163382,-50,4,2,1,80,0,1
163909,-50,4,2,1,5,0,1
164015,-50,4,2,1,80,0,1
164121,-50,4,2,1,5,0,1
164227,-50,4,2,1,80,0,1
164543,-50,4,2,1,5,0,1
164649,-50,4,2,1,80,0,1
164966,-50,4,2,1,5,0,1
165072,-50,4,2,1,80,0,1
165388,-50,4,2,1,5,0,1
165494,-50,4,2,1,80,0,1
165811,-50,4,2,1,5,0,1
165917,-50,4,2,1,80,0,1
166233,-50,4,2,1,5,0,1
166339,-50,4,2,1,80,0,1
166445,-50,4,2,1,5,0,1
166551,-50,4,2,1,80,0,1
166656,-50,4,2,1,5,0,1
166762,-50,4,2,1,80,0,1
167290,-50,4,2,1,5,0,1
167396,-50,4,2,1,80,0,1
167501,-50,4,2,1,5,0,1
167607,-50,4,2,1,80,0,1
168240,-40,4,2,1,80,0,1
168557,-40,4,2,1,5,0,1
168663,-50,4,2,1,80,0,1
168980,-50,4,2,1,5,0,1
169086,-50,4,2,1,80,0,1
169191,-50,4,2,1,5,0,1
169297,-50,4,2,1,80,0,1
169614,-50,4,2,1,5,0,1
169720,-50,4,2,1,80,0,1
169825,-50,4,2,1,5,0,1
169931,-50,4,2,1,80,0,1
170036,-50,4,2,1,5,0,1
170142,-50,4,2,1,80,0,1
170670,-50,4,2,1,5,0,1
170776,-50,4,2,1,80,0,1
170881,-50,4,2,1,5,0,1
170987,-50,4,2,1,80,0,1
171304,-50,4,2,1,5,0,1
171410,-50,4,2,1,80,0,1
172677,-250,4,2,1,60,0,0
173522,-250,4,2,1,50,0,0
175212,-500,4,2,1,50,0,0
176480,-250,4,2,1,40,0,0
184508,882.352941176471,4,2,1,40,1,0
184949,-250,4,2,1,40,0,0
185390,810.810810810811,4,2,1,40,1,0
185592,-250,4,2,1,40,0,0
186210,875.912408759124,4,2,1,40,1,0
189713,845.070422535211,4,2,1,90,1,0
189713,-50,4,2,1,90,0,1
190029,-50,4,2,1,5,0,1
190135,-50,4,2,1,90,0,1
190874,-50,4,2,1,5,0,1
190980,-50,4,2,1,90,0,1
191508,-50,4,2,1,5,0,1
191614,-50,4,2,1,90,0,1
192353,-50,4,2,1,5,0,1
192459,-50,4,2,1,90,0,1
192565,-50,4,2,1,5,0,1
192671,-50,4,2,1,90,0,1
192776,-50,4,2,1,5,0,1
192882,-50,4,2,1,90,0,1
192987,-50,4,2,1,5,0,1
193093,-100,4,2,1,90,0,1
193198,-100,4,2,1,5,0,1
193304,-100,4,2,1,90,0,1
193410,-100,4,2,1,5,0,1
193515,-100,4,2,1,90,0,1
193621,-100,4,2,1,5,0,1
193727,-100,4,2,1,90,0,1
193832,-100,4,2,1,5,0,1
193938,-66.6666666666667,4,2,1,90,0,1
194043,-66.6666666666667,4,2,1,5,0,1
194149,-66.6666666666667,4,2,1,90,0,1
194255,-66.6666666666667,4,2,1,5,0,1
194360,-100,4,2,1,90,0,1
194466,-100,4,2,1,5,0,1
194572,-100,4,2,1,90,0,1
194677,-100,4,2,1,5,0,1
194783,-50,4,2,1,90,0,1
194889,-50,4,2,1,5,0,1
194994,-50,4,2,1,90,0,1
195100,-50,4,2,1,5,0,1
195205,-100,4,2,1,90,0,1
195311,-100,4,2,1,5,0,1
195417,-100,4,2,1,90,0,1
195522,-100,4,2,1,5,0,1
195628,-40,4,2,1,90,0,1
195734,-40,4,2,1,5,0,1
195839,-40,4,2,1,90,0,1
195945,-40,4,2,1,5,0,1
196051,-100,4,2,1,90,0,1
196156,-100,4,2,1,5,0,1
196262,-100,4,2,1,90,0,1
196367,-100,4,2,1,5,0,1
196473,-33.3333333333333,4,2,1,90,0,1
196579,-33.3333333333333,4,2,1,5,0,1
196684,-33.3333333333333,4,2,1,90,0,1
196790,-33.3333333333333,4,2,1,5,0,1
196896,-33.3333333333333,4,2,1,90,0,1
197001,-33.3333333333333,4,2,1,5,0,1
197107,-50,4,2,1,90,0,1
197213,-50,4,2,1,5,0,1
197318,-50,4,2,1,90,0,1
197424,-50,4,2,1,5,0,1
197529,-50,4,2,1,90,0,1
197635,-50,4,2,1,5,0,1
197741,-100,4,2,1,90,0,1
197846,-100,4,2,1,5,0,1
197952,-100,4,2,1,90,0,1
198058,-100,4,2,1,5,0,1
198163,-33.3333333333333,4,2,1,90,0,1
198269,-33.3333333333333,4,2,1,5,0,1
198374,-33.3333333333333,4,2,1,90,0,1
198480,-33.3333333333333,4,2,1,5,0,1
198586,-33.3333333333333,4,2,1,90,0,1
198691,-33.3333333333333,4,2,1,5,0,1
198797,-50,4,2,1,90,0,1
198903,-50,4,2,1,5,0,1
199008,-50,4,2,1,90,0,1
199114,-50,4,2,1,5,0,1
199219,-50,4,2,1,90,0,1
199325,-50,4,2,1,5,0,1
199431,-100,4,2,1,90,0,1
199536,-100,4,2,1,5,0,1
199642,-100,4,2,1,90,0,1
199748,-100,4,2,1,5,0,1
199853,-40,4,2,1,90,0,1
199959,-40,4,2,1,5,0,1
200065,-40,4,2,1,90,0,1
200170,-40,4,2,1,5,0,1
200276,-40,4,2,1,90,0,1
200382,-40,4,2,1,5,0,1
200487,-40,4,2,1,90,0,1
200593,-40,4,2,1,5,0,1
200698,-40,4,2,1,90,0,1
200804,-40,4,2,1,5,0,1
200910,-50,4,2,1,90,0,1
201015,-50,4,2,1,5,0,1
201121,-50,4,2,1,90,0,1
202494,-50,4,2,1,5,0,1
202600,-33.3333333333333,4,2,1,90,0,1
202705,-33.3333333333333,4,2,1,5,0,1
202811,-333.333333333333,4,2,1,90,0,0
203128,-333.333333333333,4,2,1,5,0,0
203234,-50,4,2,1,90,0,1
203551,-50,4,2,1,5,0,1
203656,-50,4,2,1,90,0,1
204396,-50,4,2,1,5,0,1
204501,-50,4,2,1,90,0,1
206931,-50,4,2,1,5,0,1
207036,-50,4,2,1,90,0,1
207776,-50,4,2,1,5,0,1
207881,-50,4,2,1,90,0,1
210311,-50,4,2,1,5,0,1
210416,-50,4,2,1,90,0,1
211156,-50,4,2,1,5,0,1
211261,-50,4,2,1,90,0,1
212846,-50,4,2,1,5,0,1
212952,-200,4,2,1,90,0,1
213269,-200,4,2,1,5,0,1
213374,-50,4,2,1,90,0,1
213480,-50,4,2,1,5,0,1
213585,-50,4,2,1,90,0,1
213903,-50,4,2,1,5,0,1
214008,-50,4,2,1,90,0,1
214114,-50,4,2,1,5,0,1
214219,-50,4,2,1,90,0,1
214536,-50,4,2,1,5,0,1
214641,-50,4,2,1,90,0,1
214748,-50,4,2,1,5,0,1
214853,-50,4,2,1,90,0,1
215170,-50,4,2,1,5,0,1
215275,-50,4,2,1,90,0,1
217072,-50,4,2,1,5,0,1
217177,-50,4,2,1,90,0,1
217917,-50,4,2,1,5,0,1
218022,-50,4,2,1,90,0,1
220452,-50,4,2,1,5,0,1
220557,-50,4,2,1,90,0,1
221297,-50,4,2,1,5,0,1
221402,-50,4,2,1,90,0,1
223832,-50,4,2,1,5,0,1
223937,-50,4,2,1,90,0,1
224677,-50,4,2,1,5,0,1
224782,-50,4,2,1,90,0,1
226367,-50,4,2,1,5,0,1
226473,-200,4,2,1,90,0,1
226790,-200,4,2,1,5,0,1
226896,-50,4,2,1,90,0,1
227001,-50,4,2,1,5,0,1
227106,-50,4,2,1,90,0,1
227424,-50,4,2,1,5,0,1
227529,-50,4,2,1,90,0,1
227635,-50,4,2,1,5,0,1
227740,-50,4,2,1,90,0,1
228058,-50,4,2,1,5,0,1
228163,-50,4,2,1,90,0,1
228269,-50,4,2,1,5,0,1
228374,-50,4,2,1,90,0,1
229008,-200,4,2,1,90,0,1
229325,-200,4,2,1,5,0,1
229431,-200,4,2,1,90,0,1
230276,-50,4,2,1,90,0,1
230593,-50,4,2,1,5,0,1
230698,-50,4,2,1,90,0,1
230804,-50,4,2,1,5,0,1
230909,-50,4,2,1,90,0,1
231015,-50,4,2,1,5,0,1
231120,-50,4,2,1,90,0,1
231649,-50,4,2,1,5,0,1
231754,-50,4,2,1,90,0,1
231860,-50,4,2,1,5,0,1
231965,-50,4,2,1,90,0,1
232072,-50,4,2,1,5,0,1
232177,-50,4,2,1,90,0,1
232705,-50,4,2,1,5,0,1
232810,-50,4,2,1,90,0,1
233128,-50,4,2,1,5,0,1
233233,-50,4,2,1,90,0,1
233973,-50,4,2,1,5,0,1
234078,-50,4,2,1,90,0,1
234184,-50,4,2,1,5,0,1
234289,-50,4,2,1,90,0,1
234396,-50,4,2,1,5,0,1
234501,-50,4,2,1,90,0,1
235029,-50,4,2,1,5,0,1
235134,-50,4,2,1,90,0,1
235241,-50,4,2,1,5,0,1
235346,-50,4,2,1,90,0,1
235452,-50,4,2,1,5,0,1
235557,-50,4,2,1,90,0,1
236086,-50,4,2,1,5,0,1
236191,-50,4,2,1,90,0,1
236508,-50,4,2,1,5,0,1
236613,-50,4,2,1,90,0,1
237353,-50,4,2,1,5,0,1
237458,-50,4,2,1,90,0,1
237565,-50,4,2,1,5,0,1
237670,-50,4,2,1,90,0,1
237776,-50,4,2,1,5,0,1
237881,-50,4,2,1,90,0,1
238410,-50,4,2,1,5,0,1
238515,-50,4,2,1,90,0,1
238621,-50,4,2,1,5,0,1
238726,-50,4,2,1,90,0,1
238832,-50,4,2,1,5,0,1
238937,-50,4,2,1,90,0,1
239466,-50,4,2,1,5,0,1
239571,-50,4,2,1,90,0,1
239889,-50,4,2,1,5,0,1
239994,-50,4,2,1,90,0,1
240734,-50,4,2,1,5,0,1
240839,-50,4,2,1,90,0,1
241579,-50,4,2,1,5,0,1
241684,-50,4,2,1,90,0,1
241790,-50,4,2,1,5,0,1
241895,-50,4,2,1,90,0,1
242001,-50,4,2,1,5,0,1
242106,-50,4,2,1,90,0,1
242582,-50,4,2,1,5,0,1
242741,-50,4,2,1,90,0,1
242793,-50,4,2,1,5,0,1
242952,-66.6666666666667,4,2,1,90,0,0
243058,-66.6666666666667,4,2,1,5,0,0
243163,-50,4,2,1,90,0,0
243269,-50,4,2,1,5,0,0
243374,-33.3333333333333,4,2,1,90,0,0
243480,-33.3333333333333,4,2,1,5,0,0
243586,-25,4,2,1,90,0,0
243691,-25,4,2,1,5,0,0
243797,-33.3333333333333,4,2,1,100,0,1
244114,-33.3333333333333,4,2,1,5,0,1
244220,-40,4,2,1,100,0,1
244325,-40,4,2,1,5,0,1
244431,-40,4,2,1,100,0,1
244536,-40,4,2,1,5,0,1
244642,-40,4,2,1,100,0,1
245170,-40,4,2,1,5,0,1
245276,-40,4,2,1,100,0,1
245382,-40,4,2,1,5,0,1
245488,-40,4,2,1,100,0,1
245593,-40,4,2,1,5,0,1
245699,-40,4,2,1,100,0,1
246227,-40,4,2,1,5,0,1
246333,-40,4,2,1,100,0,1
246649,-40,4,2,1,5,0,1
246755,-40,4,2,1,100,0,1
247494,-40,4,2,1,5,0,1
247600,-40,4,2,1,100,0,1
247705,-40,4,2,1,5,0,1
247811,-40,4,2,1,100,0,1
247917,-40,4,2,1,5,0,1
248023,-40,4,2,1,100,0,1
248551,-40,4,2,1,5,0,1
248657,-40,4,2,1,100,0,1
248762,-40,4,2,1,5,0,1
248868,-40,4,2,1,100,0,1
248973,-40,4,2,1,5,0,1
249079,-40,4,2,1,100,0,1
249607,-40,4,2,1,5,0,1
249713,-40,4,2,1,100,0,1
250029,-40,4,2,1,5,0,1
250135,-40,4,2,1,100,0,1
250874,-40,4,2,1,5,0,1
250980,-40,4,2,1,100,0,1
251086,-40,4,2,1,5,0,1
251192,-40,4,2,1,100,0,1
251297,-40,4,2,1,5,0,1
251403,-40,4,2,1,100,0,1
251931,-40,4,2,1,5,0,1
252037,-40,4,2,1,100,0,1
252142,-40,4,2,1,5,0,1
252248,-40,4,2,1,100,0,1
253938,-50,4,2,1,100,0,0
254783,-50,4,2,1,90,0,0
255628,-50,4,2,1,80,0,0
256473,-50,4,2,1,70,0,0
257318,-50,4,2,1,60,0,0
258163,-50,4,2,1,50,0,0
259008,-50,4,2,1,40,0,0
259853,-50,4,2,1,30,0,0
260698,-50,4,2,1,5,0,0

[Colours]
Combo1 : 120,148,220
Combo2 : 236,153,140
Combo3 : 250,196,146
Combo4 : 186,131,209
Combo5 : 155,143,175

[HitObjects]
65,44,71,6,0,L|50:50,2,11.6666666666667,2|0|0,0:3|0:0|0:0,0:0:0:0:
76,40,283,6,0,P|81:75|85:110,1,70,2|0,0:3|0:0,0:0:0:0:
156,173,916,1,0,0:0:0:0:
156,173,1128,2,0,P|150:207|146:242,1,70,2|0,0:0|0:0,0:0:0:0:
107,327,1761,2,0,P|141:320|174:330,1,70,2|0,0:0|0:0,0:0:0:0:
256,377,2395,1,0,0:0:0:0:
263,384,2818,2,0,L|257:340,1,35,2|0,0:0|0:0,0:0:0:0:
347,290,3240,2,0,L|342:324,1,35
244,243,3663,6,0,P|246:216|247:190,1,52.5,2|0,0:0|0:0,0:0:0:0:
240,183,4085,2,0,P|255:175|272:172,1,35
369,191,4508,2,0,P|366:156|364:121,1,70,2|0,0:0|0:0,0:0:0:0:
403,36,5142,2,0,P|368:28|334:33,1,70,2|0,0:0|0:0,0:0:0:0:
260,81,5776,1,0,0:0:0:0:
253,88,6198,2,0,P|257:70|260:53,1,35,2|0,0:0|0:0,0:0:0:0:
153,69,6621,2,0,P|160:84|168:100,1,35
306,151,7043,6,0,P|340:143|374:138,1,70,2|0,0:0|0:0,0:0:0:0:
477,108,7677,1,0,0:0:0:0:
477,108,7888,2,0,P|484:141|474:175,1,70,2|0,0:0|0:0,0:0:0:0:
398,227,8522,2,0,P|390:260|400:294,1,70,2|0,0:0|0:0,0:0:0:0:
460,358,9156,1,0,0:0:0:0:
467,365,9578,2,0,L|428:374,1,35,2|0,0:0|0:0,0:0:0:0:
366,302,10001,2,0,L|400:294,1,35
294,367,10423,6,0,P|259:362|224:358,1,70,2|0,0:0|0:0,0:0:0:0:
164,288,11057,1,0,0:0:0:0:
164,288,11269,2,0,P|129:292|94:296,1,70,2|0,0:0|0:0,0:0:0:0:
36,212,11902,1,2,0:0:0:0:
36,212,12114,2,0,P|53:214|70:216,1,35
129,126,12536,1,2,0:0:0:0:
34,132,12748,2,0,P|17:130|0:128,1,35,2|0,0:0|0:0,0:0:0:0:
82,55,13170,2,0,P|85:39|86:20,2,35
153,129,13804,6,0,L|219:124,1,56,2|0,0:0|0:0,0:0:0:0:
383,54,14649,2,0,L|345:51,1,28,2|0,0:0|0:0,0:0:0:0:
274,47,15071,1,0,0:0:0:0:
274,47,15283,2,0,P|281:74|284:101,1,56,2|0,0:0|0:0,0:0:0:0:
254,190,15916,2,0,P|249:208|246:227,1,28,2|0,0:0|0:0,0:0:0:0:
301,294,16339,2,0,L|339:289,2,28,2|0|0,0:0|0:0|0:0,0:0:0:0:
166,376,17184,6,0,P|140:371|114:367,1,42,2|0,0:0|0:0,0:0:0:0:
118,361,17607,2,0,L|87:368,1,28
23,296,18029,2,0,P|50:292|78:286,1,56,2|0,0:0|0:0,0:0:0:0:
156,245,18663,1,2,0:0:0:0:
155,245,18874,2,0,P|157:231|157:217,1,28,2|0,0:0|0:0,0:0:0:0:
87,165,19297,2,0,P|84:144|86:123,1,42,2|0,0:0|0:0,0:0:0:0:
93,116,19719,2,0,L|120:110,1,28,2|0,0:0|0:0,0:0:0:0:
191,56,20142,2,0,L|218:61,1,28
315,129,20564,6,0,P|295:125|275:130,1,42,2|0,0:0|0:0,0:0:0:0:
268,137,20987,2,0,L|273:168,1,28
320,255,21409,2,0,P|347:252|375:248,1,56,2|0,0:0|0:0,0:0:0:0:
464,211,22043,1,0,0:0:0:0:
464,211,22254,2,0,L|461:177,1,28,2|0,0:0|0:0,0:0:0:0:
383,142,22677,2,0,L|385:114,1,28,2|0,0:0|0:0,0:0:0:0:
457,68,23100,1,2,0:0:0:0:
404,4,23311,1,2,0:0:0:0:
397,11,23733,1,0,0:0:0:0:
324,53,23945,6,0,P|296:50|268:48,1,56,2|0,0:0|0:0,0:0:0:0:
137,112,24790,2,0,P|157:108|178:111,1,42
185,118,25212,1,2,0:0:0:0:
277,153,25423,2,0,L|271:187,1,28,2|0,0:0|0:0,0:0:0:0:
181,219,25846,2,0,L|192:283,1,56,2|0,0:0|0:0,0:0:0:0:
268,330,26480,1,2,0:0:0:0:
178,370,26691,2,0,P|165:371|151:370,2,28
268,330,27325,6,0,P|292:336|315:340,1,47.2499985580445,2|0,0:0|0:0,0:0:0:0:
321,346,27747,1,0,0:0:0:0:
398,379,27959,1,2,0:0:0:0:
452,315,28170,2,0,P|454:283|455:252,1,62.9999980773926,2|0,0:0|0:0,0:0:0:0:
371,207,28804,1,0,0:0:0:0:
430,147,29015,2,0,P|461:150|492:154,2,62.9999980773926,2|0|2,0:0|0:0|0:0,0:0:0:0:
344,122,30071,1,0,0:0:0:0:
344,122,30283,2,0,L|348:87,1,31.4999990386963,2|0,0:0|0:0,0:0:0:0:
254,6,30705,6,0,P|261:29|260:53,1,47.2499985580445,2|0,0:0|0:0,0:0:0:0:
253,60,31128,2,0,L|211:55,1,31.4999990386963
142,130,31550,2,0,P|174:127|203:139,1,62.9999980773926,2|0,0:0|0:0,0:0:0:0:
254,219,32184,1,2,0:0:0:0:
172,270,32395,1,2,0:0:0:0:
254,299,32607,2,0,L|296:294,1,31.4999990386963,2|0,0:0|0:0,0:0:0:0:
383,262,33029,2,0,P|379:294|377:325,1,62.9999980773926,2|0,0:0|0:0,0:0:0:0:
462,360,33663,2,0,L|494:357,1,31.4999990386963
488,256,34085,6,0,P|486:226|482:197,1,47.2499985580445,2|0,0:0|0:0,0:0:0:0:
491,201,34508,2,0,P|475:197|459:197,1,31.4999990386963
350,217,34931,2,0,P|347:193|345:169,1,47.2499985580445,2|0,0:0|0:0,0:0:0:0:
352,162,35353,1,2,0:0:0:0:
430,109,35564,2,0,P|431:93|433:77,1,31.4999990386963,2|0,0:0|0:0,0:0:0:0:
379,7,35987,2,0,P|349:12|316:17,1,62.9999980773926,2|0,0:0|0:0,0:0:0:0:
235,88,36621,2,0,P|265:91|295:97,1,47.2499985580445
288,101,37043,1,2,0:0:0:0:
318,184,37254,1,2,0:0:0:0:
234,226,37466,6,0,P|205:223|177:219,1,47.2499985580445,2|0,0:0|0:0,0:0:0:0:
180,214,37888,2,0,P|160:216|141:217,1,31.4999990386963
67,288,38311,2,0,P|98:287|125:301,1,62.9999980773926,2|0,0:0|0:0,0:0:0:0:
191,358,38945,2,0,P|201:346|207:331,1,31.4999990386963,2|0,0:0|0:0,0:0:0:0:
282,295,39367,2,0,P|287:309|298:321,1,31.4999990386963,2|0,0:0|0:0,0:0:0:0:
389,343,39790,1,0,0:0:0:0:
391,256,40001,2,0,L|354:266,1,31.4999990386963,2|0,0:0|0:0,0:0:0:0:
468,302,40423,1,2,0:0:0:0:
474,308,40846,6,0,P|477:273|478:238,1,70,2|0,0:3|0:0,0:0:0:0:
480,137,41480,1,0,0:0:0:0:
480,137,41691,2,0,P|448:127|401:139,1,70,2|0,0:0|0:0,0:0:0:0:
325,184,42325,2,0,P|316:168|312:151,1,35,2|0,0:0|0:0,0:0:0:0:
416,225,42747,1,2,0:0:0:0:
416,225,42959,2,0,P|411:241|403:257,1,35,2|0,0:0|0:0,0:0:0:0:
311,283,43381,1,2,0:0:0:0:
237,235,43592,2,0,L|242:195,1,35
304,290,44015,1,0,0:0:0:0:
219,351,44226,6,0,P|184:348|149:344,1,70,2|0,0:0|0:0,0:0:0:0:
58,202,45071,2,0,P|92:198|127:195,1,70,2|0,0:0|0:0,0:0:0:0:
209,228,45705,1,0,0:0:0:0:
263,151,45916,6,0,B|278:87|227:79|247:10,1,140,2|0,0:0|0:0,0:0:0:0:
245,16,47607,6,0,P|257:61|249:107,1,94.499997116089,4|0,1:0|0:0,0:0:0:0:
242,114,48029,2,0,L|171:105,1,62.9999980773926,0|0,1:0|0:0,0:0:0:0:
61,232,48452,2,0,P|101:207|147:211,1,94.499997116089,10|0,0:1|0:0,0:0:0:0:
154,218,48874,1,2,0:0:0:0:
220,303,49085,6,0,P|254:302|294:298,1,62.9999980773926,0|0,1:0|0:0,0:0:0:0:
434,242,49508,1,0,0:0:0:0:
347,185,49719,2,0,P|348:219|352:259,1,62.9999980773926,2|0,1:0|0:0,0:0:0:0:
500,375,50142,2,0,P|472:338|426:332,1,94.499997116089,10|0,0:1|0:0,0:0:0:0:
419,339,50564,1,2,0:0:0:0:
327,384,50776,1,0,0:0:0:0:
261,304,50987,6,0,L|270:209,1,94.499997116089,0|0,1:0|0:0,0:0:0:0:
263,202,51409,2,0,P|288:191|337:198,1,62.9999980773926,0|0,1:0|0:0,0:0:0:0:
493,231,51832,2,0,P|447:222|420:185,1,94.499997116089,10|0,0:1|0:0,0:0:0:0:
427,178,52254,1,2,0:0:0:0:
369,51,52466,6,0,P|362:81|358:112,1,62.9999980773926,0|0,1:0|0:0,0:0:0:0:
434,171,52888,1,0,0:0:0:0:
512,101,53100,2,0,P|481:94|450:90,1,62.9999980773926,2|0,1:0|0:0,0:0:0:0:
193,106,53522,2,0,P|242:102|272:136,1,94.499997116089,10|0,0:1|0:0,0:0:0:0:
271,143,53945,1,2,0:0:0:0:
178,221,54156,1,0,0:0:0:0:
84,121,54367,6,0,L|94:21,1,94.499997116089,0|0,1:0|0:0,0:0:0:0:
100,19,54790,2,0,P|70:7|39:10,1,62.9999980773926,2|0,1:0|0:0,0:0:0:0:
0,221,55212,2,0,L|93:206,1,94.499997116089,10|0,0:1|0:0,0:0:0:0:
100,199,55635,1,2,0:0:0:0:
184,248,55846,6,0,P|187:279|187:310,1,62.9999980773926,0|0,1:0|0:0,0:0:0:0:
72,384,56269,1,0,0:0:0:0:
37,306,56480,2,0,P|68:302|99:302,1,62.9999980773926,2|0,1:0|0:0,0:0:0:0:
363,275,56902,2,0,P|321:256|280:277,1,94.499997116089,8|0,0:1|0:0,0:0:0:0:
272,283,57325,2,0,L|283:357,1,62.9999980773926,2|0,0:0|0:0,0:0:0:0:
447,228,57747,5,2,1:0:0:0:
367,182,57959,2,0,P|365:150|364:119,1,62.9999980773926,2|0,0:0|1:0,0:0:0:0:
431,48,58381,1,2,0:0:0:0:
279,142,58592,2,0,P|232:136|185:131,1,94.499997116089,8|0,0:1|0:0,0:0:0:0:
178,124,59015,1,2,0:0:0:0:
86,170,59226,6,0,P|82:138|80:107,1,62.9999980773926,2|0,1:0|0:0,0:0:0:0:
201,26,59649,1,0,0:0:0:0:
284,79,59860,2,0,P|282:110|279:142,1,62.9999980773926,2|0,1:0|0:0,0:0:0:0:
175,279,60283,2,0,P|204:268|235:264,1,62.9999980773926,10|0,0:1|0:0,0:0:0:0:
311,331,60705,1,2,0:0:0:0:
475,291,60916,1,0,0:0:0:0:
397,376,61128,6,0,P|393:328|390:281,1,94.499997116089,4|0,1:0|0:0,0:0:0:0:
384,275,61550,2,0,P|385:243|387:212,1,62.9999980773926,2|0,1:0|0:0,0:0:0:0:
504,65,61973,2,0,P|517:111|508:157,1,94.499997116089,10|0,0:1|0:0,0:0:0:0:
501,164,62395,1,2,0:0:0:0:
398,108,62607,6,0,P|366:103|335:102,1,62.9999980773926,0|0,1:0|0:0,0:0:0:0:
202,216,63029,1,0,0:0:0:0:
288,253,63240,2,0,P|292:221|293:190,1,62.9999980773926,2|0,1:0|0:0,0:0:0:0:
172,48,63663,1,10,0:1:0:0:
94,112,63874,1,2,0:0:0:0:
18,31,64085,2,0,P|48:23|79:16,1,62.9999980773926,2|0,0:0|0:0,0:0:0:0:
273,130,64508,6,0,P|228:118|187:139,1,94.499997116089,0|0,1:0|0:0,0:0:0:0:
180,146,64931,2,0,L|188:213,1,62.9999980773926,0|0,1:0|0:0,0:0:0:0:
36,374,65353,2,0,P|30:328|61:294,1,94.499997116089,10|0,0:1|0:0,0:0:0:0:
71,292,65776,1,2,0:0:0:0:
163,359,65987,6,0,P|194:368|225:369,1,62.9999980773926,0|0,1:0|0:0,0:0:0:0:
319,273,66409,1,0,0:0:0:0:
236,215,66621,2,0,P|227:245|226:276,1,62.9999980773926,2|0,1:0|0:0,0:0:0:0:
417,370,67043,2,0,P|421:323|422:275,1,94.499997116089,10|0,0:1|0:0,0:0:0:0:
415,268,67466,1,2,0:0:0:0:
332,173,67677,1,0,0:0:0:0:
502,73,67888,6,0,P|501:120|497:167,1,94.499997116089,0|0,1:0|0:0,0:0:0:0:
490,174,68311,2,0,P|458:173|427:171,1,62.9999980773926,0|0,1:0|0:0,0:0:0:0:
200,85,68733,2,0,P|247:80|294:80,1,94.499997116089,10|0,0:1|0:0,0:0:0:0:
301,87,69156,1,2,0:0:0:0:
204,177,69367,6,0,P|168:175|132:170,1,62.9999980773926,0|0,1:0|0:0,0:0:0:0:
27,60,69790,1,0,0:0:0:0:
118,20,70001,2,0,P|116:55|111:92,1,62.9999980773926,2|0,1:0|0:0,0:0:0:0:
9,268,70423,2,0,P|50:245|94:259,1,94.499997116089,8|0,0:1|0:0,0:0:0:0:
101,266,70846,2,0,P|141:288|185:274,1,94.499997116089,2|0,0:0|0:0,0:0:0:0:
192,267,71269,6,0,P|183:281|173:305,1,31.4999990386963,2|0,1:0|0:0,0:0:0:0:
279,271,71480,2,0,P|248:246|193:267,1,94.499997116089,2|0,0:0|0:0,0:0:0:0:
192,267,71902,1,2,0:0:0:0:
291,379,72114,2,0,P|307:374|322:370,1,31.4999990386963,8|0,0:1|0:0,0:0:0:0:
352,353,72325,2,0,P|321:361|276:373,1,62.9999980773926,2|0,0:0|0:0,0:0:0:0:
397,258,72747,6,0,P|430:272|457:321,1,94.499997116089,2|0,1:0|0:0,0:0:0:0:
453,332,73170,1,0,0:0:0:0:
298,269,73381,2,0,P|293:237|291:206,1,62.9999980773926,2|0,1:0|0:0,0:0:0:0:
447,75,73804,2,0,P|443:122|437:168,1,94.499997116089,10|0,0:1|0:0,0:0:0:0:
430,175,74226,1,10,0:1:0:0:
215,91,74438,1,8,0:1:0:0:
88,276,74649,6,0,B|134:284|161:256|161:256|156:239|157:220,1,115.50000352478,6|0,1:0|0:0,0:0:0:0:
166,215,75071,2,0,P|166:235|171:259,1,38.5000011749268,2|0,1:0|0:0,0:0:0:0:
248,287,75283,2,0,P|248:307|243:331,1,38.5000011749268,2|0,0:0|0:0,0:0:0:0:
141,361,75494,1,8,0:1:0:0:
244,206,75705,2,0,B|264:196|297:213|297:213|288:209|288:209|312:202|329:181,1,115.50000352478,2|0,0:0|0:0,0:0:0:0:
336,171,76128,2,0,P|317:166|298:165,1,38.5000011749268,2|0,1:0|0:0,0:0:0:0:
94,79,76339,6,0,B|141:81|179:61|179:61|161:73|155:96,1,115.50000352478,2|0,0:0|0:0,0:0:0:0:
226,118,76761,2,0,P|211:68|164:89,1,115.50000352478,2|0,1:0|0:0,0:0:0:0:
125,149,77184,2,0,B|139:192|131:231|131:231|136:208|155:194,1,115.50000352478,10|0,0:1|0:0,0:0:0:0:
213,239,77607,2,0,P|166:259|151:210,1,115.50000352478,2|0,0:0|0:0,0:0:0:0:
220,232,78029,6,0,B|222:263|199:284|190:272|166:299|174:331,1,115.50000352478,2|0,1:0|0:0,0:0:0:0:
162,332,78452,2,0,P|163:308|171:290,1,38.5000011749268,2|0,1:0|0:0,0:0:0:0:
306,231,78663,2,0,P|305:207|297:189,1,38.5000011749268,2|0,0:0|0:0,0:0:0:0:
143,77,78874,1,8,0:1:0:0:
290,91,79085,2,0,B|326:91|341:74|341:74|364:77|364:77|385:65|415:71,1,115.50000352478,2|0,0:0|0:0,0:0:0:0:
406,76,79508,2,0,P|390:78|367:85,1,38.5000011749268,2|0,1:0|0:0,0:0:0:0:
464,147,79719,6,0,P|471:105|402:90,1,115.50000352478,2|0,0:0|0:0,0:0:0:0:
391,155,80142,2,0,B|388:186|411:207|420:195|444:222|436:254,1,115.50000352478,2|0,1:0|0:0,0:0:0:0:
364,246,80564,2,0,P|397:208|428:248,1,115.50000352478,10|0,0:1|0:0,0:0:0:0:
358,254,80987,2,0,B|326:261|299:237|311:228|290:205|258:208,1,115.50000352478,2|0,0:0|0:0,0:0:0:0:
185,261,81409,6,0,B|196:286|195:310|195:310|203:321|203:321|197:344|208:376,1,115.50000352478,2|0,1:0|0:0,0:0:0:0:
216,371,81832,2,0,P|215:351|211:332,1,38.5000011749268,2|0,1:0|0:0,0:0:0:0:
73,216,82043,2,0,P|69:235|69:255,1,38.5000011749268,2|0,0:0|0:0,0:0:0:0:
25,374,82254,1,8,0:1:0:0:
81,209,82466,2,0,B|95:174|81:148|68:155|55:130|67:100,1,115.50000352478,2|0,0:0|0:0,0:0:0:0:
77,96,82888,2,0,P|72:115|74:134,1,38.5000011749268,2|0,1:0|0:0,0:0:0:0:
260,117,83100,6,0,P|220:89|175:148,1,115.50000352478,2|0,0:0|0:0,0:0:0:0:
260,127,83522,2,0,B|285:106|282:81|282:81|260:58|262:24,1,115.50000352478,2|0,1:0|0:0,0:0:0:0:
344,79,83945,2,0,P|299:80|278:15,1,115.50000352478,10|0,0:1|0:0,0:0:0:0:
351,6,84367,2,0,L|432:-1,1,77.0000023498536,2|0,0:0|0:0,0:0:0:0:
63,44,84790,5,6,1:0:0:0:
256,192,84895,12,0,86480,0:0:0:0:
316,223,86902,6,0,L|336:219,1,13.125000500679,8|0,0:3|0:0,0:0:0:0:
468,122,87114,1,8,0:0:0:0:
464,148,87219,1,8,0:0:0:0:
460,174,87325,1,8,0:1:0:0:
506,306,87536,1,8,0:1:0:0:
377,354,87747,6,0,L|358:350,1,15.7499995193482,2|0,0:3|0:0,0:0:0:0:
293,370,88170,6,0,P|335:342|383:360,1,105,0|0,1:0|0:0,0:0:0:0:
391,368,88592,2,0,P|398:333|402:299,1,70,2|0,1:0|0:0,0:0:0:0:
348,140,89015,2,0,P|314:148|279:155,1,70,10|0,0:1|0:0,0:0:0:0:
355,147,89438,1,2,0:0:0:0:
442,81,89649,2,0,P|411:52|307:50,1,140,2|0,1:0|0:0,0:0:0:0:
207,76,90283,2,0,P|173:66|140:55,1,70,2|0,1:0|0:0,0:0:0:0:
38,209,90705,2,0,P|69:170|120:171,1,105,8|0,0:1|0:0,0:0:0:0:
127,178,91128,1,2,0:0:0:0:
75,295,91339,1,0,0:0:0:0:
220,383,91550,6,0,P|215:330|207:278,1,105,0|0,1:0|0:0,0:0:0:0:
200,271,91973,2,0,P|203:236|209:201,1,70,2|0,1:0|0:0,0:0:0:0:
394,78,92395,2,0,P|365:125|276:102,1,140,8|0,0:1|0:0,0:0:0:0:
248,34,93029,1,2,1:0:0:0:
111,143,93240,5,2,0:0:0:0:
32,99,93452,1,0,0:0:0:0:
154,6,93663,2,0,P|160:40|165:75,1,70,2|0,1:0|0:0,0:0:0:0:
268,234,94085,2,0,P|238:192|188:190,1,105,10|0,0:1|0:0,0:0:0:0:
183,199,94508,1,2,0:0:0:0:
203,308,94719,1,0,0:0:0:0:
358,270,94931,6,0,P|409:258|461:252,1,105,0|0,1:0|0:0,0:0:0:0:
471,260,95353,2,0,P|485:228|495:194,1,70,2|0,1:0|0:0,0:0:0:0:
377,26,95776,1,10,0:1:0:0:
318,116,95987,2,0,P|352:123|386:127,1,70,2|0,0:0|0:0,0:0:0:0:
497,0,96409,6,0,P|489:52|483:113,1,105,2|0,1:0|0:0,0:0:0:0:
491,111,96832,1,2,0:0:0:0:
450,202,97043,2,0,P|415:209|381:213,1,70,0|2,1:0|0:0,0:0:0:0:
163,182,97466,2,0,P|213:176|248:213,1,105,8|0,0:1|0:0,0:0:0:0:
251,222,97888,1,2,0:0:0:0:
139,307,98100,1,2,0:0:0:0:
54,195,98311,6,0,P|57:142|61:90,1,105,0|0,1:0|0:0,0:0:0:0:
71,86,98733,2,0,P|40:70|4:74,1,70,2|0,1:0|0:0,0:0:0:0:
211,152,99156,2,0,P|263:147|315:141,1,105,8|0,0:1|0:0,0:0:0:0:
322,134,99578,1,2,0:0:0:0:
434,201,99790,6,0,P|399:198|370:217,1,70,2|0,1:0|0:0,0:0:0:0:
320,320,100212,1,2,0:0:0:0:
235,254,100423,1,0,1:0:0:0:
142,337,100635,6,0,B|114:333|76:350|76:350|67:333|50:319|50:319|22:325,1,131.25,2|0,0:0|0:0,0:0:0:0:
20,330,101057,1,0,1:0:0:0:
93,128,101269,6,0,L|95:148,1,21,14|0,0:2|0:0,0:0:0:0:
21,193,101691,6,0,P|51:153|102:156,1,105,0|0,1:0|0:0,0:0:0:0:
109,163,102114,2,0,P|144:169|179:146,1,70,2|0,1:0|0:0,0:0:0:0:
276,2,102536,2,0,P|268:54|262:106,1,105,10|0,0:1|0:0,0:0:0:0:
268,115,102959,1,2,0:0:0:0:
319,192,103170,6,0,P|353:187|387:180,1,70,2|0,1:0|0:0,0:0:0:0:
461,118,103592,1,0,0:0:0:0:
512,204,103804,2,0,P|507:238|500:272,1,70,2|0,1:0|0:0,0:0:0:0:
310,374,104226,1,10,0:1:0:0:
348,280,104438,1,2,0:0:0:0:
475,361,104649,2,0,P|440:356|406:349,1,70,2|0,0:0|0:0,0:0:0:0:
172,250,105071,6,0,P|221:241|255:278,1,105,0|0,1:0|0:0,0:0:0:0:
254,289,105494,1,2,1:0:0:0:
193,369,105705,1,0,1:0:0:0:
74,234,105916,2,0,P|73:199|70:162,1,70,8|0,0:1|0:0,0:0:0:0:
239,40,106339,2,0,P|236:74|235:109,1,70,10|0,0:1|1:0,0:0:0:0:
229,196,106761,5,2,0:0:0:0:
344,24,106973,1,8,0:1:0:0:
127,47,107184,1,10,0:1:0:0:
235,110,107395,1,0,1:0:0:0:
464,40,107607,6,0,P|466:23|467:-2,1,35,14|0,0:2|0:0,0:0:0:0:
464,40,108452,6,0,P|465:92|469:144,1,105,6|0,1:0|0:0,0:0:0:0:
478,152,108874,2,0,P|474:186|471:221,1,70,2|0,1:0|0:0,0:0:0:0:
512,384,109297,2,0,P|498:348|425:340,1,105,8|0,0:1|0:0,0:0:0:0:
431,341,109719,1,2,0:0:0:0:
311,277,109931,6,0,P|345:273|380:267,1,70,2|0,1:0|0:0,0:0:0:0:
291,185,110353,1,2,0:0:0:0:
218,245,110564,2,0,P|219:277|224:316,1,70,0|0,1:0|0:0,0:0:0:0:
381,169,110987,2,0,P|383:116|384:64,1,105,8|0,0:1|0:0,0:0:0:0:
379,58,111409,1,2,0:0:0:0:
290,1,111621,1,2,0:0:0:0:
161,90,111832,6,0,P|211:83|249:116,1,105,0|0,1:0|0:0,0:0:0:0:
256,126,112254,2,0,L|247:206,1,70,2|0,1:0|0:0,0:0:0:0:
69,60,112677,1,8,0:1:0:0:
30,167,112888,2,0,P|64:158|97:147,1,70,2|0,0:0|0:0,0:0:0:0:
304,267,113311,6,0,P|294:217|249:196,1,105,2|0,1:0|0:0,0:0:0:0:
237,201,113733,1,10,0:1:0:0:
213,285,113945,1,0,0:0:0:0:
124,226,114156,1,2,1:0:0:0:
296,112,114367,1,8,0:1:0:0:
384,171,114578,1,2,0:0:0:0:
397,24,114790,6,0,L|391:42,1,15.7499995193482,2|0,0:3|0:0,0:0:0:0:
402,12,115212,6,0,B|372:-2|346:17|355:25|323:47|290:28,1,120.750002303124,4|0,1:0|0:0,0:0:0:0:
280,25,115635,2,0,P|320:29|324:70,1,80.5000015354157,2|0,1:0|0:0,0:0:0:0:
268,250,116057,1,8,0:1:0:0:
216,170,116269,2,0,P|255:164|295:158,1,80.5000015354157
432,181,116691,1,0,1:0:0:0:
488,342,116902,6,0,P|407:333|328:323,1,161.000003070831,2|0,0:0|1:0,0:0:0:0:
209,375,117536,1,2,0:0:0:0:
211,93,117747,2,0,P|221:172|229:252,1,161.000003070831,10|0,0:1|0:0,0:0:0:0:
198,370,118381,1,2,1:0:0:0:
40,300,118592,6,0,P|97:304|130:257,1,120.750002303124,8|0,0:1|0:0,0:0:0:0:
134,247,119015,2,0,L|126:164,1,80.5000015354157,2|0,1:0|0:0,0:0:0:0:
6,7,119438,6,0,L|125:22,1,120.750002303124,8|0,0:1|0:0,0:0:0:0:
132,31,119860,6,0,L|19:15,1,105.000004005432,8|0,0:1|1:0,0:0:0:0:
28,17,120494,6,0,L|30:32,1,8.75,0|0,1:0|0:0,0:0:0:0:
31,35,120705,2,0,L|27:61,1,26.2500010013581,0|0,1:0|0:0,0:0:0:0:
25,69,120916,2,0,L|29:103,1,35,2|0,1:0|0:0,0:0:0:0:
86,215,121128,6,0,P|101:194|127:179,1,52.5000020027162,2|0,1:0|0:0,0:0:0:0:
130,173,121339,2,0,P|161:171|196:184,1,70,0|0,1:0|0:0,0:0:0:0:
204,179,121550,2,0,P|243:202|308:178,1,87.5,6|0,0:3|0:0,0:0:0:0:
291,189,121761,2,0,P|319:147|309:97,1,105.000004005432,2|0,0:0|0:0,0:0:0:0:
333,0,121973,6,0,B|291:37|291:99|339:81|350:153|301:189,1,210,4|0,1:0|0:0,0:0:0:0:
239,252,122395,2,0,P|291:210|350:240,1,140,2|0,1:0|0:0,0:0:0:0:
90,375,122818,2,0,P|77:270|68:166,1,210,10|0,0:1|0:0,0:0:0:0:
74,156,123240,1,2,0:0:0:0:
217,110,123452,6,0,P|155:75|100:33,1,140,0|0,1:0|0:0,0:0:0:0:
309,19,123874,1,0,0:0:0:0:
341,148,124085,2,0,P|341:217|333:287,1,140,2|0,1:0|0:0,0:0:0:0:
60,375,124508,2,0,B|69:325|126:301|126:301|185:304|217:350,1,210,10|0,0:1|0:0,0:0:0:0:
226,360,124931,1,2,0:0:0:0:
333,287,125142,1,0,0:0:0:0:
452,333,125353,6,0,B|491:269|394:205|325:296,1,210,2|0,1:0|0:0,0:0:0:0:
319,302,125776,2,0,B|274:354|201:330|214:275,1,140,0|0,1:0|0:0,0:0:0:0:
252,0,126198,2,0,P|264:104|274:208,1,210,10|0,0:1|0:0,0:0:0:0:
268,219,126621,1,2,0:0:0:0:
40,191,126832,6,0,P|107:172|176:161,1,140,0|0,1:0|0:0,0:0:0:0:
367,198,127254,1,0,0:0:0:0:
484,128,127466,2,0,P|414:116|347:98,1,140,2|0,1:0|0:0,0:0:0:0:
24,26,127888,2,0,P|115:4|128:97,1,210,10|0,0:1|0:0,0:0:0:0:
119,103,128311,1,2,0:0:0:0:
249,59,128522,1,0,0:0:0:0:
376,182,128733,6,0,B|325:161|267:182|287:224|225:247|183:223,1,210,2|0,1:0|0:0,0:0:0:0:
122,266,129156,2,0,P|190:244|202:306,1,140,2|0,1:0|0:0,0:0:0:0:
366,384,129578,2,0,P|375:279|383:174,1,210,10|0,0:1|0:0,0:0:0:0:
390,167,130001,1,2,0:0:0:0:
229,140,130212,2,0,P|159:128|90:118,1,140,0|0,1:0|0:0,0:0:0:0:
5,285,130635,1,0,0:0:0:0:
100,366,130846,2,0,P|111:296|121:227,1,140,2|0,1:0|0:0,0:0:0:0:
0,18,131269,2,0,B|-8:74|41:109|41:109|101:92|115:41,1,210,8|0,0:1|0:0,0:0:0:0:
171,4,131691,6,0,P|199:-2|231:1,1,52.5,2|0,0:3|0:0,0:0:0:0:
242,10,132114,6,0,P|207:6|173:12,1,70,2|0,1:0|0:0,0:0:0:0:
204,136,132325,2,0,B|255:159|307:128|282:97|334:65|391:82,1,210,2|0,0:0|0:0,0:0:0:0:
395,73,132747,2,0,P|360:66|326:73,1,70,2|0,0:0|0:0,0:0:0:0:
351,223,132959,2,0,P|433:175|388:91,1,210,8|0,0:1|0:0,0:0:0:0:
327,73,133381,2,0,P|299:94|282:124,1,70,2|0,0:0|0:0,0:0:0:0:
245,287,133592,6,0,B|268:235|237:184|206:209|174:157|191:99,1,210,2|0,1:0|0:0,0:0:0:0:
162,38,134015,2,0,P|179:69|181:104,1,70,8|0,0:1|0:0,0:0:0:0:
11,148,134226,2,0,P|15:73|77:142,1,210,2|0,1:0|0:0,0:0:0:0:
57,203,134649,1,10,0:1:0:0:
245,287,134860,1,0,0:0:0:0:
356,138,135071,6,0,L|324:134,1,26.25,6|0,1:2|0:0,0:0:0:0:
237,139,135494,6,0,P|341:147|445:161,1,210,4|0,1:0|0:0,0:0:0:0:
512,185,135916,2,0,P|442:191|372:200,1,140,2|0,1:0|0:0,0:0:0:0:
203,376,136339,2,0,B|268:421|342:336|242:244,1,210,10|0,0:1|0:0,0:0:0:0:
243,249,136761,1,2,0:0:0:0:
107,283,136973,6,0,P|100:213|96:143,1,140,0|0,1:0|0:0,0:0:0:0:
250,0,137395,1,0,0:0:0:0:
343,129,137607,2,0,P|273:117|205:103,1,140,2|0,1:0|0:0,0:0:0:0:
511,20,138029,1,10,0:1:0:0:
351,124,138240,1,2,0:0:0:0:
453,254,138452,2,0,P|459:184|463:114,1,140,2|0,0:0|0:0,0:0:0:0:
164,28,138874,6,0,B|119:58|120:127|162:150|162:150|195:135|205:103,1,210,0|0,1:0|0:0,0:0:0:0:
201,95,139297,2,0,P|271:79|283:139,1,140,0|0,1:0|0:0,0:0:0:0:
217,314,139719,2,0,P|112:302|8:287,1,210,10|0,0:1|0:0,0:0:0:0:
0,279,140142,1,2,0:0:0:0:
170,206,140353,6,0,P|237:186|303:162,1,140,0|0,1:0|0:0,0:0:0:0:
421,110,140776,1,0,0:0:0:0:
251,18,140987,2,0,P|235:86|223:155,1,140,2|0,1:0|0:0,0:0:0:0:
455,360,141409,2,0,B|473:279|397:234|397:234|374:257|345:264,1,210,10|0,0:1|0:0,0:0:0:0:
333,267,141832,1,2,0:0:0:0:
223,155,142043,1,0,0:0:0:0:
67,344,142254,6,0,B|89:412|212:362|118:240,1,210,0|0,1:0|0:0,0:0:0:0:
115,252,142677,2,0,P|83:191|83:122,1,140,0|0,1:0|0:0,0:0:0:0:
367,33,143100,2,0,P|262:26|157:15,1,210,10|0,0:1|0:0,0:0:0:0:
145,6,143522,1,2,0:0:0:0:
223,155,143733,2,0,P|292:146|362:141,1,140,0|0,1:0|0:0,0:0:0:0:
472,94,144156,1,0,0:0:0:0:
292,176,144367,2,0,P|284:245|278:315,1,140,2|0,1:0|0:0,0:0:0:0:
511,347,144790,2,0,P|468:261|378:295,1,210,8|0,0:1|0:0,0:0:0:0:
319,341,145212,6,0,P|311:365|293:384,1,52.5,2|0,0:0|0:0,0:0:0:0:
282,384,145635,6,0,P|304:358|307:323,1,70,2|0,1:0|0:0,0:0:0:0:
300,195,145846,2,0,B|254:234|265:297|312:278|315:354|268:383,1,210,2|0,0:0|0:0,0:0:0:0:
258,382,146269,2,0,L|185:368,1,70,2|0,0:0|0:0,0:0:0:0:
67,275,146480,2,0,L|140:261,1,70,8|0,0:1|0:0,0:0:0:0:
172,162,146691,2,0,B|136:99|29:186|147:286,1,210,2|0,0:0|0:0,0:0:0:0:
130,284,147114,1,2,1:0:0:0:
412,136,147325,5,8,0:1:0:0:
368,246,147536,1,2,1:0:0:0:
221,59,147747,1,8,0:1:0:0:
456,25,147959,1,10,0:1:0:0:
201,226,148170,5,8,0:1:0:0:
128,133,148381,1,10,0:3:0:0:
51,188,148592,1,8,0:3:0:0:
87,258,148804,1,4,0:3:0:0:
246,105,149015,6,0,B|185:92|128:133|128:133|105:101|72:90|72:90|59:92,1,210,6|0,1:0|0:0,0:0:0:0:
52,85,149438,2,0,L|134:70,1,70,2|0,1:0|0:0,0:0:0:0:
216,0,149649,2,0,L|284:12,1,70,2|0,0:0|0:0,0:0:0:0:
421,48,149860,1,8,0:1:0:0:
282,176,150071,2,0,B|254:202|260:241|260:241|252:188|252:188|255:166|255:166|247:106,1,210,2|0,0:0|0:0,0:0:0:0:
236,98,150494,2,0,L|247:170,1,70,2|0,1:0|0:0,0:0:0:0:
372,320,150705,6,0,B|379:360|379:360|423:326|415:244|337:233,1,210,2|0,0:0|0:0,0:0:0:0:
276,265,151128,2,0,B|229:292|188:256|188:256|183:260|183:260|134:202|81:238,1,210,2|0,1:0|0:0,0:0:0:0:
109,337,151550,2,0,P|173:276|91:243,1,210,10|0,0:1|0:0,0:0:0:0:
93,253,151973,2,0,P|103:183|109:113,1,140,2|0,0:0|0:0,0:0:0:0:
363,3,152395,6,0,B|354:69|351:150|351:150|348:116|339:88,1,210,2|0,1:0|0:0,0:0:0:0:
332,81,152818,2,0,P|366:85|401:88,1,70,2|0,1:0|0:0,0:0:0:0:
512,169,153029,2,0,P|477:172|442:176,1,70,2|0,0:0|0:0,0:0:0:0:
268,194,153240,1,8,0:1:0:0:
392,382,153452,2,0,B|422:306|357:253|357:253|330:291|283:290,1,210,2|0,0:0|0:0,0:0:0:0:
299,299,153874,2,0,P|266:306|220:288,1,70,2|0,1:0|0:0,0:0:0:0:
183,207,154085,6,0,P|252:192|203:282,1,210,2|0,0:0|0:0,0:0:0:0:
221,278,154508,2,0,B|157:284|152:344|152:344|142:285|78:290,1,210,2|0,1:0|0:0,0:0:0:0:
53,358,154931,2,0,P|136:363|83:300,1,210,10|0,0:1|0:0,0:0:0:0:
6,263,155353,2,0,P|3:193|0:123,1,140,2|0,0:0|0:0,0:0:0:0:
205,0,155776,6,0,B|195:44|210:80|210:80|206:104|195:130|195:130|206:167|198:205,1,210,2|0,1:0|0:0,0:0:0:0:
188,206,156198,2,0,P|192:169|187:136,1,70,2|0,1:0|0:0,0:0:0:0:
65,31,156409,2,0,P|95:52|126:65,1,70,2|0,0:0|0:0,0:0:0:0:
278,11,156621,1,8,0:1:0:0:
434,119,156832,2,0,B|357:72|298:144|298:144|330:127|382:140,1,210,2|0,0:0|0:0,0:0:0:0:
360,146,157254,2,0,P|326:143|294:156,1,70,2|0,1:0|0:0,0:0:0:0:
383,269,157466,6,0,P|388:174|291:169,1,210,2|0,0:0|0:0,0:0:0:0:
206,212,157888,2,0,B|183:165|280:120|328:214|236:298,1,210,2|0,1:0|0:0,0:0:0:0:
176,291,158311,2,0,B|229:264|280:305|253:345|311:380|373:350,1,210,10|0,0:1|0:0,0:0:0:0:
413,312,158733,2,0,P|412:245|358:205,1,140,2|0,0:0|0:0,0:0:0:0:
97,331,159156,6,0,B|55:292|78:225|116:249|139:188|101:140,1,210,2|0,1:0|0:0,0:0:0:0:
94,133,159578,1,8,0:3:0:0:
232,231,159790,1,6,0:3:0:0:
378,34,160001,6,0,B|351:11|351:11|331:39,1,70,14|0,0:2|0:0,0:0:0:0:
352,223,160212,2,0,B|379:246|379:246|398:217,1,70,6|0,1:2|0:0,0:0:0:0:
508,121,160423,2,0,P|368:130|228:144,1,280,6|0,1:0|0:0,0:0:0:0:
0,0,161057,5,10,0:1:0:0:
151,25,161269,1,2,1:0:0:0:
111,252,161480,1,10,0:1:0:0:
0,9,161691,5,10,0:1:0:0:
134,132,161902,1,10,0:3:0:0:
240,96,162114,1,10,0:3:0:0:
159,35,162325,1,6,0:3:0:0:
11,166,162536,6,0,B|72:151|72:151|115:162|115:162|168:152|168:152|144:157|119:176,1,210,6|0,1:0|0:0,0:0:0:0:
120,182,162959,2,0,L|126:108,1,70,2|0,1:0|0:0,0:0:0:0:
252,52,163170,2,0,L|246:121,1,70,2|0,0:0|0:0,0:0:0:0:
231,273,163381,1,8,0:1:0:0:
466,222,163592,2,0,B|411:190|411:190|367:189|367:189|318:165|318:165|340:176|359:201,1,210,2|0,0:0|0:0,0:0:0:0:
361,202,164015,2,0,L|367:128,1,70,2|0,1:0|0:0,0:0:0:0:
384,0,164226,6,0,L|367:209,1,210,2|0,0:0|0:0,0:0:0:0:
350,306,164649,2,0,B|431:306|414:201|333:192|242:281,1,210,2|0,1:0|0:0,0:0:0:0:
221,305,165071,2,0,B|177:341|116:308|146:274|79:239|35:274,1,210,10|0,0:1|0:0,0:0:0:0:
81,379,165494,2,0,P|120:298|31:287,1,210,2|0,0:0|0:0,0:0:0:0:
140,290,165916,6,0,B|170:239|141:194|141:194|146:182|146:182|115:137|145:86,1,210,2|0,1:0|0:0,0:0:0:0:
176,24,166339,2,0,L|107:31,1,70,2|0,1:0|0:0,0:0:0:0:
220,139,166550,2,0,L|289:146,1,70,2|0,0:0|0:0,0:0:0:0:
387,21,166761,1,8,0:1:0:0:
410,189,166973,2,0,B|390:216|385:253|385:253|391:201|391:201|384:177|384:177|390:114,1,210,2|0,0:0|0:0,0:0:0:0:
383,107,167395,2,0,L|376:179,1,70,2|0,1:0|0:0,0:0:0:0:
361,335,167607,5,2,0:0:0:0:
477,133,167818,1,8,0:1:0:0:
307,62,168029,1,2,1:0:0:0:
282,244,168240,6,0,B|238:254|190:223|190:223|140:227|105:252|105:252|140:227|149:192,1,262.5,2|0,0:0|0:0,0:0:0:0:
141,186,168663,1,2,0:0:0:0:
32,80,168874,2,0,L|34:149,1,70,10|0,0:1|0:0,0:0:0:0:
103,321,169085,2,0,L|106:252,1,70,2|0,0:0|0:0,0:0:0:0:
234,40,169297,6,0,P|194:-2|161:105,1,210,2|0,1:0|0:0,0:0:0:0:
198,141,169719,2,0,P|231:133|266:128,1,70,2|0,1:0|0:0,0:0:0:0:
398,78,169931,2,0,P|363:73|329:64,1,70,2|0,0:0|0:0,0:0:0:0:
142,0,170142,1,8,0:1:0:0:
44,110,170353,2,0,B|60:184|60:184|41:237|41:237|59:312,1,210,2|0,0:0|0:0,0:0:0:0:
80,379,170776,2,0,L|150:362,1,70,2|0,1:0|0:0,0:0:0:0:
341,320,170987,6,0,B|363:264|324:224|324:224|264:208|231:258,1,210,2|0,0:0|0:0,0:0:0:0:
235,270,171409,1,2,1:0:0:0:
463,370,171621,1,8,0:1:0:0:
435,123,171832,1,10,0:1:0:0:
286,122,172043,5,8,0:3:0:0:
200,39,172254,1,10,0:3:0:0:
293,3,172466,1,4,0:3:0:0:
369,210,172677,6,0,L|358:295,1,84,6|0,1:0|0:0,0:0:0:0:
276,354,173522,2,0,P|249:350|221:345,1,56,2|0,0:3|0:0,0:0:0:0:
146,301,174156,1,0,0:0:0:0:
146,301,174367,2,0,L|151:269,1,28,0|2,0:0|0:3,0:0:0:0:
215,226,174790,2,0,L|210:198,1,28
179,118,175212,2,0,L|146:124,1,28,2|0,0:3|0:0,0:0:0:0:
76,158,175846,6,0,L|70:157,3,4.66666666666667,2|2|2|2,0:3|0:3|0:3|0:3,0:0:0:0:
21,89,176480,5,2,0:0:0:0:
112,17,176902,2,0,L|172:25,1,56,2|0,0:0|0:0,0:0:0:0:
240,74,177536,2,0,L|295:66,1,56,2|0,0:0|0:0,0:0:0:0:
374,17,178170,1,2,0:0:0:0:
464,114,178592,2,0,L|498:122,2,28,2|0|0,0:0|0:0|0:0,0:0:0:0:
457,121,179438,6,0,P|450:148|455:175,1,56,2|0,0:0|0:0,0:0:0:0:
511,283,180283,2,0,P|517:310|512:337,1,56
426,371,180916,5,2,0:0:0:0:
426,371,181128,2,0,L|396:365,1,28,2|0,0:0|0:0,0:0:0:0:
303,348,181550,2,0,L|309:318,1,28,2|0,0:0|0:0,0:0:0:0:
326,225,181973,2,0,L|356:231,2,28,2|0|2,0:0|0:0|0:0,0:0:0:0:
319,218,182818,5,0,0:0:0:0:
225,249,183240,2,0,L|168:235,1,56,2|0,0:0|0:0,0:0:0:0:
78,169,184085,2,0,L|105:162,1,28
202,135,184508,5,2,0:0:0:0:
213,140,184949,2,0,L|219:102,1,28
231,25,185390,1,2,0:0:0:0:
304,68,185592,2,0,L|363:60,1,56,2|0,0:0|0:0,0:0:0:0:
432,17,186210,5,2,0:0:0:0:
491,131,189713,6,0,B|447:120|418:136|418:136|404:164|370:180|370:180|333:163|300:189,1,210,6|0,1:0|0:0,0:0:0:0:
284,260,190135,2,0,P|355:293|398:258,1,140,2|0,1:0|0:0,0:0:0:0:
255,0,190558,2,0,P|240:81|220:213,1,210,10|0,0:1|0:0,0:0:0:0:
224,215,190980,1,0,0:0:0:0:
31,131,191191,6,0,P|134:115|238:96,1,210,0|0,1:0|0:0,0:0:0:0:
247,88,191614,1,0,0:0:0:0:
398,3,191825,2,0,B|440:57|440:57|415:123,1,140,2|0,1:0|0:0,0:0:0:0:
135,219,192248,6,0,P|168:208|203:209,1,70,10|0,0:1|0:0,0:0:0:0:
272,254,192459,2,0,P|305:264|340:263,1,70,2|0,0:0|0:0,0:0:0:0:
310,85,192670,6,0,P|282:106|264:136,1,70,2|0,0:0|0:0,0:0:0:0:
286,222,192882,2,0,P|309:247|340:263,1,70,2|0,0:0|0:0,0:0:0:0:
440,346,193093,6,0,P|422:342|405:341,1,35,2|0,1:0|0:0,0:0:0:0:
441,336,193304,2,0,P|423:332|406:331,1,35,2|0,0:0|0:0,0:0:0:0:
276,348,193515,1,2,1:0:0:0:
276,348,193727,1,2,0:0:0:0:
416,239,193938,6,0,P|391:246|368:258,1,52.5000020027161,10|0,0:1|0:0,0:0:0:0:
413,231,194149,2,0,P|388:238|365:250,1,52.5000020027161,2|0,0:0|0:0,0:0:0:0:
265,346,194360,1,2,0:0:0:0:
265,346,194572,1,2,1:0:0:0:
337,134,194783,6,0,P|313:159|293:188,1,70,2|0,0:0|0:0,0:0:0:0:
331,130,194994,2,0,P|307:155|287:184,1,70,2|0,0:0|0:0,0:0:0:0:
251,343,195205,1,2,1:0:0:0:
251,343,195417,1,2,0:0:0:0:
225,59,195628,6,0,P|214:101|208:144,1,87.5,10|0,0:1|0:0,0:0:0:0:
216,57,195839,2,0,P|205:99|199:142,1,87.5,2|0,0:0|0:0,0:0:0:0:
236,342,196051,1,2,0:0:0:0:
236,342,196263,1,2,0:0:0:0:
59,96,196473,6,0,P|73:146|92:195,1,105.000004005432,2|0,1:0|0:0,0:0:0:0:
42,103,196684,2,0,P|64:150|91:195,1,105.000004005432,2|0,0:0|0:0,0:0:0:0:
26,113,196896,2,0,P|56:155|91:195,1,105.000004005432,2|0,1:0|0:0,0:0:0:0:
143,326,197107,6,0,P|164:297|190:273,1,70,2|0,0:0|0:0,0:0:0:0:
153,333,197318,2,0,P|168:301|189:273,1,70,10|0,0:1|0:0,0:0:0:0:
163,338,197529,2,0,P|172:304|188:273,1,70,2|0,0:0|0:0,0:0:0:0:
250,130,197741,6,0,P|235:141|223:153,1,35,2|0,0:0|0:0,0:0:0:0:
246,126,197952,2,0,P|233:138|223:153,1,35,2|0,1:0|0:0,0:0:0:0:
423,365,198163,6,0,P|409:315|390:266,1,105.000004005432,2|0,0:0|0:0,0:0:0:0:
440,358,198374,2,0,P|418:311|391:266,1,105.000004005432,2|0,0:0|0:0,0:0:0:0:
456,348,198586,2,0,P|426:306|391:266,1,105.000004005432,2|0,1:0|0:0,0:0:0:0:
266,137,198797,6,0,P|274:104|290:73,1,70,2|0,0:0|0:0,0:0:0:0:
256,132,199009,2,0,P|270:101|291:73,1,70,10|0,0:1|0:0,0:0:0:0:
246,125,199220,2,0,P|266:97|291:73,1,70,2|0,0:0|0:0,0:0:0:0:
507,46,199431,6,0,P|503:27|497:11,1,35,2|0,0:0|0:0,0:0:0:0:
512,44,199642,2,0,P|506:27|497:11,1,35,2|0,0:0|0:0,0:0:0:0:
251,217,199853,6,0,P|208:212|173:185,1,87.5,2|0,1:0|0:0,0:0:0:0:
245,230,200065,2,0,P|203:217|174:185,1,87.5,2|0,0:0|0:0,0:0:0:0:
237,242,200276,2,0,P|198:222|175:186,1,87.5,2|0,1:0|0:0,0:0:0:0:
138,19,200487,2,0,P|140:62|120:100,1,87.5,2|0,0:0|0:0,0:0:0:0:
0,217,200698,6,0,P|35:192|79:191,1,87.5,10|0,0:1|0:0,0:0:0:0:
176,301,200910,2,0,P|203:321|237:328,1,70,2|0,0:0|0:0,0:0:0:0:
345,137,201121,6,0,P|299:98|280:155,1,140,2|0,0:0|1:0,0:0:0:0:
480,384,201543,2,0,P|484:244|485:104,1,280,8|0,0:1|0:0,0:0:0:0:
388,0,202177,1,10,0:3:0:0:
352,206,202389,6,0,L|344:136,1,70,10|0,0:3|0:0,0:0:0:0:
204,5,202600,2,0,L|215:109,1,105.000004005432,8|0,0:3|0:0,0:0:0:0:
139,297,202811,6,0,L|134:259,1,31.4999990386963,6|0,0:3|0:0,0:0:0:0:
101,156,203234,6,0,P|146:242|242:221,1,210,4|0,1:0|0:0,0:0:0:0:
295,166,203656,2,0,P|358:151|397:208,1,140,2|0,1:0|0:0,0:0:0:0:
20,384,204079,2,0,P|16:279|12:174,1,210,10|0,0:1|0:0,0:0:0:0:
18,166,204501,1,2,0:0:0:0:
161,65,204713,6,0,P|91:57|21:51,1,140,0|0,1:0|0:0,0:0:0:0:
305,0,205135,1,0,0:0:0:0:
246,191,205346,2,0,P|315:185|385:177,1,140,2|0,1:0|0:0,0:0:0:0:
18,166,205769,1,10,0:1:0:0:
113,295,205980,1,0,0:0:0:0:
246,191,206191,2,0,P|246:121|244:51,1,140,2|0,0:0|0:0,0:0:0:0:
47,369,206614,6,0,P|112:294|206:324,1,210,0|0,1:0|0:0,0:0:0:0:
268,369,207036,2,0,P|330:389|376:341,1,140,2|0,1:0|0:0,0:0:0:0:
242,31,207459,2,0,B|207:82|258:133|285:98|328:153|304:206,1,210,10|0,0:1|0:0,0:0:0:0:
301,214,207882,1,2,0:0:0:0:
373,41,208093,6,0,P|442:35|512:30,1,140,0|0,1:0|0:0,0:0:0:0:
296,221,208515,1,0,0:0:0:0:
136,139,208727,2,0,P|131:69|128:0,1,140,2|0,1:0|0:0,0:0:0:0:
489,192,209149,1,10,0:1:0:0:
410,305,209360,1,0,0:0:0:0:
296,221,209572,2,0,P|300:151|303:81,1,140,2|0,0:0|0:0,0:0:0:0:
511,361,209994,6,0,B|482:303|409:305|409:305|386:339|338:349,1,210,0|0,1:0|0:0,0:0:0:0:
268,368,210417,2,0,P|201:345|134:326,1,140,2|0,1:0|0:0,0:0:0:0:
16,17,210839,2,0,P|27:112|124:115,1,210,10|0,0:1|0:0,0:0:0:0:
130,107,211262,1,2,0:0:0:0:
311,202,211473,6,0,B|246:177|246:177|179:218,1,140,0|0,1:0|0:0,0:0:0:0:
360,53,211896,1,0,0:0:0:0:
237,54,212107,2,0,B|302:79|302:79|369:38,1,140,2|0,1:0|0:0,0:0:0:0:
466,289,212529,2,0,B|418:271|418:271|334:322|334:322|278:299,1,210,8|0,0:1|0:0,0:0:0:0:
271,306,212952,6,0,L|331:330,1,52.5,2|0,0:0|0:0,0:0:0:0:
263,311,213374,6,0,L|198:285,1,70,2|0,1:0|0:0,0:0:0:0:
90,118,213586,2,0,P|180:105|171:196,1,210,2|0,0:0|0:0,0:0:0:0:
97,192,214008,2,0,P|129:206|167:199,1,70,2|0,0:0|0:0,0:0:0:0:
344,30,214220,2,0,B|286:10|232:45|269:73|202:116|160:93,1,210,10|0,0:1|0:0,0:0:0:0:
87,111,214642,2,0,P|115:89|154:87,1,70,2|0,0:0|0:0,0:0:0:0:
393,223,214853,6,0,P|391:130|299:141,1,210,2|0,1:0|0:0,0:0:0:0:
297,154,215276,1,8,0:1:0:0:
336,330,215487,2,0,P|405:322|474:313,1,140,2|0,1:0|0:0,0:0:0:0:
160,269,215910,5,10,0:1:0:0:
205,155,216121,1,0,1:0:0:0:
248,299,216332,1,10,0:3:0:0:
176,360,216544,1,0,1:0:0:0:
0,145,216755,6,0,P|104:156|208:166,1,210,4|0,1:0|0:0,0:0:0:0:
214,179,217177,2,0,P|283:171|352:164,1,140,2|0,1:0|0:0,0:0:0:0:
501,383,217600,2,0,P|484:307|369:318,1,210,10|0,0:1|0:0,0:0:0:0:
371,324,218022,1,2,0:0:0:0:
503,213,218234,6,0,P|508:143|512:73,1,140,0|0,1:0|0:0,0:0:0:0:
213,113,218656,1,8,0:1:0:0:
353,163,218867,2,0,P|349:93|343:23,1,140,2|0,1:0|0:0,0:0:0:0:
73,68,219290,1,10,0:1:0:0:
118,177,219501,1,2,0:0:0:0:
13,304,219713,2,0,P|5:234|0:164,1,140,2|0,0:0|0:0,0:0:0:0:
368,347,220135,6,0,B|404:272|328:224|328:224|323:259|298:284,1,210,0|0,1:0|0:0,0:0:0:0:
238,325,220558,2,0,P|174:333|95:315,1,140,2|0,1:0|0:0,0:0:0:0:
166,0,220980,2,0,P|174:104|179:209,1,210,10|0,0:1|0:0,0:0:0:0:
176,221,221403,1,2,0:0:0:0:
435,147,221614,6,0,P|365:136|296:129,1,140,0|0,1:0|0:0,0:0:0:0:
71,328,222036,1,8,0:1:0:0:
283,384,222248,2,0,P|293:314|300:245,1,140,2|0,1:0|0:0,0:0:0:0:
289,26,222670,1,10,0:1:0:0:
411,23,222882,1,0,0:0:0:0:
296,130,223093,2,0,P|226:123|157:112,1,140,2|0,0:0|0:0,0:0:0:0:
0,366,223515,6,0,B|17:314|69:290|69:290|122:293|164:328,1,210,0|0,1:0|0:0,0:0:0:0:
169,336,223938,1,0,1:0:0:0:
282,384,224149,1,2,0:0:0:0:
443,232,224360,2,0,P|338:223|234:210,1,210,10|0,0:1|0:0,0:0:0:0:
222,204,224783,1,2,0:0:0:0:
116,105,224994,6,0,P|185:93|254:84,1,140,0|0,1:0|0:0,0:0:0:0:
460,314,225417,1,8,0:1:0:0:
324,315,225628,2,0,P|332:245|344:176,1,140,2|0,1:0|0:0,0:0:0:0:
512,6,226051,2,0,B|528:86|420:121|336:6,1,210,8|0,0:1|0:0,0:0:0:0:
297,8,226473,6,0,P|271:1|245:3,1,52.5,2|0,0:0|0:0,0:0:0:0:
221,21,226896,6,0,P|254:10|289:15,1,70,2|0,1:0|0:0,0:0:0:0:
259,276,227107,2,0,B|211:237|237:169|269:197|303:133|261:87,1,210,2|0,0:0|0:0,0:0:0:0:
212,28,227529,2,0,P|188:54|184:88,1,70,2|0,0:0|0:0,0:0:0:0:
443,195,227741,2,0,P|465:126|373:165,1,210,10|0,0:1|0:0,0:0:0:0:
369,225,228163,2,0,P|385:257|395:290,1,70,2|0,0:0|0:0,0:0:0:0:
367,371,228374,1,2,1:0:0:0:
134,252,228586,5,8,0:1:0:0:
103,342,228797,1,2,1:0:0:0:
247,231,229008,2,0,P|243:204|239:179,1,52.5,0|0,1:0|0:0,0:0:0:0:
166,140,229431,5,8,0:1:0:0:
330,214,229642,1,2,1:0:0:0:
446,119,229853,1,6,0:3:0:0:
455,112,230276,6,0,B|456:165|438:202|438:202|450:226|450:226|433:266|433:314,1,210,6|0,1:0|0:0,0:0:0:0:
458,383,230698,2,0,P|423:387|391:373,1,70,2|0,1:0|0:0,0:0:0:0:
323,234,230910,2,0,P|288:230|256:244,1,70,2|0,0:0|0:0,0:0:0:0:
211,384,231120,1,8,0:1:0:0:
109,222,231332,2,0,B|137:196|131:157|131:157|139:210|139:210|135:240|135:240|145:305,1,210,2|0,0:0|0:0,0:0:0:0:
152,301,231754,6,0,L|141:231,1,70,2|0,1:0|0:0,0:0:0:0:
35,164,231966,2,0,L|46:94,1,70,2|0,0:0|0:0,0:0:0:0:
68,0,232177,1,8,0:1:0:0:
232,63,232388,2,0,B|186:31|137:89|137:89|132:85|132:85|91:121|44:94,1,210,2|0,1:0|0:0,0:0:0:0:
237,73,232811,2,0,P|212:157|137:96,1,210,10|0,0:1|0:0,0:0:0:0:
242,82,233233,2,0,P|252:152|258:222,1,140,2|0,0:0|0:0,0:0:0:0:
479,376,233656,6,0,B|539:314|480:234|480:234|450:237|423:255,1,210,2|0,1:0|0:0,0:0:0:0:
371,301,234078,2,0,P|336:299|303:287,1,70,2|0,1:0|0:0,0:0:0:0:
166,164,234290,2,0,P|131:166|98:178,1,70,2|0,0:0|0:0,0:0:0:0:
0,335,234500,1,8,0:1:0:0:
227,351,234712,2,0,B|188:304|211:249|211:249|263:220|261:160,1,210,2|0,0:0|0:0,0:0:0:0:
261,97,235135,6,0,P|259:71|252:22,1,70,2|0,1:0|0:0,0:0:0:0:
397,0,235346,2,0,P|391:34|388:69,1,70,2|0,0:0|0:0,0:0:0:0:
385,191,235558,1,8,0:1:0:0:
117,84,235769,2,0,B|192:85|261:97|261:97|228:85|202:68,1,210,2|0,1:0|0:0,0:0:0:0:
96,14,236191,2,0,P|87:118|80:223,1,210,10|0,0:1|0:0,0:0:0:0:
36,306,236613,2,0,P|33:236|104:222,1,140,2|0,0:0|0:0,0:0:0:0:
391,384,237036,6,0,B|399:346|388:309|388:309|399:283|403:259|403:259|388:223|398:179,1,210,2|0,1:0|0:0,0:0:0:0:
469,141,237459,2,0,P|477:104|468:71,1,70,2|0,1:0|0:0,0:0:0:0:
323,80,237670,2,0,P|315:117|324:150,1,70,2|0,0:0|0:0,0:0:0:0:
397,0,237881,1,8,0:1:0:0:
333,242,238093,2,0,B|278:251|230:201|230:201|206:222|181:227|181:227|156:219|119:225,1,210,2|0,0:0|0:0,0:0:0:0:
126,234,238515,6,0,P|160:231|196:247,1,70,2|0,1:0|0:0,0:0:0:0:
313,347,238727,2,0,P|347:350|380:337,1,70,2|0,0:0|0:0,0:0:0:0:
411,183,238938,1,8,0:1:0:0:
248,0,239149,2,0,B|257:80|261:144|261:144|265:114|276:80,1,210,2|0,1:0|0:0,0:0:0:0:
366,52,239572,2,0,B|313:25|262:66|289:106|231:141|169:111,1,210,10|0,0:1|0:0,0:0:0:0:
63,102,239993,2,0,P|124:74|183:107,1,140,2|0,0:0|0:0,0:0:0:0:
116,346,240417,6,0,B|74:307|97:240|135:264|158:203|120:155,1,210,0|0,1:0|0:0,0:0:0:0:
63,102,240839,2,0,P|44:39|97:0,1,140,0|0,1:0|0:0,0:0:0:0:
446,80,241262,2,0,P|341:71|237:55,1,210,8|0,0:1|0:0,0:0:0:0:
220,55,241684,2,0,P|231:89|238:123,1,70,2|0,0:0|0:0,0:0:0:0:
329,216,241896,2,0,P|336:182|348:149,1,70,2|0,1:0|0:0,0:0:0:0:
304,76,242107,1,10,0:1:0:0:
315,82,242529,6,0,P|324:97|330:115,1,35,2|0,0:0|0:0,0:0:0:0:
327,90,242741,2,0,P|331:106|333:124,1,35,2|0,0:0|0:0,0:0:0:0:
256,168,242952,6,0,P|247:144|246:118,1,52.5000020027161,10|0,0:1|0:0,0:0:0:0:
393,80,243163,2,0,P|408:112|405:147,1,70,10|0,0:1|0:0,0:0:0:0:
171,101,243374,6,0,P|197:58|256:40,1,105.000004005432,10|0,0:1|0:0,0:0:0:0:
488,167,243586,2,0,P|448:218|367:223,1,140,6|0,0:3|0:0,0:0:0:0:
351,0,243797,6,0,B|380:66|356:138|270:120|230:214|275:277,1,315.000012016297,6|0,1:0|0:0,0:0:0:0:
322,339,244220,2,0,L|416:323,1,87.5,2|0,1:0|0:0,0:0:0:0:
463,212,244431,2,0,L|376:226,1,87.5,2|0,0:0|0:0,0:0:0:0:
150,243,244642,1,8,0:1:0:0:
221,358,244853,2,0,B|177:353|137:391|137:391|175:353|169:301|132:310|131:271|156:236,1,262.5,2|0,0:0|0:0,0:0:0:0:
163,229,245276,2,0,P|181:189|177:146,1,87.5,2|0,1:0|0:0,0:0:0:0:
6,127,245487,2,0,P|2:83|19:44,1,87.5,2|0,0:0|0:0,0:0:0:0:
163,0,245698,1,8,0:1:0:0:
347,163,245910,6,0,B|267:207|177:146|177:146|215:111|282:124,1,262.5,2|0,1:0|0:0,0:0:0:0:
354,170,246332,2,0,B|387:215|372:265|343:247|322:299|349:344|349:344|342:303|372:270,1,262.5,10|0,0:1|0:0,0:0:0:0:
433,349,246755,2,0,P|449:276|373:280,1,175,2|0,0:0|0:0,0:0:0:0:
88,383,247177,6,0,B|35:336|59:258|117:279|145:201|99:146,1,262.5,2|0,1:0|0:0,0:0:0:0:
25,132,247600,2,0,P|65:147|107:137,1,87.5,2|0,1:0|0:0,0:0:0:0:
178,31,247811,2,0,P|219:20|260:36,1,87.5,2|0,0:0|0:0,0:0:0:0:
356,193,248022,1,8,0:1:0:0:
220,321,248234,6,0,B|226:240|226:240|205:207|205:207|214:125|214:125|212:160|221:185,1,262.5,2|0,0:0|0:0,0:0:0:0:
237,200,248656,2,0,P|224:158|229:106,1,87.5,2|0,1:0|0:0,0:0:0:0:
25,132,248867,2,0,P|37:173|35:217,1,87.5,2|0,0:0|0:0,0:0:0:0:
111,4,249079,1,8,0:1:0:0:
227,115,249290,2,0,B|317:145|299:63|407:87|407:87|358:76|319:130,1,262.5,2|0,1:0|0:0,0:0:0:0:
361,199,249713,2,0,P|447:140|345:114,1,262.5,10|0,0:1|0:0,0:0:0:0:
351,204,250135,2,0,P|361:293|366:378,1,175,2|0,0:0|0:0,0:0:0:0:
22,230,250558,6,0,B|78:127|229:174|170:309|79:257,1,262.5,2|0,1:0|0:0,0:0:0:0:
90,179,250980,2,0,L|100:87,1,87.5,2|0,1:0|0:0,0:0:0:0:
223,44,251191,2,0,L|213:130,1,87.5,2|0,0:0|0:0,0:0:0:0:
184,355,251403,1,8,0:1:0:0:
374,281,251614,2,0,B|352:165|194:163|208:310|311:289,1,262.5,2|0,0:0|0:0,0:0:0:0:
325,212,252036,2,0,L|335:120,1,87.5,2|0,1:0|0:0,0:0:0:0:
349,0,252248,5,10,0:1:0:0:
470,213,252459,1,8,0:1:0:0:
190,177,252670,1,10,0:1:0:0:
265,85,252882,1,4,0:3:0:0:
400,166,253093,5,10,0:3:0:0:
393,69,253304,1,4,0:3:0:0:
483,108,253515,1,2,1:0:0:0:
325,212,253727,1,2,0:0:0:0:
138,70,253938,5,6,1:0:0:0:
256,192,254043,12,0,260698,0:0:0:0:
