osu file format v14

[General]
AudioFilename: (19)TwinkleStar.mp3
AudioLeadIn: 0
PreviewTime: 48820
Countdown: 0
SampleSet: Soft
StackLeniency: 0.7
Mode: 0
LetterboxInBreaks: 0
WidescreenStoryboard: 0

[Editor]
DistanceSpacing: 1.1
BeatDivisor: 4
GridSize: 4
TimelineZoom: 1

[Metadata]
Title:Twinkle*Star (TV Size)
TitleUnicode:トゥインクル☆スター(TVサイズ)
Artist:Saeko Chiba
ArtistUnicode:千葉紗子
Creator:bossandy
Version:Normal
Source:コメットさん☆
Tags:Cosmic Baton Girl Princess Comet うらん 大久保薫 uran kaori ookubo ed1 ending theme thema
BeatmapID:1557989
BeatmapSetID:724545

[Difficulty]
HPDrainRate:4
CircleSize:3.5
OverallDifficulty:4
ApproachRate:5
SliderMultiplier:1
SliderTickRate:1

[Events]
//Background and Video events
0,0,"BG.jpg",0,0
Video,-350,"princess comet ending 1 720p hd.avi.x264.ac3.avi"
//Break Periods
//Storyboard Layer 0 (Background)
//Storyboard Layer 1 (Fail)
//Storyboard Layer 2 (Pass)
//Storyboard Layer 3 (Foreground)
//Storyboard Sound Samples

[TimingPoints]
141,377.358490566038,4,2,1,60,1,0
8254,-100,4,2,1,50,0,0
8631,-100,4,2,1,60,0,0
9008,-100,4,2,1,50,0,0
9197,-100,4,2,1,60,0,0
14103,-100,4,2,2,50,0,0
14480,-100,4,2,1,60,0,0
15424,-100,4,2,2,60,0,0
15801,-100,4,2,1,60,0,0
16367,-100,4,2,2,60,0,0
16556,-100,4,2,1,60,0,0
20141,-100,4,2,2,50,0,0
20518,-100,4,2,1,60,0,0
21650,-100,4,2,2,60,0,0
21839,-100,4,2,1,60,0,0
22405,-100,4,2,2,60,0,0
22593,-100,4,2,1,60,0,0
26178,-100,4,2,2,50,0,0
26556,-100,4,2,1,60,0,0
27688,-100,4,2,2,60,0,0
27876,-100,4,2,1,60,0,0
28442,-100,4,2,2,60,0,0
28631,-100,4,2,1,60,0,0
32216,-100,4,2,2,50,0,0
32405,-100,4,2,1,60,0,0
33348,-100,4,2,2,60,0,0
33725,-100,4,2,1,60,0,0
34103,-100,4,2,2,60,0,0
34203,-100,4,2,2,60,0,0
34291,-100,4,2,1,60,0,0
34480,-100,4,2,2,60,0,0
34857,-142.857142857143,4,2,1,50,0,0
35235,-142.857142857143,4,2,3,40,0,0
35424,-142.857142857143,4,2,1,50,0,0
36744,-142.857142857143,4,2,3,40,0,0
36933,-142.857142857143,4,2,1,50,0,0
38254,-142.857142857143,4,2,3,40,0,0
38442,-142.857142857143,4,2,1,50,0,0
39763,-142.857142857143,4,2,3,40,0,0
39952,-142.857142857143,4,2,1,50,0,0
41273,-142.857142857143,4,2,3,40,0,0
41461,-142.857142857143,4,2,1,50,0,0
42782,-142.857142857143,4,2,3,40,0,0
42971,-142.857142857143,4,2,1,50,0,0
43725,-100,4,2,1,60,0,0
44291,-100,4,2,3,50,0,0
44480,-100,4,2,1,60,0,0
45801,-100,4,2,3,60,0,0
45990,-100,4,2,1,60,0,0
49952,-100,4,2,1,80,0,1
60518,-100,4,2,1,80,0,0
62027,-100,4,2,1,80,0,1
74103,-142.857142857143,4,2,1,80,0,1
74480,-142.857142857143,4,2,3,70,0,1
74669,-142.857142857143,4,2,1,80,0,1
75990,-142.857142857143,4,2,3,70,0,1
76178,-142.857142857143,4,2,1,80,0,1
77499,-142.857142857143,4,2,3,70,0,1
77688,-142.857142857143,4,2,1,80,0,1
78631,-142.857142857143,4,2,3,70,0,1
79386,-142.857142857143,4,2,1,80,0,1
79952,-100,4,2,1,80,0,1
81650,-100,4,2,2,80,0,1
83159,-142.857142857143,4,2,1,50,0,0
85046,394.736842105263,4,2,2,60,1,0
85046,-142.857142857143,4,2,2,60,0,0
85440,408.163265306122,4,2,2,60,1,0
85440,-142.857142857143,4,2,2,60,0,0
85848,441.176470588235,4,2,2,60,1,0
86730,-142.857142857143,4,2,2,55,0,0
86950,-142.857142857143,4,2,2,50,0,0
87171,-142.857142857143,4,2,2,45,0,0
87392,-142.857142857143,4,2,2,40,0,0
87612,-142.857142857143,4,2,2,35,0,0
87833,-142.857142857143,4,2,2,30,0,0
88053,-142.857142857143,4,2,2,25,0,0
88274,-142.857142857143,4,2,2,20,0,0
88495,-142.857142857143,4,2,2,15,0,0
88715,-142.857142857143,4,2,2,10,0,0
88936,-142.857142857143,4,2,2,5,0,0

[Colours]
Combo1 : 255,224,132
Combo2 : 6,255,255
Combo3 : 121,182,255
Combo4 : 248,135,152

[HitObjects]
408,348,1650,5,6,0:0:0:0:
308,280,2027,2,0,P|296:244|304:200,1,50,8|0,0:0|0:0,0:0:0:0:
312,180,2405,2,0,P|316:104|292:56,1,100,2|8,0:0|0:0,0:0:0:0:
264,48,2971,2,0,L|160:56,1,100,2|0,0:0|0:0,0:0:0:0:
120,88,3537,2,0,P|97:89|68:84,2,50,8|2|0,0:0|0:0|0:0,0:0:0:0:
220,136,4291,1,8,0:0:0:0:
128,200,4669,5,2,0:0:0:0:
224,252,5046,2,0,B|244:304,1,50,8|0,0:0|0:0,0:0:0:0:
264,348,5424,2,0,B|294:350|294:350|331:334|331:334|360:335,1,100,2|8,0:0|0:0,0:0:0:0:
408,360,5990,1,2,0:0:0:0:
484,280,6367,1,2,0:0:0:0:
452,232,6556,2,0,P|456:180|488:136,2,100,8|0|8,0:0|0:0|0:0,0:0:0:0:
376,144,7688,6,0,B|360:120|336:120|336:120|284:120,1,100,6|0,0:0|0:0,0:0:0:0:
228,120,8254,2,0,B|176:120|176:120|152:120|136:144,1,100,6|8,0:0|0:3,0:0:0:0:
140,252,9008,2,0,B|198:252|198:252|227:252|256:222|256:222|285:252|314:252|314:252|372:252,1,250,4|0,0:0|0:0,0:0:0:0:
452,176,10329,1,0,0:0:0:0:
392,84,10707,5,6,0:0:0:0:
280,84,11084,2,8,B|230:84,1,50,8|2,0:0|0:0,0:0:0:0:
176,92,11461,2,0,P|132:63|116:16,2,100,0|8|2,0:0|0:0|0:0,0:0:0:0:
280,84,12593,2,0,P|277:135|244:173,2,100,8|0|8,0:0|0:0|0:0,0:0:0:0:
392,80,13725,6,0,P|388:178|327:255,1,200,2|0,0:0|0:0,0:0:0:0:
320,312,14669,2,0,L|332:364,2,50,2|8|0,0:0|0:0|0:0,0:0:0:0:
268,296,15235,1,2,0:0:0:0:
192,216,15612,5,2,1:2:0:0:
112,141,15990,1,0,0:0:0:0:
86,249,16367,1,2,1:2:0:0:
166,322,16744,1,2,0:0:0:0:
192,216,17122,6,0,P|217:206|236:188,1,50,8|2,0:0|0:0,0:0:0:0:
268,148,17499,2,0,B|293:160|341:160|365:148,2,100,0|8|2,0:0|0:0|0:0,0:0:0:0:
160,148,18631,2,0,B|135:160|87:160|63:148,2,100,8|0|8,0:0|0:0|0:0,0:0:0:0:
116,48,19763,6,0,B|164:32|212:60|212:60|260:32|308:48,1,200,2|0,0:0|0:0,0:0:0:0:
360,68,20707,2,0,P|384:60|408:52,2,50,0|8|0,0:0|0:0|0:0,0:0:0:0:
360,124,21273,1,2,0:0:0:0:
436,204,21650,5,2,1:2:0:0:
328,228,22027,1,0,0:0:0:0:
292,332,22405,1,2,1:2:0:0:
400,308,22782,1,6,0:0:0:0:
328,228,23159,6,0,P|304:216|280:208,1,50,8|2,0:0|0:0,0:0:0:0:
228,224,23537,2,0,P|176:232|128:204,1,100,0|8,0:0|0:0,0:0:0:0:
28,192,24291,2,0,P|47:142|95:115,1,100,2|8,0:0|0:0,0:0:0:0:
156,36,25046,2,0,P|188:77|188:132,1,100,0|8,0:0|0:0,0:0:0:0:
135,211,25801,6,0,B|160:227|185:227|185:227|210:227|227:211|227:211|244:227|269:227|269:227|294:227|319:211,1,200,2|0,0:0|0:0,0:0:0:0:
348,168,26744,1,0,0:0:0:0:
364,120,26933,2,0,P|372:88|372:68,2,50,8|0|2,0:0|0:0|0:0,0:0:0:0:
266,85,27688,5,2,1:2:0:0:
164,132,28065,1,0,0:0:0:0:
74,67,28442,1,2,1:2:0:0:
175,20,28820,1,2,0:0:0:0:
164,132,29197,6,0,P|163:156|168:200,1,50,8|2,0:0|0:0,0:0:0:0:
172,236,29574,2,0,P|213:268|268:268,1,100,0|8,0:0|0:0,0:0:0:0:
361,308,30329,2,0,P|369:255|341:207,1,100,2|8,0:0|0:0,0:0:0:0:
328,109,31084,2,0,P|279:128|252:176,1,100,0|8,0:0|0:0,0:0:0:0:
349,215,31839,6,0,P|416:184|444:112,1,150,2|2,0:0|0:0,0:0:0:0:
436,64,32593,2,0,P|419:41|396:24,1,50
348,12,32971,2,0,P|320:5|291:7,1,50,8|0,0:0|0:0,0:0:0:0:
244,8,33348,6,0,P|177:39|149:111,1,150,2|2,0:0|0:0,0:0:0:0:
164,160,34103,2,0,P|120:180|68:176,1,100,2|2,0:0|1:2,0:0:0:0:
140,256,34857,6,0,P|161:303|157:355,1,104.999996795654,6|2,0:0|0:0,0:0:0:0:
157,355,35612,1,0,0:0:0:0:
68,320,35990,1,8,0:0:0:0:
40,224,36367,2,0,B|27:173|27:173|40:120,1,104.999996795654,2|2,0:0|0:0,0:0:0:0:
39,121,37122,1,0,0:0:0:0:
64,28,37499,1,8,0:0:0:0:
140,92,37876,6,0,P|192:104|244:96,1,104.999996795654,2|2,0:0|0:0,0:0:0:0:
280,64,38631,2,0,P|316:60|352:64,1,69.9999978637696,0|8,0:0|0:0,0:0:0:0:
436,112,39386,2,0,L|441:181,1,69.9999978637696,2|8,0:0|0:0,0:0:0:0:
384,264,40141,2,0,L|386:298,2,34.9999989318848,2|8|8,0:0|0:3|0:0,0:0:0:0:
307,195,40895,6,0,P|256:185|196:200,1,104.999996795654,6|2,0:0|0:0,0:0:0:0:
164,224,41650,2,0,P|122:228|72:224,1,69.9999978637696,0|8,0:0|0:0,0:0:0:0:
92,128,42405,2,0,P|133:123|184:128,1,69.9999978637696,2|8,0:0|0:0,0:0:0:0:
220,128,42971,2,0,P|233:89|240:52,2,69.9999978637696,4|8|6,0:3|0:0|0:0,0:0:0:0:
132,252,44291,5,8,1:2:0:0:
232,244,44669,2,0,L|340:236,1,100,2|8,0:0|0:0,0:0:0:0:
392,316,45424,2,0,L|500:324,1,100,2|8,0:0|1:2,0:0:0:0:
448,236,46178,2,0,P|436:188|440:128,1,100,2|8,0:0|0:0,0:0:0:0:
372,60,46933,6,0,P|313:60|232:108,1,150,4|4,0:0|0:0,0:0:0:0:
132,212,48065,2,0,P|108:216|80:216,1,50,4|4,0:0|0:0,0:0:0:0:
252,312,49008,6,0,P|284:268|288:216,1,100,0|2,0:0|0:0,0:0:0:0:
244,192,49574,2,0,L|192:200,1,50,8|0,0:0|0:0,0:0:0:0:
156,160,49952,6,4,P|120:124|116:68,1,100,6|8,0:0|0:0,0:0:0:0:
200,8,50707,1,2,0:0:0:0:
292,68,51084,1,8,0:0:0:0:
292,68,51273,2,0,B|340:80|340:80|392:76,1,100,2|2,0:0|0:0,0:0:0:0:
444,72,51839,2,0,L|504:68,1,50,8|2,0:0|0:0,0:0:0:0:
484,180,52405,2,0,L|434:183,1,50,2|8,0:0|0:0,0:0:0:0:
324,188,52971,5,2,0:0:0:0:
272,284,53348,1,8,0:0:0:0:
224,184,53725,2,0,P|176:220|160:264,1,100,2|8,0:0|0:0,0:0:0:0:
144,308,54291,2,0,P|88:331|41:322,1,100,2|2,0:0|0:0,0:0:0:0:
32,272,54857,2,0,L|24:208,1,50,8|2,0:0|0:0,0:0:0:0:
68,120,55424,2,0,L|60:56,2,50,2|8|2,0:0|0:0|0:0,0:0:0:0:
108,156,55990,6,0,P|163:150|224:124,1,100,6|8,0:0|0:0,0:0:0:0:
220,80,56556,1,2,0:0:0:0:
308,148,56933,1,2,0:0:0:0:
320,96,57122,2,0,P|366:79|416:75,1,100,8|2,0:0|0:0,0:0:0:0:
460,176,57876,1,8,0:0:0:0:
460,176,58065,2,8,L|440:276,1,100,2|2,0:0|0:0,0:0:0:0:
420,324,58631,2,0,P|375:343|329:325,1,100,8|2,0:0|0:0,0:0:0:0:
292,220,59386,5,8,0:0:0:0:
292,220,59574,2,8,L|312:120,1,100,2|2,0:0|0:0,0:0:0:0:
324,68,60141,1,8,0:0:0:0:
224,20,60518,1,2,0:0:0:0:
124,68,60895,2,0,P|97:75|60:80,1,50,8|8,0:0|0:3,0:0:0:0:
112,180,61461,1,2,0:0:0:0:
112,180,61650,2,0,P|136:180|168:188,1,50,8|4,0:0|0:3,0:0:0:0:
208,216,62027,6,0,P|261:221|320:188,2,100,4|8|2,0:0|0:0|0:0,0:0:0:0:
168,116,63159,1,8,0:0:0:0:
136,72,63348,2,0,P|88:68|36:76,1,100,2|2,0:0|0:0,0:0:0:0:
20,128,63914,2,0,P|16:158|16:184,1,50,8|2,0:0|0:0,0:0:0:0:
64,276,64480,2,0,P|68:306|68:332,1,50,2|8,0:0|0:0,0:0:0:0:
176,352,65046,6,0,B|232:364|224:328|272:334,1,100,2|8,0:0|0:0,0:0:0:0:
372,376,65801,1,2,0:0:0:0:
444,292,66178,1,8,0:0:0:0:
444,292,66367,2,0,P|465:248|468:196,1,100,2|2,0:0|0:0,0:0:0:0:
424,164,66933,2,0,L|436:112,1,50,8|2,0:0|0:0,0:0:0:0:
340,60,67499,2,0,L|304:96,2,50,2|8|2,0:0|0:0|0:0,0:0:0:0:
348,4,68065,6,0,P|292:0|248:1,1,100,6|8,0:0|0:0,0:0:0:0:
192,12,68631,1,2,0:0:0:0:
116,92,69008,1,2,0:0:0:0:
116,92,69197,1,8,0:0:0:0:
140,200,69574,2,0,P|138:249|111:290,1,100,2|8,0:0|0:0,0:0:0:0:
56,284,70141,2,0,P|40:237|51:189,1,100,2|2,0:0|0:0,0:0:0:0:
100,164,70707,1,8,0:0:0:0:
56,64,71084,5,2,0:0:0:0:
164,36,71461,1,8,0:0:0:0:
216,52,71650,2,0,B|260:64|260:64|292:72|320:60,1,100,2|2,0:0|0:0,0:0:0:0:
356,28,72216,2,0,L|424:32,1,50,8|0,0:0|0:0,0:0:0:0:
460,36,72593,2,0,P|452:87|456:140,1,100,2|8,0:0|0:0,0:0:0:0:
476,188,73159,1,2,0:0:0:0:
508,232,73348,2,0,P|508:256|496:296,2,50,4|2|8,0:0|0:0|0:0,0:0:0:0:
392,240,74103,6,0,L|312:256,1,69.9999978637696,6|8,0:0|0:0,0:0:0:0:
288,264,74669,2,0,L|184:256,1,104.999996795654,2|8,0:0|0:0,0:0:0:0:
148,152,75612,2,0,L|152:56,1,69.9999978637696,2|8,0:0|0:0,0:0:0:0:
144,44,76178,2,0,P|80:24|40:32,1,104.999996795654,2|8,0:0|0:0,0:0:0:0:
24,140,77122,6,0,P|24:180|36:208,1,69.9999978637696,2|8,0:0|0:0,0:0:0:0:
64,236,77688,2,0,P|120:232|172:256,1,104.999996795654,2|8,0:0|0:0,0:0:0:0:
100,344,78631,1,4,0:0:0:0:
260,232,79386,6,0,L|252:140,1,69.9999978637696,8|8,0:0|0:0,0:0:0:0:
248,108,79952,2,0,P|323:111|396:52,1,150,6|8,0:0|0:0,0:0:0:0:
468,140,80895,1,2,0:0:0:0:
400,228,81273,1,8,0:0:0:0:
492,288,81650,1,4,0:0:0:0:
264,108,83159,6,0,P|229:105|188:108,1,69.9999978637696,2|0,0:0|0:0,0:0:0:0:
168,136,83725,2,0,P|133:139|92:136,1,69.9999978637696,2|2,0:0|0:0,0:0:0:0:
76,104,84291,2,0,L|40:88,1,34.9999989318848,8|6,0:0|0:0,0:0:0:0:
96,228,85046,6,0,P|116:252|152:268,1,69.9999978637696,2|0,0:0|0:0,0:0:0:0:
252,272,85848,2,0,P|288:284|332:328,1,100,2|4,0:0|0:0,0:0:0:0:
256,192,86509,12,0,88936,0:0:0:0:
