osu file format v14

[General]
AudioFilename: audio.mp3
AudioLeadIn: 0
PreviewTime: 57475
Countdown: 0
SampleSet: Soft
StackLeniency: 0.7
Mode: 0
LetterboxInBreaks: 0
WidescreenStoryboard: 0

[Editor]
DistanceSpacing: 1.1
BeatDivisor: 6
GridSize: 8
TimelineZoom: 2.3

[Metadata]
Title:Yume no You na (TV Size)
TitleUnicode:夢のような (TV Size)
Artist:Saeki Yusuke
ArtistUnicode:佐伯ユウスケ
Creator:Chompy
Version:Dream
Source:Dr.STONE
Tags:ドクターストーン dr. stone ending2 ed2 石神千空 senku ishigami anime japanese j-pop TheShadowOfDark leo16834 Smoke Smoke45
BeatmapID:2206684
BeatmapSetID:1055853

[Difficulty]
HPDrainRate:6
CircleSize:5
OverallDifficulty:8
ApproachRate:8
SliderMultiplier:2.8
SliderTickRate:1

[Events]
//Background and Video events
0,0,"yume no you na bg.jpg",0,0
Video,0,"dream.mp4"
//Break Periods
//Storyboard Layer 0 (Background)
//Storyboard Layer 1 (Fail)
//Storyboard Layer 2 (Pass)
//Storyboard Layer 3 (Foreground)
//Storyboard Layer 4 (Overlay)
//Storyboard Sound Samples

[TimingPoints]
-1176,674.157303370787,4,2,2,100,1,0
-1176,-125,4,2,2,45,0,0
11632,-100,4,2,2,55,0,0
25790,-111.111111111111,4,2,2,55,0,0
47250,-100,4,2,2,55,0,0
58149,-86.9565217391304,4,2,2,70,0,1
84104,-100,4,2,2,40,0,0
85790,-133.333333333333,4,2,2,40,0,0

[Colours]
Combo1 : 127,127,252
Combo2 : 162,213,242
Combo3 : 77,158,184

[HitObjects]
255,80,1183,5,0,0:0:0:0:
200,208,1520,2,0,P|161:251|193:184,1,224,2|0,0:0|0:0,0:0:0:0:
312,208,2868,2,0,P|354:250|318:184,1,224,2|0,0:0|0:0,0:0:0:0:
164,344,4217,5,2,0:0:0:0:
348,344,4722,1,2,0:0:0:0:
255,217,5228,2,0,B|254:177|277:143|309:126|309:126|366:108|374:17|283:-14|234:38|243:86,1,336,2|0,0:0|0:0,0:0:0:0:
316,261,6913,6,0,P|354:191|488:166,1,224,2|0,0:0|0:0,0:0:0:0:
488,272,8262,2,0,P|418:258|490:308,1,224,2|0,0:0|0:0,0:0:0:0:
256,192,9610,12,0,10958,0:0:0:0:
166,100,11520,5,0,0:0:0:0:
152,97,11632,2,0,P|133:60|89:37,1,93.3333333333333,2|2,3:2|0:0,0:0:0:0:
74,39,11970,1,0,0:0:0:0:
168,216,12307,6,0,B|251:235|218:169|316:192,1,140,0|0,3:0|0:0,0:0:0:0:
428,200,12981,1,8,0:0:0:0:
300,280,13318,1,0,0:0:0:0:
390,337,13543,1,0,0:0:0:0:
404,341,13655,2,0,P|461:315|416:271,1,140,0|0,3:0|0:0,0:0:0:0:
88,256,14329,5,8,0:0:0:0:
204,316,14666,1,0,3:0:0:0:
40,336,15003,6,0,L|56:184,1,140,0|0,3:0|0:0,0:0:0:0:
128,348,15565,2,0,L|160:268,1,46.6666666666667,0|8,3:0|0:0,0:0:0:0:
176,224,15902,1,0,0:0:0:0:
188,232,16015,2,0,B|268:272|249:193|339:248,1,140,0|0,3:0|0:0,0:0:0:0:
435,289,16576,5,0,0:0:0:0:
445,278,16689,1,0,3:0:0:0:
389,184,16913,1,0,0:0:0:0:
380,172,17026,1,8,0:0:0:0:
485,113,17363,2,0,P|459:75|415:62,1,93.3333333333333,2|0,0:0|0:0,0:0:0:0:
401,64,17700,5,0,3:0:0:0:
474,209,17925,1,0,3:0:0:0:
318,128,18206,6,0,P|242:115|181:151,1,140,2|0,0:0|0:0,0:0:0:0:
13,264,19048,5,0,3:0:0:0:
47,113,19273,1,0,3:2:0:0:
157,305,19610,5,0,0:0:0:0:
166,316,19722,2,0,P|195:340|362:262,1,233.333333333333,8|0,0:0|0:0,0:0:0:0:
283,229,20397,6,0,P|214:244|247:205,1,140,0|0,3:0|0:0,0:0:0:0:
268,118,20958,1,0,3:0:0:0:
278,107,21071,1,8,0:0:0:0:
388,172,21408,6,0,B|389:198|400:220|418:235|418:235|481:269|471:373|369:397|315:339|320:282|320:282|317:266|349:234|285:168|201:229|231:301|280:306,1,560,2|0,3:2|0:0,0:0:0:0:
44,369,23093,6,0,L|63:263,1,93.3333333333333,0|0,3:0|0:0,0:0:0:0:
64,262,23430,1,2,0:0:0:0:
171,255,23655,1,0,0:0:0:0:
184,249,23767,6,0,L|164:142,1,93.3333333333333,0|0,3:0|0:0,0:0:0:0:
166,143,24104,1,2,0:0:0:0:
61,158,24329,1,2,0:0:0:0:
46,156,24441,6,0,L|64:50,1,93.3333333333333,0|0,3:0|0:0,0:0:0:0:
66,50,24779,1,2,0:0:0:0:
224,28,25116,6,0,B|286:-2|296:73|354:41,1,140,2|0,0:0|0:0,0:0:0:0:
488,13,25677,5,0,0:0:0:0:
483,27,25790,2,0,P|489:87|429:80,1,125.999996154785,0|0,3:0|0:0,0:0:0:0:
344,75,26352,1,0,0:0:0:0:
341,89,26464,2,0,P|347:149|286:141,1,125.999996154785,10|0,0:0|0:0,0:0:0:0:
202,143,27026,1,0,0:0:0:0:
194,155,27138,6,0,P|144:187|121:238,1,83.9999974365235,0|0,3:0|0:0,0:0:0:0:
126,219,27475,1,0,0:0:0:0:
209,243,27700,1,0,0:0:0:0:
222,245,27812,2,0,B|284:227|288:286|360:252,1,125.999996154785,10|0,0:0|0:0,0:0:0:0:
447,233,28374,1,0,0:0:0:0:
438,222,28486,5,0,3:0:0:0:
302,327,28711,2,0,B|241:326|175:372,1,125.999996154785,0|0,3:0|3:0,0:0:0:0:
171,364,29161,1,10,0:0:0:0:
46,337,29385,2,0,P|33:275|45:214,1,125.999996154785
119,214,29835,2,0,P|130:275|118:336,1,125.999996154785,0|0,3:0|0:0,0:0:0:0:
4,214,30397,5,0,0:0:0:0:
17,207,30509,2,0,L|31:108,1,83.9999974365235,10|0,0:0|0:0,0:0:0:0:
93,33,31071,5,0,0:0:0:0:
104,42,31183,2,0,B|148:81|178:14|233:52,1,125.999996154785,0|0,3:0|2:0,2:0:0:0:
399,50,31745,2,0,P|336:58|345:119,1,125.999996154785,2|2,0:0|0:0,0:0:0:0:
493,120,32419,2,0,P|501:183|440:190,1,125.999996154785,2|2,0:0|0:0,0:0:0:0:
439,192,32868,2,0,P|451:242|480:281,1,83.9999974365235,0|0,3:0|0:0,0:0:0:0:
477,279,33206,2,0,P|427:331|376:333,1,125.999996154785,10|0,0:0|0:0,0:0:0:0:
212,314,33880,6,0,P|189:265|152:304,1,125.999996154785,0|0,3:0|0:0,0:0:0:0:
279,325,34441,2,0,P|230:210|114:229,1,251.999992309571,2|0,0:0|0:0,0:0:0:0:
9,282,35228,6,0,L|30:185,1,83.9999974365235,0|8,3:0|0:0,0:0:0:0:
26,187,35565,1,0,3:0:0:0:
136,74,35902,2,0,P|136:15|92:50,1,125.999996154785,10|0,2:0|0:0,0:0:0:0:
250,18,36464,5,0,0:0:0:0:
237,25,36576,2,0,B|247:76|219:117|219:117|238:130|239:157,1,125.999996154785,0|0,3:0|0:0,0:0:0:0:
157,171,37138,1,0,0:0:0:0:
163,184,37250,2,0,B|130:224|135:274|135:274|111:280|98:299,1,125.999996154785,10|0,0:0|0:0,0:0:0:0:
29,355,37812,1,0,0:0:0:0:
36,366,37925,6,0,P|93:380|129:368,1,83.9999974365235,0|0,3:0|0:0,0:0:0:0:
128,368,38262,1,0,0:0:0:0:
262,326,38486,1,0,0:0:0:0:
274,321,38599,2,0,B|314:307|346:363|404:323,1,125.999996154785,10|0,0:0|0:0,0:0:0:0:
469,301,39161,1,0,0:0:0:0:
474,313,39273,5,0,3:0:0:0:
395,203,39498,1,0,3:0:0:0:
407,195,39610,2,0,P|426:162|410:119,1,83.9999974365235,0|0,0:0|3:0,0:0:0:0:
407,109,39947,1,10,0:0:0:0:
331,44,40172,2,0,P|400:32|464:50,1,125.999996154785
454,134,40621,2,0,P|392:148|331:135,1,125.999996154785,0|0,3:0|0:0,0:0:0:0:
170,47,41183,5,0,0:0:0:0:
177,58,41295,2,0,L|132:150,1,83.9999974365235,10|0,0:0|0:0,0:0:0:0:
91,251,41857,5,0,0:0:0:0:
102,244,41970,2,0,B|143:206|193:272|236:231,1,125.999996154785,0|0,3:0|0:0,0:0:0:0:
353,168,42531,2,0,P|384:126|429:128,1,83.9999974365235,0|0,3:0|0:0,0:0:0:0:
424,129,42868,2,0,P|451:172|430:210,1,83.9999974365235,2|0,0:0|0:0,0:0:0:0:
435,212,43206,2,0,P|389:255|372:327,1,125.999996154785,2|0,0:0|0:0,0:0:0:0:
373,327,43655,1,2,3:2:0:0:
270,164,43992,2,0,P|226:137|151:157,1,125.999996154785,10|0,0:0|0:0,0:0:0:0:
214,337,44666,6,0,P|220:296|209:256,1,83.9999974365235,0|0,3:0|3:0,0:0:0:0:
79,274,45228,5,0,0:0:0:0:
67,279,45340,2,0,L|15:293,1,41.9999987182618,10|0,0:0|0:0,0:0:0:0:
0,225,45565,5,0,0:0:0:0:
13,221,45677,2,0,L|104:197,1,83.9999974365235,0|0,3:0|0:0,0:0:0:0:
107,196,46015,5,0,3:0:0:0:
23,138,46239,1,8,0:0:0:0:
21,125,46352,2,0,L|41:37,1,83.9999974365235,0|0,3:0|0:0,0:0:0:0:
107,0,46689,6,0,P|134:32|141:78,1,83.9999974365235,10|0,0:0|0:0,0:0:0:0:
138,85,47026,1,0,0:0:0:0:
247,68,47250,6,0,B|323:19|342:124|426:71,1,186.666666666667,6|0,3:2|0:0,0:0:0:0:
507,15,48037,2,0,P|521:66|490:135,1,93.3333333333333,10|0,0:0|0:0,0:0:0:0:
421,199,48599,2,0,P|337:210|449:261,1,326.666666666667,2|8,3:2|0:0,0:0:0:0:
499,151,49722,6,0,P|428:106|338:119,1,140,0|4,0:0|3:2,0:0:0:0:
253,131,50397,1,0,0:0:0:0:
334,217,50734,2,0,B|273:225|298:301|213:315,1,140,10|0,0:0|0:0,0:0:0:0:
213,228,51295,2,0,P|166:170|107:185,1,140,0|0,3:0|0:0,0:0:0:0:
99,193,51745,1,0,3:0:0:0:
139,93,51970,1,0,0:0:0:0:
133,80,52082,2,0,P|86:22|27:37,1,140,10|0,0:0|0:0,0:0:0:0:
25,171,52756,6,0,B|63:223|0:256|44:316,1,140,0|0,3:0|0:0,0:0:0:0:
171,345,53430,1,10,0:0:0:0:
106,217,53767,1,0,0:0:0:0:
176,251,53992,1,0,3:0:0:0:
184,239,54104,2,0,P|230:204|307:221,1,140,0|0,3:0|0:0,0:0:0:0:
438,311,54779,1,10,0:0:0:0:
282,344,55116,1,0,0:0:0:0:
439,374,55453,5,0,3:2:0:0:
376,227,55790,1,0,3:2:0:0:
313,374,56127,1,2,3:2:0:0:
214,203,56464,1,2,3:2:0:0:
115,374,56801,1,2,3:2:0:0:
115,374,57812,5,0,0:0:0:0:
61,279,58149,2,0,P|67:206|39:118,1,161.000003070831,4|0,3:2|0:0,0:0:0:0:
37,16,58824,2,0,P|79:34|141:33,1,107.333335380554,10|0,0:0|0:0,0:0:0:0:
156,29,59161,1,2,0:0:0:0:
240,122,59385,1,0,0:0:0:0:
249,136,59498,2,0,P|254:185|299:127,1,161.000003070831,2|0,3:2|2:0,2:0:0:0:
298,316,60172,1,10,0:0:0:0:
418,249,60509,6,0,P|487:221|511:245,1,107.333335380554
512,251,60846,2,0,P|477:287|437:355,1,107.333335380554,0|0,3:0|0:0,0:0:0:0:
436,349,61183,1,2,0:0:0:0:
265,292,61408,1,0,3:0:0:0:
249,288,61520,1,8,0:0:0:0:
77,340,61745,1,2,0:0:0:0:
67,327,61857,6,0,P|51:238|68:160,1,161.000003070831,0|0,3:0|0:0,0:0:0:0:
86,48,62419,1,10,0:0:0:0:
99,58,62531,1,0,3:0:0:0:
210,109,62756,1,0,3:0:0:0:
220,96,62868,2,0,L|327:80,1,107.333335380554,10|0,0:0|0:0,0:0:0:0:
343,77,63206,2,0,P|336:147|364:182,1,107.333335380554,0|0,3:0|0:0,0:0:0:0:
367,187,63543,6,0,P|299:184|266:215,1,107.333335380554,6|0,3:2|0:0,0:0:0:0:
259,219,63880,1,0,0:0:0:0:
259,336,64104,1,0,0:0:0:0:
266,351,64217,2,0,B|318:387|370:374,1,107.333335380554,10|0,0:0|0:0,0:0:0:0:
384,376,64554,6,0,P|391:306|363:271,1,107.333335380554,0|0,3:0|0:0,0:0:0:0:
360,266,64891,2,0,P|428:269|461:238,1,107.333335380554,2|0,3:2|0:0,0:0:0:0:
468,234,65228,1,0,0:0:0:0:
466,104,65453,1,0,0:0:0:0:
450,109,65565,2,0,B|392:131|348:88,1,107.333335380554,10|0,0:0|0:0,0:0:0:0:
337,81,65902,5,0,0:0:0:0:
177,0,66239,2,0,P|202:63|222:0,1,161.000003070831,0|0,3:0|0:0,2:0:0:0:
163,126,66801,1,0,3:0:0:0:
178,133,66913,2,0,P|229:134|278:103,1,107.333335380554,10|0,0:0|0:0,0:0:0:0:
91,162,67250,6,0,B|35:191|77:277|31:312,1,161.000003070831,0|0,0:0|3:0,0:0:0:0:
153,231,67812,1,0,0:0:0:0:
144,245,67925,2,0,P|188:297|237:280,1,107.333335380554
237,289,68262,6,0,P|241:216|259:177,1,107.333335380554,10|0,0:0|0:0,0:0:0:0:
261,170,68599,2,0,P|313:196|363:197,1,107.333335380554,0|0,3:0|0:0,0:0:0:0:
378,196,68936,6,0,P|372:123|400:35,1,161.000003070831,6|0,3:2|0:0,0:0:0:0:
506,39,69610,2,0,P|517:100|501:178,1,107.333335380554,10|0,0:0|0:0,0:0:0:0:
508,161,69947,1,0,0:0:0:0:
413,181,70172,1,0,0:0:0:0:
398,174,70284,2,0,P|362:135|354:207,1,161.000003070831,2|0,3:2|2:0,2:0:0:0:
503,364,70958,1,10,0:0:0:0:
473,248,71295,6,0,P|430:259|396:321,1,107.333335380554,0|0,3:0|0:0,0:0:0:0:
393,326,71632,2,0,P|319:337|266:320,1,107.333335380554,2|0,3:2|0:0,0:0:0:0:
273,323,71970,1,0,0:0:0:0:
161,280,72194,1,0,3:0:0:0:
153,295,72307,2,0,P|98:335|51:287,1,107.333335380554,10|0,0:0|0:0,0:0:0:0:
56,310,72644,6,0,P|50:237|78:149,1,161.000003070831,0|0,3:0|0:0,0:0:0:0:
130,44,73206,1,10,0:0:0:0:
139,58,73318,1,0,3:0:0:0:
238,138,73543,1,0,3:0:0:0:
247,124,73655,2,0,L|364:105,1,107.333335380554,10|0,0:0|0:0,0:0:0:0:
369,103,73992,1,2,0:0:0:0:
496,240,74329,6,0,P|418:204|341:280,1,161.000003070831,6|0,3:2|0:0,0:0:0:0:
261,336,74891,1,0,0:0:0:0:
247,327,75003,2,0,P|237:259|252:213,1,107.333335380554,10|0,0:0|0:0,0:0:0:0:
205,120,75340,1,0,0:0:0:0:
4,189,75677,6,0,B|74:153|82:224|161:189,1,161.000003070831,2|0,3:2|0:0,0:0:0:0:
284,152,76239,1,0,0:0:0:0:
284,135,76352,2,0,P|252:86|191:92,1,107.333335380554,10|0,0:0|0:0,0:0:0:0:
118,126,76689,1,0,0:0:0:0:
359,19,77026,6,0,P|354:82|396:35,1,161.000003070831,2|0,3:2|0:0,0:0:0:0:
494,92,77588,1,0,3:0:0:0:
492,108,77700,2,0,L|478:215,1,107.333335380554,10|0,0:0|0:0,0:0:0:0:
465,225,78037,1,0,3:0:0:0:
320,193,78262,5,0,0:0:0:0:
322,209,78374,2,0,L|336:316,1,107.333335380554,0|0,3:0|0:0,0:0:0:0:
349,326,78711,1,0,3:0:0:0:
172,261,79048,1,10,0:0:0:0:
350,198,79385,5,0,0:0:0:0:
90,241,79722,2,0,P|144:185|221:197,1,161.000003070831,6|0,3:2|0:0,0:0:0:0:
377,279,80284,1,0,0:0:0:0:
362,271,80397,2,0,P|355:213|379:164,1,107.333335380554,10|0,0:0|0:0,0:0:0:0:
441,90,80734,1,0,0:0:0:0:
231,86,81071,6,0,P|305:82|321:9,1,161.000003070831,2|0,3:2|0:0,0:0:0:0:
178,140,81632,1,0,0:0:0:0:
164,132,81745,2,0,P|119:119|54:122,1,107.333335380554,10|0,0:0|0:0,0:0:0:0:
44,128,82082,1,0,0:0:0:0:
22,328,82419,5,2,3:2:0:0:
138,256,82644,1,8,0:0:0:0:
154,261,82756,1,0,3:2:0:0:
249,338,82981,1,0,3:0:0:0:
265,333,83093,1,10,0:0:0:0:
360,256,83318,1,8,0:0:0:0:
376,260,83430,2,0,L|411:367,1,107.333335380554,0|0,3:0|0:0,0:0:0:0:
424,370,83767,5,2,3:2:0:0:
500,240,83992,1,0,3:0:0:0:
487,234,84104,2,0,L|457:134,1,93.3333333333333,8|0,0:0|0:0,0:0:0:0:
455,131,84441,6,0,P|412:163|331:164,1,93.3333333333333,10|8,0:0|0:0,0:0:0:0:
359,172,84779,1,8,0:0:0:0:
188,106,85003,2,0,P|176:51|229:74,1,140,2|0,3:2|0:0,0:0:0:0:
178,233,85677,1,0,0:0:0:0:
164,230,85790,2,0,P|82:181|52:66,1,210.000008010865,2|2,0:0|0:0,0:0:0:0:
