osu file format v14

[General]
AudioFilename: audio.mp3
AudioLeadIn: 0
PreviewTime: 58010
Countdown: 0
SampleSet: Soft
StackLeniency: 0.7
Mode: 0
LetterboxInBreaks: 0
WidescreenStoryboard: 0

[Editor]
DistanceSpacing: 0.5
BeatDivisor: 4
GridSize: 32
TimelineZoom: 1

[Metadata]
Title:Still Sis (TV Size)
TitleUnicode:Still Sis (TV Size)
Artist:Sadohara Kaori
ArtistUnicode:佐土原かおり
Creator:Adinda
Version:Expert
Source:新妹魔王の契約者
Tags:j-pop female vocal ed japanese pop jpop anime nevertary shinmai maou no keiyakusha testament new sister devil ending
BeatmapID:2902507
BeatmapSetID:1407716

[Difficulty]
HPDrainRate:5.5
CircleSize:4
OverallDifficulty:8.5
ApproachRate:9.2
SliderMultiplier:1.8
SliderTickRate:1

[Events]
//Background and Video events
0,0,"a.jpg",0,0
//Break Periods
//Storyboard Layer 0 (Background)
//Storyboard Layer 1 (Fail)
//Storyboard Layer 2 (Pass)
//Storyboard Layer 3 (Foreground)
//Storyboard Layer 4 (Overlay)
//Storyboard Sound Samples

[TimingPoints]
-1732,342.857142857143,4,2,1,75,1,0
10010,-100,4,2,1,5,0,0
10096,-100,4,2,1,75,0,0
10610,-100,4,2,1,75,0,0
14553,-90.9090909090909,4,2,1,80,0,0
25696,-133.333333333333,4,2,11,65,0,0
27925,-133.333333333333,4,2,1,65,0,0
28268,-133.333333333333,4,2,11,65,0,0
29982,-133.333333333333,4,2,1,65,0,0
30325,-133.333333333333,4,2,11,65,0,0
32896,-133.333333333333,4,2,1,65,0,0
33239,-133.333333333333,4,2,11,65,0,0
33410,-133.333333333333,4,2,1,65,0,0
33753,-133.333333333333,4,2,11,65,0,0
35125,-133.333333333333,4,2,1,65,0,0
35468,-133.333333333333,4,2,11,65,0,0
36668,-111.111111111111,4,2,1,75,0,0
47639,-133.333333333333,4,2,1,70,0,0
53125,-111.111111111111,4,2,1,75,0,0
58096,-133.333333333333,4,2,1,70,0,0
58439,-83.3333333333333,4,2,1,85,0,1
62810,-83.3333333333333,4,2,1,5,0,1
62896,-83.3333333333333,4,2,1,85,0,1
65039,-83.3333333333333,4,2,1,5,0,1
65125,-83.3333333333333,4,2,1,85,0,1
73782,-83.3333333333333,4,2,1,5,0,1
73868,-83.3333333333333,4,2,1,85,0,1
74468,-83.3333333333333,4,2,1,5,0,1
74554,-83.3333333333333,4,2,1,85,0,1
79439,-83.3333333333333,4,2,1,5,0,1
79525,-83.3333333333333,4,2,1,85,0,1
80382,-83.3333333333333,4,2,1,85,0,0
80468,-83.3333333333333,4,2,1,5,0,0

[Colours]
Combo1 : 255,47,47
Combo2 : 255,170,255
Combo3 : 138,191,255
Combo4 : 192,192,192

[HitObjects]
152,90,8725,5,10,0:1:0:0:
211,298,8896,1,8,0:0:0:0:
250,42,9068,1,14,0:1:0:0:
256,192,9153,12,0,10010,0:0:0:0:
388,237,10096,5,8,0:1:0:0:
388,237,10182,1,8,0:1:0:0:
388,237,10268,1,10,0:0:0:0:
508,321,10439,1,8,0:1:0:0:
410,102,10610,6,0,P|417:155|299:166,1,180,14|10,0:1|0:0,0:0:0:0:
194,313,11125,2,0,P|243:297|297:288,1,90,14|0,0:1|0:0,0:0:0:0:
75,273,11468,2,0,B|86:315|86:315|65:370,1,90,14|8,0:1|0:0,0:0:0:0:
13,118,11810,6,0,B|74:99|74:99|88:57|88:57|167:40,1,180,14|0,0:1|3:3,0:0:0:0:
292,99,12325,2,0,P|300:147|319:193,1,90,0|0,3:3|3:3,3:3:0:0:
414,227,12668,2,0,P|429:185|436:140,1,90,0|0,3:3|3:3,3:3:0:0:
260,71,13010,2,0,P|268:119|287:165,1,90,0|0,3:3|3:3,3:3:0:0:
331,352,13353,5,8,0:0:0:0:
347,349,13438,1,8,0:0:0:0:
363,346,13524,1,8,0:0:0:0:
380,345,13610,1,8,0:0:0:0:
397,347,13695,1,8,0:0:0:0:
413,352,13781,1,8,0:0:0:0:
429,353,13867,1,8,0:0:0:0:
446,352,13953,1,8,0:0:0:0:
462,349,14038,5,14,0:0:0:0:
196,287,14210,1,14,0:0:0:0:
215,307,14553,6,0,B|88:300|174:228|33:237,1,198.000006042481,14|8,0:1|0:1,0:0:0:0:
221,206,15068,2,0,P|273:197|325:173,1,99.0000030212403,14|0,0:0|0:0,0:0:0:0:
341,188,15325,1,8,0:0:0:0:
341,188,15410,1,10,0:1:0:0:
325,13,15582,2,0,P|377:22|429:46,1,99.0000030212403,2|8,0:0|0:0,0:0:0:0:
207,69,15925,6,8,B|155:56|112:86|112:86|50:69|41:17,1,198.000006042481,10|8,0:1|0:1,0:1:0:0:
28,229,16439,2,0,P|48:281|59:334,1,99.0000030212403,8|0,0:0|0:0,0:0:0:0:
47,350,16696,1,8,0:0:0:0:
47,350,16782,5,10,0:1:0:0:
152,206,16953,1,10,0:1:0:0:
226,384,17125,1,10,0:0:0:0:
331,240,17296,2,8,B|401:226|401:226|417:184|417:184|499:167,1,198.000006042481,10|8,0:1|0:1,0:1:0:0:
443,359,17810,6,0,P|388:346|334:340,1,99.0000030212403,8|0,0:0|0:0,0:0:0:0:
328,361,18068,1,8,0:0:0:0:
328,361,18153,1,10,0:1:0:0:
236,161,18325,2,0,P|285:154|333:142,1,99.0000030212403,10|8,0:1|0:0,0:0:0:0:
196,17,18668,6,8,B|103:61|103:61|20:10,1,198.000006042481,10|8,0:1|0:1,0:1:0:0:
39,222,19182,2,0,P|39:166|59:129,1,99.0000030212403,8|8,0:0|0:3,0:0:0:0:
134,164,19439,1,8,0:3:0:0:
139,185,19525,2,0,P|139:241|119:278,1,99.0000030212403,8|4,0:3|0:3,0:0:0:0:
196,17,19868,1,4,0:3:0:0:
294,78,20039,6,0,B|358:88|358:88|388:145|388:145|463:161,1,198.000006042481,14|8,0:1|0:1,0:0:0:0:
289,177,20553,2,0,P|316:245|344:373,1,198.000006042481,14|10,0:0|0:1,0:0:0:0:
458,359,21068,2,0,B|471:308|471:308|445:258,1,99.0000030212403,2|8,0:0|0:0,0:0:0:0:
174,233,21410,6,8,P|172:305|60:306,1,198.000006042481,10|8,0:1|0:1,0:1:0:0:
120,134,21925,2,0,P|61:151|9:160,1,99.0000030212403,8|0,0:0|0:0,0:0:0:0:
7,137,22182,1,8,0:0:0:0:
7,137,22268,1,10,0:1:0:0:
326,0,22439,2,0,P|374:9|421:23,1,99.0000030212403,10|8,0:1|0:0,0:0:0:0:
487,237,22782,6,8,B|498:154|407:122|407:122|382:179,1,198.000006042481,14|8,0:1|0:1,0:1:0:0:
346,261,23296,2,0,P|366:312|378:359,1,99.0000030212403,8|0,0:0|0:0,0:0:0:0:
410,364,23553,1,8,0:0:0:0:
410,364,23639,1,8,0:1:0:0:
253,200,23810,5,2,0:0:0:0:
487,237,23982,1,10,0:0:0:0:
183,340,24153,2,8,B|120:320|61:362|61:362|15:304,1,198.000006042481,14|8,0:1|0:1,0:0:0:0:
27,77,24668,5,8,0:0:0:0:
20,125,24753,1,8,0:0:0:0:
45,167,24839,1,8,0:0:0:0:
90,184,24925,1,8,0:0:0:0:
137,170,25010,2,8,L|154:117,1,49.5000015106202
275,0,25182,5,8,0:3:0:0:
279,14,25267,1,8,0:3:0:0:
283,28,25353,1,8,0:3:0:0:
287,42,25439,1,8,0:3:0:0:
291,57,25524,1,8,0:3:0:0:
295,71,25610,1,8,0:3:0:0:
299,84,25696,6,8,B|346:91|346:91|370:120|370:120|434:131,2,135.000005149842,12|10|10,0:1|0:1|0:1,0:1:0:0:
427,44,26553,1,2,0:0:0:0:
427,44,26639,1,8,0:0:0:0:
427,44,26725,1,10,0:1:0:0:
306,167,26896,6,0,P|335:230|351:305,1,135.000005149842,10|2,0:0|0:0,0:0:0:0:
192,327,27410,5,10,0:1:0:0:
215,318,27582,1,2,0:0:0:0:
205,365,27753,1,10,0:1:0:0:
349,293,27925,1,8,0:0:0:0:
347,309,28010,1,8,0:0:0:0:
345,325,28096,1,8,0:1:0:0:
311,175,28268,1,2,0:0:0:0:
311,175,28353,1,2,0:0:0:0:
311,175,28439,6,8,B|375:195|375:195|446:168,2,135.000005149842,8|10|10,0:1|0:1|0:1,0:1:0:0:
214,218,29296,1,2,0:0:0:0:
214,218,29382,1,8,0:0:0:0:
214,218,29468,1,8,0:1:0:0:
250,71,29639,6,0,P|297:51|319:31,1,67.5000025749208,10|8,0:0|0:1,0:0:0:0:
84,82,29982,1,8,0:0:0:0:
84,82,30153,2,0,P|37:62|15:42,1,67.5000025749208,10|0,0:1|0:0,0:0:0:0:
145,17,30496,5,10,0:1:0:0:
30,80,30668,1,10,0:3:0:0:
30,80,30753,1,8,0:3:0:0:
30,80,30839,2,8,P|57:99|89:110,1,67.5000025749208,8|6,0:3|0:3,0:3:0:0:
99,142,31096,1,4,0:3:0:0:
99,142,31182,5,12,0:1:0:0:
20,305,31353,1,2,0:0:0:0:
20,305,31525,2,8,B|1:254|56:218|56:218|79:258,1,135.000005149842,10|8,0:1|0:1,0:1:0:0:
263,364,32125,5,8,0:0:0:0:
263,364,32210,2,0,L|188:347,1,67.5000025749208,8|10,0:1|0:0,0:0:0:0:
192,320,32468,1,2,0:0:0:0:
192,320,32553,6,8,B|241:310|279:336|279:336|306:299,2,135.000005149842,10|8|8,0:1|0:0|0:1,0:1:0:0:
289,146,33410,1,8,0:0:0:0:
285,129,33496,1,8,0:0:0:0:
282,112,33582,1,10,0:1:0:0:
380,195,33753,1,2,0:0:0:0:
380,195,33839,1,2,0:0:0:0:
380,195,33925,6,8,P|444:196|495:274,1,135.000005149842,10|8,0:1|0:1,0:1:0:0:
446,60,34439,1,2,0:0:0:0:
446,60,34610,2,0,P|413:77|371:84,1,67.5000025749208,10|0,0:1|0:0,0:0:0:0:
360,60,34868,1,8,0:0:0:0:
360,60,34953,2,0,P|327:43|285:36,1,67.5000025749208,8|10,0:1|0:0,0:0:0:0:
74,57,35296,5,10,0:0:0:0:
177,134,35468,1,10,0:3:0:0:
136,3,35639,1,6,0:3:0:0:
125,200,35810,2,0,P|105:255|94:350,1,135.000005149842,14|8,0:1|0:1,0:0:0:0:
210,249,36325,2,10,B|277:227|277:227|345:246,1,135.000005149842,10|12,0:0|0:1,0:0:0:0:
5,96,37010,6,0,B|4:24|83:5|83:5|116:36,1,161.999995056153,10|10,0:0|0:1,0:0:0:0:
236,84,37525,1,10,0:1:0:0:
217,6,37696,1,10,0:0:0:0:
129,109,37868,2,0,P|142:151|149:204,1,80.9999975280763,10|0,0:1|0:0,0:0:0:0:
236,84,38210,5,10,0:1:0:0:
319,133,38382,2,0,B|376:129|419:155|419:155|432:91,1,161.999995056153,10|8,0:0|0:1,0:0:0:0:
485,29,38896,1,8,0:1:0:0:
496,177,39068,2,0,P|483:219|476:272,1,80.9999975280763,8|0,0:0|0:0,0:0:0:0:
370,379,39410,6,8,P|363:339|327:221,1,161.999995056153,8|10,0:1|0:0,0:0:0:0:
117,349,40096,1,10,0:1:0:0:
117,349,40268,2,8,B|76:366|76:366|26:348,1,80.9999975280763,10|8,0:1|0:0,0:0:0:0:
97,199,40610,6,8,P|103:159|139:41,1,161.999995056153,10|10,0:1|0:1,0:1:0:0:
257,19,41125,2,0,B|245:58|245:58|262:103,1,80.9999975280763,10|0,0:0|0:0,0:0:0:0:
215,184,41468,1,10,0:1:0:0:
360,85,41639,2,0,B|372:46|372:46|355:1,1,80.9999975280763,10|8,0:1|0:0,0:0:0:0:
322,189,41982,6,0,B|381:207|381:207|397:240|397:240|461:265,1,161.999995056153,2|2,0:0|0:0,0:0:0:0:
512,85,42496,2,0,P|507:144|416:128,1,161.999995056153,10|8,0:0|0:1,0:0:0:0:
383,297,43010,6,0,P|414:277|476:260,1,80.9999975280763,10|8,0:1|0:0,0:0:0:0:
221,350,43353,2,0,P|183:337|149:316,1,80.9999975280763,10|0,0:1|0:0,0:0:0:0:
39,198,43696,5,10,0:1:0:0:
148,315,43868,1,10,0:0:0:0:
147,223,44039,1,2,0:0:0:0:
47,298,44210,2,0,L|29:377,1,80.9999975280763,10|8,0:1|0:1,0:0:0:0:
147,223,44553,2,0,L|129:143,1,80.9999975280763,10|0,0:0|0:1,0:0:0:0:
195,9,44896,6,0,B|225:36|213:76|213:76|272:91|286:46,1,161.999995056153,10|8,0:1|0:0,0:0:0:0:
129,143,45410,1,2,0:0:0:0:
129,143,45582,2,8,P|81:118|37:106,1,80.9999975280763,10|8,0:1|0:1,0:1:0:0:
55,109,45925,1,8,0:0:0:0:
367,167,46096,5,10,0:1:0:0:
147,223,46268,1,10,0:1:0:0:
285,46,46439,2,0,P|323:32|358:12,1,80.9999975280763,12|0,0:0|0:0,0:0:0:0:
367,167,46782,1,10,0:1:0:0:
367,167,46953,1,10,0:1:0:0:
358,12,47125,5,8,0:0:0:0:
267,137,47296,1,8,0:3:0:0:
462,40,47468,1,4,0:3:0:0:
256,162,47639,6,0,P|273:206|294:304,2,135.000005149842,14|8|10,0:1|0:0|0:1,0:0:0:0:
158,117,48496,2,0,B|124:128|124:128|90:120,1,67.5000025749208,4|2,0:3|0:0,0:0:0:0:
0,274,48839,1,6,0:3:0:0:
5,191,49010,6,8,P|2:228|89:235,1,135.000005149842,8|10,0:1|0:0,0:1:0:0:
80,246,49525,1,0,0:0:0:0:
144,340,49696,2,0,P|106:337|75:341,1,67.5000025749208,10|8,0:1|0:0,0:0:0:0:
290,294,50039,2,0,P|252:291|221:295,1,67.5000025749208,6|0,0:3|0:0,0:0:0:0:
378,243,50382,6,0,P|375:280|462:287,1,135.000005149842,10|10,0:1|0:0,0:0:0:0:
471,131,50896,2,0,P|462:90|446:56,1,67.5000025749208,2|8,0:0|0:1,0:0:0:0:
359,10,51239,2,0,P|346:41|339:74,1,67.5000025749208,6|0,0:3|0:0,0:0:0:0:
236,36,51582,5,6,0:3:0:0:
236,36,51668,1,4,0:3:0:0:
236,36,51753,2,8,B|185:25|145:54|145:54|110:26,1,135.000005149842,8|8,0:1|0:0,0:1:0:0:
298,167,52353,5,8,0:0:0:0:
298,167,52439,1,8,0:1:0:0:
203,242,52610,2,0,P|215:273|222:306,1,67.5000025749208,8|10,0:0|0:3,0:0:0:0:
163,362,52868,1,8,0:3:0:0:
129,356,52953,1,10,0:3:0:0:
96,350,53039,1,8,0:3:0:0:
63,344,53125,6,0,B|17:295|74:229|74:229|114:261,1,161.999995056153,14|8,0:1|0:0,0:0:0:0:
152,168,53639,1,4,0:3:0:0:
152,168,53725,1,4,0:3:0:0:
152,168,53810,1,8,0:1:0:0:
6,36,53982,2,0,P|-14:87|83:90,1,161.999995056153,10|0,0:1|0:0,0:0:0:0:
254,17,54496,6,8,B|241:57|241:57|255:100,1,80.9999975280763,10|8,0:1|0:1,0:1:0:0:
385,94,54839,2,0,B|398:54|398:54|384:11,1,80.9999975280763,10|2,0:0|0:0,0:0:0:0:
355,10,55096,1,8,0:0:0:0:
355,10,55182,1,8,0:1:0:0:
318,191,55353,5,10,0:0:0:0:
318,191,55525,2,0,P|310:231|328:288,1,80.9999975280763,8|0,0:0|0:0,0:0:0:0:
483,333,55868,5,12,0:1:0:0:
432,228,56039,1,8,0:0:0:0:
288,376,56210,1,8,0:0:0:0:
483,333,56382,1,8,0:0:0:0:
483,333,56468,1,8,0:0:0:0:
483,333,56553,1,8,0:0:0:0:
223,279,56725,5,8,0:3:0:0:
221,319,56810,1,8,0:3:0:0:
200,353,56896,1,8,0:3:0:0:
166,374,56982,1,4,0:3:0:0:
126,377,57067,1,4,0:3:0:0:
89,361,57153,1,4,0:3:0:0:
64,330,57239,1,14,0:1:0:0:
213,120,58096,5,10,0:1:0:0:
109,13,58268,1,10,0:0:0:0:
33,36,58439,6,0,B|112:51|112:51|137:102|137:102|230:124,1,215.999993408203,14|10,0:1|0:1,0:0:0:0:
208,26,58953,1,10,0:0:0:0:
39,130,59125,2,0,P|63:192|76:250,1,107.999996704102,2|8,0:0|0:1,0:0:0:0:
251,373,59468,2,0,P|264:320|284:270,1,107.999996704102,2|8,0:0|0:0,0:0:0:0:
420,93,59810,6,8,B|515:105|523:220|523:220|492:268,1,215.999993408203,14|10,0:1|0:1,0:1:0:0:
284,270,60325,1,10,0:0:0:0:
390,200,60496,1,2,0:0:0:0:
383,324,60668,1,10,0:1:0:0:
290,140,60839,2,0,P|230:160|159:175,1,107.999996704102,10|8,0:1|0:0,0:0:0:0:
17,275,61182,5,14,0:1:0:0:
123,368,61353,1,2,0:0:0:0:
0,250,61525,2,0,P|60:270|131:285,1,107.999996704102,10|8,0:1|0:0,0:0:0:0:
340,345,61868,5,2,0:0:0:0:
290,140,62039,1,10,0:1:0:0:
229,275,62210,1,10,0:1:0:0:
405,200,62382,1,10,0:0:0:0:
366,49,62553,6,0,B|308:35|254:62|254:62|210:26,1,161.999995056153,14|0,0:1|0:0,0:0:0:0:
182,20,62896,2,0,P|125:23|65:18,1,107.999996704102,10|8,0:1|0:0,0:0:0:0:
16,155,63239,2,8,P|101:176|128:298,1,215.999993408203,14|8,0:1|0:1,0:1:0:0:
298,366,63753,2,0,B|290:312|290:312|308:257,1,107.999996704102,12|10,0:0|0:0,0:0:0:0:
387,218,64010,1,8,0:0:0:0:
405,240,64096,6,0,P|415:298|435:353,1,107.999996704102,14|8,0:1|0:1,0:0:0:0:
479,126,64439,2,0,P|469:68|449:13,1,107.999996704102,10|0,0:0|0:0,0:0:0:0:
188,14,64782,2,0,B|180:82|98:86|98:86|56:48,1,161.999995056153,10|0,0:1|0:0,0:0:0:0:
84,36,65125,1,10,0:0:0:0:
116,201,65296,6,0,L|-26:157,1,107.999996704102,10|0,0:1|0:0,0:0:0:0:
173,384,65639,2,0,L|70:353,1,107.999996704102,10|8,0:1|0:0,0:0:0:0:
301,272,65982,2,0,B|268:243|268:243|245:133|321:88,1,215.999993408203,2|8,0:0|0:1,0:0:0:0:
363,15,66496,1,12,0:0:0:0:
479,279,66668,5,2,0:0:0:0:
301,272,66839,1,10,0:1:0:0:
450,179,67010,1,10,0:1:0:0:
342,381,67182,1,10,0:0:0:0:
172,262,67353,6,0,P|122:253|61:231,1,107.999996704102,10|0,0:1|0:0,0:0:0:0:
0,295,67696,5,10,0:1:0:0:
39,17,67868,1,10,0:0:0:0:
214,108,68039,2,0,B|195:55|195:55|212:4,1,107.999996704102,14|0,0:1|0:0,0:0:0:0:
324,15,68382,5,14,0:0:0:0:
53,123,68553,1,12,0:0:0:0:
450,179,68725,5,8,0:1:0:0:
324,15,68896,1,8,0:0:0:0:
172,262,69068,5,10,0:1:0:0:
172,262,69239,1,10,0:0:0:0:
302,146,69410,6,0,B|372:126|372:126|395:71|395:71|490:50,1,215.999993408203,14|10,0:1|0:1,0:0:0:0:
341,260,69925,1,10,0:0:0:0:
172,262,70096,1,2,0:0:0:0:
302,146,70268,1,10,0:1:0:0:
201,377,70439,2,0,P|141:371|85:376,1,107.999996704102,2|8,0:0|0:0,0:0:0:0:
13,124,70782,6,8,B|88:129|105:66|105:66|154:49|208:60,1,215.999993408203,14|10,0:1|0:1,0:1:0:0:
469,17,71296,1,10,0:0:0:0:
415,85,71468,2,0,P|445:136|461:190,1,107.999996704102,2|8,0:0|0:1,0:0:0:0:
156,156,71810,2,0,P|172:104|200:58,1,107.999996704102,10|8,0:1|0:0,0:0:0:0:
208,289,72153,5,14,0:1:0:0:
278,210,72325,1,2,0:0:0:0:
80,251,72496,2,0,P|107:297|124:348,1,107.999996704102,10|8,0:1|0:0,0:0:0:0:
411,306,72839,5,2,0:0:0:0:
278,210,73010,1,10,0:1:0:0:
364,380,73182,1,10,0:1:0:0:
324,140,73353,1,10,0:0:0:0:
512,200,73525,6,0,B|434:206|417:134|417:134|445:100,1,161.999995056153,14|0,0:1|0:0,0:0:0:0:
459,93,73868,2,0,B|474:40|474:40|448:-17,1,107.999996704102,10|8,0:1|0:0,0:0:0:0:
217,25,74210,2,0,P|206:91|118:83,1,161.999995056153,14|0,0:1|0:0,0:0:0:0:
86,79,74553,1,10,0:1:0:0:
234,206,74725,1,8,0:0:0:0:
14,346,74896,6,8,B|73:330|109:357|109:357|181:349|183:276,1,215.999993408203,14|8,0:1|0:1,0:1:0:0:
358,144,75410,2,0,P|330:218|321:366,1,215.999993408203,8|10,0:0|0:1,0:0:0:0:
468,60,75925,5,2,0:0:0:0:
358,144,76096,1,10,0:0:0:0:
472,164,76268,1,10,0:1:0:0:
345,40,76439,2,0,B|304:33|304:33|284:45|284:45|232:39,1,107.999996704102,2|8,0:0|0:1,0:0:0:0:
12,123,76782,5,10,0:0:0:0:
12,123,76953,2,0,P|5:183|46:226,1,107.999996704102,2|8,0:0|0:1,0:0:0:0:
32,218,77296,1,10,0:1:0:0:
219,384,77468,2,0,P|212:324|253:281,1,107.999996704102,12|0,0:0|0:0,0:0:0:0:
376,228,77810,5,10,0:1:0:0:
239,288,77982,1,12,0:0:0:0:
508,166,78153,1,12,0:0:0:0:
426,376,78325,1,8,0:1:0:0:
321,80,78496,1,8,0:0:0:0:
321,80,78582,1,8,0:0:0:0:
321,80,78668,1,8,0:1:0:0:
423,22,78839,6,0,B|412:76|412:76|426:127,1,107.999996704102,10|10,0:0|0:1,0:0:0:0:
321,171,79096,1,2,0:0:0:0:
304,158,79182,6,0,B|244:169|244:169|225:204|225:204|156:221,1,161.999995056153,12|0,0:1|0:0,0:0:0:0:
167,253,79525,1,10,0:0:0:0:
21,129,79696,6,0,P|29:66|54:19,1,107.999996704102,14|0,0:1|0:0,0:0:0:0:
34,282,80039,2,0,P|26:345|1:392,1,107.999996704102,14|8,0:1|0:0,0:0:0:0:
159,106,80382,5,14,0:1:0:0:
256,192,80468,12,0,87410,0:0:0:0:
