osu file format v14

[General]
AudioFilename: audio.mp3
AudioLeadIn: 0
PreviewTime: 57380
Countdown: 0
SampleSet: None
StackLeniency: 0.3
Mode: 0
LetterboxInBreaks: 0
WidescreenStoryboard: 1

[Editor]
Bookmarks: 25880
DistanceSpacing: 1.3
BeatDivisor: 4
GridSize: 4
TimelineZoom: 3.699999

[Metadata]
Title:Day to Story (Tv Size)
TitleUnicode:Day to Story (Tv Size)
Artist:Sadohara Kaori
ArtistUnicode:佐土原かおり
Creator:My Angel Mir
Version:Hard
Source:デート・ア・ライブ Ⅱ
Tags:Seni Kami-senpai Linada
BeatmapID:1284078
BeatmapSetID:565366

[Difficulty]
HPDrainRate:5
CircleSize:3.5
OverallDifficulty:6
ApproachRate:7
SliderMultiplier:1.40000000596046
SliderTickRate:1

[Events]
//Background and Video events
0,0,"BG.jpg",0,0
//Break Periods
//Storyboard Layer 0 (Background)
//Storyboard Layer 1 (Fail)
//Storyboard Layer 2 (Pass)
//Storyboard Layer 3 (Foreground)
//Storyboard Sound Samples

[TimingPoints]
1547,428.571428571429,4,2,0,50,1,0
1547,-133.333333333333,4,2,0,45,0,0
14881,333.333333333333,4,2,0,70,1,0
46880,-111.111111111111,4,2,0,45,0,0
52214,-100,4,2,0,45,0,0
57547,-90.9090909090909,4,2,0,70,0,1
84214,-133.333333333333,4,2,0,50,0,0
90214,-133.333333333333,4,2,0,5,0,0

[Colours]
Combo1 : 221,106,100
Combo2 : 249,130,43
Combo3 : 104,211,88
Combo4 : 88,233,171

[HitObjects]
204,148,689,5,0,0:0:0:0:
204,148,1118,1,0,0:0:0:0:
204,148,1547,6,0,P|188:200|204:256,1,105.000004452467
276,348,2404,1,0,0:0:0:0:
324,231,2832,1,0,0:0:0:0:
187,336,3261,2,0,P|136:347|86:331,1,105.000004452467
4,236,4118,1,0,0:0:0:0:
4,236,4975,6,0,P|64:252|120:224,1,105.000004452467
208,84,5832,2,0,P|164:127|160:190,1,105.000004452467
237,336,6689,2,0,P|220:276|168:241,1,105.000004452467
4,236,7547,1,0,0:0:0:0:
156,168,7975,1,0,0:0:0:0:
113,342,8404,6,0,L|102:238,1,105.000004452467
255,170,9261,2,0,P|205:184|156:167,1,105.000004452467
296,90,10118,2,0,P|333:126|343:176,1,105.000004452467
293,249,10761,1,0,0:0:0:0:
293,249,11189,2,0,P|342:265|391:251,1,105.000004452467
256,192,11832,12,0,13547,0:0:0:0:
72,120,14881,6,0,P|152:144|212:120,1,140.000000596046
288,96,15381,2,0,P|289:144|280:181,1,70.000000298023
232,240,15714,1,0,0:0:0:0:
324,248,15880,2,0,L|393:254,1,70.000000298023,0|0,0:3|0:3,0:3:0:0:
271,325,16214,6,0,L|195:329,2,70.000000298023
324,248,16714,2,0,P|328:214|326:179,1,70.000000298023
264,112,17047,1,0,0:0:0:0:
327,179,17214,2,0,L|406:172,1,70.000000298023
440,156,17464,1,0,0:0:0:0:
440,156,17547,6,0,P|424:224|456:316,1,140.000000596046
364,343,18047,2,0,P|329:347|294:344,1,70.000000298023
213,303,18380,1,0,0:0:0:0:
300,274,18547,2,0,L|294:344,1,70.000000298023
232,213,18880,5,0,0:0:0:0:
300,275,19047,1,0,0:0:0:0:
213,303,19214,1,0,0:0:0:0:
319,185,19380,2,0,P|320:150|314:116,1,70.000000298023
232,213,19714,1,0,0:0:0:0:
300,276,19880,2,0,L|388:269,1,70.000000298023
412,252,20130,1,0,0:0:0:0:
412,252,20213,6,0,P|441:189|420:124,1,140.000000596046
349,184,20714,2,0,P|314:187|279:185,1,70.000000298023
211,125,21047,1,0,0:0:0:0:
279,185,21214,2,0,L|271:272,1,70.000000298023
205,315,21547,6,0,L|109:306,2,70.000000298023
290,343,22047,2,0,P|324:345|359:341,1,70.000000298023
446,314,22380,1,0,0:0:0:0:
378,253,22547,2,0,L|369:157,1,70.000000298023
367,137,22797,1,0,0:0:0:0:
367,137,22880,6,0,P|304:164|243:134,1,140.000000596046
165,89,23380,2,0,P|157:125|156:180,1,70.000000298023,0|0,3:0|0:0,0:0:0:0:
219,223,23714,1,0,0:0:0:0:
90,221,23880,2,0,L|46:224,3,35.0000001490115
5,252,24214,5,0,0:0:0:0:
9,345,24380,1,0,0:3:0:0:
95,368,24547,1,0,0:3:0:0:
90,221,24714,2,0,P|88:188|96:144,1,70.000000298023
145,293,25047,2,0,P|224:308|304:272,1,140.000000596046
90,221,25547,5,0,0:0:0:0:
