osu file format v14

[General]
AudioFilename: audio.mp3
AudioLeadIn: 0
PreviewTime: 57160
Countdown: 0
SampleSet: Soft
StackLeniency: 0.7
Mode: 0
LetterboxInBreaks: 0
WidescreenStoryboard: 0

[Editor]
Bookmarks: 25492,46827,52160,56827,57160,57493,62660,62827,67993,68160,73327,73493,78825,84159,87992,89992
DistanceSpacing: 1.2
BeatDivisor: 4
GridSize: 4
TimelineZoom: 4.499998

[Metadata]
Title:Day to Story (TV Size)
TitleUnicode:Day to Story (TV Size)
Artist:Sadohara Kaori
ArtistUnicode:佐土原かおり
Creator:cococolaco
Version:Insane
Source:デート・ア・ライブ Ⅱ
Tags:date a live season 2 tv size ending VINXIS mishima_yurara -Hakurei-
BeatmapID:1481618
BeatmapSetID:699745

[Difficulty]
HPDrainRate:6
CircleSize:4
OverallDifficulty:8
ApproachRate:9
SliderMultiplier:1.6
SliderTickRate:1

[Events]
//Background and Video events
0,0,"bg.jpg",0,0
//Break Periods
//Storyboard Layer 0 (Background)
//Storyboard Layer 1 (Fail)
//Storyboard Layer 2 (Pass)
//Storyboard Layer 3 (Foreground)
//Storyboard Sound Samples

[TimingPoints]
-220,428.571428571429,4,2,1,50,1,0
1493.04066981028,-166.666666666667,4,2,1,50,0,0
8351,-125,4,2,1,50,0,0
13494,333.333333333333,4,2,1,90,1,0
25492,-111.111111111111,4,2,1,70,0,0
36159,-99.9999999999999,4,2,1,70,0,0
40159,-99.9999999999999,4,2,1,80,0,0
40659,-83.3333333333333,4,2,1,80,0,0
41325,-100,4,2,1,70,0,0
44159,-76.9230769230769,4,2,1,70,0,0
46825,-153.846153846154,4,2,1,70,0,0
47410,-153.846153846154,4,2,1,5,0,0
47493,-153.846153846154,4,2,1,70,0,0
48077,-153.846153846154,4,2,1,5,0,0
48160,-153.846153846154,4,2,1,70,0,0
48743,-153.846153846154,4,2,1,5,0,0
48826,-153.846153846154,4,2,1,70,0,0
49410,-153.846153846154,4,2,1,5,0,0
49493,-117.64705882353,4,2,1,70,0,0
50077,-153.846153846154,4,2,1,5,0,0
50160,-117.647058823529,4,2,1,70,0,0
50577,-153.846153846154,4,2,1,5,0,0
50660,-117.647058823529,4,2,1,70,0,0
52159,-100,4,2,1,60,0,0
55077,-100,4,2,1,5,0,0
55160,-100,4,2,1,60,0,0
56660,-100,4,2,1,5,0,0
57325,-100,4,2,0,60,0,0
57493,-74.0740740740741,4,2,1,90,0,1
62660,-74.0740740740741,4,2,1,90,0,0
62827,-74.0740740740741,4,2,1,90,0,1
67993,-74.0740740740741,4,2,1,90,0,0
68160,-74.0740740740741,4,2,1,90,0,1
73327,-74.0740740740741,4,2,1,90,0,0
73493,-74.0740740740741,4,2,1,90,0,1
78660,-100,4,2,1,70,0,0
84159,-142.857142857143,4,2,1,80,0,0
85410,-142.857142857143,4,2,1,5,0,0
85493,-142.857142857143,4,2,1,80,0,0
89993,-142.857142857143,4,2,1,5,0,0

[Colours]
Combo1 : 254,215,80
Combo2 : 255,91,104
Combo3 : 218,218,218

[HitObjects]
62,49,1494,6,0,B|118:53|153:103|132:166|132:166|146:211|184:214|184:214|174:189|186:162,1,287.999991210938
52,163,3208,2,0,B|51:224|93:282|157:277|140:329|94:346|94:346|56:331|70:290,1,287.999991210938
204,265,4923,2,0,B|221:311|206:353|206:353|254:312|305:316|305:316|351:353|392:331,1,287.999991210938
409,172,6637,2,0,B|374:215|370:247|370:247|362:198|333:162|333:162|282:189|217:150,1,287.999991210938
217,73,8351,6,0,P|296:108|144:172,1,384
228,156,10065,2,0,B|237:208|202:270|131:262|131:262|165:293|163:338|147:373|147:373|134:352|122:345,1,320
146,180,11780,1,0,0:0:0:0:
256,192,11887,12,0,13494,0:0:0:0:
105,331,14826,5,4,0:0:0:0:
177,145,14993,1,2,0:0:0:0:
203,315,15160,1,8,0:0:0:0:
79,161,15326,2,0,L|0:154,1,80,2|0,0:0|0:0,0:0:0:0:
238,224,15660,2,0,L|317:217,1,80,2|8,0:0|0:0,0:0:0:0:
364,128,15993,1,0,0:0:0:0:
270,304,16160,5,4,0:0:0:0:
265,131,16326,1,2,0:0:0:0:
369,301,16493,1,8,0:0:0:0:
167,135,16660,2,0,L|160:56,1,80,2|0,0:0|0:0,0:0:0:0:
364,128,16993,2,0,L|357:207,1,80,2|8,0:0|0:0,0:0:0:0:
443,243,17326,1,0,3:0:0:0:
443,243,17410,1,0,3:0:0:0:
443,243,17493,5,6,0:0:0:0:
438,70,17660,1,2,0:0:0:0:
288,174,17826,1,8,0:0:0:0:
480,153,17993,2,0,P|441:163|403:153,1,80,2|0,0:0|0:0,0:0:0:0:
248,93,18326,2,0,P|286:82|324:92,1,80,2|8,0:0|0:0,0:0:0:0:
326,255,18660,1,0,3:0:0:0:
326,255,18743,1,0,3:0:0:0:
326,255,18826,6,0,P|287:265|249:255,1,80,6|2,0:0|0:0,0:0:0:0:
154,98,19160,1,8,0:0:0:0:
78,249,19326,2,0,L|157:256,1,80,6|0,0:0|0:0,0:0:0:0:
367,166,19660,2,0,L|288:173,1,80,6|8,0:0|0:0,0:0:0:0:
413,84,19993,1,0,3:0:0:0:
413,84,20076,1,0,3:0:0:0:
413,84,20160,5,6,0:0:0:0:
414,247,20326,1,2,0:0:0:0:
319,85,20493,1,8,0:0:0:0:
492,212,20660,2,0,P|503:250|493:288,1,80,2|0,0:0|0:0,0:0:0:0:
336,282,20993,2,0,P|325:244|335:206,1,80,2|8,0:0|0:0,0:0:0:0:
413,336,21327,1,0,0:0:0:0:
264,150,21493,5,4,0:0:0:0:
99,196,21660,1,2,0:0:0:0:
228,313,21827,1,8,0:0:0:0:
27,336,21993,2,0,L|20:257,1,80,2|0,0:0|0:0,0:0:0:0:
107,117,22326,2,0,L|100:196,1,80,2|8,0:0|0:0,0:0:0:0:
14,76,22660,1,0,3:0:0:0:
14,76,22743,1,0,3:0:0:0:
14,76,22826,5,4,0:0:0:0:
19,256,22993,1,2,0:0:0:0:
173,162,23160,1,8,0:0:0:0:
107,40,23326,2,0,P|96:78|106:116,1,80,2|0,0:0|0:0,0:0:0:0:
249,201,23660,2,0,P|259:162|248:124,1,80,2|8,0:0|0:0,0:0:0:0:
179,0,23993,1,0,3:0:0:0:
179,0,24076,1,0,3:0:0:0:
179,0,24160,5,4,0:0:0:0:
99,196,24326,1,2,0:0:0:0:
315,85,24493,1,8,0:0:0:0:
57,65,24660,5,4,0:0:0:0:
184,349,24993,2,0,B|266:331|271:255|271:255|296:268|315:306,1,200,4|0,0:0|0:0,0:0:0:0:
311,299,25493,6,0,P|350:309|389:300,1,71.9999978027344,2|0,0:0|0:0,0:0:0:0:
445,368,25826,2,0,P|471:304|444:239,1,143.999995605469,8|2,0:0|0:0,0:0:0:0:
358,217,26326,1,2,0:0:0:0:
507,174,26493,2,0,L|500:102,1,71.9999978027344,8|0,0:0|0:0,0:0:0:0:
498,9,26826,5,2,0:0:0:0:
420,151,26993,1,0,0:0:0:0:
418,57,27160,1,8,0:0:0:0:
355,214,27326,2,0,B|339:200|331:182|331:182|285:211|234:183,1,143.999995605469,2|2,0:0|0:0,0:0:0:0:
282,108,27826,1,8,0:0:0:0:
316,286,27993,1,0,3:0:0:0:
316,286,28076,1,0,3:0:0:0:
316,286,28160,5,2,0:0:0:0:
232,182,28326,1,2,0:0:0:0:
30,306,28493,2,0,L|173:292,1,143.999995605469,8|2,0:0|0:0,0:0:0:0:
92,206,28993,1,2,0:0:0:0:
259,313,29160,2,0,P|260:278|246:244,1,71.9999978027344,8|0,0:0|0:0,0:0:0:0:
162,130,29493,6,0,P|240:152|288:104,1,143.999995605469,2|8,0:0|0:0,0:0:0:0:
449,212,29993,2,0,P|384:236|327:197,1,143.999995605469,2|2,0:0|0:0,0:0:0:0:
347,55,30493,1,8,0:0:0:0:
396,157,30660,1,0,3:0:0:0:
396,157,30743,1,0,3:0:0:0:
396,157,30826,6,0,L|382:300,1,143.999995605469,2|8,0:0|0:0,0:0:0:0:
290,337,31326,1,0,0:0:0:0:
209,179,31493,1,2,0:0:0:0:
200,383,31660,1,2,0:0:0:0:
295,235,31826,1,8,0:0:0:0:
169,92,31993,1,0,3:0:0:0:
169,92,32076,1,0,3:0:0:0:
169,92,32160,6,0,P|239:91|291:138,1,143.999995605469,2|8,0:0|0:0,0:0:0:0:
223,322,32660,2,0,L|209:179,1,143.999995605469,2|2,0:0|0:0,0:0:0:0:
291,138,33160,1,8,0:0:0:0:
125,218,33326,1,0,3:0:0:0:
125,218,33410,1,0,3:0:0:0:
125,218,33493,5,2,0:0:0:0:
223,332,33660,1,0,0:0:0:0:
208,178,33826,1,8,0:0:0:0:
223,342,33993,1,0,0:0:0:0:
291,138,34160,1,2,0:0:0:0:
223,352,34326,1,2,0:0:0:0:
370,331,34493,5,8,0:0:0:0:
373,295,34576,1,0,0:0:0:0:
377,259,34660,1,0,0:0:0:0:
380,223,34743,1,0,0:0:0:0:
384,187,34826,5,4,0:0:0:0:
265,151,34993,1,2,0:0:0:0:
294,273,35160,1,8,0:0:0:0:
357,65,35326,5,4,0:0:0:0:
357,65,35660,2,0,L|321:68,1,35.9999989013672,4|0,2:0|3:0,3:0:0:0:
212,26,35826,2,0,L|233:56,1,35.9999989013672,0|0,3:0|3:0,3:0:0:0:
239,174,35993,2,0,L|255:142,1,35.9999989013672,0|0,3:0|3:0,3:0:0:0:
73,68,36160,5,4,0:0:0:0:
66,191,36326,1,2,0:0:0:0:
255,142,36493,2,0,L|176:136,1,80,8|0,0:0|0:0,0:0:0:0:
353,215,36826,2,0,L|433:224,1,80,2|2,0:0|0:0,0:0:0:0:
366,94,37160,1,8,0:0:0:0:
240,261,37326,1,0,0:0:0:0:
159,69,37493,5,2,0:0:0:0:
63,195,37660,2,0,L|143:186,1,80,2|8,0:0|0:0,0:0:0:0:
335,151,37993,2,0,L|255:142,1,80,2|0,0:0|0:0,0:0:0:0:
159,69,38326,1,2,0:0:0:0:
126,307,38493,1,8,0:0:0:0:
249,269,38660,1,0,3:0:0:0:
249,269,38743,1,0,3:0:0:0:
249,269,38826,5,4,0:0:0:0:
32,220,38993,1,2,0:0:0:0:
255,142,39160,2,0,L|335:151,1,80,8|0,0:0|0:0,0:0:0:0:
512,80,39493,2,0,L|432:88,1,80,2|2,0:0|0:0,0:0:0:0:
436,203,39826,1,8,0:0:0:0:
330,35,39993,1,0,0:0:0:0:
335,151,40160,6,0,P|296:218|202:231,1,160,4|8,0:0|0:0,0:0:0:0:
215,54,40660,6,0,B|222:43|222:43|232:125,1,95.9999970703126,4|0,0:0|0:0,0:0:0:0:
68,189,40993,2,0,B|57:181|57:181|139:171,1,95.9999970703126,6|8,0:0|0:0,0:0:0:0:
303,241,41326,1,0,3:0:0:0:
303,241,41410,1,0,3:0:0:0:
303,241,41493,5,4,0:0:0:0:
355,344,41660,1,2,0:0:0:0:
188,234,41826,2,0,L|108:226,1,80,8|0,0:0|0:0,0:0:0:0:
240,337,42160,1,2,0:0:0:0:
252,138,42326,1,2,0:0:0:0:
303,241,42493,2,0,L|383:233,1,80,8|2,0:0|0:0,0:0:0:0:
124,330,42826,6,0,P|48:317|10:250,1,160,2|8,0:0|0:0,0:0:0:0:
124,66,43326,2,0,L|108:226,1,160,2|2,0:0|0:0,0:0:0:0:
206,262,43826,1,8,0:0:0:0:
231,66,43993,1,0,3:0:0:0:
251,64,44076,1,0,3:0:0:0:
273,65,44160,6,0,B|319:80|344:163|344:163|349:145|365:132,1,155.999992858887,4|0,0:0|0:0,0:0:0:0:
445,161,44493,2,0,P|435:86|370:48,1,155.999992858887,8|0,0:0|0:0,0:0:0:0:
359,137,44826,2,0,B|352:209|352:209|362:303,1,155.999992858887,2|0,0:0|0:0,0:0:0:0:
402,353,45160,2,0,B|365:316|303:323|279:358|279:358|256:344,1,155.999992858887,8|0,0:0|0:0,0:0:0:0:
251,341,45493,5,4,0:0:0:0:
20,273,45660,1,2,0:0:0:0:
230,211,45826,1,12,0:0:0:0:
0,278,45993,1,0,0:0:0:0:
247,209,46160,1,6,0:0:0:0:
17,142,46326,1,2,0:0:0:0:
91,216,46493,5,8,0:0:0:0:
128,205,46576,1,0,0:0:0:0:
157,180,46660,1,0,0:0:0:0:
172,144,46743,1,0,0:0:0:0:
169,106,46826,6,0,P|249:140|320:90,1,181.999991668702,4|0,0:0|0:0,0:0:0:0:
340,69,47493,2,0,B|341:117|382:184|382:184|379:155|407:128,1,181.999991668702,4|0,0:0|0:0,0:0:0:0:
419,120,48160,2,0,B|461:109|490:162|490:162|489:220|439:235,1,181.999991668702,4|0,0:0|0:0,0:0:0:0:
428,243,48826,2,0,B|395:229|356:237|333:267|333:267|305:280|244:266,1,181.999991668702,4|0,0:0|0:0,0:0:0:0:
239,267,49493,6,0,B|208:236|168:240|136:267|136:267|101:258|75:201|108:145,1,238.00000453949,4|0,0:0|0:0,0:0:0:0:
80,96,50160,2,0,B|100:113|103:146|103:146|144:77|205:84,1,170.000003242493,4|0,0:0|0:0,0:0:0:0:
248,45,50660,2,0,P|223:135|344:22,1,476.00000907898,4|8,0:0|0:0,0:0:0:0:
315,109,51993,1,2,0:0:0:0:
171,15,52160,6,0,P|151:49|143:89,1,80,4|2,0:0|0:0,0:0:0:0:
64,121,52493,2,0,P|83:155|91:195,1,80,0|2,0:0|0:0,0:0:0:0:
182,307,52826,2,0,L|174:227,1,80,2|2,0:0|0:0,0:0:0:0:
9,187,53160,2,0,L|1:267,1,80,2|2,0:0|0:0,0:0:0:0:
181,134,53493,5,4,0:0:0:0:
181,134,53660,1,2,0:0:0:0:
252,203,53826,1,2,0:0:0:0:
252,203,53993,1,2,0:0:0:0:
277,60,54160,2,0,L|281:100,1,40,2|2,3:0|3:0,3:0:0:0:
366,182,54326,2,0,L|362:222,1,40,2|2,3:0|3:0,3:0:0:0:
291,311,54493,1,4,0:0:0:0:
252,203,54660,1,2,0:0:0:0:
45,307,54827,6,0,P|103:311|146:352,1,120,4|0,0:0|0:0,0:0:0:0:
149,363,55160,1,4,0:0:0:0:
213,95,55326,1,6,0:0:0:0:
338,349,55660,1,6,0:0:0:0:
12,211,55993,6,0,P|64:139|32:88,1,160,4|2,0:0|0:0,0:0:0:0:
100,252,56493,2,0,L|180:244,1,80,10|0,0:0|0:0,0:0:0:0:
353,120,57326,1,2,0:0:0:0:
393,35,57493,6,0,P|432:71|442:123,1,108.000000411987,4|2,0:0|0:0,0:0:0:0:
381,289,57826,1,8,0:0:0:0:
155,142,57993,2,0,L|263:131,1,108.000000411987,2|0,0:0|0:0,0:0:0:0:
92,216,58326,1,2,0:0:0:0:
325,57,58493,1,8,0:0:0:0:
219,277,58660,1,0,3:0:0:0:
219,277,58743,1,0,3:0:0:0:
219,277,58826,6,0,B|270:272|270:272|328:279,1,108.000000411987,2|2,0:0|0:0,0:0:0:0:
422,349,59160,1,8,0:0:0:0:
507,169,59326,2,0,P|456:186|426:229,1,108.000000411987,2|0,0:0|0:0,0:0:0:0:
366,69,59660,1,2,0:0:0:0:
512,260,59826,1,8,0:0:0:0:
328,169,59993,1,0,3:0:0:0:
328,169,60076,1,0,3:0:0:0:
328,169,60160,5,2,0:0:0:0:
125,241,60326,1,2,0:0:0:0:
335,274,60493,1,8,0:0:0:0:
162,344,60660,2,0,P|109:353|61:330,1,108.000000411987,2|0,0:0|0:0,0:0:0:0:
88,138,60993,2,0,P|140:128|188:151,1,108.000000411987,2|8,0:0|0:0,0:0:0:0:
6,227,61326,1,0,3:0:0:0:
6,227,61410,1,0,3:0:0:0:
6,227,61493,6,0,B|11:176|11:176|4:118,1,108.000000411987,4|0,0:0|0:0,0:0:0:0:
189,274,61827,2,0,B|138:269|138:269|80:276,1,108.000000411987,4|0,0:0|0:0,0:0:0:0:
69,55,62160,2,0,B|120:60|120:60|178:53,1,108.000000411987,4|0,0:0|0:0,0:0:0:0:
263,192,62493,1,8,0:0:0:0:
333,32,62660,1,0,3:0:0:0:
333,32,62743,1,0,3:0:0:0:
333,32,62826,6,0,P|282:49|253:93,1,108.000000411987,4|2,0:0|0:0,0:0:0:0:
305,278,63160,1,8,0:0:0:0:
444,127,63326,2,0,L|336:116,1,108.000000411987,2|0,0:0|0:0,0:0:0:0:
174,149,63660,1,2,0:0:0:0:
319,29,63826,1,8,0:0:0:0:
350,214,63993,1,0,3:0:0:0:
350,214,64076,1,0,3:0:0:0:
350,214,64160,6,0,B|355:265|355:265|348:323,1,108.000000411987,2|2,0:0|0:0,0:0:0:0:
420,164,64493,1,8,0:0:0:0:
267,357,64660,2,0,P|221:328|169:333,1,108.000000411987,2|0,0:0|0:0,0:0:0:0:
275,266,64993,1,2,0:0:0:0:
111,384,65160,1,8,0:0:0:0:
91,183,65326,1,0,3:0:0:0:
91,183,65410,1,0,3:0:0:0:
91,183,65493,5,2,0:0:0:0:
209,347,65660,1,2,0:0:0:0:
189,146,65826,1,8,0:0:0:0:
25,264,65993,1,6,0:0:0:0:
353,28,66326,1,6,0:0:0:0:
270,213,66493,1,0,3:0:0:0:
270,213,66576,1,0,3:0:0:0:
270,212,66660,6,0,P|358:159|450:207,1,216.000000823975,4|2,0:0|0:0,0:0:0:0:
370,378,67160,1,8,0:0:0:0:
361,269,67326,1,4,0:0:0:0:
270,336,67493,1,0,3:0:0:0:
243,338,67576,1,0,3:0:0:0:
215,341,67660,2,0,L|161:346,1,54.0000002059937,0|0,3:0|3:0,3:0:0:0:
3,294,67826,2,0,L|57:299,1,54.0000002059937,8|0,3:0|3:0,3:0:0:0:
149,229,67993,1,0,0:0:0:0:
89,65,68160,6,0,P|72:115|84:168,1,108.000000411987,4|2,0:0|0:0,0:0:0:0:
162,12,68493,1,8,0:0:0:0:
48,248,68660,2,0,P|101:253|149:230,1,108.000000411987,2|0,0:0|0:0,0:0:0:0:
164,121,68993,1,2,0:0:0:0:
63,332,69160,1,8,0:0:0:0:
247,186,69326,1,0,3:0:0:0:
247,186,69410,1,0,3:0:0:0:
246,185,69493,6,0,P|294:161|347:166,1,108.000000411987,2|0,0:0|0:0,0:0:0:0:
479,261,69826,1,8,0:0:0:0:
300,364,69993,2,0,L|311:256,1,108.000000411987,2|0,0:0|0:0,0:0:0:0:
381,82,70326,1,2,0:0:0:0:
394,266,70493,1,8,0:0:0:0:
291,114,70660,1,0,3:0:0:0:
291,114,70743,1,0,3:0:0:0:
291,114,70826,5,0,0:0:0:0:
85,161,70993,1,2,0:0:0:0:
260,215,71160,1,8,0:0:0:0:
43,333,71326,2,0,P|84:298|101:248,1,108.000000411987,2|0,0:0|0:0,0:0:0:0:
139,47,71660,2,0,P|147:99|182:140,1,108.000000411987,2|8,0:0|0:0,0:0:0:0:
338,273,71993,1,0,3:0:0:0:
338,273,72076,1,0,3:0:0:0:
338,273,72160,6,0,P|287:254|235:264,1,108.000000411987,4|0,0:0|0:0,0:0:0:0:
51,361,72493,2,0,P|101:379|153:369,1,108.000000411987,4|0,0:0|0:0,0:0:0:0:
112,141,72826,2,0,L|101:249,1,108.000000411987,4|2,0:0|0:0,0:0:0:0:
282,340,73160,1,8,0:0:0:0:
271,138,73326,1,0,3:0:0:0:
271,138,73410,1,0,3:0:0:0:
270,137,73493,6,0,B|265:86|265:86|272:30,1,108.000000411987,4|2,0:0|0:0,0:0:0:0:
207,213,73826,1,8,0:0:0:0:
400,85,73993,2,0,L|411:193,1,108.000000411987,2|0,0:0|0:0,0:0:0:0:
473,359,74326,1,2,0:0:0:0:
398,291,74493,2,0,L|344:296,1,54.0000002059937,8|0,0:0|3:0,0:0:0:0:
243,347,74660,2,0,L|189:341,1,54.0000002059937,0|0,3:0|3:0,3:0:0:0:
97,265,74826,5,4,0:0:0:0:
259,229,74993,1,0,0:0:0:0:
27,156,75160,1,8,0:0:0:0:
208,0,75326,1,4,0:0:0:0:
483,300,75660,2,0,P|463:247|475:196,1,108.000000411987,4|8,0:0|0:0,0:0:0:0:
509,42,75993,6,0,P|444:120|346:92,1,216.000000823975,4|2,0:0|0:0,0:0:0:0:
327,0,76493,1,8,0:0:0:0:
276,154,76660,1,2,0:0:0:0:
416,29,76826,1,2,0:0:0:0:
188,124,76993,1,2,0:0:0:0:
345,91,77160,1,8,0:0:0:0:
135,276,77326,1,2,0:0:0:0:
135,276,77410,1,0,3:0:0:0:
135,276,77493,5,4,0:0:0:0:
257,61,77660,1,2,0:0:0:0:
295,246,77826,1,8,0:0:0:0:
295,246,77993,6,0,P|252:173|341:194,1,216.000000823975,4|2,0:0|0:0,0:0:0:0:
440,178,78493,1,8,0:0:0:0:
441,191,78576,1,0,3:0:0:0:
442,204,78660,1,0,3:0:0:0:
444,218,78743,1,0,3:0:0:0:
444,228,78826,6,0,P|397:214|352:228,1,80,4|0,0:0|0:0,0:0:0:0:
321,131,79160,2,0,P|277:153|256:194,1,80,8|0,0:0|0:0,0:0:0:0:
166,150,79493,1,2,0:0:0:0:
165,240,79660,1,2,0:0:0:0:
3,240,79826,1,10,0:0:0:0:
82,195,79993,1,2,0:0:0:0:
172,70,80160,6,0,L|163:166,1,80,4|0,0:0|0:0,0:0:0:0:
321,131,80493,2,0,L|328:33,1,80,8|0,0:0|0:0,0:0:0:0:
368,207,80826,1,2,0:0:0:0:
277,207,80993,1,2,0:0:0:0:
278,370,81160,1,10,0:0:0:0:
322,291,81326,1,2,0:0:0:0:
230,290,81493,6,0,P|199:267|183:230,1,80,4|0,0:0|0:0,0:0:0:0:
94,240,81826,2,0,P|88:201|102:165,1,80,8|0,0:0|0:0,0:0:0:0:
208,29,82160,1,2,0:0:0:0:
208,121,82326,1,2,0:0:0:0:
372,119,82493,1,10,0:0:0:0:
292,75,82660,1,2,0:0:0:0:
128,35,82826,6,0,L|224:26,1,80,4|0,0:0|0:0,0:0:0:0:
290,171,83160,2,0,L|369:178,1,80,8|0,0:0|0:0,0:0:0:0:
212,214,83493,1,2,0:0:0:0:
213,227,83576,1,0,3:0:0:0:
214,240,83660,1,2,3:0:0:0:
216,254,83743,1,0,3:0:0:0:
217,267,83826,2,0,P|178:278|141:267,1,80,8|0,0:0|0:0,0:0:0:0:
136,66,84160,6,0,B|169:9|340:-4|328:157|328:157|352:104|396:82|447:91,1,419.999987182618,4|0,0:0|0:0,0:0:0:0:
429,169,85493,2,0,B|400:175|388:220|400:297|400:297|347:276|347:276|315:296|263:274,1,279.999991455078,4|2,0:0|0:0,0:0:0:0:
352,362,86493,1,8,0:0:0:0:
308,203,86660,1,2,0:0:0:0:
193,321,86826,5,4,1:0:0:0:
255,83,86993,1,4,1:0:0:0:
317,321,87326,5,0,1:0:0:0:
317,321,87410,1,0,1:0:0:0:
317,321,87493,1,4,1:0:0:0:
80,256,87660,1,0,1:0:0:0:
317,191,87826,1,0,1:0:0:0:
143,19,87993,5,4,1:0:0:0:
256,192,88076,12,0,89993,0:0:0:0:
