osu file format v14

[General]
AudioFilename: audio.mp3
AudioLeadIn: 0
PreviewTime: 57160
Countdown: 0
SampleSet: Soft
StackLeniency: 0.4
Mode: 0
LetterboxInBreaks: 0
WidescreenStoryboard: 0

[Editor]
Bookmarks: 1494,14827,25493,36160,46827,57493,68160,78827,87993,89993
DistanceSpacing: 1
BeatDivisor: 2
GridSize: 8
TimelineZoom: 2.3

[Metadata]
Title:Day to Story (TV Size)
TitleUnicode:Day to Story (TV Size)
Artist:Sadohara Kaori
ArtistUnicode:佐土原かおり
Creator:cococolaco
Version:lit120's Easy
Source:デート・ア・ライブ Ⅱ
Tags:date a live season 2 tv size ending VINXIS mishima_yurara -Hakurei-
BeatmapID:1489071
BeatmapSetID:699745

[Difficulty]
HPDrainRate:3
CircleSize:3
OverallDifficulty:3
ApproachRate:3
SliderMultiplier:0.9
SliderTickRate:1

[Events]
//Background and Video events
0,0,"lit120.jpg",0,0
//Break Periods
//Storyboard Layer 0 (Background)
//Storyboard Layer 1 (Fail)
//Storyboard Layer 2 (Pass)
//Storyboard Layer 3 (Foreground)
//Storyboard Sound Samples

[TimingPoints]
-220,428.571428571429,4,2,2,50,1,0
13494,333.333333333333,4,2,2,50,1,0
14827,-100,4,2,3,90,0,0
25492,-100,4,2,3,70,0,0
52159,-100,4,2,3,60,0,0
57493,-100,4,2,3,90,0,1
84160,-100,4,2,3,80,0,0
89993,-100,4,2,3,5,0,0

[Colours]
Combo1 : 228,194,172
Combo2 : 163,45,41
Combo3 : 70,107,150
Combo4 : 127,202,221

[HitObjects]
338,197,1494,6,0,P|252:190|210:115,1,180,4|2,0:0|0:0,0:0:0:0:
255,37,2780,1,0,0:0:0:0:
301,115,3208,2,0,P|259:190|173:197,1,180,2|2,0:0|0:0,0:0:0:0:
58,59,4922,6,0,L|50:188,1,90,2|0,0:0|0:0,0:0:0:0:
96,227,5780,2,0,L|88:356,1,90,2|0,0:0|0:0,0:0:0:0:
23,377,6637,2,0,P|101:336|190:342,1,180,2|2,0:0|0:0,0:0:0:0:
273,377,7922,1,0,0:0:0:0:
307,294,8351,6,0,L|299:110,1,180,4|2,0:0|0:0,0:0:0:0:
287,24,9637,1,0,0:0:0:0:
216,79,10065,2,0,L|224:263,1,180,2|2,0:0|0:0,0:0:0:0:
190,342,11351,1,0,0:0:0:0:
135,272,11780,6,0,L|127:92|127:92,2,180,2|2|2,0:0|0:0|0:0,0:0:0:0:
483,363,14827,6,0,P|508:302|464:218,2,135,6|2|8,0:0|0:0|0:0,0:0:0:0:
419,299,16160,2,0,L|236:298,1,180,2|0,0:0|0:0,0:0:0:0:
168,353,17160,1,8,0:0:0:0:
113,281,17493,6,0,P|95:213|131:153,2,135,2|2|8,0:0|0:0|0:0,0:0:0:0:
184,226,18827,2,0,P|212:166|194:103,1,135,6|6,0:0|0:0,0:0:0:0:
108,68,19660,1,6,0:0:0:0:
236,24,20160,6,0,L|375:29,2,135,6|2|8,0:0|0:0|0:0,0:0:0:0:
194,103,21493,2,0,P|248:138|371:105,1,180,2|0,0:0|0:0,0:0:0:0:
440,85,22493,1,8,0:0:0:0:
512,142,22827,6,0,L|511:276,2,135,6|2|8,0:0|0:0|0:0,0:0:0:0:
428,173,24160,2,0,L|427:307,1,135,8|8,0:0|0:0,0:0:0:0:
359,367,24993,1,6,0:0:0:0:
249,287,25493,6,0,P|172:291|135:307,1,90,6|8,0:0|0:0,0:0:0:0:
79,336,26160,2,0,L|71:225,1,90,2|8,0:0|0:0,0:0:0:0:
135,182,26827,2,0,P|56:192|13:152,2,135,2|2|8,0:0|0:0|0:0,0:0:0:0:
197,118,28160,5,2,0:0:0:0:
263,180,28493,2,0,L|266:282,2,90,8|2|8,0:0|0:0|0:0,0:0:0:0:
320,110,29493,2,0,P|257:90|197:118,2,135,2|2|8,0:0|0:0|0:0,0:0:0:0:
390,168,30827,6,0,L|376:28,2,135,2|0|8,0:0|0:0|0:0,0:0:0:0:
333,238,32160,2,0,P|411:213|493:237,2,135,2|2|8,0:0|0:0|0:0,0:0:0:0:
276,308,33493,6,0,L|175:308,1,90,2|8,0:0|0:0,0:0:0:0:
112,360,34160,2,0,P|97:316|110:258,1,90,2|8,0:0|0:0,0:0:0:0:
172,217,34827,2,0,P|101:226|42:176,1,135,8|8,0:0|0:0,0:0:0:0:
126,139,35660,1,6,0:0:0:0:
255,178,36160,6,0,L|251:79,1,90,6|8,0:0|0:0,0:0:0:0:
334,52,36827,2,0,L|338:151,1,90,2|8,0:0|0:0,0:0:0:0:
326,231,37493,2,0,P|364:181|455:177,2,135,2|2|8,0:0|0:0|0:0,0:0:0:0:
346,318,38827,5,2,0:0:0:0:
413,257,39160,2,0,P|432:297|432:342,2,90,8|2|8,0:0|0:0|0:0,0:0:0:0:
326,231,40160,2,0,L|166:235,1,135,2|2,0:0|0:0,0:0:0:0:
130,300,40993,1,2,0:0:0:0:
65,238,41327,6,0,B|61:104|61:104|104:146|166:127,1,225,8|2,0:0|0:0,0:0:0:0:
210,72,42493,1,8,0:0:0:0:
269,140,42827,2,0,B|359:140|359:140|412:95,2,135,2|2|8,0:0|0:0|0:0,0:0:0:0:
201,198,44160,6,0,P|189:263|196:302,1,90,6|8,0:0|0:0,0:0:0:0:
260,344,44827,2,0,L|371:338,1,90,2|8,0:0|0:0,0:0:0:0:
430,376,45493,2,0,P|380:306|409:225,1,180,6|0,0:0|0:0,0:0:0:0:
444,141,46493,1,8,0:0:0:0:
500,212,46827,6,0,P|492:257|468:294,1,90,6|2,0:0|0:0,0:0:0:0:
410,225,47493,2,0,P|374:197|356:158,1,90,12|2,0:0|0:0,0:0:0:0:
385,72,48160,2,0,P|327:113|187:78,1,180,0|12,0:0|0:0,0:0:0:0:
160,39,49160,1,6,0:0:0:0:
93,102,49493,6,0,L|91:278,1,135,6|2,0:0|0:0,0:0:0:0:
133,317,50327,1,0,0:0:0:0:
213,275,50660,2,0,P|287:266|358:281,1,135,6|2,0:0|0:0,0:0:0:0:
421,323,51493,2,0,P|434:278|424:232,1,90,12|12,0:0|0:0,0:0:0:0:
350,187,52160,6,0,P|342:136|356:97,2,90,6|2|2,0:0|0:0|0:0,0:0:0:0:
430,146,53160,1,8,0:0:0:0:
431,58,53493,2,0,P|395:23|328:15,1,90,2|2,0:0|0:0,0:0:0:0:
279,52,54160,2,0,L|173:53,1,90,8|8,0:0|0:0,0:0:0:0:
100,34,54827,6,0,P|145:101|144:195,1,135,6|2,0:0|0:0,0:0:0:0:
123,238,55660,1,2,0:0:0:0:
69,310,55993,2,0,P|134:293|201:298,1,135,6|8,0:0|0:0,0:0:0:0:
397,112,57493,6,0,L|408:271,2,135,6|2|8,0:0|0:0|0:0,0:0:0:0:
308,127,58827,2,0,L|319:286,2,135,2|2|8,0:0|0:0|0:0,0:0:0:0:
219,142,60160,6,0,L|230:301,1,135,2|2,0:0|0:0,0:0:0:0:
197,361,60993,1,0,0:0:0:0:
139,291,61327,2,0,L|130:157,1,135,0|8,0:0|0:0,0:0:0:0:
159,70,62160,2,0,P|200:50|244:53,1,90,0|8,0:0|0:0,0:0:0:0:
308,120,62827,6,0,P|370:142|431:117,2,135,6|2|8,0:0|0:0|0:0,0:0:0:0:
244,54,64160,2,0,P|306:28|368:51,2,135,6|2|8,0:0|0:0|0:0,0:0:0:0:
219,142,65493,6,0,L|216:310,1,135,6|2,0:0|0:0,0:0:0:0:
214,365,66327,1,2,0:0:0:0:
292,322,66660,2,0,P|370:314|435:343,1,135,6|8,0:0|0:0,0:0:0:0:
498,377,67493,1,8,0:0:0:0:
499,288,67827,1,8,0:3:0:0:
421,243,68160,6,0,L|416:84,2,135,6|2|8,0:0|0:0|0:0,0:0:0:0:
330,250,69493,2,0,P|360:309|421:333,2,135,2|2|8,0:0|0:0|0:0,0:0:0:0:
323,160,70827,6,0,P|293:100|231:76,1,135,2|2,0:0|0:0,0:0:0:0:
143,96,71660,1,2,0:0:0:0:
109,179,71993,2,0,L|114:316,1,135,0|8,0:0|0:0,0:0:0:0:
181,374,72827,2,0,P|234:345|274:344,1,90,0|8,0:0|0:0,0:0:0:0:
343,382,73493,6,0,P|321:318|331:252,2,135,6|2|8,0:0|0:0|0:0,0:0:0:0:
433,373,74827,2,0,P|443:306|421:243,1,135,6|2,0:0|0:0,0:0:0:0:
369,170,75660,1,2,0:0:0:0:
331,252,75993,6,0,L|166:258,1,135,6|8,0:0|0:0,0:0:0:0:
116,215,76827,2,0,P|101:151|120:103,1,90,2|8,0:0|0:0,0:0:0:0:
171,67,77493,2,0,L|281:67,1,90,6|12,0:0|0:0,0:0:0:0:
345,35,78160,1,8,0:0:0:0:
377,119,78493,1,8,0:3:0:0:
461,87,78827,6,0,L|470:195,1,90,6|8,0:0|0:0,0:0:0:0:
386,213,79493,2,0,L|395:321,1,90,8|8,0:0|0:0,0:0:0:0:
456,367,80160,2,0,P|391:349|324:353,1,135,8|0,0:0|0:0,0:0:0:0:
256,293,80993,1,2,0:0:0:0:
187,353,81327,6,0,P|120:349|56:367,1,135,2|8,0:0|0:0,0:0:0:0:
5,292,82160,2,0,P|46:261|65:222,1,90,8|8,0:0|0:0,0:0:0:0:
86,140,82827,2,8,P|120:111|164:101,1,90
243,144,83493,1,8,0:0:0:0:
286,66,83827,1,8,0:0:0:0:
364,108,84160,6,0,B|368:288|368:288|321:303|299:343,1,270,6|0,0:0|0:0,0:0:0:0:
212,343,85493,2,0,B|191:303|144:288|144:288|148:108,1,270,6|8,0:0|0:0,0:0:0:0:
218,52,86827,6,0,P|152:98|46:48,1,180,8|2,0:0|0:0,0:0:0:0:
14,196,87993,2,0,B|64:173|101:190|101:190|128:222|181:223|181:223|221:193|266:205|266:205|228:276|273:344|273:344|346:307|340:231,1,540,6|0,0:0|0:0,0:0:0:0:
