osu file format v14

[General]
AudioFilename: audio.mp3
AudioLeadIn: 0
PreviewTime: 57160
Countdown: 0
SampleSet: Soft
StackLeniency: 0.7
Mode: 0
LetterboxInBreaks: 0
WidescreenStoryboard: 1

[Editor]
Bookmarks: 14827,25492,46825,52159,56825,57159,57492,62659,62825,67992,68159,73325,73492,78825,84159,87992,89992
DistanceSpacing: 1
BeatDivisor: 4
GridSize: 8
TimelineZoom: 1.6

[Metadata]
Title:Day to Story (TV Size)
TitleUnicode:Day to Story (TV Size)
Artist:Sadohara Kaori
ArtistUnicode:佐土原かおり
Creator:cococolaco
Version:Normal
Source:デート・ア・ライブ Ⅱ
Tags:date a live season 2 tv size ending VINXIS mishima_yurara -Hakurei-
BeatmapID:1484374
BeatmapSetID:699745

[Difficulty]
HPDrainRate:4
CircleSize:3
OverallDifficulty:5
ApproachRate:6
SliderMultiplier:1.6
SliderTickRate:1

[Events]
//Background and Video events
0,0,"bg.jpg",0,0
//Break Periods
//Storyboard Layer 0 (Background)
//Storyboard Layer 1 (Fail)
//Storyboard Layer 2 (Pass)
//Storyboard Layer 3 (Foreground)
//Storyboard Sound Samples

[TimingPoints]
-220,428.571428571429,4,2,1,50,1,0
1493.04066981028,-142.857142857143,4,2,1,50,0,0
13494,333.333333333333,4,2,1,90,1,0
14827,-185.185185185185,4,2,1,90,0,0
25492,-185.185185185185,4,2,1,70,0,0
36159,-185.185185185185,4,2,1,70,0,0
44159,-185.185185185185,4,2,1,70,0,0
46825,-185.185185185185,4,2,1,70,0,0
49492,-185.185185185185,4,2,1,70,0,0
52159,-185.185185185185,4,2,1,60,0,0
57493,-185.185185185185,4,2,1,90,0,1
62660,-185.185185185185,4,2,1,90,0,0
62827,-185.185185185185,4,2,1,90,0,1
67993,-185.185185185185,4,2,1,90,0,0
68160,-185.185185185185,4,2,1,90,0,1
73327,-185.185185185185,4,2,1,90,0,0
73493,-185.185185185185,4,2,1,90,0,1
78660,-185.185185185185,4,2,1,70,0,0
78827,-185.185185185185,4,2,1,70,0,0
84159,-185.185185185185,4,2,1,80,0,0
86493,-185.185185185185,4,2,1,80,0,0
89993,-185.185185185185,4,2,1,5,0,0

[Colours]
Combo1 : 254,215,80
Combo2 : 255,91,104
Combo3 : 218,218,218

[HitObjects]
137,47,1494,6,0,P|59:154|208:243,1,335.999989746094
229,354,3208,2,0,B|324:307|300:215|300:215|361:226|361:226|418:193|480:232,1,335.999989746094
455,108,4922,2,0,B|392:92|345:117|345:117|299:39|207:79|207:79|235:103|238:145,1,335.999989746094
149,203,6637,2,0,P|118:209|212:254,1,335.999989746094
232,148,8351,6,0,B|315:164|320:268|320:268|416:250|406:122,1,335.999989746094
314,71,10065,2,0,P|212:40|128:108,1,223.999993164063
256,192,11780,12,0,13494,0:0:0:0:
69,98,14827,6,0,P|110:88|153:96,1,86.4000021093751,4|8,0:0|0:0,0:0:0:0:
194,110,15327,2,0,P|236:117|278:108,1,86.4000021093751,2|2,0:0|0:0,0:0:0:0:
318,92,15827,1,8,0:0:0:0:
399,62,16160,6,0,L|395:19,2,43.2000010546875,4|2|8,0:0|0:0|0:0,0:0:0:0:
405,104,16660,2,0,B|408:148|408:148|405:191,1,86.4000021093751,2|2,0:0|0:0,0:0:0:0:
397,232,17160,1,8,0:0:0:0:
371,314,17493,6,0,P|330:304|287:312,1,86.4000021093751,4|8,0:0|0:0,0:0:0:0:
246,326,17993,2,0,P|204:333|162:324,1,86.4000021093751,2|2,0:0|0:0,0:0:0:0:
122,308,18493,1,8,0:0:0:0:
41,277,18827,6,0,L|37:320,2,43.2000010546875,4|2|8,0:0|0:0|0:0,0:0:0:0:
48,234,19327,1,4,0:0:0:0:
110,174,19660,2,0,L|102:88,1,86.4000021093751,4|2,0:0|0:0,0:0:0:0:
85,48,20160,6,0,P|126:58|169:50,1,86.4000021093751,4|8,0:0|0:0,0:0:0:0:
211,41,20660,2,0,B|255:37|255:37|298:41,1,86.4000021093751,2|2,0:0|0:0,0:0:0:0:
339,48,21160,1,8,0:0:0:0:
411,95,21493,6,0,L|454:91,2,43.2000010546875,4|2|8,0:0|0:0|0:0,0:0:0:0:
385,130,21993,2,0,P|375:171|383:214,1,86.4000021093751,2|2,0:0|0:0,0:0:0:0:
401,252,22493,1,8,0:0:0:0:
429,333,22827,6,0,L|472:329,2,43.2000010546875,4|2|8,0:0|0:0|0:0,0:0:0:0:
386,339,23327,1,2,0:0:0:0:
299,345,23660,2,0,B|255:341|255:341|212:345,1,86.4000021093751,2|0,0:0|0:0,0:0:0:0:
169,350,24160,6,0,P|179:309|171:266,1,86.4000021093751,4|8,0:0|0:0,0:0:0:0:
153,226,24660,1,4,0:0:0:0:
98,158,24993,2,0,P|90:115|100:74,1,86.4000021093751,4|0,0:0|0:0,0:0:0:0:
127,40,25493,5,4,0:0:0:0:
195,92,25827,2,0,P|238:100|279:90,1,86.4000021093751,8|2,0:0|0:0,0:0:0:0:
320,79,26327,2,0,L|363:83,1,43.2000010546875,2|10,0:0|0:0,0:0:0:0:
418,149,26827,2,0,P|408:190|416:232,1,86.4000021093751,2|8,0:0|0:0,0:0:0:0:
423,275,27327,2,0,B|379:271|379:271|336:275,1,86.4000021093751,2|2,0:0|0:0,0:0:0:0:
295,283,27827,1,8,0:0:0:0:
210,301,28160,5,2,0:0:0:0:
133,261,28493,2,0,B|129:217|129:217|133:174,1,86.4000021093751,8|2,0:0|0:0,0:0:0:0:
141,132,28993,2,0,L|137:89,1,43.2000010546875,2|10,0:0|0:0,0:0:0:0:
196,26,29493,2,0,P|226:55|266:69,1,86.4000021093751,2|8,0:0|0:0,0:0:0:0:
309,81,29993,2,0,L|395:73,1,86.4000021093751,2|2,0:0|0:0,0:0:0:0:
437,65,30493,1,8,0:0:0:0:
439,151,30827,6,0,P|429:192|437:234,1,86.4000021093751,2|8,0:0|0:0,0:0:0:0:
421,275,31327,2,0,L|378:279,2,43.2000010546875,0|2|2,0:0|0:0|0:0,0:0:0:0:
452,304,31827,1,8,0:0:0:0:
396,369,32160,6,0,P|355:379|313:371,1,86.4000021093751,2|8,0:0|0:0,0:0:0:0:
273,351,32660,2,0,L|277:308,2,43.2000010546875,0|2|2,0:0|0:0|0:0,0:0:0:0:
236,373,33160,1,8,0:0:0:0:
183,304,33493,6,0,P|191:261|181:220,1,86.4000021093751,2|8,0:0|0:0,0:0:0:0:
140,144,34160,2,0,L|97:140,2,43.2000010546875,2|2|8,0:0|0:0|0:0,0:0:0:0:
226,143,34827,6,0,L|312:135,1,86.4000021093751,4|8,0:0|0:0,0:0:0:0:
354,128,35327,1,4,0:0:0:0:
348,214,35660,2,0,L|434:222,1,86.4000021093751,4|2,0:0|0:0,0:0:0:0:
477,226,36160,5,4,0:0:0:0:
507,145,36493,2,0,P|515:102|505:61,1,86.4000021093751,8|2,0:0|0:0,0:0:0:0:
486,22,36993,2,0,L|443:26,1,43.2000010546875,2|10,0:0|0:0,0:0:0:0:
366,65,37493,2,0,B|322:69|322:69|279:65,1,86.4000021093751,2|8,0:0|0:0,0:0:0:0:
238,52,37993,2,0,P|195:43|154:53,1,86.4000021093751,2|2,0:0|0:0,0:0:0:0:
126,86,38493,1,8,0:0:0:0:
84,161,38827,5,2,0:0:0:0:
146,220,39160,2,0,P|187:229|229:220,1,86.4000021093751,8|2,0:0|0:0,0:0:0:0:
271,208,39660,2,0,L|275:251,2,43.2000010546875,2|10|0,0:0|0:0|0:0,0:0:0:0:
266,164,40160,6,0,B|262:120|262:120|266:77,1,86.4000021093751,6|8,0:0|0:0,0:0:0:0:
278,36,40660,1,4,0:0:0:0:
354,76,40993,1,4,0:0:0:0:
433,40,41327,1,4,0:0:0:0:
433,40,41493,6,0,P|442:81|433:123,1,86.4000021093751,2|10,0:0|0:0,0:0:0:0:
404,205,42160,2,0,L|447:209,2,43.2000010546875,2|2|8,0:0|0:0|0:0,0:0:0:0:
325,241,42827,2,0,P|318:199|330:158,1,86.4000021093751,2|10,0:0|0:0,0:0:0:0:
362,77,43493,2,0,L|319:73,2,43.2000010546875,2|2|8,0:0|0:0|0:0,0:0:0:0:
431,128,44160,6,0,P|437:169|425:210,1,86.4000021093751,2|10,0:0|0:0,0:0:0:0:
376,283,44827,2,0,B|332:287|332:287|289:283,1,86.4000021093751,2|8,0:0|0:0,0:0:0:0:
218,232,45493,2,0,P|165:268|102:242,1,129.600003164063,4|2,0:0|0:0,0:0:0:0:
71,224,46160,2,0,P|106:170|80:107,1,129.600003164063,4|2,0:0|0:0,0:0:0:0:
75,71,46827,6,0,P|134:51|199:89,1,129.600003164063,4|2,0:0|0:0,0:0:0:0:
222,109,47493,2,0,B|287:115|287:115|352:111,1,129.600003164063,4|2,0:0|0:0,0:0:0:0:
394,107,48160,2,0,P|374:167|402:223,1,129.600003164063,4|2,0:0|0:0,0:0:0:0:
429,257,48827,2,0,P|372:285|312:265,1,129.600003164063,4|2,0:0|0:0,0:0:0:0:
278,238,49493,6,0,P|217:257|161:229,1,129.600003164063,4|2,0:0|0:0,0:0:0:0:
128,199,50160,2,0,L|135:112,1,86.4000021093751,4|2,0:0|0:0,0:0:0:0:
143,70,50660,2,0,P|237:44|173:8,1,216.000005273438,4|2,0:0|0:0,0:0:0:0:
43,155,52160,5,4,0:0:0:0:
67,238,52493,1,2,0:0:0:0:
150,259,52827,2,0,P|148:216|127:178,1,86.4000021093751,2|2,0:0|0:0,0:0:0:0:
188,115,53493,5,2,0:0:0:0:
272,136,53826,1,0,0:0:0:0:
293,219,54160,2,0,P|256:241|235:278,1,86.4000021093751,2|0,0:0|0:0,0:0:0:0:
317,302,54827,6,0,P|367:265|378:201,1,129.600003164063,4|4,0:0|0:0,0:0:0:0:
327,132,55660,1,4,0:0:0:0:
412,121,55993,2,0,P|384:65|323:42,1,129.600003164063,4|4,0:0|0:0,0:0:0:0:
171,324,57493,6,0,P|165:283|177:242,1,86.4000021093751,4|10,0:0|0:0,0:0:0:0:
200,203,57993,1,2,0:0:0:0:
263,144,58327,1,2,0:0:0:0:
263,144,58493,1,8,0:0:0:0:
291,225,58827,6,0,P|310:262|345:288,1,86.4000021093751,2|10,0:0|0:0,0:0:0:0:
388,293,59327,1,2,0:0:0:0:
386,206,59660,1,2,0:0:0:0:
386,206,59827,1,8,0:0:0:0:
327,142,60160,6,0,L|320:55,1,86.4000021093751,2|8,0:0|0:0,0:0:0:0:
317,12,60660,1,2,0:0:0:0:
240,52,60993,1,2,0:0:0:0:
240,52,61160,2,0,L|197:48,1,43.2000010546875,8|0,0:0|0:0,0:0:0:0:
153,46,61493,5,4,0:0:0:0:
93,108,61826,1,8,0:0:0:0:
116,191,62160,1,4,0:0:0:0:
200,212,62493,2,0,L|243:208,1,43.2000010546875,8|0,0:0|0:0,0:0:0:0:
286,205,62827,6,0,B|282:249|282:249|286:292,1,86.4000021093751,4|8,0:0|0:0,0:0:0:0:
296,332,63327,1,2,0:0:0:0:
379,309,63660,1,2,0:0:0:0:
379,309,63827,1,8,0:0:0:0:
457,272,64160,6,0,L|461:315,2,43.2000010546875,2|2|8,0:0|0:0|0:0,0:0:0:0:
454,228,64660,2,0,P|468:187|461:145,1,86.4000021093751,2|2,0:0|0:0,0:0:0:0:
439,108,65160,2,0,L|396:104,1,43.2000010546875,8|0,0:0|0:0,0:0:0:0:
353,94,65493,5,4,0:0:0:0:
266,97,65827,1,2,0:0:0:0:
266,97,65993,1,4,0:0:0:0:
305,174,66327,1,2,0:0:0:0:
255,244,66660,6,0,P|237:281|208:168,1,345.6000084375,4|2,0:0|0:0,0:0:0:0:
251,165,68160,6,0,P|286:141|306:103,1,86.4000021093751,4|8,0:0|0:0,0:0:0:0:
314,61,68660,1,2,0:0:0:0:
396,86,68993,1,2,0:0:0:0:
396,86,69160,1,8,0:0:0:0:
373,169,69493,6,0,B|369:213|369:213|373:256,1,86.4000021093751,2|8,0:0|0:0,0:0:0:0:
380,297,69993,1,2,0:0:0:0:
309,347,70327,1,2,0:0:0:0:
309,347,70493,2,0,L|266:343,1,43.2000010546875,8|0,0:0|0:0,0:0:0:0:
223,335,70827,6,0,B|179:331|179:331|136:335,1,86.4000021093751,2|8,0:0|0:0,0:0:0:0:
94,343,71327,1,2,0:0:0:0:
86,256,71660,1,2,0:0:0:0:
86,256,71826,2,0,L|129:252,1,43.2000010546875,8|0,0:0|0:0,0:0:0:0:
172,249,72160,5,4,0:0:0:0:
255,226,72493,1,8,0:0:0:0:
277,142,72827,1,4,0:0:0:0:
214,82,73160,2,0,L|170:78,1,43.2000010546875,8|0,0:0|0:0,0:0:0:0:
136,104,73493,6,0,P|123:144|129:187,1,86.4000021093751,4|10,0:0|0:0,0:0:0:0:
154,222,73993,1,2,0:0:0:0:
237,245,74327,1,2,0:0:0:0:
237,245,74493,1,8,0:0:0:0:
242,331,74827,6,0,L|199:335,2,43.2000010546875,2|2|8,0:0|0:0|0:0,0:0:0:0:
286,328,75327,2,0,P|327:342|369:335,1,86.4000021093751,2|2,0:0|0:0,0:0:0:0:
405,312,75827,1,8,0:0:0:0:
439,278,75993,6,0,B|475:217|478:66|448:31|368:27|304:19|266:96|281:168|351:193,1,475.200011601563,4|0,0:0|0:0,0:0:0:0:
105,213,78827,6,0,L|98:126,1,86.4000021093751,2|8,0:0|0:0,0:0:0:0:
149,57,79493,1,0,0:0:0:0:
149,57,79660,2,0,L|145:14,2,43.2000010546875,2|8|2,0:0|0:0|0:0,0:0:0:0:
179,87,80160,6,0,L|265:78,1,86.4000021093751,2|8,0:0|0:0,0:0:0:0:
332,132,80826,1,0,0:0:0:0:
332,132,80993,2,0,L|375:128,2,43.2000010546875,2|8|2,0:0|0:0|0:0,0:0:0:0:
301,162,81493,6,0,L|294:249,1,86.4000021093751,2|8,0:0|0:0,0:0:0:0:
345,318,82159,1,0,0:0:0:0:
345,318,82326,2,0,L|341:361,2,43.2000010546875,2|8|2,0:0|0:0|0:0,0:0:0:0:
375,286,82827,5,2,0:0:0:0:
384,200,83160,1,8,0:0:0:0:
314,150,83493,1,2,0:0:0:0:
235,185,83827,1,8,0:0:0:0:
225,269,84160,6,0,P|106:288|62:177,1,259.200006328125,4|0,0:0|0:0,0:0:0:0:
100,99,85493,2,0,P|218:80|262:191,1,259.200006328125,4|8,0:0|0:0,0:0:0:0:
255,234,86660,1,0,0:0:0:0:
247,276,86827,2,0,P|248:309|332:352,1,129.600003164063,4|2,0:0|0:0,0:0:0:0:
256,192,87993,12,0,89993,0:0:0:0:
