osu file format v14

[General]
AudioFilename: audio.mp3
AudioLeadIn: 0
PreviewTime: 5553
Countdown: 0
SampleSet: Soft
StackLeniency: 0.7
Mode: 0
LetterboxInBreaks: 0
WidescreenStoryboard: 1

[Editor]
Bookmarks: 5641,16935,28229,39523,50817,62111,73405,84699,95993,107288,118582,129876
DistanceSpacing: 0.4
BeatDivisor: 4
GridSize: 8
TimelineZoom: 1.7

[Metadata]
Title:Kaseta
TitleUnicode:Касета
Artist:SadSvit
ArtistUnicode:SadSvit
Creator:allein
Version:Insane
Source:
Tags:ukrainian post-punk post punk indie pop rock Cassette aishiteiru- mamiya takuji tsumugi-chan
BeatmapID:3594938
BeatmapSetID:1756107

[Difficulty]
HPDrainRate:5
CircleSize:4
OverallDifficulty:7
ApproachRate:8
SliderMultiplier:1.7
SliderTickRate:1

[Events]
//Background and Video events
0,0,"a.jpg",0,0
//Break Periods
2,73605,82538
//Storyboard Layer 0 (Background)
//Storyboard Layer 1 (Fail)
//Storyboard Layer 2 (Pass)
//Storyboard Layer 3 (Foreground)
//Storyboard Layer 4 (Overlay)
//Storyboard Sound Samples

[TimingPoints]
-6,352.941176470588,4,2,1,70,1,0
5641,-100,4,2,1,70,0,0
5993,-100,4,2,1,65,0,0
28229,-133.333333333333,4,2,1,60,0,0
39523,-100,4,2,1,70,0,0
50817,-100,4,2,1,80,0,0
83288,-100,4,2,1,65,0,0
84699,-133.333333333333,4,2,1,60,0,0
95993,-100,4,2,1,70,0,0
107288,-100,4,2,1,80,0,0
129876,-133.333333333333,4,2,1,65,0,0
139935,-133.333333333333,4,2,1,40,0,0

[Colours]
Combo1 : 181,181,181
Combo2 : 90,90,90
Combo3 : 128,128,128

[HitObjects]
507,103,4229,5,8,3:0:0:0:
507,103,4405,2,0,B|443:108|443:108|418:97,1,85,8|0,3:0|0:0,0:0:0:0:
329,138,4758,2,0,B|265:133|265:133|240:144,1,85,8|0,3:0|0:0,0:0:0:0:
129,101,5111,1,4,3:0:0:0:
129,101,5288,1,4,3:0:0:0:
129,101,5464,1,4,3:0:0:0:
163,176,5641,6,0,L|176:1,2,170,6|8|0,3:2|0:0|3:2,0:0:0:0:
232,230,6523,1,0,0:0:0:0:
298,182,6699,1,8,0:0:0:0:
388,226,6876,2,0,L|481:214,1,85,8|0,0:3|3:0,0:0:0:0:
457,141,7229,2,0,L|364:153,1,85,2|8,0:0|0:0,0:0:0:0:
306,293,7582,1,2,0:0:0:0:
306,293,7758,1,0,3:0:0:0:
378,343,7935,1,2,0:0:0:0:
261,367,8111,2,0,B|224:347|224:347|168:365,1,85,8|0,0:0|0:0,0:0:0:0:
101,317,8464,6,0,L|86:183,1,127.5,0|0,3:0|0:0,0:0:0:0:
97,172,8817,2,0,L|105:70,1,85,10|0,0:0|0:0,0:0:0:0:
122,0,9170,1,2,3:2:0:0:
10,51,9346,1,2,0:0:0:0:
225,77,9523,5,8,0:0:0:0:
225,77,9699,2,0,L|331:69,1,85,8|0,0:3|3:2,0:0:0:0:
502,108,10052,1,0,0:0:0:0:
433,36,10229,1,10,0:0:0:0:
502,108,10405,1,0,0:0:0:0:
384,129,10582,2,0,B|365:170|365:170|387:234,1,85,2|0,3:2|3:0,0:0:0:0:
496,266,10935,1,10,0:0:0:0:
479,191,11111,1,8,0:3:0:0:
358,283,11288,6,0,L|211:298,1,127.5,0|0,3:2|0:0,0:0:0:0:
210,299,11641,2,0,P|190:255|204:217,1,85,8|0,0:0|0:0,0:0:0:0:
239,110,11993,1,0,3:0:0:0:
289,179,12170,1,0,0:0:0:0:
165,141,12346,1,8,0:0:0:0:
317,92,12523,6,0,L|405:84,1,85,8|0,0:3|3:0,0:0:0:0:
229,16,12876,2,0,L|141:24,1,85,2|8,0:0|0:0,0:0:0:0:
14,72,13229,1,2,0:0:0:0:
14,72,13405,1,0,3:0:0:0:
72,0,13582,1,2,0:0:0:0:
60,138,13758,2,0,B|45:161|45:161|56:234,1,85,8|0,0:0|0:0,0:0:0:0:
142,307,14111,6,0,P|202:265|277:269,1,127.5,0|0,3:0|0:0,0:0:0:0:
273,264,14464,2,0,L|286:358,1,85,10|0,0:0|0:0,0:0:0:0:
419,367,14817,1,2,3:2:0:0:
419,367,14993,2,0,L|407:282,1,85,2|8,0:0|0:0,0:0:0:0:
498,175,15346,6,0,B|454:187|454:187|410:162,1,85,8|0,0:3|3:0,0:0:0:0:
377,85,15699,1,0,0:0:0:0:
311,164,15876,1,10,0:0:0:0:
377,85,16052,1,0,0:0:0:0:
253,50,16229,2,0,L|159:64,1,85,2|0,3:2|3:0,0:0:0:0:
19,73,16582,1,10,0:0:0:0:
66,12,16758,1,8,0:3:0:0:
111,122,16935,6,0,L|103:267,1,127.5,0|0,3:0|0:0,0:0:0:0:
121,273,17288,2,0,P|172:280|212:233,1,85,8|0,0:0|0:0,0:0:0:0:
270,190,17641,1,0,3:0:0:0:
348,226,17817,1,0,0:0:0:0:
277,327,17993,5,8,0:0:0:0:
342,371,18170,2,0,L|434:358,1,85,8|0,0:3|3:0,0:0:0:0:
512,255,18523,2,0,L|427:243,1,85,2|8,0:0|0:0,0:0:0:0:
432,96,18876,1,2,0:0:0:0:
490,151,19052,1,0,3:0:0:0:
332,134,19229,1,2,0:0:0:0:
332,134,19405,2,0,B|316:88|316:88|339:45,1,85,8|0,0:0|0:0,0:0:0:0:
200,137,19758,6,0,B|175:132|175:132|104:161|104:161|61:154,1,127.5,0|0,3:0|0:0,0:0:0:0:
58,158,20111,2,0,L|71:253,1,85,10|0,0:0|0:0,0:0:0:0:
180,315,20464,1,2,3:2:0:0:
180,315,20641,2,0,L|193:220,1,85,2|8,0:0|0:0,0:0:0:0:
310,242,20993,6,0,P|364:242|397:272,1,85,8|0,0:3|3:0,0:0:0:0:
434,353,21346,1,0,0:0:0:0:
512,273,21523,1,10,0:0:0:0:
434,353,21699,1,0,0:0:0:0:
461,191,21876,2,0,B|444:151|444:151|456:97,1,85,2|0,3:2|3:0,0:0:0:0:
435,23,22229,1,10,0:0:0:0:
512,57,22405,1,8,0:3:0:0:
357,92,22582,6,0,P|299:91|265:29,1,127.5,2|0,3:2|0:0,0:0:0:0:
247,26,22935,2,0,L|139:32,1,85,10|0,0:0|0:0,0:0:0:0:
126,153,23288,1,0,3:0:0:0:
193,124,23464,1,0,0:0:0:0:
64,54,23641,5,10,0:0:0:0:
19,118,23817,2,0,L|27:225,1,85,8|0,0:3|3:0,0:0:0:0:
102,269,24170,2,0,B|141:246|141:246|206:267,1,85,2|8,0:0|0:0,0:0:0:0:
285,278,24523,1,2,0:0:0:0:
170,345,24699,1,0,3:0:0:0:
249,206,24876,1,2,0:0:0:0:
299,355,25052,2,0,L|404:367,1,85,8|0,0:0|0:0,0:0:0:0:
512,249,25405,6,0,P|444:235|385:282,1,127.5,0|0,3:0|0:0,0:0:0:0:
372,266,25758,2,0,L|363:168,1,85,10|0,0:0|0:0,0:0:0:0:
420,69,26111,1,2,3:2:0:0:
455,135,26288,1,2,0:0:0:0:
286,127,26464,1,8,0:0:0:0:
321,61,26641,1,8,0:3:0:0:
179,66,26817,5,8,3:0:0:0:
179,66,26993,2,0,B|199:102|199:102|178:158,1,85,8|0,3:0|0:0,0:0:0:0:
31,154,27346,2,0,B|11:118|11:118|32:62,1,85,8|0,3:0|0:0,0:0:0:0:
118,211,27699,1,4,3:0:0:0:
118,211,27876,1,4,3:0:0:0:
118,211,28052,1,4,3:0:0:0:
176,263,28229,6,0,L|262:254,1,63.7500024318696,4|0,3:2|0:0,0:0:0:0:
320,296,28582,2,0,L|456:306,2,127.500004863739,10|2|8,0:0|3:2|0:0,0:0:0:0:
310,207,29464,1,8,0:3:0:0:
310,207,29641,2,0,P|302:171|317:140,1,63.7500024318696,0|0,3:0|0:0,0:0:0:0:
388,118,29993,1,10,0:0:0:0:
337,51,30170,1,0,0:0:0:0:
257,72,30346,1,0,3:0:0:0:
169,25,30523,1,0,0:0:0:0:
169,25,30699,2,0,L|154:114,1,63.7500024318696,10|0,0:0|0:0,0:0:0:0:
50,194,31052,6,0,B|124:173|111:221|201:202,1,127.500004863739,2|8,3:2|0:0,0:0:0:0:
268,197,31582,1,0,0:0:0:0:
216,142,31758,1,2,3:2:0:0:
220,270,31935,2,0,L|229:344,1,63.7500024318696,0|8,0:0|0:0,0:0:0:0:
319,365,32288,6,0,P|350:359|380:327,1,63.7500024318696,8|0,0:3|3:0,0:0:0:0:
457,295,32641,1,0,0:0:0:0:
457,295,32817,2,0,P|488:301|518:333,1,63.7500024318696,10|0,0:0|0:0,0:0:0:0:
375,258,33170,1,2,3:2:0:0:
375,258,33346,1,0,3:0:0:0:
486,204,33523,1,10,0:0:0:0:
486,204,33699,1,8,0:3:0:0:
367,114,33876,6,0,L|379:185,1,63.7500024318696,0|0,3:0|0:0,0:0:0:0:
460,125,34229,2,0,L|484:-10,2,127.500004863739,10|0|8,0:0|3:0|0:0,0:0:0:0:
367,114,35111,2,0,B|339:99|339:99|298:112,1,63.7500024318696,8|0,0:3|3:0,0:0:0:0:
208,163,35464,1,0,0:0:0:0:
208,163,35641,2,0,L|126:154,1,63.7500024318696,10|0,0:0|0:0,0:0:0:0:
46,104,35993,2,0,P|53:61|135:32,1,127.500004863739,2|10,3:2|0:0,0:0:0:0:
273,213,36699,6,0,L|264:339,1,95.6250036478044,0|0,3:0|0:0,0:0:0:0:
246,317,37052,1,10,0:0:0:0:
180,351,37229,1,0,0:0:0:0:
168,261,37405,1,2,3:2:0:0:
309,368,37582,2,0,L|385:353,1,63.7500024318696,2|8,0:0|0:0,0:0:0:0:
511,270,37935,6,0,L|435:255,1,63.7500024318696,8|0,0:3|3:0,0:0:0:0:
361,191,38288,1,0,0:0:0:0:
361,191,38464,2,0,P|351:150|366:117,1,63.7500024318696,10|0,0:0|0:0,0:0:0:0:
459,93,38817,1,2,3:2:0:0:
459,93,38993,1,0,3:0:0:0:
331,27,39170,1,10,0:0:0:0:
331,27,39346,1,8,0:3:0:0:
230,116,39523,6,0,B|169:91|169:91|85:137,1,127.5,4|0,3:2|0:0,0:0:0:0:
74,115,39876,2,0,L|62:54,2,42.5,10|0|2,0:0|0:0|0:0,0:0:0:0:
22,239,40229,1,0,3:0:0:0:
22,239,40405,2,0,L|124:227,1,85,2|8,0:0|0:0,0:0:0:0:
245,331,40758,1,8,0:3:0:0:
277,259,40935,1,0,3:0:0:0:
169,317,41111,2,0,P|129:320|92:353,1,85,2|8,0:0|0:0,0:0:0:0:
322,326,41464,2,0,P|362:329|399:362,1,85,2|0,0:0|3:0,0:0:0:0:
251,239,41817,2,0,L|240:144,1,85,2|8,0:0|0:0,0:0:0:0:
152,31,42170,6,0,P|82:25|38:108,1,170,2|2,0:0|0:0,0:0:0:0:
152,149,42699,2,0,L|305:130,1,127.5,8|0,0:0|0:0,0:0:0:0:
303,114,43052,1,2,3:2:0:0:
428,56,43229,1,2,0:0:0:0:
323,10,43405,1,8,0:0:0:0:
323,10,43582,1,8,0:3:0:0:
392,143,43758,5,0,3:0:0:0:
392,143,43935,2,0,B|410:180|410:180|391:233,1,85,2|8,0:0|0:0,0:0:0:0:
287,269,44288,2,0,L|196:262,1,85,2|0,0:0|3:0,0:0:0:0:
137,190,44641,1,2,3:2:0:0:
10,229,44817,1,8,0:0:0:0:
137,190,44993,1,8,0:3:0:0:
63,300,45170,5,0,3:0:0:0:
63,300,45346,1,2,0:0:0:0:
64,160,45523,2,0,L|78:31,1,127.5,8|0,0:0|0:0,0:0:0:0:
107,10,45876,2,0,L|176:1,2,42.5,2|0|2,3:2|0:0|0:0,0:0:0:0:
197,86,46229,1,8,0:0:0:0:
271,27,46405,1,8,0:3:0:0:
325,125,46582,5,0,3:0:0:0:
325,125,46758,2,0,P|373:131|409:115,1,85,2|8,0:0|0:0,0:0:0:0:
512,25,47111,2,0,L|410:32,1,85,2|0,0:0|3:0,0:0:0:0:
352,3,47464,1,2,0:0:0:0:
352,3,47641,1,8,0:0:0:0:
491,111,47817,6,0,B|478:153|478:153|507:214,1,85,2|0,0:0|3:0,0:0:0:0:
433,301,48170,1,2,0:0:0:0:
507,266,48346,2,0,L|378:252,1,127.5,8|0,0:0|0:0,0:0:0:0:
348,240,48699,1,2,3:2:0:0:
261,284,48876,1,2,3:2:0:0:
140,223,49052,1,8,0:0:0:0:
227,179,49229,1,8,0:3:0:0:
165,319,49405,5,8,3:0:0:0:
165,319,49582,2,0,L|45:333,1,85,8|8,3:0|0:0,0:0:0:0:
37,148,49935,2,0,L|121:138,1,85,8|0,3:0|3:0,0:0:0:0:
267,84,50288,1,4,3:0:0:0:
267,84,50464,1,8,3:2:0:0:
267,84,50641,1,4,3:0:0:0:
502,153,50817,6,0,L|293:136,2,170,6|10|2,3:2|0:0|3:2,0:0:0:0:
501,75,51699,1,2,0:0:0:0:
493,46,51788,1,0,0:0:0:0:
482,18,51876,1,8,0:0:0:0:
366,1,52052,2,0,L|258:9,1,85,8|0,3:0|3:0,0:0:0:0:
116,46,52405,5,0,0:0:0:0:
245,100,52582,1,10,0:0:0:0:
204,27,52758,1,2,0:0:0:0:
110,134,52935,1,2,3:2:0:0:
190,181,53111,2,0,L|285:168,1,85,2|8,0:0|0:0,0:0:0:0:
429,199,53464,6,0,B|449:239|449:239|433:282,1,85,2|0,0:0|3:0,0:0:0:0:
352,326,53817,2,0,L|358:379,2,42.5,0|0|10,0:0|0:0|0:0,0:0:0:0:
443,357,54170,1,0,0:0:0:0:
271,345,54346,1,2,3:2:0:0:
246,334,54434,1,0,0:0:0:0:
221,333,54522,1,2,0:0:0:0:
197,342,54610,1,0,0:0:0:0:
177,359,54698,1,8,0:0:0:0:
94,325,54876,6,0,L|84:234,1,85,8|0,0:3|3:0,0:0:0:0:
110,108,55229,1,0,0:0:0:0:
163,221,55405,1,10,0:0:0:0:
27,162,55582,1,2,0:0:0:0:
196,139,55758,1,2,3:2:0:0:
196,139,55935,2,0,B|232:117|232:117|295:141,1,85,2|8,3:2|0:0,0:0:0:0:
430,153,56288,1,8,0:3:0:0:
357,79,56464,6,0,L|346:195,1,85,0|0,3:0|0:0,0:0:0:0:
331,187,56729,1,0,0:0:0:0:
314,211,56817,2,0,L|322:295,1,85,10|0,0:0|0:0,0:0:0:0:
438,356,57170,1,2,3:2:0:0:
420,261,57346,1,2,0:0:0:0:
250,342,57523,5,8,0:0:0:0:
250,342,57699,2,0,B|213:320|213:320|155:339,1,85,8|0,0:3|3:0,0:0:0:0:
24,267,58052,2,0,L|33:310,2,42.5,0|0|10,0:0|0:0|0:0,0:0:0:0:
99,363,58405,1,2,0:0:0:0:
107,233,58582,1,2,3:2:0:0:
111,216,58670,1,0,0:0:0:0:
115,199,58758,1,2,0:0:0:0:
119,182,58846,1,0,0:0:0:0:
124,165,58935,1,8,0:0:0:0:
230,194,59111,6,0,L|328:183,1,85,2|0,0:0|3:0,0:0:0:0:
512,232,59464,1,0,0:0:0:0:
493,158,59641,2,0,P|419:156|391:227,1,127.5,10|0,0:0|0:0,0:0:0:0:
380,219,59993,1,2,3:2:0:0:
462,302,60170,1,2,0:0:0:0:
462,302,60258,1,0,0:0:0:0:
462,302,60346,1,8,0:0:0:0:
352,346,60523,6,0,L|253:359,1,85,8|0,0:3|3:0,0:0:0:0:
176,267,60876,1,0,0:0:0:0:
89,250,61052,1,10,0:0:0:0:
29,317,61229,1,2,0:0:0:0:
163,350,61405,5,2,3:2:0:0:
260,252,61582,1,2,3:2:0:0:
142,182,61758,1,8,0:0:0:0:
176,267,61935,1,8,0:3:0:0:
215,140,62111,6,0,L|38:156,2,170,4|10|2,3:2|0:0|3:2,0:0:0:0:
301,88,62993,1,2,0:0:0:0:
292,63,63082,1,0,0:0:0:0:
282,39,63170,1,8,0:0:0:0:
410,40,63346,2,0,P|454:46|471:116,1,85,8|0,0:3|3:0,0:0:0:0:
395,244,63699,5,0,0:0:0:0:
293,175,63876,1,10,0:0:0:0:
410,147,64052,1,0,0:0:0:0:
489,242,64229,2,0,L|494:337,1,85,2|2,3:2|0:0,0:0:0:0:
493,326,64493,1,0,0:0:0:0:
493,326,64582,1,8,0:0:0:0:
341,326,64758,6,0,L|287:335,2,42.5,2|0|0,0:0|0:0|3:0,0:0:0:0:
412,355,65111,1,0,0:0:0:0:
204,346,65288,2,0,B|215:306|215:306|200:248,1,85,10|0,0:0|0:0,0:0:0:0:
125,229,65641,1,2,3:2:0:0:
108,231,65729,1,0,0:0:0:0:
91,233,65817,1,2,0:0:0:0:
74,235,65905,1,0,0:0:0:0:
57,238,65993,1,8,0:0:0:0:
185,169,66170,6,0,L|198:78,1,85,8|0,0:3|3:0,0:0:0:0:
240,6,66523,1,0,0:0:0:0:
103,67,66699,1,10,0:0:0:0:
287,108,66876,1,0,0:0:0:0:
161,9,67052,1,2,3:2:0:0:
161,9,67229,1,2,3:2:0:0:
317,29,67405,2,0,L|408:14,1,85,8|8,0:0|0:3,0:0:0:0:
487,88,67758,5,0,3:0:0:0:
408,133,67935,1,0,0:0:0:0:
408,133,68023,1,0,0:0:0:0:
408,133,68111,2,0,B|395:175|395:175|417:221,1,85,10|0,0:0|0:0,0:0:0:0:
493,269,68464,1,2,3:2:0:0:
487,284,68552,1,0,0:0:0:0:
481,300,68641,1,2,0:0:0:0:
475,316,68729,1,0,0:0:0:0:
469,332,68817,1,10,0:0:0:0:
338,336,68993,2,0,L|232:331,1,85,8|0,0:3|3:0,0:0:0:0:
101,264,69346,5,0,0:0:0:0:
173,367,69523,1,10,0:0:0:0:
189,255,69699,1,2,0:0:0:0:
38,321,69876,1,2,3:2:0:0:
68,179,70052,2,0,L|57:120,2,42.5,2|0|8,0:0|0:0|0:0,0:0:0:0:
189,255,70405,2,0,L|283:239,1,85,2|0,0:0|3:0,0:0:0:0:
470,266,70758,5,0,0:0:0:0:
470,266,70846,1,0,0:0:0:0:
470,266,70935,2,0,B|487:312|487:312|465:354,1,85,10|0,0:0|0:0,0:0:0:0:
357,249,71288,1,2,3:2:0:0:
363,224,71376,1,0,0:0:0:0:
369,199,71464,1,2,0:0:0:0:
447,155,71641,1,8,0:0:0:0:
329,118,71817,1,8,0:3:0:0:
224,161,71993,5,8,0:3:0:0:
277,46,72170,1,8,0:3:0:0:
401,66,72346,1,8,0:0:0:0:
187,80,72523,2,0,L|97:98,1,85,8|0,0:3|3:0,0:0:0:0:
22,30,72876,1,4,0:3:0:0:
22,30,73052,1,8,0:0:0:0:
22,30,73229,1,4,0:3:0:0:
22,30,73405,5,4,0:0:0:0:
35,310,83288,5,8,3:0:0:0:
35,310,83464,2,0,B|55:323|55:323|118:312,1,85,8|8,3:0|0:0,0:0:0:0:
201,290,83817,2,0,B|221:303|221:303|284:292,1,85,8|0,3:0|0:0,0:0:0:0:
381,264,84170,1,4,3:0:0:0:
381,264,84346,1,4,3:0:0:0:
381,264,84523,1,4,3:0:0:0:
453,304,84699,6,0,L|466:370,1,63.7500024318696,4|0,3:2|0:0,0:0:0:0:
451,221,85052,2,0,L|487:93,2,127.500004863739,10|0|8,0:0|3:0|0:0,0:0:0:0:
320,215,85935,1,8,0:3:0:0:
252,162,86111,1,0,3:0:0:0:
172,194,86288,1,0,0:0:0:0:
217,295,86464,1,10,0:0:0:0:
217,295,86641,2,0,L|291:287,1,63.7500024318696,2|0,0:0|3:0,0:0:0:0:
143,353,86993,1,2,0:0:0:0:
143,353,87170,2,0,L|69:345,1,63.7500024318696,10|0,0:0|0:0,0:0:0:0:
14,249,87523,6,0,P|41:214|122:205,1,127.500004863739,2|8,3:2|0:0,0:0:0:0:
272,177,88052,1,0,0:0:0:0:
202,220,88229,1,2,3:2:0:0:
202,220,88405,2,0,L|189:140,1,63.7500024318696,2|8,0:0|0:0,0:0:0:0:
345,220,88758,6,0,B|397:190|397:190|467:216,1,127.500004863739,8|0,0:3|0:0,0:0:0:0:
509,278,89288,2,0,L|498:365,1,63.7500024318696,10|0,0:0|0:0,0:0:0:0:
405,364,89641,1,2,3:2:0:0:
405,364,89817,1,0,3:0:0:0:
315,306,89993,1,10,0:0:0:0:
315,306,90170,1,8,0:3:0:0:
197,328,90346,1,0,3:0:0:0:
197,328,90699,6,0,L|55:341,2,127.500004863739,10|2|8,0:0|3:2|0:0,0:0:0:0:
241,259,91582,2,0,L|229:180,1,63.7500024318696,8|0,0:3|3:0,0:0:0:0:
139,138,91935,1,0,0:0:0:0:
139,138,92111,2,0,L|151:217,1,63.7500024318696,10|0,0:0|0:0,0:0:0:0:
308,202,92464,2,0,P|354:193|389:115,1,127.500004863739,2|10,3:2|0:0,0:0:0:0:
340,64,92993,1,0,0:0:0:0:
467,95,93170,6,0,L|480:205,1,95.6250036478044,0|0,3:0|0:0,0:0:0:0:
493,216,93523,1,10,0:0:0:0:
425,251,93699,1,0,0:0:0:0:
493,309,93876,1,2,3:2:0:0:
493,309,94052,2,0,B|478:343|478:343|492:383,1,63.7500024318696,2|8,0:0|0:0,0:0:0:0:
381,369,94405,6,0,L|309:360,1,63.7500024318696,8|0,0:3|3:0,0:0:0:0:
259,299,94758,1,0,0:0:0:0:
162,332,94935,1,10,0:0:0:0:
162,332,95111,1,0,0:0:0:0:
83,287,95288,2,0,P|71:252|76:225,1,63.7500024318696,2|0,3:2|3:0,0:0:0:0:
118,161,95641,1,10,0:0:0:0:
188,194,95817,1,8,0:3:0:0:
200,109,95993,6,0,L|37:133,1,127.5,4|0,3:2|0:2,0:0:0:0:
40,114,96346,2,0,L|28:63,2,42.5,10|0|2,0:0|0:0|0:0,0:0:0:0:
104,12,96699,1,0,3:0:0:0:
104,12,96876,2,0,B|124:32|124:32|209:12,1,85,2|8,0:0|0:0,0:0:0:0:
424,86,97229,1,8,0:3:0:0:
364,42,97405,1,0,3:0:0:0:
291,96,97582,6,0,L|273:9,1,85,2|8,0:0|0:0,0:0:0:0:
259,183,97935,2,0,L|195:238,1,85,2|0,0:0|3:0,0:0:0:0:
354,158,98288,2,0,L|438:185,1,85,2|8,0:0|0:0,0:0:0:0:
491,293,98641,6,0,B|507:331|507:331|483:370,1,85,2|0,0:0|3:0,0:0:0:0:
332,316,98993,1,2,0:0:0:0:
381,375,99170,2,0,L|384:238,1,127.5,8|0,0:0|0:0,0:0:0:0:
362,241,99523,1,2,3:2:0:0:
289,214,99699,1,2,0:0:0:0:
235,322,99876,1,8,0:0:0:0:
235,322,100052,1,8,0:3:0:0:
117,261,100229,5,0,3:0:0:0:
117,261,100405,2,0,B|128:216|128:216|111:178,1,85,2|8,0:0|0:0,0:0:0:0:
189,114,100758,2,0,L|307:123,1,85,2|0,0:0|3:0,0:0:0:0:
411,87,101111,1,2,3:2:0:0:
272,38,101288,1,8,0:0:0:0:
372,153,101464,1,8,0:3:0:0:
353,8,101641,5,0,3:0:0:0:
353,8,101817,1,2,0:0:0:0:
273,120,101993,2,0,P|280:173|287:258,1,127.5,8|0,0:0|0:0,0:0:0:0:
314,274,102346,2,0,L|366:265,2,42.5,2|0|2,3:2|0:0|0:0,0:0:0:0:
206,306,102699,1,8,0:0:0:0:
177,213,102876,1,8,0:3:0:0:
29,276,103052,5,0,3:0:0:0:
29,276,103229,2,0,P|67:273|121:298,1,85,2|8,0:0|0:0,0:0:0:0:
177,213,103582,2,0,L|168:105,1,85,2|0,0:0|3:0,0:0:0:0:
213,41,103935,1,2,0:0:0:0:
83,92,104111,1,8,0:0:0:0:
246,115,104288,1,2,0:0:0:0:
128,24,104464,5,0,3:0:0:0:
128,24,104641,1,2,0:0:0:0:
296,50,104817,2,0,L|436:35,1,127.5,8|0,0:0|0:0,0:0:0:0:
448,45,105170,1,2,3:2:0:0:
464,115,105346,1,2,0:0:0:0:
349,150,105523,1,8,0:0:0:0:
349,150,105699,1,8,0:3:0:0:
492,216,105876,5,8,3:0:0:0:
492,216,106052,2,0,B|450:203|450:203|398:222,1,85,8|8,3:0|0:0,0:0:0:0:
333,357,106405,2,0,B|375:370|375:370|427:351,1,85,8|0,3:0|3:0,0:0:0:0:
273,208,106758,1,4,3:0:0:0:
273,208,106935,1,8,3:2:0:0:
273,208,107111,1,4,3:0:0:0:
71,302,107288,6,0,L|241:283,2,170,4|10|2,3:2|0:0|3:2,0:0:0:0:
22,226,108170,1,2,0:0:0:0:
30,202,108258,1,0,0:0:0:0:
38,178,108346,1,8,0:0:0:0:
122,120,108523,2,0,L|102:29,1,85,8|0,0:3|3:0,0:0:0:0:
32,85,108876,5,0,0:0:0:0:
225,80,109052,1,10,0:0:0:0:
174,17,109229,1,0,0:0:0:0:
162,196,109405,1,2,3:2:0:0:
162,196,109582,2,0,B|200:176|200:176|258:191,1,85,2|8,0:0|0:0,0:0:0:0:
327,231,109935,2,0,L|322:324,1,85,2|0,0:0|3:0,0:0:0:0:
402,366,110288,6,0,L|451:359,2,42.5,0|0|10,0:0|0:0|0:0,0:0:0:0:
239,325,110641,1,0,0:0:0:0:
409,283,110817,1,2,3:2:0:0:
423,273,110905,1,0,0:0:0:0:
437,263,110993,1,2,0:0:0:0:
451,254,111082,1,0,0:0:0:0:
465,245,111170,1,10,0:0:0:0:
497,146,111346,6,0,L|480:59,1,85,8|0,0:3|3:0,0:0:0:0:
297,129,111699,1,0,0:0:0:0:
418,177,111876,1,10,0:0:0:0:
380,100,112052,1,2,0:0:0:0:
298,214,112229,1,2,3:2:0:0:
298,214,112405,1,2,3:2:0:0:
170,190,112582,2,0,L|83:181,1,85,8|8,0:0|0:3,0:0:0:0:
58,63,112935,6,0,P|87:28|138:32,1,85,0|0,3:0|0:0,0:0:0:0:
136,36,113199,1,0,0:0:0:0:
150,45,113288,2,0,L|259:24,1,85,10|0,0:0|0:0,0:0:0:0:
359,119,113641,1,2,3:2:0:0:
365,95,113729,1,0,0:0:0:0:
353,74,113817,1,2,0:0:0:0:
269,106,113993,1,10,0:0:0:0:
321,184,114170,6,0,B|400:146|400:146|480:185,1,170,8|0,0:3|0:0,0:0:0:0:
487,292,114699,2,0,L|479:333,2,42.5,10|0|2,0:0|0:0|0:0,0:0:0:0:
395,339,115052,1,2,3:2:0:0:
378,342,115141,1,0,0:0:0:0:
361,345,115229,1,2,0:0:0:0:
344,348,115317,1,0,0:0:0:0:
327,351,115405,1,8,0:0:0:0:
200,332,115582,6,0,P|183:290|194:253,1,85,2|0,0:0|3:0,0:0:0:0:
321,184,115935,1,0,0:0:0:0:
321,184,116023,1,0,0:0:0:0:
321,184,116111,2,0,L|315:285,1,85,10|0,0:0|0:0,0:0:0:0:
206,165,116464,1,2,3:2:0:0:
203,139,116552,1,0,0:0:0:0:
200,113,116641,1,2,0:0:0:0:
272,82,116817,1,8,0:0:0:0:
90,79,116993,6,0,B|113:116|113:116|102:169,1,85,8|0,0:3|3:0,0:0:0:0:
62,340,117346,1,0,0:0:0:0:
168,234,117523,1,10,0:0:0:0:
23,217,117699,1,0,0:0:0:0:
97,270,117876,5,2,3:2:0:0:
262,223,118052,1,2,3:2:0:0:
199,157,118229,1,8,0:0:0:0:
158,326,118405,1,8,0:3:0:0:
316,280,118582,6,0,L|294:96,2,170,4|10|2,3:2|0:0|3:2,0:0:0:0:
394,317,119464,1,2,0:0:0:0:
419,313,119552,1,0,0:0:0:0:
444,308,119641,1,8,0:0:0:0:
509,192,119817,2,0,B|462:203|462:203|418:168,1,85,8|0,0:3|3:0,0:0:0:0:
373,91,120170,5,0,0:0:0:0:
465,17,120346,2,0,L|446:114,1,85,10|2,0:0|0:0,0:0:0:0:
297,62,120699,1,2,3:2:0:0:
280,66,120788,1,0,0:0:0:0:
263,70,120876,1,2,0:0:0:0:
246,74,120964,1,0,0:0:0:0:
229,78,121052,1,8,0:0:0:0:
142,58,121229,2,0,P|151:11|200:4,1,85,2|0,0:0|3:0,0:0:0:0:
165,153,121582,5,0,0:0:0:0:
165,153,121670,1,0,0:0:0:0:
165,153,121758,2,0,B|119:143|119:143|66:173,1,85,10|0,0:0|0:0,0:0:0:0:
32,269,122111,2,0,L|39:317,2,42.5,2|0|2,3:2|0:0|0:0,0:0:0:0:
13,186,122464,1,8,0:0:0:0:
118,268,122641,2,0,L|213:252,1,85,8|0,0:3|3:0,0:0:0:0:
319,194,122993,5,0,0:0:0:0:
401,304,123170,1,10,0:0:0:0:
271,343,123346,1,2,0:0:0:0:
400,226,123523,5,2,3:2:0:0:
353,370,123699,1,2,3:2:0:0:
261,255,123876,1,8,0:0:0:0:
261,255,124052,1,8,0:3:0:0:
480,311,124229,6,0,L|488:206,1,85,0|0,3:0|0:0,0:0:0:0:
474,214,124493,1,0,0:0:0:0:
459,204,124582,2,0,L|467:99,1,85,10|0,0:0|0:0,0:0:0:0:
372,56,124935,1,2,3:2:0:0:
372,56,125023,1,0,0:0:0:0:
372,56,125111,1,2,0:0:0:0:
451,30,125288,1,8,0:0:0:0:
304,118,125464,6,0,P|249:112|207:17,1,170,8|0,0:3|0:0,0:0:0:0:
45,51,125993,2,0,L|55:103,2,42.5,10|0|2,0:0|0:0|0:0,0:0:0:0:
129,73,126346,1,2,3:2:0:0:
83,181,126523,2,0,B|42:168|42:168|-9:202,2,85,2|8|2,0:0|0:0|0:0,0:0:0:0:
197,265,127052,5,0,3:0:0:0:
215,263,127141,1,0,0:0:0:0:
231,261,127229,1,0,0:0:0:0:
247,259,127317,1,0,0:0:0:0:
263,257,127405,1,10,0:0:0:0:
313,192,127582,1,0,0:0:0:0:
428,241,127758,1,2,3:2:0:0:
336,281,127935,1,2,0:0:0:0:
391,160,128111,2,0,L|403:63,1,85,8|8,0:0|0:3,0:0:0:0:
360,0,128464,5,8,0:3:0:0:
489,89,128641,1,8,0:3:0:0:
310,94,128817,1,8,0:0:0:0:
310,94,128993,1,8,0:3:0:0:
457,0,129170,1,2,3:2:0:0:
457,0,129346,1,4,0:3:0:0:
265,10,129523,2,0,L|168:27,1,85,8|4,0:0|0:3,0:0:0:0:
84,94,129876,6,0,L|232:111,2,127.500004863739,6|8|0,0:0|0:0|0:0,0:0:0:0:
25,43,130758,1,0,0:0:0:0:
25,43,130935,1,10,0:0:0:0:
19,178,131111,2,0,L|27:256,1,63.7500024318696,2|0,0:0|0:0,0:0:0:0:
99,201,131464,2,0,L|107:279,1,63.7500024318696,2|8,0:0|0:0,0:0:0:0:
179,223,131817,2,0,L|187:301,1,63.7500024318696,2|0,0:0|0:0,0:0:0:0:
262,253,132170,1,2,0:0:0:0:
262,253,132346,2,0,L|270:331,1,63.7500024318696,8|0,0:0|0:0,0:0:0:0:
386,371,132699,6,0,P|437:360|469:309,1,95.6250036478044,2|0,0:0|0:0,0:0:0:0:
470,310,133052,2,0,L|463:232,1,63.7500024318696,8|0,0:0|0:0,0:0:0:0:
340,172,133405,1,2,0:0:0:0:
340,172,133582,2,0,B|331:205|331:205|349:243,1,63.7500024318696,2|8,0:0|0:0,0:0:0:0:
451,157,133935,2,0,L|461:27,1,127.500004863739,2|2,0:0|0:0,0:0:0:0:
368,4,134464,1,8,0:0:0:0:
368,4,134641,1,0,0:0:0:0:
453,32,134817,2,0,L|462:159,1,127.500004863739,2|10,0:0|0:0,0:0:0:0:
122,217,135523,6,0,B|62:191|62:191|-2:222,2,127.500004863739,2|8|0,0:0|0:0|0:0,0:0:0:0:
195,241,136405,1,0,0:0:0:0:
131,293,136582,1,8,0:0:0:0:
265,329,136758,6,0,P|292:293|290:253,1,63.7500024318696,2|0,0:0|0:0,0:0:0:0:
374,298,137111,2,0,P|368:253|337:226,1,63.7500024318696,2|8,0:0|0:0,0:0:0:0:
432,201,137464,2,0,P|396:173|356:175,1,63.7500024318696,2|0,0:0|0:0,0:0:0:0:
386,94,137817,1,2,0:0:0:0:
386,94,137993,2,0,P|341:98|313:129,1,63.7500024318696,8|0,0:0|0:0,0:0:0:0:
158,158,138346,6,0,P|116:147|108:60,2,127.500004863739,2|8|2,0:0|0:0|0:0,0:0:0:0:
229,133,139229,2,0,L|221:51,1,63.7500024318696,2|8,0:0|0:0,0:0:0:0:
176,3,139582,1,2,0:0:0:0:
200,344,139935,5,2,0:0:0:0:
200,344,140111,1,0,0:0:0:0:
200,344,140288,1,0,0:0:0:0:
200,344,140464,2,0,L|214:203,1,127.500004863739,2|2,0:0|0:0,0:0:0:0:
