osu file format v14

[General]
AudioFilename: audio.ogg
AudioLeadIn: 0
PreviewTime: 71075
Countdown: 0
SampleSet: Soft
StackLeniency: 0.7
Mode: 3
LetterboxInBreaks: 0
SpecialStyle: 0
WidescreenStoryboard: 1

[Editor]
DistanceSpacing: 0.3
BeatDivisor: 4
GridSize: 8
TimelineZoom: 2.600003

[Metadata]
Title:Waking Shadows feat. eili
TitleUnicode:Waking Shadows feat. eili
Artist:Sad Keyboard Guy & Gardens
ArtistUnicode:Sad Keyboard Guy & Gardens
Creator:Lott
Version:a Fate Resound, a World Freed from Its Hollow Remnants
Source:Corsace Open 2023
Tags:co23 penance ko1 tb tiebreaker rice01200120 frenlize electronic drumstep english female vocals monthly beatmapping contest mbc september 2023 hybrid marathon technical tech featured artist fa mappers' guild mg mpg priority quest
BeatmapID:4377000
BeatmapSetID:2088664

[Difficulty]
HPDrainRate:8
CircleSize:4
OverallDifficulty:7.2
ApproachRate:5
SliderMultiplier:1.4
SliderTickRate:1

[Events]
//Background and Video events
0,0,"wakingshadows.jpg",0,0
//Break Periods
//Storyboard Layer 0 (Background)
//Storyboard Layer 1 (Fail)
//Storyboard Layer 2 (Pass)
//Storyboard Layer 3 (Foreground)
//Storyboard Layer 4 (Overlay)
//Storyboard Sound Samples

[TimingPoints]
2511,315.789473684211,4,2,1,20,1,0
22879,-100,4,2,1,15,0,0
27774,-100,4,2,1,30,0,0
37879,-100,4,2,1,40,0,0
46800,-100,4,2,1,15,0,0
47984,-100,4,2,1,40,0,0
52089,342.857142857143,4,2,1,40,1,0
52089,-91.743119266055,4,2,1,40,0,0
52431,324.324324324324,4,2,1,40,1,0
52431,-97.0873786407767,4,2,1,40,0,0
52755,315.789473684211,4,2,1,40,1,0
53391,315.789473684211,4,2,1,40,1,0
68548,-100,4,2,1,20,0,0
75496,-100,4,2,1,30,0,0
79917,-100,4,2,1,20,0,0
80075,-100,4,2,1,15,0,0
80233,-100,4,2,1,10,0,0
80391,-100,4,2,1,5,0,0
81022,-100,4,2,1,35,0,0
81180,-100,4,2,1,40,0,0
102018,315.789473684211,4,2,1,40,1,0
102649,315.789473684211,4,2,1,40,1,0
122859,-100,4,2,1,35,0,0
124122,-100,4,2,1,30,0,0
141490,594.059405940594,4,2,1,20,1,0
141490,-53.1914893617021,4,2,1,20,0,0
142084,315.789473684211,4,2,1,20,1,0
162261,315.789473684211,4,2,1,40,1,0
224155,-100,4,2,1,35,0,0
229050,315.789473684211,4,2,1,35,1,0
233786,315.789473684211,4,2,1,35,1,0
238680,315.789473684211,4,2,1,35,1,0
243732,-100,4,2,1,40,0,0
268995,-100,4,2,1,20,0,0
274048,-100,4,2,1,40,0,0
313995,-100,4,2,1,30,0,0
314153,-100,4,2,1,20,0,0
314469,-100,4,2,1,40,0,0
324153,-100,4,2,1,25,0,0
324574,-100,4,2,1,50,0,0
334627,-100,4,2,1,15,0,0
334680,324.324324324324,4,2,1,15,1,8
335328,315.789473684211,4,2,1,35,1,0
335643,-100,4,2,1,15,0,0

[HitObjects]
192,192,616,128,0,2511:0:0:0:0:
320,192,1879,128,0,2511:0:0:0:0:
448,192,2511,1,0,0:0:0:0:
64,192,2589,128,0,3142:0:0:0:0:
192,192,2668,1,0,0:0:0:0:
320,192,2826,1,0,0:0:0:0:
448,192,2984,1,0,0:0:0:0:
192,192,3142,1,0,0:0:0:0:
192,192,3458,128,0,3774:0:0:0:0:
320,192,3774,128,0,4168:0:0:0:0:
448,192,4247,128,0,4563:0:0:0:0:
320,192,4721,128,0,4932:0:0:0:0:
64,192,5037,128,0,5432:0:0:0:0:
192,192,5195,1,0,0:0:0:0:
320,192,5353,1,0,0:0:0:0:
448,192,5511,1,0,0:0:0:0:
64,192,5668,1,0,0:0:0:0:
192,192,5984,128,0,6300:0:0:0:0:
320,192,6300,128,0,6537:0:0:0:0:
64,192,6458,1,0,0:0:0:0:
320,192,6616,128,0,6932:0:0:0:0:
448,192,6774,128,0,7168:0:0:0:0:
320,192,7247,128,0,7563:0:0:0:0:
192,192,7563,128,0,7879:0:0:0:0:
64,192,7642,128,0,8747:0:0:0:0:
448,192,7721,1,0,0:0:0:0:
320,192,7879,1,0,0:0:0:0:
192,192,8037,1,0,0:0:0:0:
448,192,8195,1,0,0:0:0:0:
192,192,8353,1,0,0:0:0:0:
320,192,8511,1,0,0:0:0:0:
448,192,8668,1,0,0:0:0:0:
192,192,8826,128,0,9537:0:0:0:0:
320,192,8984,1,0,0:0:0:0:
64,192,9853,128,0,10011:0:0:0:0:
320,192,10089,128,0,10484:0:0:0:0:
192,192,10247,1,0,0:0:0:0:
64,192,10405,1,0,0:0:0:0:
448,192,10563,128,0,10879:0:0:0:0:
320,192,10721,1,0,0:0:0:0:
192,192,11037,128,0,11195:0:0:0:0:
192,192,11274,1,0,0:0:0:0:
320,192,11353,128,0,11826:0:0:0:0:
448,192,11511,1,0,0:0:0:0:
64,192,11668,1,0,0:0:0:0:
192,192,11826,128,0,12300:0:0:0:0:
448,192,11984,1,0,0:0:0:0:
320,192,12142,1,0,0:0:0:0:
64,192,12300,128,0,12616:0:0:0:0:
448,192,12458,1,0,0:0:0:0:
192,192,12616,128,0,13247:0:0:0:0:
320,192,12774,1,0,0:0:0:0:
448,192,12932,1,0,0:0:0:0:
64,192,13089,1,0,0:0:0:0:
320,192,13247,1,0,0:0:0:0:
64,192,13405,1,0,0:0:0:0:
192,192,13563,128,0,13721:0:0:0:0:
320,192,13879,128,0,14353:0:0:0:0:
448,192,14353,128,0,14721:0:0:0:0:
320,192,14800,128,0,14958:0:0:0:0:
64,192,15142,128,0,15458:0:0:0:0:
192,192,15300,1,0,0:0:0:0:
320,192,15458,1,0,0:0:0:0:
448,192,15616,1,0,0:0:0:0:
64,192,15774,1,0,0:0:0:0:
192,192,16089,128,0,16195:0:0:0:0:
64,192,16405,128,0,16879:0:0:0:0:
320,192,16405,1,0,0:0:0:0:
320,192,16879,128,0,17353:0:0:0:0:
192,192,16879,1,0,0:0:0:0:
192,192,17353,128,0,17511:0:0:0:0:
320,192,17668,128,0,17984:0:0:0:0:
448,192,17721,128,0,18537:0:0:0:0:
192,192,17826,1,0,0:0:0:0:
64,192,17984,1,0,0:0:0:0:
320,192,18142,1,0,0:0:0:0:
192,192,18300,1,0,0:0:0:0:
64,192,18616,1,0,0:0:0:0:
320,192,18695,128,0,19800:0:0:0:0:
192,192,18774,1,0,0:0:0:0:
448,192,18932,1,0,0:0:0:0:
192,192,19984,1,0,0:0:0:0:
192,192,20195,1,0,0:0:0:0:
64,192,20274,128,0,20589:0:0:0:0:
320,192,20353,1,0,0:0:0:0:
448,192,20511,1,0,0:0:0:0:
192,192,20668,128,0,20984:0:0:0:0:
64,192,20826,1,0,0:0:0:0:
320,192,21063,1,0,0:0:0:0:
448,192,21142,128,0,21458:0:0:0:0:
64,192,21458,1,0,0:0:0:0:
320,192,21537,128,0,21932:0:0:0:0:
192,192,21616,1,0,0:0:0:0:
448,192,21774,1,0,0:0:0:0:
192,192,21932,128,0,22405:0:0:0:0:
64,192,22089,1,0,0:0:0:0:
320,192,22405,128,0,22682:0:0:0:0:
320,192,22761,128,0,25721:0:0:0:0:
448,192,22761,1,0,0:0:0:0:
192,192,22879,1,0,0:0:0:0:
64,192,23037,1,0,0:0:0:0:
448,192,23195,1,0,0:0:0:0:
192,192,23353,1,0,0:0:0:0:
192,192,23511,1,0,0:0:0:0:
448,192,23668,1,0,0:0:0:0:
192,192,23826,1,0,0:0:0:0:
448,192,23905,1,0,0:0:0:0:
64,192,23984,1,0,0:0:0:0:
64,192,24142,1,0,0:0:0:0:
192,192,24300,1,0,0:0:0:0:
64,192,24458,1,0,0:0:0:0:
448,192,24616,1,0,0:0:0:0:
448,192,24774,1,0,0:0:0:0:
192,192,24932,1,0,0:0:0:0:
448,192,25089,1,0,0:0:0:0:
64,192,25168,1,0,0:0:0:0:
192,192,25247,1,0,0:0:0:0:
192,192,25405,1,0,0:0:0:0:
64,192,25563,1,0,0:0:0:0:
192,192,25721,1,0,0:0:0:0:
320,192,25879,1,0,0:0:0:0:
320,192,26037,1,0,0:0:0:0:
448,192,26195,1,0,0:0:0:0:
320,192,26353,1,0,0:0:0:0:
64,192,26432,1,0,0:0:0:0:
448,192,26511,1,0,0:0:0:0:
448,192,26668,1,0,0:0:0:0:
320,192,26826,1,0,0:0:0:0:
448,192,26984,1,0,0:0:0:0:
192,192,27142,1,0,0:0:0:0:
64,192,27187,128,0,27345:0:0:0:0:
320,192,27300,1,0,0:0:0:0:
448,192,27339,128,0,27458:0:0:0:0:
64,192,27413,1,0,0:0:0:0:
448,192,27511,1,0,0:0:0:0:
320,192,27576,1,0,0:0:0:0:
192,192,27633,1,0,0:0:0:0:
448,192,27668,1,0,0:0:0:0:
64,192,27703,1,0,0:0:0:0:
192,192,27739,1,0,0:0:0:0:
448,192,27774,128,0,27844:0:0:0:0:
320,192,27774,128,0,27892:0:0:0:0:
64,192,27853,128,0,28405:0:0:0:0:
320,192,28089,1,0,0:0:0:0:
320,192,28405,1,0,0:0:0:0:
320,192,28721,1,0,0:0:0:0:
192,192,28800,128,0,29037:0:0:0:0:
64,192,29037,1,0,0:0:0:0:
448,192,29116,128,0,29432:0:0:0:0:
64,192,29353,1,0,0:0:0:0:
192,192,29589,128,0,29905:0:0:0:0:
64,192,29668,1,0,0:0:0:0:
320,192,29826,1,0,0:0:0:0:
448,192,29905,1,0,0:0:0:0:
64,192,29984,128,0,30300:0:0:0:0:
192,192,29984,1,0,0:0:0:0:
448,192,30063,1,0,0:0:0:0:
320,192,30142,1,0,0:0:0:0:
192,192,30221,1,0,0:0:0:0:
448,192,30300,1,0,0:0:0:0:
320,192,30300,128,0,30616:0:0:0:0:
448,192,30616,1,0,0:0:0:0:
192,192,30774,128,0,31247:0:0:0:0:
448,192,30932,1,0,0:0:0:0:
64,192,31247,128,0,31879:0:0:0:0:
448,192,31247,1,0,0:0:0:0:
192,192,31563,1,0,0:0:0:0:
192,192,31879,1,0,0:0:0:0:
64,192,32116,1,0,0:0:0:0:
192,192,32195,1,0,0:0:0:0:
448,192,32274,1,0,0:0:0:0:
192,192,32353,1,0,0:0:0:0:
320,192,32432,1,0,0:0:0:0:
192,192,32511,128,0,32747:0:0:0:0:
64,192,32589,1,0,0:0:0:0:
320,192,32668,1,0,0:0:0:0:
192,192,32826,1,0,0:0:0:0:
320,192,32826,128,0,33221:0:0:0:0:
192,192,33142,1,0,0:0:0:0:
64,192,33300,128,0,33774:0:0:0:0:
192,192,33458,1,0,0:0:0:0:
448,192,33774,128,0,34247:0:0:0:0:
192,192,33774,1,0,0:0:0:0:
320,192,34089,1,0,0:0:0:0:
64,192,34247,128,0,34721:0:0:0:0:
320,192,34405,1,0,0:0:0:0:
320,192,34721,1,0,0:0:0:0:
64,192,34800,1,0,0:0:0:0:
320,192,34879,1,0,0:0:0:0:
448,192,34958,1,0,0:0:0:0:
192,192,35037,128,0,35116:0:0:0:0:
320,192,35116,1,0,0:0:0:0:
192,192,35195,128,0,35353:0:0:0:0:
64,192,35353,1,0,0:0:0:0:
448,192,35353,128,0,35826:0:0:0:0:
64,192,35668,1,0,0:0:0:0:
192,192,35826,1,0,0:0:0:0:
448,192,35905,1,0,0:0:0:0:
320,192,35984,1,0,0:0:0:0:
192,192,35984,1,0,0:0:0:0:
64,192,36063,1,0,0:0:0:0:
448,192,36142,1,0,0:0:0:0:
448,192,36221,1,0,0:0:0:0:
192,192,36300,1,0,0:0:0:0:
64,192,36300,128,0,36553:0:0:0:0:
320,192,36432,128,0,36511:0:0:0:0:
192,192,36484,128,0,36616:0:0:0:0:
448,192,36616,1,0,0:0:0:0:
320,192,36616,1,0,0:0:0:0:
64,192,36774,1,0,0:0:0:0:
320,192,36774,128,0,37011:0:0:0:0:
192,192,36879,128,0,36958:0:0:0:0:
64,192,36932,1,0,0:0:0:0:
448,192,36932,128,0,37089:0:0:0:0:
192,192,37089,1,0,0:0:0:0:
320,192,37089,1,0,0:0:0:0:
64,192,37247,1,0,0:0:0:0:
192,192,37247,1,0,0:0:0:0:
64,192,37326,1,0,0:0:0:0:
448,192,37405,1,0,0:0:0:0:
320,192,37405,1,0,0:0:0:0:
192,192,37484,1,0,0:0:0:0:
448,192,37563,1,0,0:0:0:0:
64,192,37563,1,0,0:0:0:0:
448,192,37642,1,0,0:0:0:0:
192,192,37642,1,0,0:0:0:0:
192,192,37721,1,0,0:0:0:0:
320,192,37721,1,0,0:0:0:0:
320,192,37800,1,0,0:0:0:0:
448,192,37879,128,0,37958:0:0:0:0:
64,192,37879,128,0,37958:0:0:0:0:
192,192,37879,128,0,37958:0:0:0:0:
192,192,38037,128,0,38155:0:0:0:0:
64,192,38037,128,0,38234:0:0:0:0:
448,192,38037,128,0,38195:0:0:0:0:
64,192,38353,128,0,38432:0:0:0:0:
192,192,38353,128,0,38432:0:0:0:0:
320,192,38353,128,0,38432:0:0:0:0:
320,192,38511,128,0,38589:0:0:0:0:
192,192,38511,128,0,38589:0:0:0:0:
64,192,38511,128,0,38589:0:0:0:0:
448,192,38668,1,0,0:0:0:0:
192,192,38668,128,0,38747:0:0:0:0:
320,192,38747,1,0,0:0:0:0:
64,192,38747,128,0,38826:0:0:0:0:
192,192,38826,128,0,38945:0:0:0:0:
320,192,38826,128,0,38984:0:0:0:0:
448,192,38826,128,0,38905:0:0:0:0:
64,192,39063,128,0,39221:0:0:0:0:
320,192,39063,128,0,39221:0:0:0:0:
448,192,39063,128,0,39221:0:0:0:0:
192,192,39300,128,0,39458:0:0:0:0:
448,192,39300,128,0,39458:0:0:0:0:
320,192,39300,128,0,39458:0:0:0:0:
320,192,39537,128,0,39695:0:0:0:0:
448,192,39537,128,0,39695:0:0:0:0:
64,192,39537,128,0,39695:0:0:0:0:
320,192,39774,1,0,0:0:0:0:
64,192,39774,128,0,39853:0:0:0:0:
192,192,39853,128,0,39932:0:0:0:0:
448,192,39853,1,0,0:0:0:0:
448,192,39932,128,0,40011:0:0:0:0:
320,192,39932,128,0,40011:0:0:0:0:
64,192,39932,128,0,40011:0:0:0:0:
192,192,40089,1,0,0:0:0:0:
320,192,40089,128,0,40168:0:0:0:0:
64,192,40168,1,0,0:0:0:0:
448,192,40168,128,0,40247:0:0:0:0:
192,192,40247,128,0,40326:0:0:0:0:
64,192,40247,128,0,40326:0:0:0:0:
320,192,40247,128,0,40326:0:0:0:0:
320,192,40405,128,0,40484:0:0:0:0:
448,192,40405,128,0,40484:0:0:0:0:
64,192,40405,128,0,40484:0:0:0:0:
64,192,40563,128,0,40721:0:0:0:0:
448,192,40563,128,0,40761:0:0:0:0:
320,192,40563,128,0,40682:0:0:0:0:
192,192,40879,128,0,40958:0:0:0:0:
320,192,40879,128,0,40958:0:0:0:0:
448,192,40879,128,0,40958:0:0:0:0:
448,192,41037,128,0,41116:0:0:0:0:
320,192,41037,128,0,41116:0:0:0:0:
192,192,41037,128,0,41116:0:0:0:0:
320,192,41195,128,0,41274:0:0:0:0:
64,192,41195,1,0,0:0:0:0:
448,192,41274,128,0,41353:0:0:0:0:
192,192,41274,1,0,0:0:0:0:
64,192,41353,128,0,41432:0:0:0:0:
192,192,41353,128,0,41511:0:0:0:0:
320,192,41353,128,0,41471:0:0:0:0:
64,192,41589,128,0,41747:0:0:0:0:
192,192,41589,128,0,41747:0:0:0:0:
448,192,41589,128,0,41747:0:0:0:0:
192,192,41826,128,0,41984:0:0:0:0:
64,192,41826,128,0,41984:0:0:0:0:
320,192,41826,128,0,41984:0:0:0:0:
448,192,42063,128,0,42221:0:0:0:0:
64,192,42063,128,0,42221:0:0:0:0:
192,192,42063,128,0,42221:0:0:0:0:
448,192,42300,128,0,42379:0:0:0:0:
64,192,42300,1,0,0:0:0:0:
320,192,42379,128,0,42458:0:0:0:0:
192,192,42379,1,0,0:0:0:0:
448,192,42458,128,0,42537:0:0:0:0:
64,192,42458,128,0,42537:0:0:0:0:
192,192,42458,128,0,42537:0:0:0:0:
64,192,42616,1,0,0:0:0:0:
448,192,42616,128,0,42695:0:0:0:0:
320,192,42695,1,0,0:0:0:0:
192,192,42695,128,0,42774:0:0:0:0:
448,192,42774,1,0,0:0:0:0:
320,192,42774,128,0,42853:0:0:0:0:
192,192,42853,1,0,0:0:0:0:
64,192,42853,1,0,0:0:0:0:
64,192,42932,1,0,0:0:0:0:
320,192,42932,128,0,43037:0:0:0:0:
448,192,42932,128,0,43142:0:0:0:0:
192,192,43089,1,0,0:0:0:0:
448,192,43247,1,0,0:0:0:0:
192,192,43326,1,0,0:0:0:0:
64,192,43405,1,0,0:0:0:0:
448,192,43405,1,0,0:0:0:0:
320,191,43484,1,0,0:0:0:0:
64,192,43563,1,0,0:0:0:0:
448,192,43642,1,0,0:0:0:0:
64,192,43721,1,0,0:0:0:0:
192,192,43800,1,0,0:0:0:0:
320,191,43879,1,0,0:0:0:0:
448,192,43879,1,0,0:0:0:0:
64,192,43958,1,0,0:0:0:0:
320,191,44037,1,0,0:0:0:0:
448,192,44116,1,0,0:0:0:0:
192,192,44195,1,0,0:0:0:0:
64,192,44195,1,0,0:0:0:0:
320,191,44274,1,0,0:0:0:0:
192,192,44353,1,0,0:0:0:0:
448,192,44432,1,0,0:0:0:0:
192,192,44511,1,0,0:0:0:0:
320,191,44589,1,0,0:0:0:0:
192,192,44668,1,0,0:0:0:0:
64,192,44747,1,0,0:0:0:0:
448,192,44826,1,0,0:0:0:0:
192,192,44905,1,0,0:0:0:0:
320,191,44984,1,0,0:0:0:0:
64,192,45063,1,0,0:0:0:0:
448,192,45142,1,0,0:0:0:0:
192,192,45142,1,0,0:0:0:0:
320,191,45221,1,0,0:0:0:0:
448,192,45300,1,0,0:0:0:0:
192,192,45379,1,0,0:0:0:0:
64,192,45458,1,0,0:0:0:0:
320,191,45458,1,0,0:0:0:0:
448,192,45537,1,0,0:0:0:0:
320,191,45616,1,0,0:0:0:0:
192,192,45616,1,0,0:0:0:0:
64,192,45695,1,0,0:0:0:0:
448,192,45774,1,0,0:0:0:0:
320,191,45774,1,0,0:0:0:0:
192,192,45853,1,0,0:0:0:0:
320,191,45932,1,0,0:0:0:0:
64,192,45932,1,0,0:0:0:0:
448,192,46011,1,0,0:0:0:0:
64,192,46089,1,0,0:0:0:0:
192,192,46089,1,0,0:0:0:0:
320,191,46168,1,0,0:0:0:0:
448,192,46247,1,0,0:0:0:0:
192,192,46247,1,0,0:0:0:0:
320,191,46326,1,0,0:0:0:0:
64,192,46405,128,0,46484:0:0:0:0:
192,192,46405,128,0,46563:0:0:0:0:
448,192,46484,128,0,46642:0:0:0:0:
64,192,46563,1,0,0:0:0:0:
320,192,46603,1,0,0:0:0:0:
192,192,46642,1,0,0:0:0:0:
64,192,46682,1,0,0:0:0:0:
320,192,46721,128,0,46800:0:0:0:0:
448,192,46721,128,0,47313:0:0:0:0:
320,192,47432,128,0,47905:0:0:0:0:
64,192,47984,1,0,0:0:0:0:
320,192,47984,1,0,0:0:0:0:
192,192,48024,128,0,48211:0:0:0:0:
320,192,48068,128,0,48165:0:0:0:0:
448,192,48120,1,0,0:0:0:0:
64,192,48183,1,0,0:0:0:0:
192,192,48300,1,0,0:0:0:0:
448,192,48300,1,0,0:0:0:0:
64,192,48353,1,0,0:0:0:0:
192,192,48405,1,0,0:0:0:0:
320,192,48458,1,0,0:0:0:0:
448,192,48458,1,0,0:0:0:0:
64,192,48537,1,0,0:0:0:0:
320,192,48616,1,0,0:0:0:0:
448,192,48616,1,0,0:0:0:0:
192,192,48695,1,0,0:0:0:0:
320,192,48747,1,0,0:0:0:0:
448,192,48800,1,0,0:0:0:0:
192,192,48853,1,0,0:0:0:0:
64,192,48853,1,0,0:0:0:0:
64,192,48932,1,0,0:0:0:0:
448,192,48932,128,0,49037:0:0:0:0:
192,192,49089,128,0,49168:0:0:0:0:
448,192,49247,128,0,49292:0:0:0:0:
320,192,49326,128,0,49371:0:0:0:0:
448,192,49405,1,0,0:0:0:0:
64,192,49405,1,0,0:0:0:0:
192,192,49484,1,0,0:0:0:0:
64,192,49563,1,0,0:0:0:0:
320,191,49563,1,0,0:0:0:0:
448,191,49616,128,0,49721:0:0:0:0:
192,192,49721,1,0,0:0:0:0:
64,192,49721,1,0,0:0:0:0:
320,191,49774,128,0,49844:0:0:0:0:
448,192,49826,1,0,0:0:0:0:
64,192,49868,1,0,0:0:0:0:
320,192,49910,1,0,0:0:0:0:
192,192,49952,1,0,0:0:0:0:
64,192,49994,1,0,0:0:0:0:
320,192,50037,1,0,0:0:0:0:
448,192,50037,1,0,0:0:0:0:
192,192,50116,1,0,0:0:0:0:
320,192,50195,1,0,0:0:0:0:
64,192,50195,128,0,50353:0:0:0:0:
448,192,50247,128,0,50432:0:0:0:0:
448,192,50511,1,0,0:0:0:0:
320,192,50511,1,0,0:0:0:0:
192,192,50574,1,0,0:0:0:0:
448,192,50637,1,0,0:0:0:0:
64,192,50691,1,0,0:0:0:0:
192,192,50736,1,0,0:0:0:0:
320,192,50781,1,0,0:0:0:0:
64,192,50826,1,0,0:0:0:0:
448,192,50826,1,0,0:0:0:0:
192,192,50871,1,0,0:0:0:0:
64,192,50923,1,0,0:0:0:0:
320,192,50984,1,0,0:0:0:0:
448,192,50984,1,0,0:0:0:0:
192,192,51063,1,0,0:0:0:0:
320,192,51142,1,0,0:0:0:0:
448,192,51142,1,0,0:0:0:0:
64,192,51201,1,0,0:0:0:0:
192,192,51241,1,0,0:0:0:0:
320,191,51282,1,0,0:0:0:0:
64,192,51318,1,0,0:0:0:0:
192,192,51379,1,0,0:0:0:0:
448,192,51379,1,0,0:0:0:0:
64,192,51458,128,0,51616:0:0:0:0:
448,192,51458,1,0,0:0:0:0:
320,192,51511,1,0,0:0:0:0:
192,192,51563,128,0,51774:0:0:0:0:
64,192,51774,1,0,0:0:0:0:
448,192,51774,1,0,0:0:0:0:
320,192,51853,1,0,0:0:0:0:
192,192,51932,1,0,0:0:0:0:
64,192,51958,1,0,0:0:0:0:
448,192,52011,1,0,0:0:0:0:
320,192,52011,1,0,0:0:0:0:
64,192,52089,1,0,0:0:0:0:
448,192,52089,1,0,0:0:0:0:
320,192,52174,1,0,0:0:0:0:
64,192,52260,1,0,0:0:0:0:
192,192,52260,1,0,0:0:0:0:
192,192,52346,1,0,0:0:0:0:
320,192,52346,1,0,0:0:0:0:
320,192,52431,128,0,52539:0:0:0:0:
448,192,52539,1,0,0:0:0:0:
64,192,52539,1,0,0:0:0:0:
64,192,52647,1,0,0:0:0:0:
448,192,52755,1,0,0:0:0:0:
192,192,52755,1,0,0:0:0:0:
320,192,52807,128,0,53018:0:0:0:0:
192,192,53070,128,0,53307:0:0:0:0:
320,192,53391,1,0,0:0:0:0:
448,192,53391,1,0,0:0:0:0:
192,192,53454,1,0,0:0:0:0:
64,192,53493,1,0,0:0:0:0:
448,192,53538,1,0,0:0:0:0:
192,192,53590,1,0,0:0:0:0:
320,192,53706,1,0,0:0:0:0:
64,192,53706,1,0,0:0:0:0:
448,192,53751,1,0,0:0:0:0:
192,192,53803,1,0,0:0:0:0:
320,192,53864,1,0,0:0:0:0:
448,192,53864,1,0,0:0:0:0:
64,192,53927,1,0,0:0:0:0:
320,192,54022,1,0,0:0:0:0:
448,192,54022,1,0,0:0:0:0:
64,192,54081,1,0,0:0:0:0:
192,192,54121,1,0,0:0:0:0:
466,131,54162,1,0,0:0:0:0:
64,192,54198,1,0,0:0:0:0:
192,192,54259,1,0,0:0:0:0:
374,221,54259,1,0,0:0:0:0:
374,221,54338,1,0,0:0:0:0:
106,192,54338,128,0,54428:0:0:0:0:
448,192,54496,128,0,54654:0:0:0:0:
320,192,54575,1,0,0:0:0:0:
192,191,54654,128,0,54699:0:0:0:0:
64,192,54733,128,0,54778:0:0:0:0:
192,191,54812,128,0,54902:0:0:0:0:
64,192,54969,1,0,0:0:0:0:
448,192,54969,1,0,0:0:0:0:
320,192,55022,1,0,0:0:0:0:
192,192,55075,1,0,0:0:0:0:
448,192,55127,1,0,0:0:0:0:
320,192,55127,1,0,0:0:0:0:
106,192,55180,1,0,0:0:0:0:
234,192,55233,1,0,0:0:0:0:
448,192,55274,1,0,0:0:0:0:
106,192,55316,1,0,0:0:0:0:
320,192,55358,1,0,0:0:0:0:
192,192,55400,1,0,0:0:0:0:
64,192,55443,1,0,0:0:0:0:
448,191,55443,1,0,0:0:0:0:
320,192,55483,1,0,0:0:0:0:
192,192,55601,1,0,0:0:0:0:
448,192,55601,128,0,55691:0:0:0:0:
320,192,55759,128,0,55804:0:0:0:0:
64,192,55877,1,0,0:0:0:0:
320,192,55917,1,0,0:0:0:0:
448,192,55917,1,0,0:0:0:0:
192,192,55980,1,0,0:0:0:0:
448,192,56043,1,0,0:0:0:0:
64,192,56097,1,0,0:0:0:0:
192,192,56142,1,0,0:0:0:0:
320,192,56187,1,0,0:0:0:0:
64,192,56233,1,0,0:0:0:0:
448,192,56233,128,0,56331:0:0:0:0:
192,192,56285,128,0,56417:0:0:0:0:
448,192,56391,1,0,0:0:0:0:
320,192,56391,128,0,56489:0:0:0:0:
64,192,56469,128,0,56548:0:0:0:0:
448,192,56548,1,0,0:0:0:0:
320,192,56548,1,0,0:0:0:0:
192,192,56608,1,0,0:0:0:0:
64,192,56667,1,0,0:0:0:0:
192,192,56726,1,0,0:0:0:0:
320,192,56785,1,0,0:0:0:0:
448,192,56785,1,0,0:0:0:0:
448,192,56864,1,0,0:0:0:0:
64,192,56864,1,0,0:0:0:0:
192,192,56904,1,0,0:0:0:0:
320,192,56943,1,0,0:0:0:0:
64,192,56988,1,0,0:0:0:0:
448,192,57040,1,0,0:0:0:0:
320,192,57101,1,0,0:0:0:0:
191,192,57180,1,0,0:0:0:0:
64,192,57180,128,0,57285:0:0:0:0:
320,192,57215,1,0,0:0:0:0:
448,192,57250,128,0,57338:0:0:0:0:
64,192,57338,1,0,0:0:0:0:
191,192,57338,128,0,57377:0:0:0:0:
191,192,57417,128,0,57496:0:0:0:0:
64,192,57496,1,0,0:0:0:0:
448,192,57496,128,0,57586:0:0:0:0:
320,192,57541,128,0,57654:0:0:0:0:
192,192,57654,1,0,0:0:0:0:
64,192,57654,1,0,0:0:0:0:
64,192,57733,1,0,0:0:0:0:
320,192,57733,1,0,0:0:0:0:
448,192,57812,128,0,57969:0:0:0:0:
320,192,57891,1,0,0:0:0:0:
192,192,57891,1,0,0:0:0:0:
64,192,57956,1,0,0:0:0:0:
192,192,58002,1,0,0:0:0:0:
320,192,58048,1,0,0:0:0:0:
448,192,58048,1,0,0:0:0:0:
64,192,58127,128,0,58380:0:0:0:0:
448,192,58127,128,0,58443:0:0:0:0:
320,192,58443,128,0,58601:0:0:0:0:
64,192,58443,1,0,0:0:0:0:
192,192,58502,128,0,58562:0:0:0:0:
448,192,58542,128,0,58700:0:0:0:0:
64,192,58581,128,0,58680:0:0:0:0:
192,192,58621,128,0,58719:0:0:0:0:
320,192,58660,128,0,58759:0:0:0:0:
448,192,58759,1,0,0:0:0:0:
64,192,58759,128,0,58917:0:0:0:0:
192,192,58917,1,0,0:0:0:0:
320,192,58917,1,0,0:0:0:0:
448,192,58980,1,0,0:0:0:0:
320,192,59030,1,0,0:0:0:0:
192,192,59075,128,0,59233:0:0:0:0:
64,192,59075,1,0,0:0:0:0:
320,192,59154,128,0,59338:0:0:0:0:
448,192,59206,128,0,59285:0:0:0:0:
192,192,59312,1,0,0:0:0:0:
64,192,59312,1,0,0:0:0:0:
448,192,59391,1,0,0:0:0:0:
64,192,59391,128,0,59608:0:0:0:0:
64,192,59680,128,0,59864:0:0:0:0:
192,192,59923,128,0,59983:0:0:0:0:
64,192,59963,128,0,60042:0:0:0:0:
320,192,60062,128,0,60141:0:0:0:0:
64,192,60101,128,0,60180:0:0:0:0:
448,192,60200,128,0,60318:0:0:0:0:
64,192,60239,128,0,60364:0:0:0:0:
192,192,60338,128,0,60404:0:0:0:0:
320,192,60364,128,0,60443:0:0:0:0:
448,192,60391,128,0,60496:0:0:0:0:
448,192,60583,1,0,0:0:0:0:
320,192,60619,1,0,0:0:0:0:
64,192,60654,128,0,60699:0:0:0:0:
192,192,60654,128,0,60838:0:0:0:0:
320,192,60812,1,0,0:0:0:0:
448,192,60851,1,0,0:0:0:0:
192,192,60891,1,0,0:0:0:0:
64,192,60930,1,0,0:0:0:0:
448,192,60969,1,0,0:0:0:0:
320,192,60969,1,0,0:0:0:0:
192,192,61022,1,0,0:0:0:0:
320,192,61085,1,0,0:0:0:0:
192,192,61163,1,0,0:0:0:0:
64,192,61285,1,0,0:0:0:0:
448,192,61285,1,0,0:0:0:0:
320,192,61443,1,0,0:0:0:0:
64,192,61443,1,0,0:0:0:0:
192,192,61483,1,0,0:0:0:0:
320,192,61601,1,0,0:0:0:0:
448,192,61601,1,0,0:0:0:0:
64,192,61660,1,0,0:0:0:0:
320,192,61700,1,0,0:0:0:0:
192,190,61739,1,0,0:0:0:0:
448,192,61779,1,0,0:0:0:0:
192,192,61838,1,0,0:0:0:0:
63,192,61838,1,0,0:0:0:0:
63,192,61917,1,0,0:0:0:0:
448,192,61917,128,0,62022:0:0:0:0:
320,192,62075,128,0,62180:0:0:0:0:
448,192,62075,128,0,62233:0:0:0:0:
64,192,62233,1,0,0:0:0:0:
192,192,62233,1,0,0:0:0:0:
320,192,62285,1,0,0:0:0:0:
448,192,62338,1,0,0:0:0:0:
192,192,62391,1,0,0:0:0:0:
64,192,62417,1,0,0:0:0:0:
448,192,62469,1,0,0:0:0:0:
320,192,62469,1,0,0:0:0:0:
64,192,62548,1,0,0:0:0:0:
448,192,62548,1,0,0:0:0:0:
192,192,62612,1,0,0:0:0:0:
320,192,62706,1,0,0:0:0:0:
448,192,62706,1,0,0:0:0:0:
64,192,62785,1,0,0:0:0:0:
192,192,62785,1,0,0:0:0:0:
320,192,62864,128,0,62909:0:0:0:0:
64,192,62943,1,0,0:0:0:0:
448,192,62943,128,0,63048:0:0:0:0:
448,192,63101,128,0,63180:0:0:0:0:
192,192,63101,1,0,0:0:0:0:
192,192,63180,1,0,0:0:0:0:
320,192,63180,128,0,63338:0:0:0:0:
64,192,63338,128,0,63443:0:0:0:0:
192,192,63417,128,0,63496:0:0:0:0:
320,191,63496,1,0,0:0:0:0:
448,191,63496,1,0,0:0:0:0:
192,190,63553,1,0,0:0:0:0:
64,192,63605,128,0,63748:0:0:0:0:
320,192,63650,1,0,0:0:0:0:
448,191,63693,1,0,0:0:0:0:
192,191,63733,1,0,0:0:0:0:
320,191,63772,1,0,0:0:0:0:
64,191,63812,1,0,0:0:0:0:
448,192,63812,1,0,0:0:0:0:
192,192,63943,128,0,63996:0:0:0:0:
320,192,63969,1,0,0:0:0:0:
448,192,63969,1,0,0:0:0:0:
64,192,64048,1,0,0:0:0:0:
192,192,64127,1,0,0:0:0:0:
448,192,64127,1,0,0:0:0:0:
320,192,64206,1,0,0:0:0:0:
192,192,64233,1,0,0:0:0:0:
64,192,64259,128,0,64312:0:0:0:0:
320,192,64364,1,0,0:0:0:0:
448,192,64364,1,0,0:0:0:0:
448,192,64443,1,0,0:0:0:0:
64,192,64443,1,0,0:0:0:0:
192,192,64478,1,0,0:0:0:0:
320,192,64533,1,0,0:0:0:0:
64,192,64601,128,0,64680:0:0:0:0:
448,192,64680,128,0,64759:0:0:0:0:
192,191,64759,128,0,64804:0:0:0:0:
64,192,64838,128,0,64883:0:0:0:0:
192,191,64917,128,0,65007:0:0:0:0:
64,192,65075,1,0,0:0:0:0:
448,192,65075,128,0,65165:0:0:0:0:
320,192,65110,1,0,0:0:0:0:
320,192,65233,1,0,0:0:0:0:
448,192,65233,1,0,0:0:0:0:
21,192,65285,1,0,0:0:0:0:
149,192,65338,1,0,0:0:0:0:
149,192,65417,1,0,0:0:0:0:
345,191,65469,1,0,0:0:0:0:
473,191,65522,1,0,0:0:0:0:
64,192,65548,1,0,0:0:0:0:
345,191,65566,1,0,0:0:0:0:
192,192,65612,1,0,0:0:0:0:
473,192,65659,1,0,0:0:0:0:
345,191,65706,128,0,65864:0:0:0:0:
64,192,65706,128,0,65812:0:0:0:0:
64,192,66022,1,0,0:0:0:0:
192,192,66022,1,0,0:0:0:0:
320,192,66085,1,0,0:0:0:0:
64,192,66148,1,0,0:0:0:0:
448,192,66202,1,0,0:0:0:0:
320,192,66247,1,0,0:0:0:0:
192,192,66292,1,0,0:0:0:0:
448,192,66338,1,0,0:0:0:0:
64,192,66338,128,0,66437:0:0:0:0:
320,192,66391,128,0,66496:0:0:0:0:
192,192,66496,128,0,66594:0:0:0:0:
448,192,66496,1,0,0:0:0:0:
64,192,66531,1,0,0:0:0:0:
192,192,66654,1,0,0:0:0:0:
64,192,66654,1,0,0:0:0:0:
448,191,66733,128,0,66778:0:0:0:0:
320,192,66812,1,0,0:0:0:0:
448,192,66891,1,0,0:0:0:0:
192,192,66891,1,0,0:0:0:0:
448,192,66969,1,0,0:0:0:0:
64,192,66969,128,0,67075:0:0:0:0:
320,192,67022,128,0,67127:0:0:0:0:
64,192,67159,1,0,0:0:0:0:
192,192,67222,1,0,0:0:0:0:
320,192,67285,128,0,67330:0:0:0:0:
448,192,67285,128,0,67348:0:0:0:0:
64,192,67443,1,0,0:0:0:0:
192,192,67443,1,0,0:0:0:0:
192,192,67522,128,0,67654:0:0:0:0:
320,192,67575,128,0,67627:0:0:0:0:
448,192,67601,1,0,0:0:0:0:
64,192,67601,128,0,67759:0:0:0:0:
192,192,67759,1,0,0:0:0:0:
320,192,67759,1,0,0:0:0:0:
320,192,67838,1,0,0:0:0:0:
448,192,67838,1,0,0:0:0:0:
192,192,67917,128,0,68048:0:0:0:0:
64,192,67943,128,0,67996:0:0:0:0:
448,192,67996,128,0,68075:0:0:0:0:
320,192,67996,1,0,0:0:0:0:
320,192,68154,128,0,68233:0:0:0:0:
64,192,68154,1,0,0:0:0:0:
64,192,68233,1,0,0:0:0:0:
448,192,68233,128,0,68408:0:0:0:0:
192,192,68268,128,0,68338:0:0:0:0:
320,192,68303,128,0,68478:0:0:0:0:
192,192,68391,128,0,68531:0:0:0:0:
64,192,68461,128,0,68566:0:0:0:0:
320,192,68548,128,0,68627:0:0:0:0:
448,192,68548,128,0,68706:0:0:0:0:
192,192,68627,128,0,68943:0:0:0:0:
320,192,68706,128,0,68864:0:0:0:0:
448,192,68785,128,0,69022:0:0:0:0:
64,192,68864,128,0,69180:0:0:0:0:
320,192,68943,128,0,69101:0:0:0:0:
192,192,69022,128,0,69338:0:0:0:0:
448,192,69101,128,0,69259:0:0:0:0:
320,192,69180,128,0,69417:0:0:0:0:
64,192,69259,128,0,69496:0:0:0:0:
448,192,69338,128,0,69496:0:0:0:0:
192,192,69417,128,0,69575:0:0:0:0:
320,192,69496,128,0,69654:0:0:0:0:
448,192,69575,128,0,69733:0:0:0:0:
192,192,69654,128,0,69772:0:0:0:0:
64,192,69733,128,0,69851:0:0:0:0:
320,192,69812,128,0,70048:0:0:0:0:
192,192,69891,128,0,70127:0:0:0:0:
448,192,69969,128,0,70127:0:0:0:0:
64,192,70048,128,0,70206:0:0:0:0:
320,192,70127,128,0,70246:0:0:0:0:
192,192,70206,128,0,70305:0:0:0:0:
64,192,70285,128,0,70364:0:0:0:0:
448,192,70364,128,0,70443:0:0:0:0:
192,192,70443,128,0,70522:0:0:0:0:
320,192,70522,128,0,70601:0:0:0:0:
448,192,70601,128,0,70680:0:0:0:0:
192,192,70680,128,0,70759:0:0:0:0:
320,192,70759,1,0,0:0:0:0:
64,192,70759,128,0,70996:0:0:0:0:
64,192,71075,128,0,71165:0:0:0:0:
448,192,71075,128,0,71391:0:0:0:0:
320,192,71075,128,0,71312:0:0:0:0:
64,192,71233,128,0,71285:0:0:0:0:
192,192,71391,128,0,71443:0:0:0:0:
320,192,71548,128,0,71601:0:0:0:0:
448,192,71706,128,0,71759:0:0:0:0:
192,192,72022,1,0,0:0:0:0:
64,192,72180,128,0,72233:0:0:0:0:
320,192,72338,128,0,72391:0:0:0:0:
448,192,72496,128,0,72548:0:0:0:0:
448,192,72654,128,0,72706:0:0:0:0:
320,192,72812,1,0,0:0:0:0:
64,192,72969,128,0,73022:0:0:0:0:
320,192,73127,128,0,73180:0:0:0:0:
192,192,73285,128,0,73338:0:0:0:0:
448,192,73443,128,0,73522:0:0:0:0:
320,192,73601,128,0,73664:0:0:0:0:
64,192,73759,128,0,73812:0:0:0:0:
192,192,73917,128,0,73969:0:0:0:0:
320,192,74075,128,0,74127:0:0:0:0:
448,192,74233,128,0,74285:0:0:0:0:
448,192,74391,1,0,0:0:0:0:
320,192,74548,1,0,0:0:0:0:
64,192,74706,128,0,74759:0:0:0:0:
192,192,74864,128,0,74917:0:0:0:0:
320,192,75022,128,0,75075:0:0:0:0:
64,192,75180,128,0,75364:0:0:0:0:
192,192,75285,128,0,75496:0:0:0:0:
448,192,75496,1,0,0:0:0:0:
64,192,75496,1,0,0:0:0:0:
320,192,75575,128,0,75782:0:0:0:0:
192,192,75627,128,0,75733:0:0:0:0:
64,192,75680,1,0,0:0:0:0:
448,192,75733,128,0,75831:0:0:0:0:
192,192,75812,1,0,0:0:0:0:
64,192,75838,1,0,0:0:0:0:
448,192,75891,1,0,0:0:0:0:
320,192,75969,1,0,0:0:0:0:
192,192,76001,1,0,0:0:0:0:
448,192,76033,1,0,0:0:0:0:
64,192,76064,1,0,0:0:0:0:
192,192,76096,1,0,0:0:0:0:
320,192,76127,128,0,76364:0:0:0:0:
448,192,76127,1,0,0:0:0:0:
192,192,76285,1,0,0:0:0:0:
192,192,76443,128,0,76680:0:0:0:0:
320,192,76443,1,0,0:0:0:0:
64,192,76601,1,0,0:0:0:0:
64,192,76759,128,0,76996:0:0:0:0:
192,192,76759,1,0,0:0:0:0:
448,192,76917,1,0,0:0:0:0:
64,192,77075,1,0,0:0:0:0:
448,192,77075,128,0,77312:0:0:0:0:
192,192,77233,1,0,0:0:0:0:
192,192,77391,128,0,77627:0:0:0:0:
448,192,77391,1,0,0:0:0:0:
320,192,77548,1,0,0:0:0:0:
192,192,77706,1,0,0:0:0:0:
320,192,77706,128,0,77943:0:0:0:0:
64,192,77864,1,0,0:0:0:0:
320,192,78022,1,0,0:0:0:0:
64,192,78022,128,0,78259:0:0:0:0:
448,192,78180,1,0,0:0:0:0:
64,192,78338,1,0,0:0:0:0:
448,192,78338,128,0,78575:0:0:0:0:
320,192,78496,1,0,0:0:0:0:
192,192,78496,1,0,0:0:0:0:
64,192,78654,1,0,0:0:0:0:
448,192,78654,1,0,0:0:0:0:
192,192,78733,1,0,0:0:0:0:
320,192,78812,1,0,0:0:0:0:
192,192,78891,1,0,0:0:0:0:
64,192,78969,1,0,0:0:0:0:
448,192,78969,1,0,0:0:0:0:
320,192,79048,1,0,0:0:0:0:
64,192,79108,1,0,0:0:0:0:
192,192,79167,1,0,0:0:0:0:
320,192,79226,1,0,0:0:0:0:
448,192,79285,1,0,0:0:0:0:
64,192,79285,1,0,0:0:0:0:
192,192,79364,1,0,0:0:0:0:
448,192,79411,1,0,0:0:0:0:
64,192,79458,1,0,0:0:0:0:
192,192,79506,1,0,0:0:0:0:
320,192,79553,1,0,0:0:0:0:
448,192,79601,1,0,0:0:0:0:
64,192,79601,1,0,0:0:0:0:
320,192,79680,1,0,0:0:0:0:
192,192,79719,1,0,0:0:0:0:
448,192,79759,1,0,0:0:0:0:
64,192,79798,1,0,0:0:0:0:
192,192,79838,1,0,0:0:0:0:
320,192,79877,1,0,0:0:0:0:
448,192,79917,128,0,79996:0:0:0:0:
448,192,80075,128,0,80134:0:0:0:0:
448,192,80233,128,0,80272:0:0:0:0:
448,192,80391,1,0,0:0:0:0:
192,192,80785,128,0,80943:0:0:0:0:
320,192,80891,128,0,81022:0:0:0:0:
64,192,81022,1,0,0:0:0:0:
448,192,81022,1,0,0:0:0:0:
320,192,81101,1,0,0:0:0:0:
192,192,81101,1,0,0:0:0:0:
448,192,81180,1,0,0:0:0:0:
192,192,81180,1,0,0:0:0:0:
64,192,81180,128,0,81259:0:0:0:0:
448,192,81259,1,0,0:0:0:0:
192,192,81338,1,0,0:0:0:0:
448,192,81417,1,0,0:0:0:0:
64,192,81496,1,0,0:0:0:0:
192,192,81496,1,0,0:0:0:0:
320,192,81496,1,0,0:0:0:0:
320,192,81575,1,0,0:0:0:0:
192,192,81654,128,0,81733:0:0:0:0:
448,192,81733,128,0,81812:0:0:0:0:
320,192,81812,1,0,0:0:0:0:
192,192,81812,1,0,0:0:0:0:
64,192,81812,1,0,0:0:0:0:
192,192,81891,128,0,81969:0:0:0:0:
320,192,81969,128,0,82048:0:0:0:0:
448,192,82048,1,0,0:0:0:0:
192,192,82127,1,0,0:0:0:0:
64,192,82127,1,0,0:0:0:0:
320,192,82127,128,0,82206:0:0:0:0:
64,192,82206,128,0,82285:0:0:0:0:
448,192,82285,1,0,0:0:0:0:
320,192,82285,1,0,0:0:0:0:
192,192,82285,128,0,82364:0:0:0:0:
448,192,82364,128,0,82443:0:0:0:0:
320,192,82443,1,0,0:0:0:0:
192,192,82443,1,0,0:0:0:0:
64,192,82443,1,0,0:0:0:0:
64,192,82522,128,0,82601:0:0:0:0:
192,192,82601,128,0,82680:0:0:0:0:
320,192,82680,128,0,82759:0:0:0:0:
448,192,82759,1,0,0:0:0:0:
192,192,82759,1,0,0:0:0:0:
64,192,82759,128,0,82838:0:0:0:0:
448,192,82838,1,0,0:0:0:0:
320,192,82917,128,0,82996:0:0:0:0:
192,192,82996,128,0,83075:0:0:0:0:
320,192,83075,1,0,0:0:0:0:
448,192,83075,1,0,0:0:0:0:
64,192,83075,1,0,0:0:0:0:
320,192,83154,128,0,83233:0:0:0:0:
64,192,83233,1,0,0:0:0:0:
192,192,83233,1,0,0:0:0:0:
448,192,83233,128,0,83312:0:0:0:0:
192,192,83312,128,0,83391:0:0:0:0:
320,192,83391,1,0,0:0:0:0:
448,192,83391,1,0,0:0:0:0:
64,192,83469,1,0,0:0:0:0:
192,192,83469,1,0,0:0:0:0:
192,192,83548,1,0,0:0:0:0:
64,192,83548,1,0,0:0:0:0:
448,192,83627,1,0,0:0:0:0:
320,192,83627,1,0,0:0:0:0:
320,192,83706,128,0,83759:0:0:0:0:
448,192,83706,128,0,83759:0:0:0:0:
192,192,83746,1,0,0:0:0:0:
64,192,83785,1,0,0:0:0:0:
192,192,83864,128,0,83943:0:0:0:0:
448,192,83943,128,0,84022:0:0:0:0:
64,192,84022,128,0,84075:0:0:0:0:
192,192,84022,128,0,84075:0:0:0:0:
320,192,84062,1,0,0:0:0:0:
448,192,84101,1,0,0:0:0:0:
320,192,84180,128,0,84259:0:0:0:0:
320,192,84338,128,0,84391:0:0:0:0:
448,192,84338,128,0,84443:0:0:0:0:
192,192,84377,1,0,0:0:0:0:
64,192,84417,1,0,0:0:0:0:
192,192,84496,128,0,84575:0:0:0:0:
448,192,84575,128,0,84654:0:0:0:0:
320,192,84654,128,0,84706:0:0:0:0:
64,192,84654,128,0,84706:0:0:0:0:
192,192,84693,1,0,0:0:0:0:
192,192,84812,128,0,84864:0:0:0:0:
448,192,84812,128,0,84864:0:0:0:0:
320,192,84851,1,0,0:0:0:0:
192,192,84969,128,0,85022:0:0:0:0:
64,192,84969,128,0,85022:0:0:0:0:
320,192,85009,1,0,0:0:0:0:
448,192,85048,128,0,85127:0:0:0:0:
192,192,85127,128,0,85206:0:0:0:0:
64,192,85206,128,0,85285:0:0:0:0:
448,192,85285,128,0,85364:0:0:0:0:
320,192,85285,128,0,85338:0:0:0:0:
192,192,85325,1,0,0:0:0:0:
64,192,85364,128,0,85443:0:0:0:0:
320,192,85443,128,0,85522:0:0:0:0:
448,192,85522,128,0,85601:0:0:0:0:
64,192,85601,1,0,0:0:0:0:
192,192,85601,128,0,85646:0:0:0:0:
320,192,85646,128,0,85691:0:0:0:0:
192,192,85691,128,0,85736:0:0:0:0:
448,192,85759,1,0,0:0:0:0:
64,192,85838,1,0,0:0:0:0:
192,192,85917,128,0,86075:0:0:0:0:
320,192,85917,1,0,0:0:0:0:
320,192,85996,128,0,86154:0:0:0:0:
448,192,86075,1,0,0:0:0:0:
192,192,86154,1,0,0:0:0:0:
320,192,86233,128,0,86312:0:0:0:0:
64,192,86233,1,0,0:0:0:0:
448,192,86233,1,0,0:0:0:0:
192,192,86312,1,0,0:0:0:0:
320,192,86391,1,0,0:0:0:0:
64,192,86469,1,0,0:0:0:0:
192,192,86548,1,0,0:0:0:0:
448,192,86548,128,0,86601:0:0:0:0:
320,192,86627,1,0,0:0:0:0:
192,192,86706,128,0,86785:0:0:0:0:
448,192,86785,1,0,0:0:0:0:
320,192,86785,1,0,0:0:0:0:
64,192,86864,1,0,0:0:0:0:
448,192,86943,1,0,0:0:0:0:
64,192,87022,1,0,0:0:0:0:
192,192,87022,1,0,0:0:0:0:
320,192,87101,1,0,0:0:0:0:
448,192,87180,128,0,87259:0:0:0:0:
64,192,87180,128,0,87233:0:0:0:0:
192,192,87259,1,0,0:0:0:0:
320,192,87338,1,0,0:0:0:0:
320,192,87417,1,0,0:0:0:0:
192,192,87496,1,0,0:0:0:0:
64,192,87496,128,0,87575:0:0:0:0:
448,192,87575,128,0,87654:0:0:0:0:
192,192,87654,128,0,87759:0:0:0:0:
320,192,87693,1,0,0:0:0:0:
448,192,87733,1,0,0:0:0:0:
320,192,87812,128,0,87891:0:0:0:0:
192,192,87812,128,0,87851:0:0:0:0:
448,192,87891,1,0,0:0:0:0:
192,192,87930,1,0,0:0:0:0:
64,192,87969,1,0,0:0:0:0:
320,192,88048,1,0,0:0:0:0:
448,192,88048,1,0,0:0:0:0:
192,192,88127,128,0,88206:0:0:0:0:
64,192,88206,1,0,0:0:0:0:
448,192,88285,1,0,0:0:0:0:
320,192,88285,128,0,88391:0:0:0:0:
64,192,88443,128,0,88522:0:0:0:0:
448,192,88443,128,0,88496:0:0:0:0:
320,192,88601,1,0,0:0:0:0:
192,192,88641,128,0,88759:0:0:0:0:
64,192,88680,1,0,0:0:0:0:
320,192,88759,1,0,0:0:0:0:
448,192,88759,128,0,88838:0:0:0:0:
192,192,88917,1,0,0:0:0:0:
64,192,88969,1,0,0:0:0:0:
192,192,89022,1,0,0:0:0:0:
64,192,89075,1,0,0:0:0:0:
448,192,89075,128,0,89127:0:0:0:0:
320,192,89233,128,0,89312:0:0:0:0:
192,192,89312,1,0,0:0:0:0:
64,192,89312,1,0,0:0:0:0:
320,192,89391,128,0,89509:0:0:0:0:
448,192,89430,1,0,0:0:0:0:
192,192,89548,1,0,0:0:0:0:
64,192,89548,1,0,0:0:0:0:
448,192,89627,1,0,0:0:0:0:
64,192,89706,1,0,0:0:0:0:
320,192,89706,128,0,89759:0:0:0:0:
192,192,89746,128,0,89825:0:0:0:0:
320,192,89864,128,0,89943:0:0:0:0:
192,192,89891,1,0,0:0:0:0:
448,192,89917,128,0,90022:0:0:0:0:
192,192,90022,1,0,0:0:0:0:
64,192,90022,128,0,90101:0:0:0:0:
320,192,90101,1,0,0:0:0:0:
448,192,90154,1,0,0:0:0:0:
192,192,90206,1,0,0:0:0:0:
320,192,90259,1,0,0:0:0:0:
448,192,90338,128,0,90417:0:0:0:0:
64,192,90338,128,0,90391:0:0:0:0:
320,192,90496,128,0,90575:0:0:0:0:
448,192,90535,1,0,0:0:0:0:
64,192,90654,1,0,0:0:0:0:
192,192,90654,128,0,90759:0:0:0:0:
320,192,90717,1,0,0:0:0:0:
448,192,90780,1,0,0:0:0:0:
192,192,90843,1,0,0:0:0:0:
64,192,90906,1,0,0:0:0:0:
320,192,90969,1,0,0:0:0:0:
448,192,90969,128,0,91075:0:0:0:0:
64,192,91048,128,0,91180:0:0:0:0:
320,192,91127,128,0,91233:0:0:0:0:
192,192,91206,128,0,91285:0:0:0:0:
320,192,91285,1,0,0:0:0:0:
64,192,91285,1,0,0:0:0:0:
448,192,91285,1,0,0:0:0:0:
64,192,91364,1,0,0:0:0:0:
192,192,91443,1,0,0:0:0:0:
448,192,91443,1,0,0:0:0:0:
320,192,91443,128,0,91522:0:0:0:0:
192,192,91522,128,0,91601:0:0:0:0:
448,192,91601,1,0,0:0:0:0:
320,192,91601,1,0,0:0:0:0:
64,192,91601,1,0,0:0:0:0:
448,192,91680,128,0,91759:0:0:0:0:
320,192,91759,128,0,91838:0:0:0:0:
64,192,91838,128,0,91917:0:0:0:0:
192,192,91917,1,0,0:0:0:0:
448,192,91917,1,0,0:0:0:0:
320,192,91917,128,0,91996:0:0:0:0:
192,192,91996,1,0,0:0:0:0:
64,192,92075,128,0,92154:0:0:0:0:
448,192,92154,1,0,0:0:0:0:
64,192,92233,1,0,0:0:0:0:
320,192,92233,1,0,0:0:0:0:
192,192,92233,128,0,92312:0:0:0:0:
320,192,92312,1,0,0:0:0:0:
64,192,92391,1,0,0:0:0:0:
192,192,92391,1,0,0:0:0:0:
448,192,92391,1,0,0:0:0:0:
64,192,92469,128,0,92548:0:0:0:0:
320,192,92548,1,0,0:0:0:0:
448,192,92548,1,0,0:0:0:0:
192,192,92548,1,0,0:0:0:0:
448,192,92627,128,0,92706:0:0:0:0:
320,192,92706,128,0,92785:0:0:0:0:
192,192,92785,128,0,92864:0:0:0:0:
64,192,92864,1,0,0:0:0:0:
448,192,92864,128,0,92943:0:0:0:0:
320,192,92943,1,0,0:0:0:0:
64,192,92943,1,0,0:0:0:0:
320,192,93022,128,0,93101:0:0:0:0:
192,192,93022,1,0,0:0:0:0:
64,192,93101,1,0,0:0:0:0:
448,192,93180,1,0,0:0:0:0:
192,192,93180,128,0,93259:0:0:0:0:
320,192,93180,1,0,0:0:0:0:
448,192,93259,1,0,0:0:0:0:
192,192,93338,1,0,0:0:0:0:
64,192,93338,1,0,0:0:0:0:
192,192,93417,1,0,0:0:0:0:
320,192,93417,1,0,0:0:0:0:
320,192,93496,1,0,0:0:0:0:
448,192,93496,128,0,93575:0:0:0:0:
64,192,93575,1,0,0:0:0:0:
320,192,93654,1,0,0:0:0:0:
448,192,93717,1,0,0:0:0:0:
192,192,93766,1,0,0:0:0:0:
448,192,93812,1,0,0:0:0:0:
64,192,93812,1,0,0:0:0:0:
320,192,93812,1,0,0:0:0:0:
64,192,93891,1,0,0:0:0:0:
192,192,93969,1,0,0:0:0:0:
320,192,93969,1,0,0:0:0:0:
448,192,93969,1,0,0:0:0:0:
448,192,94048,1,0,0:0:0:0:
320,192,94127,1,0,0:0:0:0:
192,192,94127,1,0,0:0:0:0:
64,192,94127,1,0,0:0:0:0:
64,192,94206,128,0,94285:0:0:0:0:
192,192,94285,128,0,94364:0:0:0:0:
320,192,94364,128,0,94443:0:0:0:0:
448,192,94443,1,0,0:0:0:0:
192,192,94443,1,0,0:0:0:0:
64,192,94443,128,0,94522:0:0:0:0:
448,192,94522,1,0,0:0:0:0:
320,192,94601,128,0,94680:0:0:0:0:
192,192,94680,1,0,0:0:0:0:
320,192,94759,1,0,0:0:0:0:
64,192,94759,1,0,0:0:0:0:
448,192,94759,128,0,94838:0:0:0:0:
64,192,94838,1,0,0:0:0:0:
320,192,94917,1,0,0:0:0:0:
448,192,94917,1,0,0:0:0:0:
192,192,94917,128,0,94996:0:0:0:0:
448,192,94996,1,0,0:0:0:0:
192,192,95075,1,0,0:0:0:0:
64,192,95075,1,0,0:0:0:0:
320,192,95075,128,0,95154:0:0:0:0:
64,192,95154,1,0,0:0:0:0:
320,192,95233,1,0,0:0:0:0:
192,192,95312,1,0,0:0:0:0:
320,192,95391,1,0,0:0:0:0:
448,192,95391,1,0,0:0:0:0:
64,192,95391,1,0,0:0:0:0:
448,192,95469,1,0,0:0:0:0:
192,192,95548,128,0,95627:0:0:0:0:
320,192,95627,128,0,95706:0:0:0:0:
64,192,95706,1,0,0:0:0:0:
192,192,95706,1,0,0:0:0:0:
448,192,95706,128,0,95785:0:0:0:0:
64,192,95785,1,0,0:0:0:0:
320,192,95864,1,0,0:0:0:0:
192,192,95943,1,0,0:0:0:0:
320,192,96022,1,0,0:0:0:0:
448,192,96022,1,0,0:0:0:0:
64,192,96101,1,0,0:0:0:0:
192,192,96101,1,0,0:0:0:0:
192,192,96180,1,0,0:0:0:0:
64,192,96180,1,0,0:0:0:0:
448,192,96259,1,0,0:0:0:0:
320,192,96259,1,0,0:0:0:0:
448,192,96338,1,0,0:0:0:0:
192,192,96338,1,0,0:0:0:0:
64,192,96338,128,0,96417:0:0:0:0:
192,192,96496,1,0,0:0:0:0:
320,192,96531,1,0,0:0:0:0:
64,192,96654,128,0,96706:0:0:0:0:
320,192,96654,1,0,0:0:0:0:
192,192,96733,1,0,0:0:0:0:
320,192,96812,128,0,96891:0:0:0:0:
192,192,96891,1,0,0:0:0:0:
64,192,96891,1,0,0:0:0:0:
448,192,96969,1,0,0:0:0:0:
64,192,97048,1,0,0:0:0:0:
320,192,97127,1,0,0:0:0:0:
448,192,97127,1,0,0:0:0:0:
192,192,97206,1,0,0:0:0:0:
448,192,97285,128,0,97338:0:0:0:0:
64,192,97285,128,0,97364:0:0:0:0:
192,192,97443,1,0,0:0:0:0:
192,192,97522,1,0,0:0:0:0:
320,192,97601,1,0,0:0:0:0:
448,192,97601,128,0,97680:0:0:0:0:
64,192,97680,128,0,97759:0:0:0:0:
320,192,97759,128,0,97864:0:0:0:0:
192,192,97798,1,0,0:0:0:0:
64,192,97838,1,0,0:0:0:0:
320,192,97917,1,0,0:0:0:0:
192,192,97917,128,0,97969:0:0:0:0:
448,192,97996,1,0,0:0:0:0:
64,192,98075,128,0,98114:0:0:0:0:
320,192,98154,1,0,0:0:0:0:
448,192,98154,1,0,0:0:0:0:
192,192,98233,1,0,0:0:0:0:
64,192,98312,1,0,0:0:0:0:
192,192,98391,1,0,0:0:0:0:
64,192,98391,1,0,0:0:0:0:
320,192,98469,1,0,0:0:0:0:
64,192,98548,128,0,98627:0:0:0:0:
448,192,98548,128,0,98601:0:0:0:0:
192,192,98706,1,0,0:0:0:0:
320,192,98746,128,0,98864:0:0:0:0:
192,192,98864,128,0,98943:0:0:0:0:
64,192,98864,1,0,0:0:0:0:
320,192,99022,1,0,0:0:0:0:
448,192,99075,1,0,0:0:0:0:
320,192,99127,1,0,0:0:0:0:
448,192,99180,1,0,0:0:0:0:
64,192,99180,128,0,99233:0:0:0:0:
192,192,99338,128,0,99417:0:0:0:0:
320,192,99417,1,0,0:0:0:0:
448,192,99417,1,0,0:0:0:0:
192,192,99496,128,0,99614:0:0:0:0:
64,192,99535,1,0,0:0:0:0:
320,192,99654,1,0,0:0:0:0:
448,192,99654,1,0,0:0:0:0:
64,192,99733,1,0,0:0:0:0:
448,192,99812,1,0,0:0:0:0:
192,192,99812,128,0,99864:0:0:0:0:
320,192,99851,128,0,99930:0:0:0:0:
192,192,99969,128,0,100048:0:0:0:0:
320,192,99996,1,0,0:0:0:0:
64,192,100022,128,0,100127:0:0:0:0:
320,192,100127,1,0,0:0:0:0:
448,192,100127,128,0,100206:0:0:0:0:
192,192,100180,1,0,0:0:0:0:
64,192,100233,1,0,0:0:0:0:
448,192,100285,1,0,0:0:0:0:
192,192,100338,1,0,0:0:0:0:
320,192,100391,1,0,0:0:0:0:
448,192,100443,1,0,0:0:0:0:
64,192,100443,1,0,0:0:0:0:
64,192,100522,1,0,0:0:0:0:
320,192,100601,1,0,0:0:0:0:
192,192,100601,1,0,0:0:0:0:
320,192,100680,1,0,0:0:0:0:
192,192,100680,1,0,0:0:0:0:
448,192,100759,1,0,0:0:0:0:
64,192,100759,128,0,100812:0:0:0:0:
448,192,100838,128,0,100917:0:0:0:0:
320,192,100917,128,0,101338:0:0:0:0:
192,192,100996,128,0,101154:0:0:0:0:
448,192,101075,128,0,101285:0:0:0:0:
64,192,101154,128,0,101312:0:0:0:0:
192,192,101233,128,0,101391:0:0:0:0:
64,192,101391,1,0,0:0:0:0:
320,192,101391,128,0,101654:0:0:0:0:
448,192,101443,1,0,0:0:0:0:
192,192,101548,128,0,101680:0:0:0:0:
64,192,101601,1,0,0:0:0:0:
320,192,101706,1,0,0:0:0:0:
192,192,101733,128,0,101785:0:0:0:0:
64,192,102018,1,0,0:0:0:0:
448,192,102018,128,0,102123:0:0:0:0:
320,192,102018,128,0,102175:0:0:0:0:
448,192,102175,128,0,102333:0:0:0:0:
192,191,102215,128,0,102294:0:0:0:0:
192,191,102353,128,0,102465:0:0:0:0:
64,191,102393,128,0,102688:0:0:0:0:
320,192,102491,128,0,102531:0:0:0:0:
192,191,102518,1,0,0:0:0:0:
448,192,102649,128,0,102727:0:0:0:0:
192,192,102806,128,0,102912:0:0:0:0:
320,192,102833,128,0,102885:0:0:0:0:
320,192,102964,128,0,103122:0:0:0:0:
64,192,102991,128,0,103070:0:0:0:0:
192,192,103122,1,0,0:0:0:0:
64,192,103122,1,0,0:0:0:0:
422,192,103227,1,0,0:0:0:0:
149,192,103280,1,0,0:0:0:0:
294,192,103280,128,0,103404:0:0:0:0:
21,192,103320,128,0,103517:0:0:0:0:
422,192,103365,128,0,103456:0:0:0:0:
149,192,103417,128,0,103596:0:0:0:0:
294,192,103480,128,0,103754:0:0:0:0:
422,192,103558,128,0,103674:0:0:0:0:
192,192,103754,1,0,0:0:0:0:
64,192,103754,1,0,0:0:0:0:
320,192,103872,1,0,0:0:0:0:
64,192,103912,1,0,0:0:0:0:
192,192,103912,1,0,0:0:0:0:
448,192,103991,1,0,0:0:0:0:
192,192,104070,1,0,0:0:0:0:
320,192,104149,128,0,104227:0:0:0:0:
64,192,104201,128,0,104254:0:0:0:0:
64,192,104333,128,0,104385:0:0:0:0:
448,192,104385,1,0,0:0:0:0:
448,192,104464,1,0,0:0:0:0:
320,192,104543,1,0,0:0:0:0:
64,192,104543,1,0,0:0:0:0:
192,192,104543,1,0,0:0:0:0:
192,192,104701,1,0,0:0:0:0:
448,192,104701,1,0,0:0:0:0:
320,192,104727,128,0,104780:0:0:0:0:
320,192,104833,1,0,0:0:0:0:
192,192,104859,128,0,104912:0:0:0:0:
448,192,104859,128,0,104912:0:0:0:0:
192,192,105017,1,0,0:0:0:0:
320,192,105017,1,0,0:0:0:0:
448,192,105017,1,0,0:0:0:0:
320,192,105175,1,0,0:0:0:0:
64,192,105175,1,0,0:0:0:0:
192,192,105201,128,0,105254:0:0:0:0:
448,192,105333,1,0,0:0:0:0:
192,192,105333,1,0,0:0:0:0:
64,192,105412,1,0,0:0:0:0:
64,192,105491,1,0,0:0:0:0:
320,192,105491,1,0,0:0:0:0:
192,192,105491,1,0,0:0:0:0:
320,192,105622,1,0,0:0:0:0:
192,192,105649,128,0,105701:0:0:0:0:
448,192,105649,128,0,105701:0:0:0:0:
320,192,105806,1,0,0:0:0:0:
448,192,105806,1,0,0:0:0:0:
64,192,105859,128,0,105938:0:0:0:0:
320,192,105964,128,0,106043:0:0:0:0:
192,192,105991,1,0,0:0:0:0:
64,192,106017,128,0,106122:0:0:0:0:
192,192,106122,128,0,106254:0:0:0:0:
320,192,106149,128,0,106201:0:0:0:0:
448,192,106175,1,0,0:0:0:0:
448,192,106280,128,0,106385:0:0:0:0:
192,192,106306,1,0,0:0:0:0:
64,192,106333,1,0,0:0:0:0:
320,192,106438,128,0,106543:0:0:0:0:
448,192,106438,1,0,0:0:0:0:
106,192,106491,128,0,106622:0:0:0:0:
320,192,106596,1,0,0:0:0:0:
448,192,106622,128,0,106780:0:0:0:0:
106,191,106664,128,0,106754:0:0:0:0:
234,192,106709,128,0,106821:0:0:0:0:
320,192,106754,128,0,106806:0:0:0:0:
64,192,106912,128,0,107017:0:0:0:0:
64,192,107070,1,0,0:0:0:0:
320,192,107070,128,0,107133:0:0:0:0:
448,192,107070,128,0,107196:0:0:0:0:
192,192,107227,128,0,107412:0:0:0:0:
320,192,107254,128,0,107333:0:0:0:0:
320,192,107385,128,0,107543:0:0:0:0:
64,192,107412,128,0,107491:0:0:0:0:
64,192,107543,128,0,107754:0:0:0:0:
192,192,107543,1,0,0:0:0:0:
448,192,107543,128,0,107649:0:0:0:0:
448,192,107701,1,0,0:0:0:0:
320,192,107727,128,0,107780:0:0:0:0:
192,192,107859,1,0,0:0:0:0:
64,192,107922,1,0,0:0:0:0:
192,192,107972,1,0,0:0:0:0:
320,192,108017,1,0,0:0:0:0:
448,192,108017,128,0,108070:0:0:0:0:
64,192,108070,128,0,108122:0:0:0:0:
320,192,108122,128,0,108175:0:0:0:0:
64,192,108175,1,0,0:0:0:0:
192,192,108201,1,0,0:0:0:0:
64,192,108333,1,0,0:0:0:0:
448,192,108333,128,0,108396:0:0:0:0:
320,191,108333,128,0,108459:0:0:0:0:
192,192,108392,1,0,0:0:0:0:
448,192,108438,1,0,0:0:0:0:
64,192,108482,1,0,0:0:0:0:
320,191,108534,1,0,0:0:0:0:
448,192,108589,1,0,0:0:0:0:
192,192,108649,1,0,0:0:0:0:
320,192,108712,1,0,0:0:0:0:
192,192,108764,1,0,0:0:0:0:
320,192,108806,1,0,0:0:0:0:
448,192,108806,1,0,0:0:0:0:
64,192,108964,1,0,0:0:0:0:
448,192,108964,128,0,109034:0:0:0:0:
320,192,109070,1,0,0:0:0:0:
192,192,109122,128,0,109280:0:0:0:0:
64,192,109149,1,0,0:0:0:0:
320,192,109280,128,0,109438:0:0:0:0:
448,192,109280,128,0,109325:0:0:0:0:
64,192,109438,128,0,109508:0:0:0:0:
448,192,109438,1,0,0:0:0:0:
192,192,109543,1,0,0:0:0:0:
320,192,109596,128,0,109754:0:0:0:0:
448,192,109622,1,0,0:0:0:0:
64,192,109754,128,0,109859:0:0:0:0:
448,192,109793,128,0,109859:0:0:0:0:
448,192,109912,128,0,109982:0:0:0:0:
64,192,109912,1,0,0:0:0:0:
320,192,110017,1,0,0:0:0:0:
192,192,110070,128,0,110227:0:0:0:0:
64,192,110096,1,0,0:0:0:0:
320,192,110227,1,0,0:0:0:0:
448,192,110227,128,0,110480:0:0:0:0:
192,192,110543,1,0,0:0:0:0:
448,192,110543,128,0,110796:0:0:0:0:
448,192,110859,128,0,110949:0:0:0:0:
64,192,110859,128,0,111070:0:0:0:0:
192,192,111017,1,0,0:0:0:0:
448,192,111017,1,0,0:0:0:0:
320,192,111043,128,0,111096:0:0:0:0:
320,192,111149,1,0,0:0:0:0:
64,192,111175,128,0,111227:0:0:0:0:
448,192,111175,128,0,111333:0:0:0:0:
320,192,111310,128,0,111400:0:0:0:0:
192,192,111355,128,0,111491:0:0:0:0:
320,192,111491,1,0,0:0:0:0:
64,192,111491,1,0,0:0:0:0:
320,192,111649,128,0,111754:0:0:0:0:
192,192,111675,128,0,111727:0:0:0:0:
192,192,111806,128,0,111964:0:0:0:0:
448,192,111833,128,0,111912:0:0:0:0:
448,192,111964,1,0,0:0:0:0:
448,192,112043,1,0,0:0:0:0:
320,192,112122,128,0,112280:0:0:0:0:
64,192,112122,128,0,112359:0:0:0:0:
192,192,112122,128,0,112175:0:0:0:0:
448,192,112280,128,0,112438:0:0:0:0:
320,192,112333,128,0,112543:0:0:0:0:
192,192,112385,128,0,112464:0:0:0:0:
64,192,112438,128,0,112701:0:0:0:0:
192,192,112517,1,0,0:0:0:0:
448,190,112596,128,0,112754:0:0:0:0:
320,192,112622,1,0,0:0:0:0:
192,192,112754,128,0,112991:0:0:0:0:
320,192,112793,128,0,112931:0:0:0:0:
448,192,112833,1,0,0:0:0:0:
448,192,112991,128,0,113070:0:0:0:0:
64,192,113070,128,0,113227:0:0:0:0:
320,192,113070,1,0,0:0:0:0:
192,192,113149,1,0,0:0:0:0:
320,192,113188,128,0,113385:0:0:0:0:
448,192,113227,128,0,113326:0:0:0:0:
64,192,113385,1,0,0:0:0:0:
448,192,113385,1,0,0:0:0:0:
192,192,113385,1,0,0:0:0:0:
320,192,113464,128,0,113570:0:0:0:0:
192,192,113543,128,0,113649:0:0:0:0:
448,191,113622,128,0,113727:0:0:0:0:
192,192,113701,1,0,0:0:0:0:
64,192,113727,1,0,0:0:0:0:
320,192,113780,128,0,114017:0:0:0:0:
448,191,113833,1,0,0:0:0:0:
192,192,113885,128,0,113964:0:0:0:0:
192,192,114017,1,0,0:0:0:0:
64,192,114017,1,0,0:0:0:0:
320,192,114175,1,0,0:0:0:0:
64,192,114175,1,0,0:0:0:0:
192,192,114201,128,0,114254:0:0:0:0:
192,192,114306,1,0,0:0:0:0:
64,192,114333,128,0,114385:0:0:0:0:
320,192,114333,128,0,114491:0:0:0:0:
448,192,114438,128,0,114570:0:0:0:0:
448,192,114649,1,0,0:0:0:0:
320,192,114649,128,0,114780:0:0:0:0:
64,192,114649,128,0,114912:0:0:0:0:
192,192,114806,128,0,114885:0:0:0:0:
320,192,114859,128,0,114938:0:0:0:0:
64,192,114964,128,0,115070:0:0:0:0:
320,192,114991,1,0,0:0:0:0:
448,192,115017,128,0,115122:0:0:0:0:
64,192,115122,1,0,0:0:0:0:
192,192,115122,128,0,115227:0:0:0:0:
320,192,115280,128,0,115385:0:0:0:0:
64,192,115438,128,0,115596:0:0:0:0:
448,192,115477,128,0,115543:0:0:0:0:
320,192,115596,1,0,0:0:0:0:
448,192,115596,1,0,0:0:0:0:
192,192,115686,1,0,0:0:0:0:
320,192,115731,1,0,0:0:0:0:
64,192,115776,1,0,0:0:0:0:
320,192,115821,1,0,0:0:0:0:
192,192,115867,1,0,0:0:0:0:
448,192,115912,1,0,0:0:0:0:
64,192,115912,1,0,0:0:0:0:
192,192,115991,128,0,116070:0:0:0:0:
320,192,116070,128,0,116149:0:0:0:0:
64,192,116149,1,0,0:0:0:0:
448,192,116149,1,0,0:0:0:0:
192,192,116227,1,0,0:0:0:0:
192,192,116318,1,0,0:0:0:0:
320,192,116385,1,0,0:0:0:0:
64,192,116385,1,0,0:0:0:0:
448,192,116480,1,0,0:0:0:0:
192,192,116543,1,0,0:0:0:0:
64,192,116543,1,0,0:0:0:0:
320,192,116675,1,0,0:0:0:0:
448,192,116701,128,0,116754:0:0:0:0:
192,192,116701,128,0,117017:0:0:0:0:
64,192,116806,1,0,0:0:0:0:
448,192,116859,128,0,117017:0:0:0:0:
320,192,116912,128,0,116991:0:0:0:0:
64,192,117017,128,0,117070:0:0:0:0:
64,192,117175,1,0,0:0:0:0:
320,192,117175,128,0,117280:0:0:0:0:
448,192,117175,128,0,117333:0:0:0:0:
320,192,117333,128,0,117517:0:0:0:0:
192,191,117372,128,0,117451:0:0:0:0:
64,192,117491,128,0,117806:0:0:0:0:
192,192,117543,128,0,117727:0:0:0:0:
320,192,117596,1,0,0:0:0:0:
448,192,117649,128,0,117701:0:0:0:0:
448,192,117806,1,0,0:0:0:0:
320,192,117806,128,0,117912:0:0:0:0:
192,192,117912,128,0,118122:0:0:0:0:
320,192,117964,128,0,118043:0:0:0:0:
448,192,118043,1,0,0:0:0:0:
448,192,118122,1,0,0:0:0:0:
64,192,118201,128,0,118280:0:0:0:0:
320,192,118280,1,0,0:0:0:0:
448,192,118280,128,0,118385:0:0:0:0:
64,192,118333,128,0,118438:0:0:0:0:
320,192,118438,1,0,0:0:0:0:
448,192,118438,1,0,0:0:0:0:
192,192,118438,1,0,0:0:0:0:
448,192,118596,1,0,0:0:0:0:
320,192,118622,128,0,118675:0:0:0:0:
64,192,118754,1,0,0:0:0:0:
192,192,118859,128,0,119017:0:0:0:0:
320,192,118912,128,0,118982:0:0:0:0:
448,192,118947,1,0,0:0:0:0:
64,192,118982,1,0,0:0:0:0:
320,192,119070,1,0,0:0:0:0:
448,192,119070,1,0,0:0:0:0:
192,192,119201,1,0,0:0:0:0:
64,192,119227,128,0,119280:0:0:0:0:
320,192,119227,128,0,119622:0:0:0:0:
64,192,119385,1,0,0:0:0:0:
192,192,119412,128,0,119701:0:0:0:0:
320,192,119701,1,0,0:0:0:0:
448,192,119701,128,0,120017:0:0:0:0:
64,192,119701,128,0,119938:0:0:0:0:
320,192,119859,128,0,119964:0:0:0:0:
192,192,119938,128,0,120070:0:0:0:0:
64,192,120017,128,0,120175:0:0:0:0:
448,192,120175,128,0,120280:0:0:0:0:
64,192,120227,128,0,120333:0:0:0:0:
192,192,120280,128,0,120359:0:0:0:0:
448,192,120333,128,0,120385:0:0:0:0:
320,192,120333,128,0,120543:0:0:0:0:
192,192,120596,1,0,0:0:0:0:
64,192,120649,128,0,120885:0:0:0:0:
320,192,120727,1,0,0:0:0:0:
192,192,120780,1,0,0:0:0:0:
448,192,120833,1,0,0:0:0:0:
448,192,120964,128,0,121227:0:0:0:0:
320,192,121043,1,0,0:0:0:0:
192,192,121140,1,0,0:0:0:0:
320,192,121175,1,0,0:0:0:0:
64,192,121227,1,0,0:0:0:0:
192,192,121280,128,0,121420:0:0:0:0:
448,192,121359,128,0,121543:0:0:0:0:
64,192,121420,128,0,121543:0:0:0:0:
192,192,121485,128,0,121675:0:0:0:0:
320,192,121543,128,0,121622:0:0:0:0:
448,192,121596,128,0,121731:0:0:0:0:
64,192,121596,1,0,0:0:0:0:
320,192,121675,1,0,0:0:0:0:
192,192,121780,1,0,0:0:0:0:
192,192,122149,1,0,0:0:0:0:
64,192,122201,1,0,0:0:0:0:
320,192,122385,1,0,0:0:0:0:
64,192,122543,1,0,0:0:0:0:
192,192,122596,1,0,0:0:0:0:
320,192,122675,1,0,0:0:0:0:
64,192,122754,1,0,0:0:0:0:
320,192,122833,1,0,0:0:0:0:
192,192,122938,1,0,0:0:0:0:
448,192,123017,1,0,0:0:0:0:
64,192,123096,128,0,123149:0:0:0:0:
320,192,123201,1,0,0:0:0:0:
192,192,123510,128,0,123570:0:0:0:0:
320,192,123826,128,0,123879:0:0:0:0:
320,192,124122,128,0,124162:0:0:0:0:
192,192,125168,1,0,0:0:0:0:
448,192,125247,1,0,0:0:0:0:
192,192,125326,1,0,0:0:0:0:
448,192,125385,128,0,125425:0:0:0:0:
320,192,126017,128,0,126333:0:0:0:0:
64,192,126649,1,0,0:0:0:0:
448,192,126649,1,0,0:0:0:0:
192,192,126964,1,0,0:0:0:0:
320,192,127190,1,0,0:0:0:0:
448,192,127300,1,0,0:0:0:0:
192,192,127491,1,0,0:0:0:0:
64,192,127596,1,0,0:0:0:0:
320,192,127736,1,0,0:0:0:0:
192,192,127833,1,0,0:0:0:0:
448,192,127951,128,0,128030:0:0:0:0:
320,192,128543,128,0,128622:0:0:0:0:
192,192,129175,128,0,129254:0:0:0:0:
64,192,130122,1,0,0:0:0:0:
192,192,130227,1,0,0:0:0:0:
64,192,130491,128,0,130570:0:0:0:0:
320,192,131070,1,0,0:0:0:0:
192,192,131701,1,0,0:0:0:0:
64,192,131701,1,0,0:0:0:0:
192,192,131859,1,0,0:0:0:0:
320,192,132017,128,0,132412:0:0:0:0:
64,192,132826,1,0,0:0:0:0:
448,192,132885,1,0,0:0:0:0:
192,192,133043,128,0,133201:0:0:0:0:
320,192,133438,1,0,0:0:0:0:
192,192,133951,1,0,0:0:0:0:
64,192,134247,128,0,134583:0:0:0:0:
192,192,134918,1,0,0:0:0:0:
320,192,135070,1,0,0:0:0:0:
64,192,135195,1,0,0:0:0:0:
192,192,135274,1,0,0:0:0:0:
448,192,135372,1,0,0:0:0:0:
320,192,135517,128,0,135675:0:0:0:0:
192,192,136142,128,0,136221:0:0:0:0:
64,192,136754,1,0,0:0:0:0:
192,192,136754,1,0,0:0:0:0:
192,192,136931,1,0,0:0:0:0:
64,192,137129,1,0,0:0:0:0:
64,192,137346,1,0,0:0:0:0:
192,192,137602,1,0,0:0:0:0:
320,192,137675,1,0,0:0:0:0:
192,192,137820,128,0,137879:0:0:0:0:
320,192,137918,1,0,0:0:0:0:
64,192,138076,1,0,0:0:0:0:
192,192,138254,1,0,0:0:0:0:
320,192,138431,1,0,0:0:0:0:
192,192,138517,1,0,0:0:0:0:
448,192,138649,128,0,138688:0:0:0:0:
64,192,139280,1,0,0:0:0:0:
320,192,139280,1,0,0:0:0:0:
192,192,140168,1,0,0:0:0:0:
64,192,140570,1,0,0:0:0:0:
448,192,142084,1,0,0:0:0:0:
64,192,142162,128,0,142715:0:0:0:0:
192,192,142241,1,0,0:0:0:0:
320,192,142399,1,0,0:0:0:0:
448,192,142557,1,0,0:0:0:0:
192,192,142715,1,0,0:0:0:0:
192,192,143090,128,0,143347:0:0:0:0:
320,192,143347,128,0,143820:0:0:0:0:
448,192,143820,128,0,144215:0:0:0:0:
192,192,144294,128,0,144505:0:0:0:0:
320,192,144294,128,0,144505:0:0:0:0:
64,192,144610,128,0,145162:0:0:0:0:
192,192,144768,1,0,0:0:0:0:
320,192,144926,1,0,0:0:0:0:
448,192,145084,1,0,0:0:0:0:
64,192,145241,1,0,0:0:0:0:
192,192,145557,128,0,145873:0:0:0:0:
320,192,145873,128,0,146110:0:0:0:0:
448,192,145873,128,0,145936:0:0:0:0:
64,192,146031,1,0,0:0:0:0:
320,192,146189,128,0,146505:0:0:0:0:
448,192,146347,128,0,146741:0:0:0:0:
64,192,146741,1,0,0:0:0:0:
320,192,146820,128,0,147136:0:0:0:0:
64,192,146899,128,0,146978:0:0:0:0:
192,192,147136,128,0,147452:0:0:0:0:
64,192,147215,128,0,148320:0:0:0:0:
448,192,147294,1,0,0:0:0:0:
320,192,147452,1,0,0:0:0:0:
192,192,147610,1,0,0:0:0:0:
448,192,147768,1,0,0:0:0:0:
192,192,147926,1,0,0:0:0:0:
320,192,148084,1,0,0:0:0:0:
448,192,148241,1,0,0:0:0:0:
192,192,148399,128,0,148978:0:0:0:0:
320,192,148557,1,0,0:0:0:0:
64,192,149347,128,0,149505:0:0:0:0:
320,192,149662,128,0,150057:0:0:0:0:
192,192,149820,1,0,0:0:0:0:
64,192,149978,1,0,0:0:0:0:
448,192,150136,128,0,150452:0:0:0:0:
320,192,150294,1,0,0:0:0:0:
192,192,150584,128,0,150768:0:0:0:0:
192,192,150847,1,0,0:0:0:0:
320,192,150926,128,0,151399:0:0:0:0:
64,192,150926,1,0,0:0:0:0:
448,192,151084,1,0,0:0:0:0:
64,192,151241,1,0,0:0:0:0:
192,192,151399,128,0,151715:0:0:0:0:
448,192,151557,1,0,0:0:0:0:
320,192,151715,1,0,0:0:0:0:
64,192,151873,128,0,152189:0:0:0:0:
448,192,152031,1,0,0:0:0:0:
192,192,152189,128,0,152662:0:0:0:0:
320,192,152189,128,0,152268:0:0:0:0:
64,192,152347,1,0,0:0:0:0:
448,192,152505,1,0,0:0:0:0:
320,192,152662,1,0,0:0:0:0:
192,192,152820,1,0,0:0:0:0:
64,192,152978,1,0,0:0:0:0:
320,192,153057,1,0,0:0:0:0:
192,192,153136,128,0,153452:0:0:0:0:
448,192,153294,1,0,0:0:0:0:
320,192,153452,128,0,153768:0:0:0:0:
448,192,153926,128,0,154399:0:0:0:0:
320,192,154399,128,0,154715:0:0:0:0:
64,192,154715,128,0,155189:0:0:0:0:
192,192,154873,1,0,0:0:0:0:
320,192,155031,1,0,0:0:0:0:
448,192,155189,1,0,0:0:0:0:
64,192,155347,1,0,0:0:0:0:
448,192,155478,128,0,155531:0:0:0:0:
192,192,155662,128,0,155899:0:0:0:0:
320,192,155820,128,0,155978:0:0:0:0:
64,192,155978,128,0,156452:0:0:0:0:
448,192,155978,1,0,0:0:0:0:
320,192,156452,128,0,156926:0:0:0:0:
192,192,156452,128,0,156505:0:0:0:0:
192,192,156926,128,0,157241:0:0:0:0:
64,192,156926,128,0,157031:0:0:0:0:
320,192,157189,128,0,157399:0:0:0:0:
448,192,157241,128,0,158189:0:0:0:0:
192,192,157399,1,0,0:0:0:0:
320,192,157557,1,0,0:0:0:0:
64,192,157715,128,0,157820:0:0:0:0:
192,192,157873,1,0,0:0:0:0:
320,192,158189,1,0,0:0:0:0:
64,192,158347,1,0,0:0:0:0:
448,192,158505,1,0,0:0:0:0:
320,192,158584,128,0,159373:0:0:0:0:
64,192,159452,128,0,159610:0:0:0:0:
64,192,159768,128,0,160241:0:0:0:0:
320,192,159926,1,0,0:0:0:0:
448,192,160084,1,0,0:0:0:0:
192,192,160241,128,0,160557:0:0:0:0:
64,192,160399,1,0,0:0:0:0:
320,192,160636,1,0,0:0:0:0:
448,192,160715,128,0,161031:0:0:0:0:
64,192,161031,1,0,0:0:0:0:
320,192,161110,128,0,161505:0:0:0:0:
448,192,161189,1,0,0:0:0:0:
64,192,161347,1,0,0:0:0:0:
448,192,161399,1,0,0:0:0:0:
192,192,161452,1,0,0:0:0:0:
64,192,161505,128,0,161873:0:0:0:0:
448,192,161662,128,0,161741:0:0:0:0:
448,192,161899,1,0,0:0:0:0:
320,192,161978,128,0,162136:0:0:0:0:
448,192,162097,128,0,162176:0:0:0:0:
448,192,162261,1,0,0:0:0:0:
64,192,162261,128,0,162497:0:0:0:0:
192,192,162261,1,0,0:0:0:0:
320,192,162339,1,0,0:0:0:0:
192,192,162418,1,0,0:0:0:0:
448,192,162497,1,0,0:0:0:0:
64,192,162576,128,0,162892:0:0:0:0:
192,192,162655,1,0,0:0:0:0:
320,192,162734,1,0,0:0:0:0:
448,192,162813,1,0,0:0:0:0:
192,192,162892,128,0,163129:0:0:0:0:
64,192,162971,128,0,163287:0:0:0:0:
320,192,163050,1,0,0:0:0:0:
448,192,163129,1,0,0:0:0:0:
192,192,163208,128,0,163524:0:0:0:0:
320,192,163287,1,0,0:0:0:0:
64,192,163366,128,0,163682:0:0:0:0:
448,192,163445,1,0,0:0:0:0:
320,192,163524,128,0,163761:0:0:0:0:
192,192,163603,128,0,163918:0:0:0:0:
448,192,163682,1,0,0:0:0:0:
64,192,163761,128,0,163997:0:0:0:0:
320,192,163839,128,0,164234:0:0:0:0:
448,192,163918,1,0,0:0:0:0:
192,192,163997,128,0,164155:0:0:0:0:
64,192,164076,128,0,164445:0:0:0:0:
448,192,164155,128,0,164313:0:0:0:0:
192,192,164234,128,0,164392:0:0:0:0:
320,192,164313,128,0,164708:0:0:0:0:
448,192,164392,128,0,164708:0:0:0:0:
192,192,164471,128,0,164708:0:0:0:0:
64,192,164524,128,0,164787:0:0:0:0:
192,192,164787,1,0,0:0:0:0:
448,192,164787,128,0,164945:0:0:0:0:
320,192,164787,128,0,164892:0:0:0:0:
64,192,164945,1,0,0:0:0:0:
192,192,165083,1,0,0:0:0:0:
448,192,165122,128,0,165182:0:0:0:0:
320,192,165261,1,0,0:0:0:0:
192,192,165261,128,0,165366:0:0:0:0:
64,192,165261,128,0,165418:0:0:0:0:
192,192,165497,1,0,0:0:0:0:
448,192,165576,1,0,0:0:0:0:
64,192,165655,1,0,0:0:0:0:
192,192,165734,1,0,0:0:0:0:
448,192,165734,128,0,165813:0:0:0:0:
320,192,165734,128,0,165892:0:0:0:0:
64,192,165892,1,0,0:0:0:0:
448,192,165997,1,0,0:0:0:0:
320,192,166050,1,0,0:0:0:0:
64,192,166050,128,0,166208:0:0:0:0:
192,192,166050,128,0,166155:0:0:0:0:
448,192,166208,1,0,0:0:0:0:
320,192,166346,1,0,0:0:0:0:
64,192,166386,128,0,166445:0:0:0:0:
192,192,166524,1,0,0:0:0:0:
320,192,166524,128,0,166629:0:0:0:0:
448,192,166524,128,0,166682:0:0:0:0:
320,192,166761,1,0,0:0:0:0:
64,192,166839,1,0,0:0:0:0:
448,192,166918,1,0,0:0:0:0:
320,192,166997,1,0,0:0:0:0:
64,192,166997,128,0,167103:0:0:0:0:
192,192,166997,128,0,167182:0:0:0:0:
448,192,167155,1,0,0:0:0:0:
64,192,167313,1,0,0:0:0:0:
448,192,167313,128,0,167550:0:0:0:0:
320,192,167313,1,0,0:0:0:0:
192,192,167392,1,0,0:0:0:0:
320,192,167471,1,0,0:0:0:0:
64,192,167550,1,0,0:0:0:0:
448,192,167629,128,0,167945:0:0:0:0:
320,192,167708,1,0,0:0:0:0:
192,192,167787,1,0,0:0:0:0:
64,192,167866,1,0,0:0:0:0:
320,192,167945,128,0,168182:0:0:0:0:
448,192,168024,128,0,168339:0:0:0:0:
192,192,168103,1,0,0:0:0:0:
64,192,168182,1,0,0:0:0:0:
320,192,168261,128,0,168576:0:0:0:0:
192,192,168339,1,0,0:0:0:0:
448,192,168418,128,0,168734:0:0:0:0:
64,192,168497,1,0,0:0:0:0:
192,192,168576,128,0,168813:0:0:0:0:
320,192,168655,128,0,168971:0:0:0:0:
64,192,168734,1,0,0:0:0:0:
448,192,168813,128,0,169050:0:0:0:0:
192,192,168892,128,0,169287:0:0:0:0:
64,192,168971,1,0,0:0:0:0:
320,192,169050,128,0,169208:0:0:0:0:
448,192,169129,128,0,169497:0:0:0:0:
64,192,169208,128,0,169366:0:0:0:0:
320,192,169287,128,0,169445:0:0:0:0:
192,192,169366,128,0,169761:0:0:0:0:
64,192,169445,128,0,169761:0:0:0:0:
320,192,169524,128,0,169761:0:0:0:0:
448,192,169576,128,0,169839:0:0:0:0:
64,192,169839,128,0,169918:0:0:0:0:
192,192,169839,128,0,169997:0:0:0:0:
320,192,169839,1,0,0:0:0:0:
448,192,169997,1,0,0:0:0:0:
192,192,170155,1,0,0:0:0:0:
64,192,170234,1,0,0:0:0:0:
448,192,170313,128,0,170471:0:0:0:0:
320,192,170313,128,0,170418:0:0:0:0:
192,192,170313,1,0,0:0:0:0:
64,192,170550,1,0,0:0:0:0:
192,192,170589,1,0,0:0:0:0:
320,192,170629,1,0,0:0:0:0:
448,192,170708,1,0,0:0:0:0:
192,192,170787,128,0,170945:0:0:0:0:
64,192,170787,128,0,170866:0:0:0:0:
320,192,170787,1,0,0:0:0:0:
448,192,170945,1,0,0:0:0:0:
320,192,171103,128,0,171208:0:0:0:0:
448,192,171103,128,0,171261:0:0:0:0:
192,192,171103,1,0,0:0:0:0:
64,192,171261,1,0,0:0:0:0:
320,192,171418,1,0,0:0:0:0:
448,192,171497,128,0,171576:0:0:0:0:
64,192,171576,128,0,171734:0:0:0:0:
192,192,171576,128,0,171682:0:0:0:0:
320,192,171576,1,0,0:0:0:0:
448,192,171734,1,0,0:0:0:0:
192,192,171813,1,0,0:0:0:0:
320,192,171892,128,0,171971:0:0:0:0:
64,192,171971,128,0,172089:0:0:0:0:
192,192,172366,128,0,172603:0:0:0:0:
320,192,172366,1,0,0:0:0:0:
448,192,172366,1,0,0:0:0:0:
64,192,172445,1,0,0:0:0:0:
448,192,172524,1,0,0:0:0:0:
320,192,172603,1,0,0:0:0:0:
192,192,172682,128,0,172918:0:0:0:0:
64,192,172682,1,0,0:0:0:0:
448,192,172761,1,0,0:0:0:0:
64,192,172839,1,0,0:0:0:0:
320,192,172918,1,0,0:0:0:0:
192,192,172997,128,0,173234:0:0:0:0:
448,192,172997,1,0,0:0:0:0:
64,192,173076,1,0,0:0:0:0:
448,192,173155,1,0,0:0:0:0:
320,192,173234,1,0,0:0:0:0:
192,192,173313,128,0,173550:0:0:0:0:
64,192,173313,1,0,0:0:0:0:
448,192,173392,1,0,0:0:0:0:
64,192,173471,1,0,0:0:0:0:
320,192,173550,1,0,0:0:0:0:
192,192,173629,128,0,173866:0:0:0:0:
448,192,173629,1,0,0:0:0:0:
64,192,173708,1,0,0:0:0:0:
448,192,173787,1,0,0:0:0:0:
320,192,173866,1,0,0:0:0:0:
64,192,173945,1,0,0:0:0:0:
192,192,173945,128,0,174182:0:0:0:0:
448,192,174024,1,0,0:0:0:0:
64,192,174103,1,0,0:0:0:0:
320,192,174182,1,0,0:0:0:0:
448,192,174261,1,0,0:0:0:0:
192,192,174261,1,0,0:0:0:0:
64,192,174339,1,0,0:0:0:0:
448,192,174418,1,0,0:0:0:0:
320,192,174497,1,0,0:0:0:0:
192,192,174576,1,0,0:0:0:0:
64,192,174576,128,0,174734:0:0:0:0:
192,192,174734,128,0,174813:0:0:0:0:
320,192,174734,1,0,0:0:0:0:
320,192,174892,128,0,175129:0:0:0:0:
448,192,174892,1,0,0:0:0:0:
79,191,174971,1,0,0:0:0:0:
448,192,175050,1,0,0:0:0:0:
207,192,175129,1,0,0:0:0:0:
320,192,175208,128,0,175445:0:0:0:0:
79,191,175208,1,0,0:0:0:0:
448,192,175287,1,0,0:0:0:0:
79,191,175366,1,0,0:0:0:0:
207,192,175445,1,0,0:0:0:0:
320,192,175524,128,0,175682:0:0:0:0:
448,192,175524,1,0,0:0:0:0:
79,191,175603,1,0,0:0:0:0:
207,192,175682,1,0,0:0:0:0:
448,192,175761,1,0,0:0:0:0:
207,192,175839,1,0,0:0:0:0:
79,191,175839,1,0,0:0:0:0:
320,192,175918,128,0,176076:0:0:0:0:
79,191,175997,1,0,0:0:0:0:
207,192,176076,1,0,0:0:0:0:
473,192,176155,128,0,176392:0:0:0:0:
320,192,176155,1,0,0:0:0:0:
79,191,176234,1,0,0:0:0:0:
320,192,176313,1,0,0:0:0:0:
207,192,176392,1,0,0:0:0:0:
473,192,176471,128,0,176708:0:0:0:0:
79,191,176471,1,0,0:0:0:0:
320,192,176550,1,0,0:0:0:0:
79,191,176629,1,0,0:0:0:0:
207,192,176708,1,0,0:0:0:0:
320,192,176787,1,0,0:0:0:0:
448,192,176787,128,0,176945:0:0:0:0:
79,191,176866,1,0,0:0:0:0:
320,192,176945,1,0,0:0:0:0:
207,192,177024,1,0,0:0:0:0:
79,191,177103,1,0,0:0:0:0:
448,192,177103,128,0,177339:0:0:0:0:
79,191,177261,1,0,0:0:0:0:
207,192,177261,1,0,0:0:0:0:
320,192,177339,1,0,0:0:0:0:
448,192,177418,1,0,0:0:0:0:
207,192,177418,128,0,177813:0:0:0:0:
79,191,177497,1,0,0:0:0:0:
320,192,177576,1,0,0:0:0:0:
448,192,177576,1,0,0:0:0:0:
320,192,177734,1,0,0:0:0:0:
64,192,177734,1,0,0:0:0:0:
448,192,177813,1,0,0:0:0:0:
207,192,177892,1,0,0:0:0:0:
64,192,177892,1,0,0:0:0:0:
320,192,177971,128,0,178208:0:0:0:0:
192,192,178050,1,0,0:0:0:0:
448,192,178050,1,0,0:0:0:0:
64,192,178208,128,0,178366:0:0:0:0:
448,192,178208,1,0,0:0:0:0:
192,192,178366,1,0,0:0:0:0:
320,192,178366,1,0,0:0:0:0:
448,192,178445,128,0,178603:0:0:0:0:
320,192,178524,1,0,0:0:0:0:
64,192,178524,1,0,0:0:0:0:
448,192,178682,128,0,178918:0:0:0:0:
192,192,178682,1,0,0:0:0:0:
320,192,178761,1,0,0:0:0:0:
192,192,178839,1,0,0:0:0:0:
64,192,178839,1,0,0:0:0:0:
448,192,178997,128,0,179234:0:0:0:0:
320,192,178997,1,0,0:0:0:0:
64,192,179076,1,0,0:0:0:0:
320,192,179155,1,0,0:0:0:0:
192,192,179155,1,0,0:0:0:0:
448,192,179313,128,0,179471:0:0:0:0:
64,192,179313,1,0,0:0:0:0:
192,192,179392,1,0,0:0:0:0:
320,192,179471,1,0,0:0:0:0:
64,192,179471,1,0,0:0:0:0:
192,192,179629,128,0,179708:0:0:0:0:
320,192,179629,1,0,0:0:0:0:
192,192,179787,128,0,179866:0:0:0:0:
448,192,179787,1,0,0:0:0:0:
192,192,179945,128,0,180182:0:0:0:0:
320,192,179945,1,0,0:0:0:0:
448,192,180024,1,0,0:0:0:0:
64,192,180103,1,0,0:0:0:0:
320,192,180103,1,0,0:0:0:0:
448,192,180182,1,0,0:0:0:0:
192,192,180261,128,0,180418:0:0:0:0:
64,192,180261,1,0,0:0:0:0:
320,192,180339,1,0,0:0:0:0:
64,192,180418,1,0,0:0:0:0:
448,192,180418,1,0,0:0:0:0:
192,192,180497,1,0,0:0:0:0:
320,192,180576,1,0,0:0:0:0:
448,192,180576,1,0,0:0:0:0:
192,192,180655,1,0,0:0:0:0:
64,192,180734,1,0,0:0:0:0:
320,192,180734,1,0,0:0:0:0:
448,192,180813,1,0,0:0:0:0:
64,192,180892,128,0,181129:0:0:0:0:
192,192,180892,1,0,0:0:0:0:
320,192,180971,1,0,0:0:0:0:
448,192,181050,1,0,0:0:0:0:
192,192,181050,1,0,0:0:0:0:
320,192,181129,1,0,0:0:0:0:
448,192,181208,1,0,0:0:0:0:
64,192,181208,1,0,0:0:0:0:
192,192,181287,1,0,0:0:0:0:
320,192,181366,1,0,0:0:0:0:
64,192,181366,1,0,0:0:0:0:
448,192,181445,1,0,0:0:0:0:
192,192,181524,1,0,0:0:0:0:
64,192,181524,1,0,0:0:0:0:
320,192,181603,1,0,0:0:0:0:
448,192,181682,1,0,0:0:0:0:
192,192,181682,1,0,0:0:0:0:
64,192,181761,1,0,0:0:0:0:
320,192,181839,1,0,0:0:0:0:
448,192,181839,1,0,0:0:0:0:
192,192,181918,1,0,0:0:0:0:
64,192,181997,1,0,0:0:0:0:
448,192,181997,1,0,0:0:0:0:
192,192,182076,1,0,0:0:0:0:
320,192,182155,1,0,0:0:0:0:
64,192,182155,1,0,0:0:0:0:
320,192,182234,1,0,0:0:0:0:
192,192,182313,1,0,0:0:0:0:
448,192,182313,1,0,0:0:0:0:
192,192,182392,1,0,0:0:0:0:
448,192,182471,128,0,182550:0:0:0:0:
320,192,182471,128,0,182550:0:0:0:0:
64,192,182471,128,0,182550:0:0:0:0:
64,192,182629,128,0,182787:0:0:0:0:
320,192,182629,128,0,182747:0:0:0:0:
448,192,182629,128,0,182826:0:0:0:0:
64,192,182945,128,0,183024:0:0:0:0:
320,192,182945,128,0,183024:0:0:0:0:
448,192,182945,128,0,183024:0:0:0:0:
448,192,183103,128,0,183182:0:0:0:0:
320,192,183103,128,0,183182:0:0:0:0:
64,192,183103,128,0,183182:0:0:0:0:
64,192,183261,128,0,183339:0:0:0:0:
448,192,183261,1,0,0:0:0:0:
192,192,183339,128,0,183418:0:0:0:0:
320,192,183339,1,0,0:0:0:0:
448,192,183418,128,0,183576:0:0:0:0:
320,192,183418,128,0,183497:0:0:0:0:
64,192,183418,128,0,183537:0:0:0:0:
448,192,183655,128,0,183734:0:0:0:0:
320,192,183655,128,0,183774:0:0:0:0:
64,192,183655,128,0,183813:0:0:0:0:
320,192,183892,128,0,184011:0:0:0:0:
448,192,183892,128,0,184050:0:0:0:0:
64,192,183892,128,0,183971:0:0:0:0:
448,192,184129,128,0,184208:0:0:0:0:
320,192,184129,128,0,184247:0:0:0:0:
64,192,184129,128,0,184287:0:0:0:0:
320,192,184366,128,0,184445:0:0:0:0:
64,192,184366,1,0,0:0:0:0:
448,192,184445,128,0,184524:0:0:0:0:
192,192,184445,1,0,0:0:0:0:
320,192,184524,128,0,184603:0:0:0:0:
192,192,184524,128,0,184603:0:0:0:0:
64,192,184524,128,0,184603:0:0:0:0:
192,192,184682,128,0,184761:0:0:0:0:
448,192,184682,1,0,0:0:0:0:
64,192,184761,128,0,184839:0:0:0:0:
320,192,184761,1,0,0:0:0:0:
320,192,184839,128,0,184918:0:0:0:0:
192,192,184839,128,0,184918:0:0:0:0:
448,192,184839,128,0,184918:0:0:0:0:
64,192,184997,1,0,0:0:0:0:
192,192,184997,1,0,0:0:0:0:
448,192,184997,128,0,185076:0:0:0:0:
192,192,185076,128,0,185155:0:0:0:0:
320,192,185076,1,0,0:0:0:0:
320,192,185155,128,0,185234:0:0:0:0:
448,192,185234,128,0,185353:0:0:0:0:
192,192,185234,128,0,185313:0:0:0:0:
64,192,185234,128,0,185392:0:0:0:0:
448,192,185471,128,0,185550:0:0:0:0:
192,192,185471,128,0,185550:0:0:0:0:
64,192,185471,128,0,185550:0:0:0:0:
448,192,185629,128,0,185708:0:0:0:0:
64,192,185629,128,0,185708:0:0:0:0:
192,192,185629,128,0,185708:0:0:0:0:
192,192,185787,1,0,0:0:0:0:
448,192,185787,128,0,185866:0:0:0:0:
64,192,185866,1,0,0:0:0:0:
320,192,185866,128,0,185945:0:0:0:0:
64,192,185945,128,0,186024:0:0:0:0:
192,192,185945,128,0,186063:0:0:0:0:
448,192,185945,128,0,186103:0:0:0:0:
448,192,186182,128,0,186261:0:0:0:0:
192,192,186182,128,0,186300:0:0:0:0:
64,192,186182,128,0,186339:0:0:0:0:
64,192,186471,1,0,0:0:0:0:
192,192,186524,1,0,0:0:0:0:
320,192,186576,128,0,186787:0:0:0:0:
192,192,186734,128,0,186892:0:0:0:0:
64,192,186787,1,0,0:0:0:0:
320,192,186839,1,0,0:0:0:0:
448,192,186892,1,0,0:0:0:0:
192,192,186945,1,0,0:0:0:0:
448,192,186997,1,0,0:0:0:0:
64,192,187050,1,0,0:0:0:0:
192,192,187129,1,0,0:0:0:0:
320,192,187208,1,0,0:0:0:0:
320,192,187287,1,0,0:0:0:0:
64,192,187524,128,0,187603:0:0:0:0:
192,192,187524,128,0,187603:0:0:0:0:
372,192,187524,128,0,187603:0:0:0:0:
372,192,187682,128,0,187839:0:0:0:0:
192,192,187682,128,0,187800:0:0:0:0:
64,192,187682,128,0,187879:0:0:0:0:
372,192,187997,128,0,188076:0:0:0:0:
192,192,187997,128,0,188076:0:0:0:0:
64,192,187997,128,0,188076:0:0:0:0:
64,192,188155,128,0,188234:0:0:0:0:
192,192,188155,128,0,188234:0:0:0:0:
372,192,188155,128,0,188234:0:0:0:0:
320,192,188313,128,0,188392:0:0:0:0:
192,192,188313,1,0,0:0:0:0:
500,192,188392,128,0,188471:0:0:0:0:
64,192,188392,1,0,0:0:0:0:
192,192,188471,128,0,188550:0:0:0:0:
320,192,188471,128,0,188589:0:0:0:0:
64,192,188471,128,0,188629:0:0:0:0:
64,192,188708,128,0,188787:0:0:0:0:
192,192,188708,128,0,188826:0:0:0:0:
372,192,188708,128,0,188866:0:0:0:0:
192,192,188945,128,0,189063:0:0:0:0:
64,192,188945,128,0,189103:0:0:0:0:
372,192,188945,128,0,189024:0:0:0:0:
64,192,189182,128,0,189261:0:0:0:0:
192,192,189182,128,0,189300:0:0:0:0:
372,192,189182,128,0,189339:0:0:0:0:
64,192,189418,128,0,189497:0:0:0:0:
448,192,189418,1,0,0:0:0:0:
192,192,189497,128,0,189576:0:0:0:0:
320,192,189497,1,0,0:0:0:0:
45,192,189576,128,0,189655:0:0:0:0:
338,191,189576,128,0,189655:0:0:0:0:
466,192,189576,128,0,189655:0:0:0:0:
45,192,189734,1,0,0:0:0:0:
448,192,189734,128,0,189813:0:0:0:0:
173,192,189813,1,0,0:0:0:0:
338,191,189813,128,0,189892:0:0:0:0:
45,192,189892,128,0,189971:0:0:0:0:
466,192,189892,128,0,189971:0:0:0:0:
173,192,189892,128,0,189971:0:0:0:0:
448,192,190050,1,0,0:0:0:0:
320,192,190050,1,0,0:0:0:0:
166,192,190050,128,0,190129:0:0:0:0:
320,192,190129,128,0,190208:0:0:0:0:
38,192,190129,1,0,0:0:0:0:
38,192,190208,128,0,190287:0:0:0:0:
166,192,190287,128,0,190405:0:0:0:0:
320,192,190287,128,0,190366:0:0:0:0:
448,192,190287,128,0,190445:0:0:0:0:
166,192,190524,128,0,190603:0:0:0:0:
320,192,190524,128,0,190603:0:0:0:0:
448,192,190524,128,0,190603:0:0:0:0:
166,192,190682,128,0,190761:0:0:0:0:
448,192,190682,128,0,190761:0:0:0:0:
320,192,190682,128,0,190761:0:0:0:0:
192,192,190839,128,0,190918:0:0:0:0:
320,192,190839,1,0,0:0:0:0:
38,192,190918,128,0,190997:0:0:0:0:
448,192,190918,1,0,0:0:0:0:
448,192,190997,128,0,191076:0:0:0:0:
320,192,190997,128,0,191076:0:0:0:0:
166,192,190997,128,0,191076:0:0:0:0:
192,192,191155,128,0,191234:0:0:0:0:
320,192,191155,128,0,191274:0:0:0:0:
448,192,191155,128,0,191313:0:0:0:0:
192,192,191524,128,0,191813:0:0:0:0:
320,192,191576,1,0,0:0:0:0:
448,192,191629,128,0,191708:0:0:0:0:
64,192,191682,128,0,191866:0:0:0:0:
448,192,191787,1,0,0:0:0:0:
320,192,191839,1,0,0:0:0:0:
192,192,191892,1,0,0:0:0:0:
448,192,191945,128,0,192050:0:0:0:0:
64,192,192050,128,0,192103:0:0:0:0:
448,192,192103,128,0,192182:0:0:0:0:
192,192,192155,128,0,192339:0:0:0:0:
320,192,192339,1,0,0:0:0:0:
192,192,192418,1,0,0:0:0:0:
448,192,192471,1,0,0:0:0:0:
64,192,192524,1,0,0:0:0:0:
448,192,192576,1,0,0:0:0:0:
320,192,192576,1,0,0:0:0:0:
192,192,192576,128,0,192734:0:0:0:0:
320,192,192734,1,0,0:0:0:0:
448,192,192734,128,0,192892:0:0:0:0:
64,192,192813,128,0,192971:0:0:0:0:
192,192,192892,1,0,0:0:0:0:
320,192,192892,128,0,192971:0:0:0:0:
448,192,192971,128,0,193050:0:0:0:0:
64,192,193050,1,0,0:0:0:0:
192,192,193050,128,0,193129:0:0:0:0:
320,192,193129,128,0,193208:0:0:0:0:
192,192,193208,1,0,0:0:0:0:
64,192,193208,128,0,193366:0:0:0:0:
448,192,193287,128,0,193445:0:0:0:0:
192,192,193366,1,0,0:0:0:0:
320,192,193366,128,0,193445:0:0:0:0:
192,192,193445,128,0,193524:0:0:0:0:
320,192,193524,128,0,193761:0:0:0:0:
448,192,193524,128,0,193682:0:0:0:0:
64,192,193682,1,0,0:0:0:0:
448,192,193761,1,0,0:0:0:0:
192,192,193761,1,0,0:0:0:0:
64,192,193839,128,0,193997:0:0:0:0:
320,191,193997,1,0,0:0:0:0:
448,192,193997,128,0,194155:0:0:0:0:
192,192,194076,128,0,194234:0:0:0:0:
320,191,194155,128,0,194313:0:0:0:0:
448,192,194234,1,0,0:0:0:0:
64,192,194234,128,0,194313:0:0:0:0:
192,192,194313,128,0,194392:0:0:0:0:
320,191,194392,128,0,194471:0:0:0:0:
448,192,194471,1,0,0:0:0:0:
192,192,194471,128,0,194550:0:0:0:0:
448,192,194550,128,0,194629:0:0:0:0:
192,192,194629,1,0,0:0:0:0:
64,192,194629,128,0,194708:0:0:0:0:
320,191,194708,1,0,0:0:0:0:
64,192,194787,1,0,0:0:0:0:
448,192,194787,128,0,195024:0:0:0:0:
64,192,194866,1,0,0:0:0:0:
320,191,194945,1,0,0:0:0:0:
192,192,194945,1,0,0:0:0:0:
320,191,195103,1,0,0:0:0:0:
448,192,195103,128,0,195182:0:0:0:0:
192,192,195182,128,0,195261:0:0:0:0:
448,192,195261,1,0,0:0:0:0:
320,191,195261,128,0,195418:0:0:0:0:
64,192,195339,128,0,195497:0:0:0:0:
192,192,195418,1,0,0:0:0:0:
448,192,195418,128,0,195497:0:0:0:0:
320,191,195497,128,0,195655:0:0:0:0:
192,192,195576,1,0,0:0:0:0:
64,192,195576,128,0,195734:0:0:0:0:
448,192,195655,128,0,195734:0:0:0:0:
320,191,195734,1,0,0:0:0:0:
192,192,195734,128,0,195892:0:0:0:0:
448,192,195813,128,0,195892:0:0:0:0:
320,191,195892,1,0,0:0:0:0:
64,192,195892,128,0,195971:0:0:0:0:
320,191,195971,128,0,196129:0:0:0:0:
64,192,196050,1,0,0:0:0:0:
192,192,196050,128,0,196208:0:0:0:0:
448,192,196129,128,0,196287:0:0:0:0:
64,192,196208,128,0,196366:0:0:0:0:
192,192,196287,1,0,0:0:0:0:
320,191,196287,128,0,196445:0:0:0:0:
448,192,196366,128,0,196445:0:0:0:0:
64,192,196445,128,0,196524:0:0:0:0:
320,191,196524,1,0,0:0:0:0:
192,192,196524,128,0,196603:0:0:0:0:
448,192,196603,128,0,196761:0:0:0:0:
192,192,196682,1,0,0:0:0:0:
320,191,196761,1,0,0:0:0:0:
64,192,196761,128,0,196918:0:0:0:0:
448,192,196839,128,0,196918:0:0:0:0:
192,192,196918,1,0,0:0:0:0:
64,192,196997,1,0,0:0:0:0:
320,192,196997,128,0,197076:0:0:0:0:
64,192,197076,128,0,197155:0:0:0:0:
448,192,197155,1,0,0:0:0:0:
320,192,197155,128,0,197313:0:0:0:0:
192,192,197234,128,0,197313:0:0:0:0:
448,192,197313,1,0,0:0:0:0:
64,192,197313,128,0,197471:0:0:0:0:
448,192,197392,1,0,0:0:0:0:
192,192,197471,1,0,0:0:0:0:
192,192,197550,1,0,0:0:0:0:
64,192,197629,1,0,0:0:0:0:
448,192,197629,1,0,0:0:0:0:
320,192,197629,128,0,197787:0:0:0:0:
192,192,197708,128,0,197866:0:0:0:0:
448,192,197787,128,0,197945:0:0:0:0:
320,192,197866,128,0,197945:0:0:0:0:
192,192,197945,1,0,0:0:0:0:
64,192,197945,128,0,198103:0:0:0:0:
448,192,198024,128,0,198103:0:0:0:0:
320,192,198103,1,0,0:0:0:0:
192,192,198103,1,0,0:0:0:0:
64,192,198182,128,0,198261:0:0:0:0:
192,191,198261,1,0,0:0:0:0:
448,192,198261,128,0,198418:0:0:0:0:
320,192,198339,128,0,198418:0:0:0:0:
64,191,198418,1,0,0:0:0:0:
192,192,198418,128,0,198576:0:0:0:0:
448,192,198497,128,0,198576:0:0:0:0:
320,192,198576,1,0,0:0:0:0:
64,191,198576,128,0,198734:0:0:0:0:
448,192,198655,128,0,198734:0:0:0:0:
192,192,198734,1,0,0:0:0:0:
320,192,198734,128,0,198813:0:0:0:0:
64,192,198813,128,0,198892:0:0:0:0:
448,192,198892,1,0,0:0:0:0:
192,192,198892,128,0,199050:0:0:0:0:
320,192,198971,128,0,199129:0:0:0:0:
64,192,199050,128,0,199208:0:0:0:0:
448,192,199050,1,0,0:0:0:0:
192,192,199129,128,0,199208:0:0:0:0:
320,192,199208,1,0,0:0:0:0:
448,192,199208,128,0,199366:0:0:0:0:
64,192,199287,128,0,199366:0:0:0:0:
192,192,199366,1,0,0:0:0:0:
320,192,199366,1,0,0:0:0:0:
448,192,199445,128,0,199524:0:0:0:0:
192,192,199524,1,0,0:0:0:0:
64,192,199524,128,0,199682:0:0:0:0:
448,192,199603,128,0,199761:0:0:0:0:
320,192,199682,1,0,0:0:0:0:
192,192,199682,128,0,199839:0:0:0:0:
64,192,199761,128,0,199839:0:0:0:0:
448,192,199839,1,0,0:0:0:0:
320,192,199839,128,0,199918:0:0:0:0:
192,192,199918,128,0,199997:0:0:0:0:
64,192,199997,1,0,0:0:0:0:
448,192,199997,128,0,200076:0:0:0:0:
192,192,200076,128,0,200155:0:0:0:0:
320,192,200155,1,0,0:0:0:0:
64,192,200155,128,0,200313:0:0:0:0:
448,192,200234,128,0,200313:0:0:0:0:
192,192,200313,1,0,0:0:0:0:
320,192,200313,128,0,200471:0:0:0:0:
64,192,200392,128,0,200471:0:0:0:0:
192,192,200471,128,0,200629:0:0:0:0:
448,192,200471,128,0,200550:0:0:0:0:
320,192,200550,128,0,200629:0:0:0:0:
448,192,200629,128,0,200787:0:0:0:0:
64,192,200629,128,0,200708:0:0:0:0:
192,192,200708,128,0,200787:0:0:0:0:
64,192,200787,128,0,200945:0:0:0:0:
320,192,200787,128,0,200866:0:0:0:0:
448,192,200866,128,0,200984:0:0:0:0:
320,192,200945,128,0,201103:0:0:0:0:
192,192,200945,128,0,201024:0:0:0:0:
64,192,201024,128,0,201142:0:0:0:0:
192,192,201103,128,0,201261:0:0:0:0:
448,192,201103,128,0,201182:0:0:0:0:
320,192,201182,128,0,201339:0:0:0:0:
64,192,201261,128,0,201339:0:0:0:0:
448,192,201261,128,0,201418:0:0:0:0:
192,192,201339,128,0,201418:0:0:0:0:
64,192,201418,128,0,201971:0:0:0:0:
320,192,201418,1,0,0:0:0:0:
320,192,201576,128,0,201734:0:0:0:0:
320,192,201813,1,0,0:0:0:0:
448,192,201892,1,0,0:0:0:0:
64,192,202050,128,0,202208:0:0:0:0:
448,192,202050,128,0,202629:0:0:0:0:
64,192,202287,1,0,0:0:0:0:
192,192,202366,1,0,0:0:0:0:
192,192,202524,128,0,202629:0:0:0:0:
448,192,202682,128,0,202806:0:0:0:0:
64,192,202682,128,0,202761:0:0:0:0:
320,192,202727,128,0,202896:0:0:0:0:
192,192,202771,128,0,202850:0:0:0:0:
64,192,202817,128,0,202997:0:0:0:0:
448,192,202862,128,0,202941:0:0:0:0:
192,192,202907,128,0,203065:0:0:0:0:
320,192,202952,128,0,203155:0:0:0:0:
448,192,202997,128,0,203099:0:0:0:0:
192,192,203155,1,0,0:0:0:0:
64,192,203155,1,0,0:0:0:0:
64,192,203234,1,0,0:0:0:0:
192,192,203234,1,0,0:0:0:0:
64,192,203313,1,0,0:0:0:0:
448,192,203313,1,0,0:0:0:0:
320,192,203313,1,0,0:0:0:0:
320,192,203392,1,0,0:0:0:0:
448,192,203471,1,0,0:0:0:0:
448,192,203550,1,0,0:0:0:0:
320,192,203629,1,0,0:0:0:0:
192,192,203649,1,0,0:0:0:0:
64,192,203668,1,0,0:0:0:0:
320,192,203787,1,0,0:0:0:0:
448,192,203787,1,0,0:0:0:0:
64,192,203945,1,0,0:0:0:0:
64,192,204024,1,0,0:0:0:0:
192,192,204103,1,0,0:0:0:0:
192,192,204182,1,0,0:0:0:0:
320,192,204261,1,0,0:0:0:0:
448,192,204261,1,0,0:0:0:0:
64,192,204300,1,0,0:0:0:0:
192,192,204339,1,0,0:0:0:0:
320,192,204379,1,0,0:0:0:0:
448,192,204418,1,0,0:0:0:0:
149,192,204576,128,0,204665:0:0:0:0:
448,192,204576,1,0,0:0:0:0:
320,192,204576,1,0,0:0:0:0:
21,192,204639,128,0,204770:0:0:0:0:
320,192,204691,128,0,204853:0:0:0:0:
149,192,204734,128,0,204813:0:0:0:0:
448,192,204774,128,0,204892:0:0:0:0:
192,192,204892,128,0,204971:0:0:0:0:
64,192,204932,128,0,205050:0:0:0:0:
192,192,205050,1,0,0:0:0:0:
448,192,205050,128,0,205129:0:0:0:0:
320,192,205089,128,0,205208:0:0:0:0:
64,192,205208,128,0,205287:0:0:0:0:
448,192,205208,128,0,205332:0:0:0:0:
192,192,205253,128,0,205422:0:0:0:0:
320,192,205297,128,0,205376:0:0:0:0:
64,192,205343,128,0,205467:0:0:0:0:
448,192,205388,128,0,205456:0:0:0:0:
320,192,205433,128,0,205524:0:0:0:0:
192,192,205479,128,0,205591:0:0:0:0:
64,192,205524,128,0,205682:0:0:0:0:
320,192,205682,1,0,0:0:0:0:
448,192,205682,1,0,0:0:0:0:
448,192,205761,1,0,0:0:0:0:
320,192,205761,1,0,0:0:0:0:
448,192,205839,1,0,0:0:0:0:
64,192,205839,1,0,0:0:0:0:
192,192,205839,1,0,0:0:0:0:
192,192,205918,1,0,0:0:0:0:
320,192,205997,1,0,0:0:0:0:
320,192,206076,1,0,0:0:0:0:
448,192,206155,1,0,0:0:0:0:
64,192,206155,1,0,0:0:0:0:
192,192,206175,1,0,0:0:0:0:
448,192,206313,1,0,0:0:0:0:
320,192,206339,1,0,0:0:0:0:
192,192,206366,1,0,0:0:0:0:
64,192,206471,128,0,206708:0:0:0:0:
192,192,206511,128,0,206629:0:0:0:0:
320,192,206550,1,0,0:0:0:0:
448,192,206629,128,0,206807:0:0:0:0:
320,192,206728,128,0,206866:0:0:0:0:
64,192,206787,1,0,0:0:0:0:
192,192,206787,1,0,0:0:0:0:
448,192,206945,1,0,0:0:0:0:
64,192,206945,128,0,207024:0:0:0:0:
192,192,206971,1,0,0:0:0:0:
320,192,206997,1,0,0:0:0:0:
448,192,207103,1,0,0:0:0:0:
64,192,207103,1,0,0:0:0:0:
192,192,207103,1,0,0:0:0:0:
320,192,207261,1,0,0:0:0:0:
192,192,207261,128,0,207418:0:0:0:0:
64,192,207418,128,0,207524:0:0:0:0:
448,192,207418,128,0,207629:0:0:0:0:
320,192,207458,128,0,207550:0:0:0:0:
192,192,207576,128,0,207655:0:0:0:0:
320,192,207603,128,0,207734:0:0:0:0:
64,192,207734,128,0,207813:0:0:0:0:
448,192,207734,128,0,207858:0:0:0:0:
192,192,207779,128,0,207948:0:0:0:0:
320,192,207823,128,0,207902:0:0:0:0:
64,192,207870,128,0,207994:0:0:0:0:
448,192,207915,128,0,207982:0:0:0:0:
320,192,207960,128,0,208050:0:0:0:0:
192,192,208005,128,0,208118:0:0:0:0:
64,192,208050,128,0,208208:0:0:0:0:
320,192,208208,1,0,0:0:0:0:
448,192,208208,1,0,0:0:0:0:
448,192,208287,1,0,0:0:0:0:
320,192,208287,1,0,0:0:0:0:
448,192,208366,1,0,0:0:0:0:
64,192,208366,1,0,0:0:0:0:
192,192,208366,1,0,0:0:0:0:
192,192,208445,1,0,0:0:0:0:
64,192,208524,1,0,0:0:0:0:
64,192,208603,1,0,0:0:0:0:
192,192,208682,1,0,0:0:0:0:
320,192,208701,1,0,0:0:0:0:
448,192,208721,1,0,0:0:0:0:
192,192,208839,1,0,0:0:0:0:
64,192,208839,128,0,208918:0:0:0:0:
448,192,208997,1,0,0:0:0:0:
448,192,209076,1,0,0:0:0:0:
320,192,209155,1,0,0:0:0:0:
320,192,209234,1,0,0:0:0:0:
192,192,209313,1,0,0:0:0:0:
64,192,209313,1,0,0:0:0:0:
448,192,209353,1,0,0:0:0:0:
320,192,209392,1,0,0:0:0:0:
192,192,209432,1,0,0:0:0:0:
64,192,209471,128,0,209524:0:0:0:0:
320,192,209629,1,0,0:0:0:0:
192,192,209629,128,0,209826:0:0:0:0:
448,192,209629,128,0,209728:0:0:0:0:
448,192,209787,128,0,209984:0:0:0:0:
320,192,209826,128,0,209925:0:0:0:0:
64,192,209945,128,0,210043:0:0:0:0:
320,192,209984,128,0,210201:0:0:0:0:
64,192,210103,1,0,0:0:0:0:
192,192,210103,128,0,210261:0:0:0:0:
448,192,210261,128,0,210339:0:0:0:0:
64,192,210261,128,0,210384:0:0:0:0:
320,192,210306,128,0,210475:0:0:0:0:
192,192,210351,128,0,210430:0:0:0:0:
448,192,210396,128,0,210520:0:0:0:0:
64,192,210441,128,0,210509:0:0:0:0:
192,192,210486,128,0,210576:0:0:0:0:
320,192,210531,128,0,210644:0:0:0:0:
448,192,210576,128,0,210734:0:0:0:0:
192,192,210734,1,0,0:0:0:0:
64,192,210734,1,0,0:0:0:0:
64,192,210813,1,0,0:0:0:0:
192,192,210813,1,0,0:0:0:0:
64,192,210892,1,0,0:0:0:0:
448,192,210892,1,0,0:0:0:0:
320,192,210892,1,0,0:0:0:0:
192,191,211050,128,0,211140:0:0:0:0:
448,192,211095,128,0,211208:0:0:0:0:
192,192,211208,1,0,0:0:0:0:
320,192,211208,1,0,0:0:0:0:
64,192,211261,1,0,0:0:0:0:
320,192,211313,1,0,0:0:0:0:
192,192,211366,128,0,211524:0:0:0:0:
448,192,211524,128,0,211761:0:0:0:0:
320,192,211563,128,0,211682:0:0:0:0:
192,192,211603,1,0,0:0:0:0:
64,192,211682,128,0,211820:0:0:0:0:
192,192,211780,128,0,211859:0:0:0:0:
448,192,211839,1,0,0:0:0:0:
320,192,211839,1,0,0:0:0:0:
106,192,211903,1,0,0:0:0:0:
320,192,211955,1,0,0:0:0:0:
448,192,211997,1,0,0:0:0:0:
234,192,211997,1,0,0:0:0:0:
106,192,212037,1,0,0:0:0:0:
64,192,212155,1,0,0:0:0:0:
192,192,212155,1,0,0:0:0:0:
320,192,212182,1,0,0:0:0:0:
448,192,212208,1,0,0:0:0:0:
320,192,212313,1,0,0:0:0:0:
192,192,212313,1,0,0:0:0:0:
64,192,212392,1,0,0:0:0:0:
448,192,212471,128,0,212629:0:0:0:0:
320,192,212550,128,0,212595:0:0:0:0:
192,192,212629,128,0,212675:0:0:0:0:
320,192,212708,128,0,212753:0:0:0:0:
448,192,212787,128,0,212866:0:0:0:0:
64,192,212787,128,0,212911:0:0:0:0:
192,192,212832,128,0,213001:0:0:0:0:
320,192,212876,128,0,212955:0:0:0:0:
448,192,212922,128,0,213103:0:0:0:0:
64,192,212967,128,0,213046:0:0:0:0:
320,192,213012,128,0,213170:0:0:0:0:
192,192,213057,128,0,213261:0:0:0:0:
64,192,213103,128,0,213204:0:0:0:0:
320,192,213261,1,0,0:0:0:0:
448,192,213261,1,0,0:0:0:0:
448,192,213339,1,0,0:0:0:0:
320,192,213339,1,0,0:0:0:0:
64,192,213418,1,0,0:0:0:0:
192,192,213418,1,0,0:0:0:0:
448,192,213418,1,0,0:0:0:0:
320,192,213576,1,0,0:0:0:0:
149,192,213603,1,0,0:0:0:0:
21,192,213629,1,0,0:0:0:0:
149,192,213734,1,0,0:0:0:0:
448,192,213774,1,0,0:0:0:0:
448,192,213892,128,0,213945:0:0:0:0:
320,192,213892,128,0,213971:0:0:0:0:
192,191,214050,128,0,214155:0:0:0:0:
64,192,214089,128,0,214261:0:0:0:0:
448,191,214129,128,0,214247:0:0:0:0:
320,190,214208,128,0,214298:0:0:0:0:
192,191,214234,1,0,0:0:0:0:
64,192,214366,1,0,0:0:0:0:
192,192,214366,128,0,214537:0:0:0:0:
320,192,214429,128,0,214492:0:0:0:0:
448,192,214492,128,0,214618:0:0:0:0:
362,191,214546,1,0,0:0:0:0:
149,192,214591,1,0,0:0:0:0:
64,192,214636,1,0,0:0:0:0:
448,191,214682,128,0,214787:0:0:0:0:
149,192,214682,1,0,0:0:0:0:
320,192,214761,128,0,214918:0:0:0:0:
64,192,214839,1,0,0:0:0:0:
192,192,214879,128,0,214958:0:0:0:0:
320,192,214997,128,0,215076:0:0:0:0:
448,192,215037,128,0,215234:0:0:0:0:
64,192,215155,128,0,215261:0:0:0:0:
192,192,215155,128,0,215313:0:0:0:0:
448,192,215313,128,0,215392:0:0:0:0:
64,192,215313,128,0,215437:0:0:0:0:
320,192,215358,128,0,215527:0:0:0:0:
192,192,215402,128,0,215481:0:0:0:0:
448,192,215448,128,0,215572:0:0:0:0:
64,192,215494,128,0,215561:0:0:0:0:
192,192,215539,128,0,215629:0:0:0:0:
320,192,215584,128,0,215697:0:0:0:0:
448,192,215629,128,0,215787:0:0:0:0:
192,192,215787,1,0,0:0:0:0:
64,192,215787,1,0,0:0:0:0:
64,192,215866,1,0,0:0:0:0:
192,192,215866,1,0,0:0:0:0:
64,192,215945,1,0,0:0:0:0:
448,192,215945,1,0,0:0:0:0:
320,192,215945,1,0,0:0:0:0:
192,192,216024,128,0,216129:0:0:0:0:
320,192,216103,128,0,216208:0:0:0:0:
192,192,216182,128,0,216261:0:0:0:0:
320,192,216261,1,0,0:0:0:0:
448,192,216261,128,0,216458:0:0:0:0:
64,192,216339,128,0,216445:0:0:0:0:
320,192,216418,128,0,216497:0:0:0:0:
192,192,216471,128,0,216537:0:0:0:0:
64,192,216524,128,0,216576:0:0:0:0:
448,192,216576,128,0,216813:0:0:0:0:
320,192,216616,128,0,216734:0:0:0:0:
192,192,216655,1,0,0:0:0:0:
64,192,216734,128,0,216912:0:0:0:0:
192,192,216833,128,0,216971:0:0:0:0:
448,192,216892,1,0,0:0:0:0:
320,192,216892,1,0,0:0:0:0:
64,192,217050,1,0,0:0:0:0:
448,192,217050,128,0,217129:0:0:0:0:
320,192,217076,1,0,0:0:0:0:
192,192,217103,1,0,0:0:0:0:
64,192,217208,1,0,0:0:0:0:
448,192,217208,1,0,0:0:0:0:
320,192,217208,1,0,0:0:0:0:
320,192,217366,1,0,0:0:0:0:
192,192,217366,1,0,0:0:0:0:
448,192,217479,1,0,0:0:0:0:
64,192,217524,1,0,0:0:0:0:
192,192,217569,1,0,0:0:0:0:
320,192,217614,128,0,217794:0:0:0:0:
448,192,217659,1,0,0:0:0:0:
192,192,217704,128,0,217839:0:0:0:0:
448,192,217839,128,0,217918:0:0:0:0:
64,192,217839,128,0,217964:0:0:0:0:
320,192,217885,128,0,218054:0:0:0:0:
192,192,217930,128,0,218010:0:0:0:0:
448,192,217975,128,0,218099:0:0:0:0:
64,192,218020,128,0,218088:0:0:0:0:
192,192,218065,128,0,218155:0:0:0:0:
320,192,218110,128,0,218223:0:0:0:0:
448,192,218155,128,0,218313:0:0:0:0:
64,192,218155,1,0,0:0:0:0:
192,192,218313,1,0,0:0:0:0:
64,192,218313,1,0,0:0:0:0:
320,192,218392,1,0,0:0:0:0:
64,192,218471,1,0,0:0:0:0:
192,192,218471,1,0,0:0:0:0:
448,192,218550,128,0,218655:0:0:0:0:
64,192,218629,128,0,218734:0:0:0:0:
448,192,218708,128,0,218839:0:0:0:0:
320,192,218787,1,0,0:0:0:0:
192,192,218787,1,0,0:0:0:0:
64,192,218787,128,0,218892:0:0:0:0:
192,192,218945,128,0,219024:0:0:0:0:
320,192,218945,1,0,0:0:0:0:
320,192,219024,128,0,219103:0:0:0:0:
64,192,219103,128,0,219193:0:0:0:0:
192,192,219103,128,0,219261:0:0:0:0:
64,192,219261,128,0,219418:0:0:0:0:
448,192,219261,128,0,219351:0:0:0:0:
192,192,219418,1,0,0:0:0:0:
448,192,219418,1,0,0:0:0:0:
320,192,219418,128,0,219596:0:0:0:0:
192,192,219576,128,0,219675:0:0:0:0:
64,192,219576,1,0,0:0:0:0:
320,192,219655,128,0,219734:0:0:0:0:
448,192,219734,1,0,0:0:0:0:
192,192,219734,1,0,0:0:0:0:
64,192,219734,1,0,0:0:0:0:
448,192,219892,1,0,0:0:0:0:
192,192,219892,1,0,0:0:0:0:
448,192,219971,1,0,0:0:0:0:
192,192,219971,1,0,0:0:0:0:
320,192,220050,1,0,0:0:0:0:
64,192,220050,128,0,220155:0:0:0:0:
192,192,220208,1,0,0:0:0:0:
320,192,220208,128,0,220313:0:0:0:0:
64,192,220366,128,0,220445:0:0:0:0:
448,192,220366,128,0,220491:0:0:0:0:
192,192,220411,128,0,220580:0:0:0:0:
320,192,220457,128,0,220536:0:0:0:0:
64,192,220502,128,0,220626:0:0:0:0:
448,192,220547,128,0,220615:0:0:0:0:
320,192,220591,128,0,220682:0:0:0:0:
192,192,220637,128,0,220750:0:0:0:0:
64,192,220682,128,0,220839:0:0:0:0:
448,192,220682,1,0,0:0:0:0:
448,192,220839,1,0,0:0:0:0:
448,192,220918,1,0,0:0:0:0:
320,192,220997,1,0,0:0:0:0:
192,192,220997,1,0,0:0:0:0:
64,192,220997,1,0,0:0:0:0:
448,192,221103,128,0,221313:0:0:0:0:
320,192,221155,1,0,0:0:0:0:
64,192,221155,128,0,221234:0:0:0:0:
320,192,221313,1,0,0:0:0:0:
64,192,221313,1,0,0:0:0:0:
192,192,221313,128,0,221403:0:0:0:0:
192,192,221471,1,0,0:0:0:0:
192,192,221550,1,0,0:0:0:0:
64,192,221629,1,0,0:0:0:0:
320,192,221629,128,0,221839:0:0:0:0:
448,191,221668,128,0,221787:0:0:0:0:
192,192,221787,1,0,0:0:0:0:
64,192,221787,128,0,221984:0:0:0:0:
320,192,221892,1,0,0:0:0:0:
192,192,221945,128,0,222043:0:0:0:0:
448,191,221945,128,0,222182:0:0:0:0:
192,192,222103,128,0,222261:0:0:0:0:
64,192,222103,1,0,0:0:0:0:
64,192,222261,1,0,0:0:0:0:
448,192,222261,1,0,0:0:0:0:
320,192,222339,1,0,0:0:0:0:
64,192,222418,1,0,0:0:0:0:
192,192,222418,1,0,0:0:0:0:
448,192,222497,1,0,0:0:0:0:
64,192,222497,1,0,0:0:0:0:
320,192,222576,1,0,0:0:0:0:
192,192,222576,1,0,0:0:0:0:
320,192,222655,1,0,0:0:0:0:
64,192,222655,1,0,0:0:0:0:
448,192,222734,1,0,0:0:0:0:
192,192,222734,1,0,0:0:0:0:
192,192,222813,1,0,0:0:0:0:
448,192,222813,1,0,0:0:0:0:
320,192,222892,128,0,222955:0:0:0:0:
448,192,223018,128,0,223145:0:0:0:0:
192,192,223287,128,0,223366:0:0:0:0:
64,192,223445,128,0,223603:0:0:0:0:
192,192,223708,128,0,223787:0:0:0:0:
320,192,223866,128,0,224024:0:0:0:0:
192,192,224103,128,0,224155:0:0:0:0:
64,192,224155,128,0,224366:0:0:0:0:
320,192,224155,128,0,224418:0:0:0:0:
448,192,224155,128,0,224234:0:0:0:0:
448,192,224313,128,0,224471:0:0:0:0:
64,192,224471,1,0,0:0:0:0:
192,192,224471,1,0,0:0:0:0:
320,192,224550,1,0,0:0:0:0:
192,192,224629,1,0,0:0:0:0:
448,192,224708,1,0,0:0:0:0:
192,192,224787,1,0,0:0:0:0:
64,192,224787,1,0,0:0:0:0:
320,192,224866,1,0,0:0:0:0:
64,192,224945,1,0,0:0:0:0:
192,192,225024,1,0,0:0:0:0:
448,192,225103,1,0,0:0:0:0:
320,192,225103,128,0,225261:0:0:0:0:
64,192,225182,1,0,0:0:0:0:
448,192,225261,128,0,225339:0:0:0:0:
320,192,225339,1,0,0:0:0:0:
192,192,225418,1,0,0:0:0:0:
64,192,225418,128,0,225655:0:0:0:0:
320,192,225497,1,0,0:0:0:0:
448,192,225576,1,0,0:0:0:0:
192,192,225655,1,0,0:0:0:0:
320,192,225734,1,0,0:0:0:0:
448,192,225734,128,0,225912:0:0:0:0:
64,192,225813,1,0,0:0:0:0:
192,191,225892,128,0,225997:0:0:0:0:
64,191,225971,128,0,226050:0:0:0:0:
320,192,226050,1,0,0:0:0:0:
448,192,226050,1,0,0:0:0:0:
192,192,226129,1,0,0:0:0:0:
320,192,226208,1,0,0:0:0:0:
64,192,226287,1,0,0:0:0:0:
448,192,226366,128,0,226524:0:0:0:0:
320,192,226366,128,0,226445:0:0:0:0:
192,192,226445,1,0,0:0:0:0:
64,192,226524,1,0,0:0:0:0:
448,192,226603,1,0,0:0:0:0:
64,192,226682,1,0,0:0:0:0:
192,192,226682,1,0,0:0:0:0:
320,192,226761,1,0,0:0:0:0:
192,192,226839,1,0,0:0:0:0:
448,192,226918,1,0,0:0:0:0:
192,192,226997,1,0,0:0:0:0:
64,192,226997,1,0,0:0:0:0:
320,192,227076,1,0,0:0:0:0:
64,192,227155,1,0,0:0:0:0:
192,192,227234,1,0,0:0:0:0:
320,192,227313,1,0,0:0:0:0:
448,192,227313,1,0,0:0:0:0:
64,192,227392,1,0,0:0:0:0:
448,192,227471,1,0,0:0:0:0:
192,192,227550,1,0,0:0:0:0:
345,191,227629,1,0,0:0:0:0:
473,191,227629,128,0,227719:0:0:0:0:
64,192,227747,128,0,227866:0:0:0:0:
320,192,227787,1,0,0:0:0:0:
448,192,227866,1,0,0:0:0:0:
64,192,227945,1,0,0:0:0:0:
192,191,227945,1,0,0:0:0:0:
320,191,228024,1,0,0:0:0:0:
192,192,228103,1,0,0:0:0:0:
448,192,228182,1,0,0:0:0:0:
64,192,228261,1,0,0:0:0:0:
192,192,228261,1,0,0:0:0:0:
320,192,228339,1,0,0:0:0:0:
64,192,228418,128,0,228497:0:0:0:0:
192,192,228497,1,0,0:0:0:0:
448,192,228576,1,0,0:0:0:0:
320,192,228576,128,0,228682:0:0:0:0:
192,192,228655,128,0,228761:0:0:0:0:
448,192,228734,128,0,228839:0:0:0:0:
64,192,228813,128,0,228918:0:0:0:0:
320,192,228892,1,0,0:0:0:0:
192,192,228892,128,0,228971:0:0:0:0:
448,192,228971,128,0,229050:0:0:0:0:
320,192,229050,128,0,229260:0:0:0:0:
192,192,229050,1,0,0:0:0:0:
64,192,229050,128,0,229128:0:0:0:0:
192,192,229207,128,0,229313:0:0:0:0:
64,192,229207,128,0,229365:0:0:0:0:
320,192,229365,1,0,0:0:0:0:
448,192,229365,1,0,0:0:0:0:
64,192,229444,1,0,0:0:0:0:
448,192,229523,1,0,0:0:0:0:
320,192,229602,1,0,0:0:0:0:
64,192,229681,1,0,0:0:0:0:
192,192,229681,1,0,0:0:0:0:
448,192,229760,128,0,229813:0:0:0:0:
64,192,229839,1,0,0:0:0:0:
192,192,229918,1,0,0:0:0:0:
320,192,229997,1,0,0:0:0:0:
448,192,229997,1,0,0:0:0:0:
192,192,230076,128,0,230181:0:0:0:0:
320,192,230155,128,0,230313:0:0:0:0:
448,192,230234,1,0,0:0:0:0:
192,192,230313,1,0,0:0:0:0:
64,192,230313,128,0,230418:0:0:0:0:
320,192,230392,1,0,0:0:0:0:
192,192,230471,128,0,230523:0:0:0:0:
64,192,230550,128,0,230602:0:0:0:0:
448,192,230628,1,0,0:0:0:0:
320,192,230628,1,0,0:0:0:0:
192,192,230707,1,0,0:0:0:0:
448,192,230786,1,0,0:0:0:0:
320,192,230865,1,0,0:0:0:0:
192,192,230944,1,0,0:0:0:0:
64,192,230944,1,0,0:0:0:0:
448,192,231023,1,0,0:0:0:0:
64,192,231102,1,0,0:0:0:0:
192,192,231181,1,0,0:0:0:0:
448,192,231260,1,0,0:0:0:0:
320,192,231260,128,0,231339:0:0:0:0:
64,192,231339,1,0,0:0:0:0:
448,192,231418,128,0,231523:0:0:0:0:
320,192,231497,1,0,0:0:0:0:
64,192,231576,1,0,0:0:0:0:
192,192,231576,1,0,0:0:0:0:
448,192,231655,1,0,0:0:0:0:
64,192,231734,1,0,0:0:0:0:
320,192,231813,1,0,0:0:0:0:
192,192,231892,128,0,232076:0:0:0:0:
64,192,231892,1,0,0:0:0:0:
448,192,231971,1,0,0:0:0:0:
320,192,232050,128,0,232155:0:0:0:0:
192,192,232128,128,0,232207:0:0:0:0:
448,192,232207,1,0,0:0:0:0:
320,192,232207,1,0,0:0:0:0:
64,192,232286,1,0,0:0:0:0:
448,192,232365,128,0,232471:0:0:0:0:
192,192,232444,1,0,0:0:0:0:
448,191,232523,1,0,0:0:0:0:
320,192,232523,128,0,232602:0:0:0:0:
192,192,232602,128,0,232681:0:0:0:0:
320,192,232681,128,0,232780:0:0:0:0:
448,191,232760,128,0,232859:0:0:0:0:
192,192,232839,1,0,0:0:0:0:
64,192,232839,128,0,232944:0:0:0:0:
320,192,232918,1,0,0:0:0:0:
192,192,232997,1,0,0:0:0:0:
64,192,233076,1,0,0:0:0:0:
448,192,233155,128,0,233218:0:0:0:0:
320,192,233155,128,0,233260:0:0:0:0:
192,192,233234,1,0,0:0:0:0:
320,192,233313,1,0,0:0:0:0:
448,192,233392,1,0,0:0:0:0:
149,192,233471,1,0,0:0:0:0:
21,192,233471,128,0,233681:0:0:0:0:
320,192,233576,128,0,233655:0:0:0:0:
149,192,233628,128,0,233716:0:0:0:0:
447,192,233628,1,0,0:0:0:0:
192,192,233786,128,0,233996:0:0:0:0:
448,192,233786,128,0,233864:0:0:0:0:
64,192,233786,1,0,0:0:0:0:
320,192,233943,128,0,234049:0:0:0:0:
448,192,233943,128,0,234101:0:0:0:0:
192,192,234101,1,0,0:0:0:0:
64,192,234101,1,0,0:0:0:0:
320,192,234180,1,0,0:0:0:0:
64,192,234259,1,0,0:0:0:0:
448,192,234338,1,0,0:0:0:0:
192,192,234417,1,0,0:0:0:0:
64,192,234417,1,0,0:0:0:0:
320,192,234496,1,0,0:0:0:0:
192,192,234575,1,0,0:0:0:0:
64,192,234654,1,0,0:0:0:0:
448,192,234733,1,0,0:0:0:0:
320,192,234733,1,0,0:0:0:0:
192,192,234812,1,0,0:0:0:0:
64,192,234891,128,0,235049:0:0:0:0:
192,192,234970,1,0,0:0:0:0:
448,192,235049,1,0,0:0:0:0:
320,192,235049,1,0,0:0:0:0:
64,192,235128,1,0,0:0:0:0:
448,192,235207,1,0,0:0:0:0:
192,192,235286,1,0,0:0:0:0:
448,192,235364,1,0,0:0:0:0:
320,192,235364,1,0,0:0:0:0:
64,192,235443,1,0,0:0:0:0:
320,192,235522,1,0,0:0:0:0:
448,192,235601,1,0,0:0:0:0:
64,192,235680,1,0,0:0:0:0:
192,192,235680,1,0,0:0:0:0:
320,192,235759,1,0,0:0:0:0:
64,192,235838,1,0,0:0:0:0:
192,192,235917,1,0,0:0:0:0:
448,192,235996,128,0,236312:0:0:0:0:
320,192,235996,128,0,236154:0:0:0:0:
192,192,236075,1,0,0:0:0:0:
64,192,236154,1,0,0:0:0:0:
320,192,236233,1,0,0:0:0:0:
64,192,236312,1,0,0:0:0:0:
192,192,236312,1,0,0:0:0:0:
448,192,236391,1,0,0:0:0:0:
192,192,236470,1,0,0:0:0:0:
320,192,236549,1,0,0:0:0:0:
192,192,236628,1,0,0:0:0:0:
64,192,236628,1,0,0:0:0:0:
448,192,236707,1,0,0:0:0:0:
64,192,236786,1,0,0:0:0:0:
192,192,236864,1,0,0:0:0:0:
320,192,236943,1,0,0:0:0:0:
448,192,236943,1,0,0:0:0:0:
64,192,237022,1,0,0:0:0:0:
448,192,237101,128,0,237259:0:0:0:0:
320,192,237180,1,0,0:0:0:0:
64,191,237259,1,0,0:0:0:0:
192,192,237259,128,0,237364:0:0:0:0:
448,192,237338,1,0,0:0:0:0:
192,191,237417,128,0,237575:0:0:0:0:
320,192,237417,128,0,237522:0:0:0:0:
64,192,237496,1,0,0:0:0:0:
448,192,237575,1,0,0:0:0:0:
320,191,237575,1,0,0:0:0:0:
192,191,237654,1,0,0:0:0:0:
64,192,237733,1,0,0:0:0:0:
192,192,237812,1,0,0:0:0:0:
448,192,237891,1,0,0:0:0:0:
320,192,237891,1,0,0:0:0:0:
64,192,237970,1,0,0:0:0:0:
448,192,238049,128,0,238128:0:0:0:0:
192,192,238128,1,0,0:0:0:0:
448,192,238207,1,0,0:0:0:0:
320,192,238207,128,0,238443:0:0:0:0:
64,192,238286,1,0,0:0:0:0:
192,192,238364,128,0,238522:0:0:0:0:
64,192,238443,1,0,0:0:0:0:
320,192,238522,1,0,0:0:0:0:
448,192,238522,128,0,238601:0:0:0:0:
192,192,238601,1,0,0:0:0:0:
320,192,238680,128,0,238890:0:0:0:0:
448,192,238680,1,0,0:0:0:0:
64,192,238680,128,0,238758:0:0:0:0:
64,192,238837,128,0,238995:0:0:0:0:
192,192,238837,128,0,238943:0:0:0:0:
448,192,238995,1,0,0:0:0:0:
320,192,238995,1,0,0:0:0:0:
192,192,239074,1,0,0:0:0:0:
64,192,239153,1,0,0:0:0:0:
320,192,239232,1,0,0:0:0:0:
64,192,239311,1,0,0:0:0:0:
192,192,239311,1,0,0:0:0:0:
448,192,239390,128,0,239449:0:0:0:0:
192,192,239469,1,0,0:0:0:0:
64,192,239548,1,0,0:0:0:0:
320,192,239627,1,0,0:0:0:0:
448,192,239627,1,0,0:0:0:0:
192,192,239706,128,0,239811:0:0:0:0:
320,192,239785,128,0,239943:0:0:0:0:
448,192,239864,1,0,0:0:0:0:
192,192,239943,1,0,0:0:0:0:
64,192,239943,1,0,0:0:0:0:
320,192,240022,128,0,240074:0:0:0:0:
448,192,240101,128,0,240206:0:0:0:0:
320,192,240180,1,0,0:0:0:0:
192,192,240258,128,0,240436:0:0:0:0:
64,192,240258,1,0,0:0:0:0:
448,192,240337,1,0,0:0:0:0:
320,192,240416,128,0,240495:0:0:0:0:
192,192,240495,1,0,0:0:0:0:
320,192,240574,1,0,0:0:0:0:
448,192,240574,1,0,0:0:0:0:
64,192,240653,1,0,0:0:0:0:
448,192,240732,128,0,240811:0:0:0:0:
320,192,240811,128,0,240890:0:0:0:0:
64,192,240890,1,0,0:0:0:0:
192,192,240890,128,0,240980:0:0:0:0:
448,192,240969,1,0,0:0:0:0:
192,192,241048,128,0,241206:0:0:0:0:
64,192,241127,1,0,0:0:0:0:
320,192,241206,1,0,0:0:0:0:
448,192,241206,1,0,0:0:0:0:
192,192,241285,128,0,241364:0:0:0:0:
64,192,241364,128,0,241443:0:0:0:0:
448,192,241443,128,0,241522:0:0:0:0:
192,192,241522,128,0,241758:0:0:0:0:
64,192,241522,1,0,0:0:0:0:
320,192,241601,128,0,241680:0:0:0:0:
448,192,241680,128,0,241837:0:0:0:0:
320,192,241758,1,0,0:0:0:0:
192,192,241837,1,0,0:0:0:0:
64,192,241837,1,0,0:0:0:0:
448,192,241916,1,0,0:0:0:0:
448,192,241995,1,0,0:0:0:0:
192,192,242074,1,0,0:0:0:0:
192,192,242153,1,0,0:0:0:0:
320,192,242153,1,0,0:0:0:0:
448,192,242232,1,0,0:0:0:0:
320,192,242311,1,0,0:0:0:0:
192,192,242390,1,0,0:0:0:0:
448,192,242469,128,0,242548:0:0:0:0:
64,192,242469,128,0,242587:0:0:0:0:
320,192,242548,1,0,0:0:0:0:
320,192,242627,1,0,0:0:0:0:
64,192,242706,1,0,0:0:0:0:
192,192,242785,128,0,242875:0:0:0:0:
448,192,242785,1,0,0:0:0:0:
320,192,242864,1,0,0:0:0:0:
192,192,242943,128,0,243101:0:0:0:0:
64,192,243022,1,0,0:0:0:0:
320,192,243101,1,0,0:0:0:0:
448,192,243101,1,0,0:0:0:0:
448,192,243180,1,0,0:0:0:0:
192,192,243180,1,0,0:0:0:0:
320,192,243258,1,0,0:0:0:0:
192,192,243337,1,0,0:0:0:0:
64,192,243337,1,0,0:0:0:0:
64,192,243416,128,0,243574:0:0:0:0:
448,192,243416,128,0,243495:0:0:0:0:
448,192,243574,128,0,243653:0:0:0:0:
192,192,243574,128,0,243653:0:0:0:0:
320,192,243732,128,0,243811:0:0:0:0:
192,192,243732,128,0,243890:0:0:0:0:
64,192,243732,1,0,0:0:0:0:
320,192,243890,1,0,0:0:0:0:
192,192,243969,1,0,0:0:0:0:
64,192,244048,128,0,244285:0:0:0:0:
448,192,244048,128,0,244206:0:0:0:0:
192,192,244127,1,0,0:0:0:0:
320,192,244206,1,0,0:0:0:0:
448,192,244285,128,0,244443:0:0:0:0:
192,192,244364,1,0,0:0:0:0:
64,192,244364,1,0,0:0:0:0:
320,192,244443,1,0,0:0:0:0:
320,192,244522,128,0,244680:0:0:0:0:
192,192,244601,128,0,244680:0:0:0:0:
448,192,244680,1,0,0:0:0:0:
64,192,244680,1,0,0:0:0:0:
192,192,244758,1,0,0:0:0:0:
192,192,244837,128,0,244916:0:0:0:0:
320,192,244995,1,0,0:0:0:0:
448,192,244995,1,0,0:0:0:0:
448,192,245074,128,0,245153:0:0:0:0:
64,192,245153,128,0,245232:0:0:0:0:
192,192,245232,1,0,0:0:0:0:
320,192,245311,128,0,245390:0:0:0:0:
64,192,245311,1,0,0:0:0:0:
320,192,245469,128,0,245574:0:0:0:0:
448,192,245548,128,0,245627:0:0:0:0:
192,192,245627,128,0,245706:0:0:0:0:
64,192,245627,1,0,0:0:0:0:
320,192,245706,128,0,245864:0:0:0:0:
192,192,245785,1,0,0:0:0:0:
192,192,245864,1,0,0:0:0:0:
320,192,245943,128,0,246022:0:0:0:0:
64,192,245943,128,0,246022:0:0:0:0:
448,192,246022,1,0,0:0:0:0:
64,192,246101,128,0,246180:0:0:0:0:
320,192,246101,128,0,246258:0:0:0:0:
192,192,246258,128,0,246416:0:0:0:0:
64,192,246258,1,0,0:0:0:0:
320,192,246337,1,0,0:0:0:0:
320,192,246416,1,0,0:0:0:0:
64,192,246574,128,0,246732:0:0:0:0:
448,192,246574,128,0,246811:0:0:0:0:
320,192,246653,1,0,0:0:0:0:
192,192,246732,128,0,246890:0:0:0:0:
64,192,246811,1,0,0:0:0:0:
320,192,246890,1,0,0:0:0:0:
448,192,246890,1,0,0:0:0:0:
448,192,246969,1,0,0:0:0:0:
192,192,246969,1,0,0:0:0:0:
64,192,247048,1,0,0:0:0:0:
320,192,247048,1,0,0:0:0:0:
64,192,247127,128,0,247364:0:0:0:0:
448,192,247206,128,0,247364:0:0:0:0:
192,192,247206,1,0,0:0:0:0:
320,192,247285,1,0,0:0:0:0:
192,192,247364,128,0,247443:0:0:0:0:
320,192,247522,128,0,247601:0:0:0:0:
448,192,247522,1,0,0:0:0:0:
192,192,247601,1,0,0:0:0:0:
64,192,247601,1,0,0:0:0:0:
192,192,247680,128,0,247837:0:0:0:0:
320,192,247758,128,0,247995:0:0:0:0:
64,192,247837,1,0,0:0:0:0:
448,192,247837,1,0,0:0:0:0:
192,192,247916,1,0,0:0:0:0:
448,192,247995,1,0,0:0:0:0:
320,192,248074,1,0,0:0:0:0:
64,192,248153,128,0,248390:0:0:0:0:
192,192,248153,1,0,0:0:0:0:
448,192,248232,128,0,248390:0:0:0:0:
192,192,248311,128,0,248469:0:0:0:0:
320,192,248390,128,0,248469:0:0:0:0:
64,192,248469,128,0,248548:0:0:0:0:
448,192,248469,128,0,248666:0:0:0:0:
192,192,248548,128,0,248647:0:0:0:0:
320,192,248627,128,0,248726:0:0:0:0:
192,192,248706,128,0,248785:0:0:0:0:
64,192,248785,128,0,248864:0:0:0:0:
448,192,248785,1,0,0:0:0:0:
320,192,248785,1,0,0:0:0:0:
448,192,248864,128,0,249022:0:0:0:0:
64,192,248943,128,0,249022:0:0:0:0:
448,192,249101,128,0,249180:0:0:0:0:
192,192,249101,128,0,249258:0:0:0:0:
448,192,249258,128,0,249337:0:0:0:0:
320,192,249337,128,0,249416:0:0:0:0:
192,192,249416,128,0,249469:0:0:0:0:
64,192,249416,1,0,0:0:0:0:
448,192,249495,1,0,0:0:0:0:
192,192,249574,128,0,249732:0:0:0:0:
320,192,249653,128,0,249732:0:0:0:0:
64,192,249732,1,0,0:0:0:0:
448,192,249732,1,0,0:0:0:0:
448,192,249811,1,0,0:0:0:0:
64,192,249811,1,0,0:0:0:0:
320,192,249890,1,0,0:0:0:0:
192,192,249969,1,0,0:0:0:0:
320,192,250048,128,0,250127:0:0:0:0:
448,192,250048,128,0,250127:0:0:0:0:
192,192,250127,1,0,0:0:0:0:
64,192,250206,128,0,250296:0:0:0:0:
448,192,250285,1,0,0:0:0:0:
192,192,250364,128,0,250443:0:0:0:0:
320,192,250364,1,0,0:0:0:0:
320,192,250443,128,0,250601:0:0:0:0:
192,192,250522,128,0,250680:0:0:0:0:
64,192,250601,1,0,0:0:0:0:
448,192,250680,1,0,0:0:0:0:
320,192,250680,1,0,0:0:0:0:
64,192,250758,128,0,250837:0:0:0:0:
192,192,250837,1,0,0:0:0:0:
192,192,250916,1,0,0:0:0:0:
64,192,250995,128,0,251153:0:0:0:0:
448,192,250995,128,0,251074:0:0:0:0:
320,192,251074,1,0,0:0:0:0:
448,192,251153,128,0,251311:0:0:0:0:
192,192,251153,128,0,251232:0:0:0:0:
64,192,251311,1,0,0:0:0:0:
192,192,251311,128,0,251469:0:0:0:0:
320,192,251390,128,0,251548:0:0:0:0:
64,192,251469,128,0,251548:0:0:0:0:
448,192,251548,1,0,0:0:0:0:
192,192,251627,128,0,251785:0:0:0:0:
320,192,251627,128,0,251706:0:0:0:0:
64,192,251706,1,0,0:0:0:0:
320,192,251785,128,0,251903:0:0:0:0:
448,192,251864,128,0,251943:0:0:0:0:
192,192,251943,128,0,252048:0:0:0:0:
64,192,251943,1,0,0:0:0:0:
320,192,252022,1,0,0:0:0:0:
320,192,252101,128,0,252180:0:0:0:0:
192,192,252180,128,0,252337:0:0:0:0:
64,192,252258,128,0,252337:0:0:0:0:
320,192,252258,128,0,252416:0:0:0:0:
448,192,252337,128,0,252495:0:0:0:0:
64,192,252416,128,0,252495:0:0:0:0:
192,192,252416,1,0,0:0:0:0:
448,192,252574,1,0,0:0:0:0:
320,192,252574,1,0,0:0:0:0:
448,192,252653,5,0,0:0:0:0:
320,192,252732,128,0,252890:0:0:0:0:
192,192,252811,128,0,252969:0:0:0:0:
448,192,252890,128,0,252969:0:0:0:0:
64,192,252890,1,0,0:0:0:0:
320,192,252969,1,0,0:0:0:0:
192,192,253048,128,0,253206:0:0:0:0:
320,192,253206,128,0,253285:0:0:0:0:
448,192,253206,1,0,0:0:0:0:
64,192,253258,1,0,0:0:0:0:
192,192,253311,1,0,0:0:0:0:
320,192,253364,1,0,0:0:0:0:
192,192,253443,1,0,0:0:0:0:
448,192,253522,128,0,253648:0:0:0:0:
64,192,253522,128,0,253585:0:0:0:0:
320,192,253601,1,0,0:0:0:0:
192,192,253680,1,0,0:0:0:0:
64,192,253758,128,0,253864:0:0:0:0:
192,192,253837,128,0,253916:0:0:0:0:
320,192,253837,128,0,253995:0:0:0:0:
448,192,253837,1,0,0:0:0:0:
192,192,253995,1,0,0:0:0:0:
320,192,254074,1,0,0:0:0:0:
448,192,254153,128,0,254390:0:0:0:0:
64,192,254153,128,0,254311:0:0:0:0:
320,192,254232,1,0,0:0:0:0:
192,192,254311,1,0,0:0:0:0:
64,192,254390,128,0,254548:0:0:0:0:
320,192,254469,1,0,0:0:0:0:
448,192,254469,1,0,0:0:0:0:
192,192,254548,1,0,0:0:0:0:
192,192,254627,128,0,254785:0:0:0:0:
320,192,254706,128,0,254785:0:0:0:0:
64,192,254785,1,0,0:0:0:0:
448,192,254785,1,0,0:0:0:0:
320,192,254864,1,0,0:0:0:0:
320,192,254943,128,0,255022:0:0:0:0:
192,192,255101,1,0,0:0:0:0:
64,192,255101,1,0,0:0:0:0:
64,192,255180,128,0,255258:0:0:0:0:
448,192,255258,128,0,255337:0:0:0:0:
320,192,255337,1,0,0:0:0:0:
448,192,255416,128,0,255495:0:0:0:0:
64,192,255416,1,0,0:0:0:0:
192,192,255495,1,0,0:0:0:0:
64,192,255574,128,0,255732:0:0:0:0:
320,192,255732,128,0,255811:0:0:0:0:
448,192,255732,1,0,0:0:0:0:
192,192,255811,128,0,255969:0:0:0:0:
320,192,255890,1,0,0:0:0:0:
320,192,255969,1,0,0:0:0:0:
192,192,256048,128,0,256127:0:0:0:0:
448,192,256048,128,0,256127:0:0:0:0:
64,192,256127,1,0,0:0:0:0:
448,192,256206,128,0,256285:0:0:0:0:
192,192,256206,128,0,256364:0:0:0:0:
320,192,256364,128,0,256522:0:0:0:0:
448,192,256364,1,0,0:0:0:0:
192,192,256443,1,0,0:0:0:0:
192,192,256522,1,0,0:0:0:0:
448,192,256680,128,0,256837:0:0:0:0:
64,192,256680,128,0,256916:0:0:0:0:
192,192,256758,1,0,0:0:0:0:
320,192,256837,128,0,256995:0:0:0:0:
448,192,256916,1,0,0:0:0:0:
192,192,256995,1,0,0:0:0:0:
64,192,256995,1,0,0:0:0:0:
64,192,257074,1,0,0:0:0:0:
320,192,257074,1,0,0:0:0:0:
448,192,257153,1,0,0:0:0:0:
192,192,257153,1,0,0:0:0:0:
448,192,257232,128,0,257469:0:0:0:0:
64,192,257311,128,0,257469:0:0:0:0:
320,192,257311,1,0,0:0:0:0:
192,192,257390,1,0,0:0:0:0:
320,192,257469,128,0,257548:0:0:0:0:
192,192,257627,128,0,257706:0:0:0:0:
64,192,257627,1,0,0:0:0:0:
320,192,257706,1,0,0:0:0:0:
448,192,257706,1,0,0:0:0:0:
320,192,257785,128,0,257943:0:0:0:0:
192,192,257864,128,0,258101:0:0:0:0:
448,192,257943,1,0,0:0:0:0:
64,192,257943,1,0,0:0:0:0:
320,192,258022,1,0,0:0:0:0:
64,192,258101,1,0,0:0:0:0:
192,192,258180,1,0,0:0:0:0:
448,192,258258,128,0,258495:0:0:0:0:
320,192,258258,1,0,0:0:0:0:
64,192,258337,128,0,258495:0:0:0:0:
320,192,258416,128,0,258574:0:0:0:0:
192,192,258495,128,0,258574:0:0:0:0:
64,192,258574,128,0,258811:0:0:0:0:
448,192,258574,128,0,258811:0:0:0:0:
320,192,258653,128,0,258811:0:0:0:0:
192,192,258732,128,0,258890:0:0:0:0:
448,192,258890,128,0,258969:0:0:0:0:
64,192,258890,1,0,0:0:0:0:
320,192,258890,1,0,0:0:0:0:
64,192,258969,128,0,259127:0:0:0:0:
448,192,259048,128,0,259127:0:0:0:0:
64,192,259206,128,0,259285:0:0:0:0:
320,192,259206,128,0,259364:0:0:0:0:
64,192,259364,128,0,259443:0:0:0:0:
192,192,259443,128,0,259522:0:0:0:0:
320,192,259522,128,0,259574:0:0:0:0:
448,192,259522,1,0,0:0:0:0:
64,192,259601,1,0,0:0:0:0:
320,192,259680,128,0,259837:0:0:0:0:
192,192,259758,128,0,259837:0:0:0:0:
448,192,259837,1,0,0:0:0:0:
64,192,259837,1,0,0:0:0:0:
64,192,259916,1,0,0:0:0:0:
448,192,259916,1,0,0:0:0:0:
192,192,259995,1,0,0:0:0:0:
320,192,260074,1,0,0:0:0:0:
64,192,260153,128,0,260232:0:0:0:0:
192,192,260153,1,0,0:0:0:0:
448,192,260221,128,0,260266:0:0:0:0:
448,192,260311,128,0,260390:0:0:0:0:
64,192,260390,1,0,0:0:0:0:
320,192,260469,128,0,260548:0:0:0:0:
192,192,260469,1,0,0:0:0:0:
192,192,260548,128,0,260706:0:0:0:0:
320,192,260627,128,0,260785:0:0:0:0:
448,192,260706,1,0,0:0:0:0:
64,192,260785,1,0,0:0:0:0:
192,192,260785,1,0,0:0:0:0:
448,192,260864,128,0,260943:0:0:0:0:
320,192,260943,1,0,0:0:0:0:
320,192,261022,1,0,0:0:0:0:
448,192,261101,128,0,261258:0:0:0:0:
64,192,261101,128,0,261180:0:0:0:0:
192,192,261180,1,0,0:0:0:0:
64,192,261258,128,0,261416:0:0:0:0:
320,192,261258,128,0,261337:0:0:0:0:
448,192,261416,1,0,0:0:0:0:
320,192,261416,128,0,261574:0:0:0:0:
192,192,261495,128,0,261653:0:0:0:0:
448,192,261574,128,0,261653:0:0:0:0:
64,192,261653,1,0,0:0:0:0:
320,192,261732,128,0,261890:0:0:0:0:
192,192,261732,128,0,261811:0:0:0:0:
448,192,261811,1,0,0:0:0:0:
192,192,261890,128,0,262008:0:0:0:0:
64,192,261969,128,0,262048:0:0:0:0:
448,192,262048,1,0,0:0:0:0:
320,192,262048,1,0,0:0:0:0:
192,192,262127,1,0,0:0:0:0:
64,192,262127,1,0,0:0:0:0:
192,192,262206,1,0,0:0:0:0:
320,192,262206,1,0,0:0:0:0:
448,192,262285,1,0,0:0:0:0:
320,192,262285,1,0,0:0:0:0:
192,192,262364,1,0,0:0:0:0:
64,192,262364,1,0,0:0:0:0:
448,192,262443,1,0,0:0:0:0:
448,192,262522,1,0,0:0:0:0:
166,192,262522,1,0,0:0:0:0:
38,192,262601,128,0,262706:0:0:0:0:
448,192,262680,1,0,0:0:0:0:
320,192,262680,128,0,262758:0:0:0:0:
166,192,262758,1,0,0:0:0:0:
166,192,262837,128,0,262995:0:0:0:0:
38,192,262916,128,0,262995:0:0:0:0:
320,192,262995,128,0,263153:0:0:0:0:
448,192,262995,1,0,0:0:0:0:
192,192,263074,1,0,0:0:0:0:
448,192,263153,128,0,263232:0:0:0:0:
64,192,263311,1,0,0:0:0:0:
320,192,263311,1,0,0:0:0:0:
192,192,263390,1,0,0:0:0:0:
320,192,263390,1,0,0:0:0:0:
448,192,263469,1,0,0:0:0:0:
192,192,263548,1,0,0:0:0:0:
64,192,263548,1,0,0:0:0:0:
64,192,263627,128,0,263805:0:0:0:0:
320,192,263627,128,0,263732:0:0:0:0:
448,192,263706,1,0,0:0:0:0:
192,192,263785,128,0,263844:0:0:0:0:
320,192,263785,128,0,263883:0:0:0:0:
448,192,263943,5,0,0:0:0:0:
64,192,263943,1,0,0:0:0:0:
192,192,263943,128,0,264337:0:0:0:0:
320,192,264022,128,0,264258:0:0:0:0:
64,192,264101,128,0,264416:0:0:0:0:
320,192,264416,1,0,0:0:0:0:
448,192,264416,128,0,264495:0:0:0:0:
192,192,264574,128,0,264664:0:0:0:0:
64,192,264574,128,0,264755:0:0:0:0:
320,192,264574,128,0,264715:0:0:0:0:
448,192,264811,128,0,264992:0:0:0:0:
192,192,264811,128,0,264952:0:0:0:0:
320,192,264811,128,0,264901:0:0:0:0:
64,192,265048,128,0,265229:0:0:0:0:
320,192,265048,128,0,265189:0:0:0:0:
192,192,265048,128,0,265138:0:0:0:0:
448,192,265285,128,0,265466:0:0:0:0:
192,192,265285,128,0,265426:0:0:0:0:
320,192,265285,128,0,265375:0:0:0:0:
192,192,265522,128,0,265612:0:0:0:0:
320,192,265522,128,0,265662:0:0:0:0:
64,192,265522,128,0,265702:0:0:0:0:
320,192,265758,128,0,265849:0:0:0:0:
192,192,265758,128,0,265900:0:0:0:0:
448,192,265758,128,0,265940:0:0:0:0:
64,192,265995,128,0,266176:0:0:0:0:
320,192,265995,128,0,266136:0:0:0:0:
192,192,265995,128,0,266085:0:0:0:0:
448,192,266232,128,0,266413:0:0:0:0:
192,192,266232,128,0,266373:0:0:0:0:
320,192,266232,128,0,266322:0:0:0:0:
64,192,266469,1,0,0:0:0:0:
448,192,266469,1,0,0:0:0:0:
192,192,266522,128,0,266864:0:0:0:0:
320,192,266574,128,0,267101:0:0:0:0:
448,192,266627,1,0,0:0:0:0:
192,192,266943,1,0,0:0:0:0:
64,192,266943,1,0,0:0:0:0:
64,192,267101,128,0,267281:0:0:0:0:
448,192,267101,128,0,267241:0:0:0:0:
192,192,267101,128,0,267191:0:0:0:0:
320,192,267337,128,0,267427:0:0:0:0:
64,192,267337,128,0,267476:0:0:0:0:
448,192,267337,128,0,267517:0:0:0:0:
448,192,267574,128,0,267714:0:0:0:0:
192,192,267574,128,0,267664:0:0:0:0:
64,192,267574,128,0,267754:0:0:0:0:
64,192,267811,128,0,267949:0:0:0:0:
320,192,267811,128,0,267900:0:0:0:0:
448,192,267811,128,0,267989:0:0:0:0:
64,192,268048,128,0,268228:0:0:0:0:
192,192,268048,128,0,268138:0:0:0:0:
448,192,268048,128,0,268188:0:0:0:0:
448,192,268285,128,0,268464:0:0:0:0:
320,192,268285,128,0,268374:0:0:0:0:
64,192,268285,128,0,268423:0:0:0:0:
192,192,268522,128,0,268612:0:0:0:0:
64,192,268522,128,0,268680:0:0:0:0:
448,192,268522,128,0,268627:0:0:0:0:
320,192,268680,1,0,0:0:0:0:
192,192,268680,128,0,268916:0:0:0:0:
192,192,269015,1,0,0:0:0:0:
320,192,269015,128,0,269805:0:0:0:0:
192,192,269173,1,0,0:0:0:0:
64,192,269331,1,0,0:0:0:0:
64,192,269489,1,0,0:0:0:0:
448,192,269647,1,0,0:0:0:0:
448,192,269805,1,0,0:0:0:0:
192,192,269962,1,0,0:0:0:0:
64,192,269962,128,0,270199:0:0:0:0:
192,192,270120,1,0,0:0:0:0:
448,192,270278,1,0,0:0:0:0:
64,192,270278,128,0,270910:0:0:0:0:
448,192,270436,1,0,0:0:0:0:
320,192,270594,1,0,0:0:0:0:
320,192,270752,1,0,0:0:0:0:
192,192,270910,1,0,0:0:0:0:
448,192,270910,128,0,271226:0:0:0:0:
192,192,271068,1,0,0:0:0:0:
64,192,271226,1,0,0:0:0:0:
448,192,271305,128,0,271541:0:0:0:0:
64,192,271383,1,0,0:0:0:0:
320,192,271541,1,0,0:0:0:0:
192,192,271541,1,0,0:0:0:0:
448,192,271620,1,0,0:0:0:0:
192,192,271699,1,0,0:0:0:0:
320,192,271778,1,0,0:0:0:0:
192,192,271857,1,0,0:0:0:0:
64,192,271936,1,0,0:0:0:0:
320,192,272015,1,0,0:0:0:0:
192,192,272094,1,0,0:0:0:0:
320,192,272173,1,0,0:0:0:0:
64,192,272252,1,0,0:0:0:0:
320,192,272331,1,0,0:0:0:0:
448,192,272410,1,0,0:0:0:0:
64,192,272489,1,0,0:0:0:0:
320,192,272548,1,0,0:0:0:0:
64,192,272607,1,0,0:0:0:0:
192,192,272666,1,0,0:0:0:0:
320,192,272726,1,0,0:0:0:0:
448,192,272785,1,0,0:0:0:0:
64,192,272837,1,0,0:0:0:0:
448,192,272890,1,0,0:0:0:0:
320,192,272943,1,0,0:0:0:0:
192,192,272995,1,0,0:0:0:0:
448,192,273048,1,0,0:0:0:0:
64,192,273101,1,0,0:0:0:0:
192,192,273146,1,0,0:0:0:0:
320,192,273191,1,0,0:0:0:0:
64,192,273236,1,0,0:0:0:0:
448,192,273281,1,0,0:0:0:0:
320,192,273326,1,0,0:0:0:0:
192,192,273371,128,0,273461:0:0:0:0:
64,192,273416,128,0,273969:0:0:0:0:
320,192,273732,128,0,273811:0:0:0:0:
320,192,273890,128,0,274048:0:0:0:0:
64,192,274048,128,0,274161:0:0:0:0:
448,192,274048,1,0,0:0:0:0:
192,192,274093,128,0,274251:0:0:0:0:
320,192,274138,1,0,0:0:0:0:
448,192,274183,1,0,0:0:0:0:
64,192,274228,1,0,0:0:0:0:
320,192,274273,1,0,0:0:0:0:
192,192,274319,1,0,0:0:0:0:
448,192,274364,128,0,274469:0:0:0:0:
64,192,274416,1,0,0:0:0:0:
192,192,274469,1,0,0:0:0:0:
448,192,274522,128,0,274680:0:0:0:0:
320,192,274574,1,0,0:0:0:0:
64,192,274627,1,0,0:0:0:0:
192,192,274680,1,0,0:0:0:0:
320,192,274725,1,0,0:0:0:0:
64,192,274770,1,0,0:0:0:0:
448,192,274815,1,0,0:0:0:0:
192,192,274860,1,0,0:0:0:0:
320,192,274905,1,0,0:0:0:0:
448,192,274950,1,0,0:0:0:0:
64,191,274995,128,0,275101:0:0:0:0:
192,192,275048,1,0,0:0:0:0:
320,192,275101,1,0,0:0:0:0:
64,191,275153,128,0,275258:0:0:0:0:
448,192,275206,1,0,0:0:0:0:
320,192,275258,1,0,0:0:0:0:
192,192,275311,128,0,275416:0:0:0:0:
64,192,275364,128,0,275522:0:0:0:0:
320,192,275416,1,0,0:0:0:0:
192,192,275469,1,0,0:0:0:0:
448,192,275522,1,0,0:0:0:0:
64,192,275574,1,0,0:0:0:0:
320,192,275627,128,0,275732:0:0:0:0:
448,192,275680,128,0,275837:0:0:0:0:
192,192,275732,1,0,0:0:0:0:
320,192,275785,1,0,0:0:0:0:
64,192,275837,1,0,0:0:0:0:
448,192,275890,1,0,0:0:0:0:
320,192,275943,1,0,0:0:0:0:
192,192,275995,1,0,0:0:0:0:
448,192,276048,1,0,0:0:0:0:
64,192,276101,1,0,0:0:0:0:
320,192,276153,1,0,0:0:0:0:
192,192,276206,1,0,0:0:0:0:
64,192,276258,128,0,276364:0:0:0:0:
448,192,276311,128,0,276416:0:0:0:0:
192,192,276364,1,0,0:0:0:0:
320,192,276416,1,0,0:0:0:0:
64,192,276469,1,0,0:0:0:0:
192,192,276522,1,0,0:0:0:0:
320,192,276574,128,0,276653:0:0:0:0:
448,192,276574,1,0,0:0:0:0:
192,192,276627,128,0,276732:0:0:0:0:
64,192,276680,128,0,276811:0:0:0:0:
320,192,276732,1,0,0:0:0:0:
320,192,276811,1,0,0:0:0:0:
64,192,276890,128,0,277048:0:0:0:0:
448,192,276890,128,0,276969:0:0:0:0:
192,192,276969,1,0,0:0:0:0:
448,192,277048,128,0,277153:0:0:0:0:
320,192,277101,128,0,277285:0:0:0:0:
192,192,277153,1,0,0:0:0:0:
448,192,277206,1,0,0:0:0:0:
64,192,277206,1,0,0:0:0:0:
64,192,277285,1,0,0:0:0:0:
320,192,277364,128,0,277469:0:0:0:0:
448,192,277443,128,0,277522:0:0:0:0:
192,192,277522,1,0,0:0:0:0:
320,192,277522,1,0,0:0:0:0:
192,192,277601,1,0,0:0:0:0:
64,192,277680,128,0,277785:0:0:0:0:
448,192,277732,128,0,277837:0:0:0:0:
320,192,277785,1,0,0:0:0:0:
64,192,277837,1,0,0:0:0:0:
192,192,277837,1,0,0:0:0:0:
64,192,277916,1,0,0:0:0:0:
192,192,277995,1,0,0:0:0:0:
320,192,278048,128,0,278153:0:0:0:0:
64,192,278153,1,0,0:0:0:0:
448,192,278153,1,0,0:0:0:0:
448,192,278232,1,0,0:0:0:0:
192,192,278311,128,0,278469:0:0:0:0:
320,192,278390,128,0,278627:0:0:0:0:
448,192,278469,1,0,0:0:0:0:
64,192,278469,1,0,0:0:0:0:
64,192,278548,1,0,0:0:0:0:
448,192,278627,1,0,0:0:0:0:
192,192,278706,128,0,278864:0:0:0:0:
64,192,278785,128,0,278943:0:0:0:0:
320,192,278785,1,0,0:0:0:0:
320,192,278864,1,0,0:0:0:0:
448,192,278943,1,0,0:0:0:0:
192,192,279022,128,0,279101:0:0:0:0:
64,192,279101,128,0,279258:0:0:0:0:
448,192,279101,1,0,0:0:0:0:
448,192,279180,128,0,279416:0:0:0:0:
320,192,279258,1,0,0:0:0:0:
192,192,279337,1,0,0:0:0:0:
64,192,279416,128,0,279507:0:0:0:0:
320,192,279416,1,0,0:0:0:0:
448,192,279495,1,0,0:0:0:0:
64,192,279574,128,0,279680:0:0:0:0:
192,192,279627,128,0,279811:0:0:0:0:
448,192,279732,1,0,0:0:0:0:
320,192,279732,1,0,0:0:0:0:
320,192,279811,1,0,0:0:0:0:
448,192,279890,128,0,279995:0:0:0:0:
64,192,279969,1,0,0:0:0:0:
448,192,280048,128,0,280127:0:0:0:0:
192,192,280048,1,0,0:0:0:0:
192,192,280127,1,0,0:0:0:0:
320,192,280206,128,0,280311:0:0:0:0:
192,192,280258,128,0,280364:0:0:0:0:
64,192,280311,1,0,0:0:0:0:
320,192,280364,1,0,0:0:0:0:
448,192,280364,1,0,0:0:0:0:
448,192,280443,1,0,0:0:0:0:
192,192,280522,128,0,280680:0:0:0:0:
64,192,280522,1,0,0:0:0:0:
320,192,280601,128,0,280758:0:0:0:0:
448,192,280680,1,0,0:0:0:0:
64,192,280680,1,0,0:0:0:0:
64,192,280758,1,0,0:0:0:0:
448,192,280837,128,0,280995:0:0:0:0:
320,192,280916,1,0,0:0:0:0:
64,192,280995,1,0,0:0:0:0:
192,192,280995,1,0,0:0:0:0:
192,192,281074,1,0,0:0:0:0:
64,192,281153,128,0,281390:0:0:0:0:
320,192,281232,128,0,281311:0:0:0:0:
192,192,281311,1,0,0:0:0:0:
448,192,281311,1,0,0:0:0:0:
448,192,281390,1,0,0:0:0:0:
64,192,281469,1,0,0:0:0:0:
192,192,281522,128,0,281627:0:0:0:0:
320,192,281574,128,0,281732:0:0:0:0:
448,192,281627,128,0,281864:0:0:0:0:
64,192,281627,1,0,0:0:0:0:
64,192,281706,1,0,0:0:0:0:
320,192,281785,1,0,0:0:0:0:
192,192,281864,1,0,0:0:0:0:
64,192,281943,1,0,0:0:0:0:
448,192,281943,1,0,0:0:0:0:
448,192,282022,1,0,0:0:0:0:
320,192,282101,1,0,0:0:0:0:
64,192,282180,1,0,0:0:0:0:
448,192,282258,1,0,0:0:0:0:
192,192,282258,1,0,0:0:0:0:
192,192,282337,1,0,0:0:0:0:
320,192,282416,128,0,282522:0:0:0:0:
192,192,282495,1,0,0:0:0:0:
64,192,282574,128,0,282772:0:0:0:0:
448,192,282574,128,0,282680:0:0:0:0:
320,192,282653,1,0,0:0:0:0:
192,192,282732,128,0,282822:0:0:0:0:
320,192,282811,1,0,0:0:0:0:
192,192,282890,128,0,283048:0:0:0:0:
448,192,282890,1,0,0:0:0:0:
448,192,282969,1,0,0:0:0:0:
320,192,283048,1,0,0:0:0:0:
192,192,283127,1,0,0:0:0:0:
64,192,283206,1,0,0:0:0:0:
448,192,283206,1,0,0:0:0:0:
320,192,283285,1,0,0:0:0:0:
64,192,283285,1,0,0:0:0:0:
320,192,283364,1,0,0:0:0:0:
192,192,283364,1,0,0:0:0:0:
192,192,283522,1,0,0:0:0:0:
320,192,283522,1,0,0:0:0:0:
192,192,283601,1,0,0:0:0:0:
64,192,283680,1,0,0:0:0:0:
320,192,283758,1,0,0:0:0:0:
192,192,283758,1,0,0:0:0:0:
320,192,283837,128,0,283995:0:0:0:0:
448,192,283916,128,0,284153:0:0:0:0:
192,192,283995,1,0,0:0:0:0:
64,192,283995,1,0,0:0:0:0:
320,192,284153,128,0,284311:0:0:0:0:
192,192,284153,1,0,0:0:0:0:
64,192,284153,1,0,0:0:0:0:
192,192,284232,128,0,284390:0:0:0:0:
64,192,284311,1,0,0:0:0:0:
320,192,284390,1,0,0:0:0:0:
64,192,284469,128,0,284559:0:0:0:0:
448,192,284469,1,0,0:0:0:0:
448,192,284548,1,0,0:0:0:0:
64,192,284627,128,0,284864:0:0:0:0:
192,192,284706,1,0,0:0:0:0:
448,192,284785,1,0,0:0:0:0:
320,192,284785,1,0,0:0:0:0:
320,192,284864,1,0,0:0:0:0:
448,192,284943,1,0,0:0:0:0:
192,192,285022,1,0,0:0:0:0:
64,192,285101,1,0,0:0:0:0:
448,192,285101,1,0,0:0:0:0:
64,192,285180,128,0,285337:0:0:0:0:
192,192,285258,128,0,285416:0:0:0:0:
320,192,285337,1,0,0:0:0:0:
64,192,285416,128,0,285574:0:0:0:0:
448,192,285416,1,0,0:0:0:0:
448,192,285495,128,0,285653:0:0:0:0:
320,192,285574,1,0,0:0:0:0:
64,192,285653,1,0,0:0:0:0:
192,192,285732,1,0,0:0:0:0:
320,192,285732,1,0,0:0:0:0:
320,192,285811,128,0,286048:0:0:0:0:
448,192,285890,128,0,285969:0:0:0:0:
192,192,285969,1,0,0:0:0:0:
64,192,286048,1,0,0:0:0:0:
448,192,286048,1,0,0:0:0:0:
64,192,286127,1,0,0:0:0:0:
320,192,286206,1,0,0:0:0:0:
447,192,286285,1,0,0:0:0:0:
447,192,286364,128,0,286454:0:0:0:0:
64,192,286364,1,0,0:0:0:0:
192,192,286443,1,0,0:0:0:0:
447,192,286522,128,0,286627:0:0:0:0:
320,192,286601,1,0,0:0:0:0:
64,192,286680,128,0,286837:0:0:0:0:
192,192,286680,128,0,286916:0:0:0:0:
320,192,286758,1,0,0:0:0:0:
448,192,286837,1,0,0:0:0:0:
448,192,286916,1,0,0:0:0:0:
320,192,286995,128,0,287074:0:0:0:0:
192,192,286995,1,0,0:0:0:0:
192,192,287074,1,0,0:0:0:0:
448,192,287153,128,0,287232:0:0:0:0:
320,192,287193,128,0,287311:0:0:0:0:
192,192,287311,1,0,0:0:0:0:
64,192,287311,1,0,0:0:0:0:
64,192,287390,1,0,0:0:0:0:
192,192,287469,128,0,287666:0:0:0:0:
320,192,287548,1,0,0:0:0:0:
448,192,287627,1,0,0:0:0:0:
64,192,287627,128,0,287706:0:0:0:0:
448,192,287706,1,0,0:0:0:0:
64,192,287785,128,0,287864:0:0:0:0:
448,192,287864,1,0,0:0:0:0:
320,192,287943,1,0,0:0:0:0:
192,192,287943,128,0,288022:0:0:0:0:
64,192,287982,1,0,0:0:0:0:
320,192,288022,1,0,0:0:0:0:
192,192,288101,128,0,288258:0:0:0:0:
320,192,288180,1,0,0:0:0:0:
448,192,288258,1,0,0:0:0:0:
64,192,288258,128,0,288416:0:0:0:0:
448,192,288337,1,0,0:0:0:0:
320,192,288416,128,0,288653:0:0:0:0:
192,192,288495,1,0,0:0:0:0:
64,192,288574,1,0,0:0:0:0:
448,192,288574,1,0,0:0:0:0:
64,192,288653,1,0,0:0:0:0:
192,192,288732,128,0,288969:0:0:0:0:
448,192,288811,1,0,0:0:0:0:
320,192,288890,1,0,0:0:0:0:
64,192,288890,1,0,0:0:0:0:
320,192,288969,1,0,0:0:0:0:
448,192,289048,1,0,0:0:0:0:
64,192,289127,1,0,0:0:0:0:
192,192,289206,1,0,0:0:0:0:
320,192,289206,128,0,289285:0:0:0:0:
192,192,289285,128,0,289443:0:0:0:0:
320,192,289364,128,0,289522:0:0:0:0:
64,192,289443,1,0,0:0:0:0:
448,192,289522,1,0,0:0:0:0:
192,192,289522,128,0,289601:0:0:0:0:
448,192,289601,1,0,0:0:0:0:
192,192,289680,128,0,289837:0:0:0:0:
64,192,289758,128,0,289916:0:0:0:0:
320,192,289837,1,0,0:0:0:0:
448,192,289837,1,0,0:0:0:0:
320,192,289916,1,0,0:0:0:0:
448,192,289995,128,0,290153:0:0:0:0:
192,192,290074,1,0,0:0:0:0:
64,192,290153,1,0,0:0:0:0:
320,192,290153,1,0,0:0:0:0:
64,192,290232,1,0,0:0:0:0:
320,192,290311,128,0,290416:0:0:0:0:
192,192,290364,128,0,290548:0:0:0:0:
64,192,290416,1,0,0:0:0:0:
448,192,290469,1,0,0:0:0:0:
320,192,290469,1,0,0:0:0:0:
448,192,290548,1,0,0:0:0:0:
320,192,290627,128,0,290732:0:0:0:0:
64,192,290706,1,0,0:0:0:0:
320,192,290785,128,0,290837:0:0:0:0:
192,192,290785,1,0,0:0:0:0:
192,192,290864,1,0,0:0:0:0:
64,192,290943,128,0,291101:0:0:0:0:
448,192,291022,128,0,291101:0:0:0:0:
192,192,291101,1,0,0:0:0:0:
320,192,291101,1,0,0:0:0:0:
320,192,291180,1,0,0:0:0:0:
192,192,291258,128,0,291364:0:0:0:0:
448,191,291258,128,0,291377:0:0:0:0:
64,192,291337,128,0,291416:0:0:0:0:
320,192,291416,1,0,0:0:0:0:
192,192,291416,128,0,291469:0:0:0:0:
448,192,291495,1,0,0:0:0:0:
64,192,291574,1,0,0:0:0:0:
320,192,291574,1,0,0:0:0:0:
320,192,291653,1,0,0:0:0:0:
192,192,291653,1,0,0:0:0:0:
64,192,291732,128,0,291822:0:0:0:0:
192,192,291732,128,0,291913:0:0:0:0:
448,192,291732,128,0,291872:0:0:0:0:
448,192,291969,128,0,292059:0:0:0:0:
64,192,291969,128,0,292109:0:0:0:0:
320,192,291969,128,0,292150:0:0:0:0:
192,192,292206,128,0,292387:0:0:0:0:
64,192,292206,128,0,292296:0:0:0:0:
448,192,292206,128,0,292346:0:0:0:0:
320,192,292443,128,0,292624:0:0:0:0:
448,192,292443,128,0,292533:0:0:0:0:
64,192,292443,128,0,292583:0:0:0:0:
448,192,292680,128,0,292837:0:0:0:0:
192,191,292680,128,0,292890:0:0:0:0:
64,191,292680,128,0,292770:0:0:0:0:
64,192,292837,128,0,292995:0:0:0:0:
192,191,292995,128,0,293136:0:0:0:0:
448,192,292995,128,0,293086:0:0:0:0:
320,192,292995,128,0,293176:0:0:0:0:
320,191,293232,128,0,293372:0:0:0:0:
64,192,293232,128,0,293322:0:0:0:0:
192,192,293232,128,0,293413:0:0:0:0:
320,191,293469,128,0,293627:0:0:0:0:
448,192,293469,128,0,293548:0:0:0:0:
192,192,293469,128,0,293574:0:0:0:0:
448,192,293627,128,0,294180:0:0:0:0:
64,192,293627,128,0,294258:0:0:0:0:
448,192,294258,1,0,0:0:0:0:
320,192,294258,128,0,294495:0:0:0:0:
192,192,294311,128,0,294416:0:0:0:0:
64,192,294416,128,0,294495:0:0:0:0:
448,192,294495,128,0,294574:0:0:0:0:
64,192,294574,1,0,0:0:0:0:
192,192,294574,1,0,0:0:0:0:
320,192,294627,1,0,0:0:0:0:
448,192,294680,1,0,0:0:0:0:
192,192,294732,128,0,294837:0:0:0:0:
64,192,294785,128,0,294943:0:0:0:0:
320,192,294837,1,0,0:0:0:0:
192,192,294890,1,0,0:0:0:0:
448,192,294943,1,0,0:0:0:0:
320,192,294995,1,0,0:0:0:0:
64,192,295048,128,0,295206:0:0:0:0:
192,192,295101,1,0,0:0:0:0:
320,192,295153,1,0,0:0:0:0:
448,192,295206,128,0,295311:0:0:0:0:
320,192,295258,128,0,295416:0:0:0:0:
64,192,295311,1,0,0:0:0:0:
192,192,295364,1,0,0:0:0:0:
448,192,295416,1,0,0:0:0:0:
64,192,295469,1,0,0:0:0:0:
277,191,295522,128,0,295601:0:0:0:0:
405,192,295561,1,0,0:0:0:0:
192,192,295601,1,0,0:0:0:0:
64,192,295640,1,0,0:0:0:0:
320,192,295680,1,0,0:0:0:0:
64,192,295732,1,0,0:0:0:0:
192,192,295785,1,0,0:0:0:0:
448,192,295837,128,0,295995:0:0:0:0:
320,192,295890,1,0,0:0:0:0:
192,192,295943,1,0,0:0:0:0:
64,192,295995,128,0,296101:0:0:0:0:
192,192,296048,128,0,296206:0:0:0:0:
448,192,296101,1,0,0:0:0:0:
320,192,296153,1,0,0:0:0:0:
64,192,296206,1,0,0:0:0:0:
448,192,296258,1,0,0:0:0:0:
192,192,296311,128,0,296416:0:0:0:0:
64,192,296364,1,0,0:0:0:0:
320,192,296416,1,0,0:0:0:0:
448,192,296469,128,0,296627:0:0:0:0:
192,192,296522,1,0,0:0:0:0:
64,192,296574,1,0,0:0:0:0:
320,192,296627,128,0,296732:0:0:0:0:
192,192,296680,1,0,0:0:0:0:
448,192,296732,1,0,0:0:0:0:
64,192,296785,128,0,296864:0:0:0:0:
192,192,296824,1,0,0:0:0:0:
320,192,296864,1,0,0:0:0:0:
448,192,296903,1,0,0:0:0:0:
192,192,296943,128,0,297101:0:0:0:0:
64,192,296995,1,0,0:0:0:0:
448,192,297048,1,0,0:0:0:0:
320,192,297101,128,0,297258:0:0:0:0:
64,192,297153,1,0,0:0:0:0:
192,192,297206,1,0,0:0:0:0:
448,192,297258,128,0,297364:0:0:0:0:
64,192,297311,1,0,0:0:0:0:
320,192,297364,1,0,0:0:0:0:
64,192,297416,1,0,0:0:0:0:
192,192,297416,128,0,297574:0:0:0:0:
448,192,297495,1,0,0:0:0:0:
320,192,297574,128,0,297653:0:0:0:0:
192,192,297653,128,0,297732:0:0:0:0:
320,192,297732,1,0,0:0:0:0:
448,192,297732,1,0,0:0:0:0:
64,192,297785,1,0,0:0:0:0:
448,192,297837,1,0,0:0:0:0:
192,192,297890,1,0,0:0:0:0:
320,192,297943,1,0,0:0:0:0:
448,192,297995,1,0,0:0:0:0:
192,192,298048,128,0,298153:0:0:0:0:
64,192,298048,1,0,0:0:0:0:
320,192,298127,1,0,0:0:0:0:
448,192,298206,128,0,298311:0:0:0:0:
64,192,298206,128,0,298364:0:0:0:0:
192,192,298285,1,0,0:0:0:0:
320,192,298364,1,0,0:0:0:0:
448,192,298364,1,0,0:0:0:0:
320,192,298443,1,0,0:0:0:0:
192,192,298522,1,0,0:0:0:0:
192,192,298601,1,0,0:0:0:0:
448,192,298680,128,0,298890:0:0:0:0:
64,192,298680,1,0,0:0:0:0:
320,192,298732,128,0,298837:0:0:0:0:
192,192,298837,1,0,0:0:0:0:
64,192,298916,1,0,0:0:0:0:
448,192,298995,1,0,0:0:0:0:
64,192,298995,128,0,299206:0:0:0:0:
320,192,299048,128,0,299153:0:0:0:0:
192,192,299153,1,0,0:0:0:0:
320,192,299206,1,0,0:0:0:0:
448,192,299258,1,0,0:0:0:0:
64,192,299311,128,0,299469:0:0:0:0:
192,192,299311,128,0,299416:0:0:0:0:
448,192,299364,1,0,0:0:0:0:
320,192,299416,1,0,0:0:0:0:
192,192,299469,1,0,0:0:0:0:
64,192,299522,1,0,0:0:0:0:
320,192,299574,1,0,0:0:0:0:
192,192,299627,128,0,299732:0:0:0:0:
448,192,299627,1,0,0:0:0:0:
64,192,299706,1,0,0:0:0:0:
320,192,299785,128,0,299890:0:0:0:0:
192,192,299785,128,0,299943:0:0:0:0:
448,192,299864,1,0,0:0:0:0:
320,192,299943,1,0,0:0:0:0:
64,192,299995,1,0,0:0:0:0:
192,192,300048,1,0,0:0:0:0:
320,192,300101,1,0,0:0:0:0:
448,192,300101,128,0,300206:0:0:0:0:
192,192,300180,1,0,0:0:0:0:
64,192,300258,128,0,300364:0:0:0:0:
448,192,300258,128,0,300416:0:0:0:0:
320,192,300311,1,0,0:0:0:0:
192,192,300364,1,0,0:0:0:0:
64,192,300416,1,0,0:0:0:0:
448,192,300495,1,0,0:0:0:0:
64,192,300574,128,0,300680:0:0:0:0:
192,192,300574,1,0,0:0:0:0:
320,192,300653,1,0,0:0:0:0:
448,192,300732,128,0,300890:0:0:0:0:
64,192,300732,128,0,300837:0:0:0:0:
192,192,300811,1,0,0:0:0:0:
320,192,300890,1,0,0:0:0:0:
192,192,300943,1,0,0:0:0:0:
64,192,300995,1,0,0:0:0:0:
320,192,301048,1,0,0:0:0:0:
320,192,301127,1,0,0:0:0:0:
192,192,301206,128,0,301364:0:0:0:0:
448,192,301206,1,0,0:0:0:0:
64,192,301258,1,0,0:0:0:0:
320,192,301311,128,0,301443:0:0:0:0:
448,192,301364,1,0,0:0:0:0:
192,192,301443,1,0,0:0:0:0:
320,192,301522,1,0,0:0:0:0:
64,192,301522,1,0,0:0:0:0:
64,192,301601,128,0,301732:0:0:0:0:
192,192,301680,128,0,301785:0:0:0:0:
448,192,301680,128,0,301837:0:0:0:0:
192,192,301837,1,0,0:0:0:0:
320,192,301837,1,0,0:0:0:0:
64,192,301877,1,0,0:0:0:0:
448,192,301916,1,0,0:0:0:0:
192,192,301956,1,0,0:0:0:0:
320,192,301995,128,0,302101:0:0:0:0:
448,192,302074,1,0,0:0:0:0:
64,192,302153,128,0,302258:0:0:0:0:
320,192,302153,1,0,0:0:0:0:
192,192,302232,1,0,0:0:0:0:
448,192,302311,128,0,302416:0:0:0:0:
64,192,302311,128,0,302469:0:0:0:0:
320,192,302390,1,0,0:0:0:0:
192,192,302469,128,0,302627:0:0:0:0:
448,192,302469,1,0,0:0:0:0:
64,192,302548,1,0,0:0:0:0:
320,192,302627,128,0,302706:0:0:0:0:
192,192,302706,128,0,302785:0:0:0:0:
320,192,302785,1,0,0:0:0:0:
448,192,302785,1,0,0:0:0:0:
64,192,302837,1,0,0:0:0:0:
192,192,302890,1,0,0:0:0:0:
448,192,302943,128,0,303101:0:0:0:0:
320,192,302995,1,0,0:0:0:0:
192,192,303048,1,0,0:0:0:0:
64,192,303101,128,0,303258:0:0:0:0:
448,192,303164,1,0,0:0:0:0:
192,192,303227,1,0,0:0:0:0:
320,192,303290,1,0,0:0:0:0:
448,192,303353,1,0,0:0:0:0:
192,192,303416,1,0,0:0:0:0:
64,192,303416,1,0,0:0:0:0:
64,192,303495,1,0,0:0:0:0:
192,192,303495,1,0,0:0:0:0:
448,192,303574,1,0,0:0:0:0:
320,192,303574,1,0,0:0:0:0:
192,192,303653,1,0,0:0:0:0:
448,192,303732,128,0,303890:0:0:0:0:
64,192,303732,128,0,303864:0:0:0:0:
320,192,303767,128,0,303837:0:0:0:0:
64,192,303969,128,0,304127:0:0:0:0:
192,192,303969,128,0,304048:0:0:0:0:
448,191,303969,128,0,304074:0:0:0:0:
192,192,304206,1,0,0:0:0:0:
320,192,304206,128,0,304285:0:0:0:0:
277,192,304364,1,0,0:0:0:0:
149,192,304364,1,0,0:0:0:0:
21,192,304403,1,0,0:0:0:0:
405,192,304443,1,0,0:0:0:0:
149,192,304482,1,0,0:0:0:0:
320,192,304522,128,0,304680:0:0:0:0:
448,192,304574,1,0,0:0:0:0:
64,192,304627,1,0,0:0:0:0:
192,192,304680,128,0,304837:0:0:0:0:
448,192,304732,1,0,0:0:0:0:
64,192,304785,1,0,0:0:0:0:
320,192,304837,128,0,304943:0:0:0:0:
448,192,304890,128,0,305048:0:0:0:0:
192,192,304943,1,0,0:0:0:0:
320,192,304995,1,0,0:0:0:0:
64,192,305048,1,0,0:0:0:0:
192,192,305101,1,0,0:0:0:0:
448,192,305153,128,0,305311:0:0:0:0:
320,192,305206,1,0,0:0:0:0:
192,192,305258,1,0,0:0:0:0:
64,192,305311,128,0,305416:0:0:0:0:
192,192,305364,128,0,305522:0:0:0:0:
448,192,305416,1,0,0:0:0:0:
320,192,305469,1,0,0:0:0:0:
64,192,305522,1,0,0:0:0:0:
448,192,305574,1,0,0:0:0:0:
192,191,305627,128,0,305706:0:0:0:0:
64,192,305666,1,0,0:0:0:0:
320,192,305706,1,0,0:0:0:0:
448,192,305745,1,0,0:0:0:0:
192,192,305785,1,0,0:0:0:0:
448,192,305837,1,0,0:0:0:0:
320,192,305890,1,0,0:0:0:0:
64,192,305943,128,0,306101:0:0:0:0:
192,192,305995,1,0,0:0:0:0:
320,192,306048,1,0,0:0:0:0:
448,192,306101,128,0,306206:0:0:0:0:
320,192,306153,128,0,306311:0:0:0:0:
64,192,306206,1,0,0:0:0:0:
192,192,306258,1,0,0:0:0:0:
448,192,306311,1,0,0:0:0:0:
64,192,306364,1,0,0:0:0:0:
320,192,306416,128,0,306522:0:0:0:0:
448,192,306469,1,0,0:0:0:0:
192,192,306522,1,0,0:0:0:0:
64,192,306574,128,0,306732:0:0:0:0:
320,192,306627,1,0,0:0:0:0:
448,192,306680,1,0,0:0:0:0:
192,192,306732,128,0,306837:0:0:0:0:
320,192,306785,1,0,0:0:0:0:
64,192,306837,1,0,0:0:0:0:
448,192,306890,128,0,306969:0:0:0:0:
320,192,306930,1,0,0:0:0:0:
192,192,306969,1,0,0:0:0:0:
64,192,307008,1,0,0:0:0:0:
320,192,307048,128,0,307206:0:0:0:0:
448,192,307101,1,0,0:0:0:0:
177,192,307153,1,0,0:0:0:0:
49,192,307206,128,0,307364:0:0:0:0:
448,192,307258,1,0,0:0:0:0:
320,192,307311,1,0,0:0:0:0:
177,192,307364,128,0,307469:0:0:0:0:
448,192,307416,1,0,0:0:0:0:
49,192,307469,1,0,0:0:0:0:
320,192,307522,128,0,307680:0:0:0:0:
177,192,307574,1,0,0:0:0:0:
448,192,307627,1,0,0:0:0:0:
64,192,307680,128,0,307785:0:0:0:0:
192,192,307732,1,0,0:0:0:0:
320,192,307785,1,0,0:0:0:0:
64,192,307837,1,0,0:0:0:0:
448,192,307837,128,0,308027:0:0:0:0:
192,192,307901,1,0,0:0:0:0:
320,192,307964,1,0,0:0:0:0:
192,192,308027,1,0,0:0:0:0:
64,192,308090,1,0,0:0:0:0:
448,192,308153,1,0,0:0:0:0:
320,192,308153,128,0,308258:0:0:0:0:
192,192,308232,1,0,0:0:0:0:
448,192,308311,128,0,308469:0:0:0:0:
64,192,308311,128,0,308416:0:0:0:0:
320,192,308390,1,0,0:0:0:0:
64,192,308469,1,0,0:0:0:0:
192,192,308469,1,0,0:0:0:0:
192,192,308548,1,0,0:0:0:0:
320,192,308627,1,0,0:0:0:0:
320,192,308706,1,0,0:0:0:0:
448,192,308785,1,0,0:0:0:0:
64,192,308785,128,0,308995:0:0:0:0:
192,192,308837,128,0,308943:0:0:0:0:
320,192,308943,1,0,0:0:0:0:
448,192,309022,1,0,0:0:0:0:
448,192,309101,128,0,309311:0:0:0:0:
64,192,309101,1,0,0:0:0:0:
192,192,309153,128,0,309258:0:0:0:0:
320,192,309258,1,0,0:0:0:0:
192,192,309311,1,0,0:0:0:0:
64,192,309364,1,0,0:0:0:0:
320,192,309416,128,0,309495:0:0:0:0:
448,192,309456,1,0,0:0:0:0:
64,192,309495,1,0,0:0:0:0:
192,192,309535,1,0,0:0:0:0:
320,192,309574,1,0,0:0:0:0:
448,192,309627,1,0,0:0:0:0:
192,192,309680,1,0,0:0:0:0:
64,192,309732,1,0,0:0:0:0:
320,192,309732,128,0,309837:0:0:0:0:
448,192,309811,1,0,0:0:0:0:
320,192,309890,128,0,310048:0:0:0:0:
192,192,309890,128,0,309995:0:0:0:0:
64,192,309969,1,0,0:0:0:0:
448,192,310048,1,0,0:0:0:0:
192,192,310048,128,0,310206:0:0:0:0:
320,192,310127,1,0,0:0:0:0:
448,192,310206,1,0,0:0:0:0:
448,192,310285,1,0,0:0:0:0:
192,192,310364,128,0,310522:0:0:0:0:
64,192,310364,128,0,310469:0:0:0:0:
320,192,310416,1,0,0:0:0:0:
448,192,310469,1,0,0:0:0:0:
64,192,310522,1,0,0:0:0:0:
192,192,310601,1,0,0:0:0:0:
448,192,310680,1,0,0:0:0:0:
320,192,310719,1,0,0:0:0:0:
192,192,310758,1,0,0:0:0:0:
64,192,310798,1,0,0:0:0:0:
448,192,310837,128,0,310995:0:0:0:0:
192,192,310890,1,0,0:0:0:0:
320,192,310943,1,0,0:0:0:0:
64,192,310995,128,0,311153:0:0:0:0:
192,192,311048,1,0,0:0:0:0:
448,192,311101,1,0,0:0:0:0:
320,192,311153,1,0,0:0:0:0:
192,192,311206,1,0,0:0:0:0:
64,192,311258,1,0,0:0:0:0:
320,192,311311,1,0,0:0:0:0:
448,192,311311,1,0,0:0:0:0:
192,192,311390,128,0,311469:0:0:0:0:
320,192,311443,128,0,311548:0:0:0:0:
448,192,311495,1,0,0:0:0:0:
192,192,311548,1,0,0:0:0:0:
64,192,311627,1,0,0:0:0:0:
448,192,311627,128,0,311864:0:0:0:0:
64,192,311706,128,0,311864:0:0:0:0:
192,192,311785,1,0,0:0:0:0:
320,192,311864,128,0,311943:0:0:0:0:
64,192,311943,1,0,0:0:0:0:
192,192,311982,1,0,0:0:0:0:
320,192,312022,1,0,0:0:0:0:
448,192,312061,1,0,0:0:0:0:
192,192,312101,1,0,0:0:0:0:
64,192,312180,1,0,0:0:0:0:
320,192,312258,128,0,312416:0:0:0:0:
448,192,312258,128,0,312337:0:0:0:0:
192,192,312337,1,0,0:0:0:0:
64,192,312416,128,0,312495:0:0:0:0:
448,192,312416,128,0,312574:0:0:0:0:
320,192,312495,1,0,0:0:0:0:
64,192,312574,1,0,0:0:0:0:
192,192,312574,1,0,0:0:0:0:
320,192,312653,1,0,0:0:0:0:
320,192,312732,1,0,0:0:0:0:
192,192,312811,1,0,0:0:0:0:
192,192,312890,1,0,0:0:0:0:
64,192,312969,128,0,313136:0:0:0:0:
448,192,313048,128,0,313206:0:0:0:0:
64,192,313206,128,0,313296:0:0:0:0:
192,192,313206,128,0,313386:0:0:0:0:
320,191,313206,128,0,313346:0:0:0:0:
192,191,313443,128,0,313583:0:0:0:0:
320,192,313443,128,0,313624:0:0:0:0:
448,192,313443,128,0,313533:0:0:0:0:
192,191,313680,128,0,313837:0:0:0:0:
64,192,313680,128,0,313758:0:0:0:0:
320,192,313680,128,0,313785:0:0:0:0:
448,192,313837,1,0,0:0:0:0:
64,192,313837,128,0,314153:0:0:0:0:
448,192,313916,1,0,0:0:0:0:
320,192,313995,1,0,0:0:0:0:
192,192,314074,1,0,0:0:0:0:
448,192,314153,1,0,0:0:0:0:
64,192,314232,128,0,314337:0:0:0:0:
192,192,314311,1,0,0:0:0:0:
320,192,314390,1,0,0:0:0:0:
64,192,314469,1,0,0:0:0:0:
192,192,314469,1,0,0:0:0:0:
448,192,314469,128,0,314548:0:0:0:0:
64,192,314548,1,0,0:0:0:0:
320,192,314627,1,0,0:0:0:0:
64,192,314706,1,0,0:0:0:0:
448,192,314785,1,0,0:0:0:0:
320,192,314785,1,0,0:0:0:0:
192,192,314785,1,0,0:0:0:0:
192,192,314864,1,0,0:0:0:0:
448,192,314943,1,0,0:0:0:0:
192,192,315022,128,0,315101:0:0:0:0:
64,192,315101,1,0,0:0:0:0:
320,192,315101,1,0,0:0:0:0:
448,192,315101,1,0,0:0:0:0:
320,192,315180,128,0,315258:0:0:0:0:
192,192,315258,128,0,315337:0:0:0:0:
64,192,315337,1,0,0:0:0:0:
320,192,315416,1,0,0:0:0:0:
448,192,315416,1,0,0:0:0:0:
192,192,315416,128,0,315495:0:0:0:0:
448,192,315495,128,0,315574:0:0:0:0:
64,192,315574,1,0,0:0:0:0:
192,192,315574,1,0,0:0:0:0:
320,192,315574,128,0,315653:0:0:0:0:
64,192,315653,1,0,0:0:0:0:
320,192,315732,1,0,0:0:0:0:
448,192,315732,1,0,0:0:0:0:
448,192,315811,128,0,315890:0:0:0:0:
320,192,315811,1,0,0:0:0:0:
64,192,315890,128,0,315969:0:0:0:0:
192,192,315890,1,0,0:0:0:0:
320,192,315969,128,0,316048:0:0:0:0:
448,192,316048,1,0,0:0:0:0:
192,192,316048,1,0,0:0:0:0:
64,192,316048,1,0,0:0:0:0:
192,192,316127,128,0,316206:0:0:0:0:
320,192,316206,128,0,316285:0:0:0:0:
64,192,316285,128,0,316364:0:0:0:0:
192,192,316285,1,0,0:0:0:0:
448,192,316285,1,0,0:0:0:0:
448,192,316364,128,0,316443:0:0:0:0:
192,192,316443,128,0,316522:0:0:0:0:
448,192,316522,1,0,0:0:0:0:
64,192,316522,1,0,0:0:0:0:
320,192,316522,128,0,316601:0:0:0:0:
64,192,316601,128,0,316680:0:0:0:0:
448,192,316680,128,0,316758:0:0:0:0:
320,192,316758,1,0,0:0:0:0:
192,192,316758,1,0,0:0:0:0:
64,192,316758,1,0,0:0:0:0:
320,192,316837,128,0,316916:0:0:0:0:
64,192,316995,1,0,0:0:0:0:
192,192,316995,1,0,0:0:0:0:
320,192,317065,128,0,317241:0:0:0:0:
448,192,317101,1,0,0:0:0:0:
192,192,317171,128,0,317311:0:0:0:0:
320,192,317311,1,0,0:0:0:0:
64,192,317337,128,0,317390:0:0:0:0:
64,192,317469,1,0,0:0:0:0:
192,192,317469,1,0,0:0:0:0:
448,192,317548,1,0,0:0:0:0:
320,192,317548,1,0,0:0:0:0:
192,192,317627,128,0,317890:0:0:0:0:
448,192,317627,128,0,317811:0:0:0:0:
64,192,317627,1,0,0:0:0:0:
320,192,317732,128,0,318048:0:0:0:0:
448,192,317864,1,0,0:0:0:0:
192,192,317943,128,0,318101:0:0:0:0:
64,192,317982,128,0,318061:0:0:0:0:
320,192,318101,128,0,318206:0:0:0:0:
448,192,318101,128,0,318416:0:0:0:0:
192,192,318258,1,0,0:0:0:0:
320,192,318337,1,0,0:0:0:0:
64,192,318416,1,0,0:0:0:0:
192,192,318416,128,0,318522:0:0:0:0:
448,192,318495,1,0,0:0:0:0:
64,192,318574,128,0,318732:0:0:0:0:
320,192,318601,128,0,318680:0:0:0:0:
320,192,318732,1,0,0:0:0:0:
448,192,318732,1,0,0:0:0:0:
192,192,318811,1,0,0:0:0:0:
64,192,318811,1,0,0:0:0:0:
320,192,318890,1,0,0:0:0:0:
448,192,318890,1,0,0:0:0:0:
64,192,318890,1,0,0:0:0:0:
192,192,318969,128,0,319127:0:0:0:0:
320,192,319048,128,0,319285:0:0:0:0:
448,192,319127,128,0,319232:0:0:0:0:
192,192,319206,1,0,0:0:0:0:
64,192,319285,1,0,0:0:0:0:
192,192,319364,1,0,0:0:0:0:
320,192,319443,1,0,0:0:0:0:
448,192,319522,1,0,0:0:0:0:
64,192,319522,1,0,0:0:0:0:
192,192,319522,128,0,319680:0:0:0:0:
448,192,319601,1,0,0:0:0:0:
320,192,319680,1,0,0:0:0:0:
192,192,319758,1,0,0:0:0:0:
448,192,319758,128,0,319916:0:0:0:0:
192,192,319837,1,0,0:0:0:0:
64,192,319916,1,0,0:0:0:0:
320,192,319995,1,0,0:0:0:0:
192,192,319995,128,0,320074:0:0:0:0:
320,192,320074,1,0,0:0:0:0:
192,192,320153,1,0,0:0:0:0:
448,192,320153,128,0,320232:0:0:0:0:
192,192,320232,1,0,0:0:0:0:
448,192,320311,1,0,0:0:0:0:
64,192,320311,128,0,320390:0:0:0:0:
448,192,320390,1,0,0:0:0:0:
320,192,320469,128,0,320627:0:0:0:0:
192,192,320469,1,0,0:0:0:0:
64,192,320469,1,0,0:0:0:0:
64,192,320548,1,0,0:0:0:0:
192,192,320627,1,0,0:0:0:0:
64,192,320706,128,0,320864:0:0:0:0:
320,192,320706,1,0,0:0:0:0:
320,192,320785,1,0,0:0:0:0:
448,192,320864,1,0,0:0:0:0:
320,192,320943,128,0,321022:0:0:0:0:
192,192,320943,1,0,0:0:0:0:
192,192,321022,1,0,0:0:0:0:
64,192,321101,128,0,321180:0:0:0:0:
320,192,321101,1,0,0:0:0:0:
320,192,321180,1,0,0:0:0:0:
64,192,321258,1,0,0:0:0:0:
192,192,321258,128,0,321337:0:0:0:0:
320,192,321337,1,0,0:0:0:0:
448,192,321337,1,0,0:0:0:0:
192,192,321416,1,0,0:0:0:0:
448,192,321416,128,0,321495:0:0:0:0:
64,192,321495,1,0,0:0:0:0:
448,192,321574,1,0,0:0:0:0:
64,192,321574,128,0,321653:0:0:0:0:
320,192,321653,1,0,0:0:0:0:
64,192,321732,1,0,0:0:0:0:
320,192,321732,128,0,321811:0:0:0:0:
192,192,321811,1,0,0:0:0:0:
448,192,321890,1,0,0:0:0:0:
192,192,321890,128,0,321969:0:0:0:0:
448,192,321969,128,0,322048:0:0:0:0:
320,192,322048,5,0,0:0:0:0:
64,192,322048,1,0,0:0:0:0:
192,192,322138,1,0,0:0:0:0:
320,192,322183,1,0,0:0:0:0:
64,192,322228,1,0,0:0:0:0:
448,192,322273,1,0,0:0:0:0:
320,192,322319,1,0,0:0:0:0:
64,192,322364,1,0,0:0:0:0:
192,192,322364,1,0,0:0:0:0:
448,192,322443,128,0,322522:0:0:0:0:
320,192,322482,1,0,0:0:0:0:
192,192,322522,128,0,322601:0:0:0:0:
320,192,322601,128,0,322680:0:0:0:0:
64,192,322680,1,0,0:0:0:0:
448,192,322680,128,0,322758:0:0:0:0:
192,192,322745,1,0,0:0:0:0:
320,192,322790,1,0,0:0:0:0:
64,192,322837,128,0,322916:0:0:0:0:
448,192,322916,1,0,0:0:0:0:
64,192,322995,1,0,0:0:0:0:
192,192,322995,1,0,0:0:0:0:
362,192,323074,1,0,0:0:0:0:
192,192,323114,1,0,0:0:0:0:
490,191,323153,128,0,323232:0:0:0:0:
64,192,323232,128,0,323311:0:0:0:0:
192,192,323311,1,0,0:0:0:0:
362,192,323311,128,0,323390:0:0:0:0:
490,191,323337,1,0,0:0:0:0:
192,192,323390,1,0,0:0:0:0:
64,192,323469,1,0,0:0:0:0:
362,192,323469,1,0,0:0:0:0:
362,192,323548,1,0,0:0:0:0:
192,192,323627,1,0,0:0:0:0:
64,192,323627,1,0,0:0:0:0:
192,192,323706,1,0,0:0:0:0:
64,192,323706,1,0,0:0:0:0:
448,192,323785,1,0,0:0:0:0:
320,192,323785,1,0,0:0:0:0:
320,192,323864,1,0,0:0:0:0:
448,192,323864,1,0,0:0:0:0:
192,192,323943,1,0,0:0:0:0:
64,192,323943,1,0,0:0:0:0:
320,192,324022,128,0,324087:0:0:0:0:
320,192,324153,1,0,0:0:0:0:
192,192,324206,128,0,324495:0:0:0:0:
448,192,324258,128,0,324574:0:0:0:0:
64,192,324574,128,0,324750:0:0:0:0:
192,192,324574,128,0,324693:0:0:0:0:
320,192,324574,128,0,324644:0:0:0:0:
448,192,324811,128,0,324987:0:0:0:0:
192,192,324811,128,0,324881:0:0:0:0:
320,192,324811,128,0,324930:0:0:0:0:
64,192,325048,128,0,325224:0:0:0:0:
320,192,325048,128,0,325118:0:0:0:0:
192,192,325048,128,0,325166:0:0:0:0:
448,192,325285,128,0,325462:0:0:0:0:
192,192,325285,128,0,325355:0:0:0:0:
320,192,325285,128,0,325403:0:0:0:0:
192,192,325522,128,0,325640:0:0:0:0:
320,192,325522,128,0,325592:0:0:0:0:
64,192,325522,128,0,325697:0:0:0:0:
320,192,325758,128,0,325877:0:0:0:0:
192,192,325758,128,0,325829:0:0:0:0:
448,192,325758,128,0,325936:0:0:0:0:
64,192,325995,128,0,326171:0:0:0:0:
320,192,325995,128,0,326065:0:0:0:0:
192,192,325995,128,0,326114:0:0:0:0:
448,192,326232,128,0,326408:0:0:0:0:
192,192,326232,128,0,326302:0:0:0:0:
320,192,326232,128,0,326351:0:0:0:0:
64,192,326469,1,0,0:0:0:0:
320,192,326469,1,0,0:0:0:0:
448,192,326469,128,0,326706:0:0:0:0:
320,192,326574,128,0,326943:0:0:0:0:
192,192,326627,128,0,326864:0:0:0:0:
448,192,326943,1,0,0:0:0:0:
64,192,326943,1,0,0:0:0:0:
192,192,327101,128,0,327276:0:0:0:0:
64,192,327101,128,0,327171:0:0:0:0:
448,192,327101,128,0,327219:0:0:0:0:
320,192,327337,128,0,327512:0:0:0:0:
64,192,327337,128,0,327456:0:0:0:0:
448,192,327337,128,0,327407:0:0:0:0:
192,192,327574,128,0,327749:0:0:0:0:
448,192,327574,128,0,327693:0:0:0:0:
64,192,327574,128,0,327644:0:0:0:0:
320,192,327811,128,0,327985:0:0:0:0:
64,192,327811,128,0,327930:0:0:0:0:
448,192,327811,128,0,327880:0:0:0:0:
192,192,328048,128,0,328118:0:0:0:0:
448,192,328048,128,0,328166:0:0:0:0:
64,192,328048,128,0,328223:0:0:0:0:
448,192,328285,128,0,328354:0:0:0:0:
64,192,328285,128,0,328403:0:0:0:0:
320,192,328285,128,0,328459:0:0:0:0:
192,192,328522,128,0,328697:0:0:0:0:
448,192,328522,128,0,328640:0:0:0:0:
64,192,328522,128,0,328592:0:0:0:0:
448,192,328758,128,0,328933:0:0:0:0:
64,192,328758,128,0,328877:0:0:0:0:
320,192,328758,128,0,328828:0:0:0:0:
64,192,328995,128,0,329232:0:0:0:0:
192,192,328995,1,0,0:0:0:0:
448,192,328995,1,0,0:0:0:0:
192,192,329101,128,0,329469:0:0:0:0:
320,192,329153,128,0,329390:0:0:0:0:
448,192,329469,1,0,0:0:0:0:
64,192,329469,1,0,0:0:0:0:
320,192,329627,128,0,329717:0:0:0:0:
192,192,329627,128,0,329690:0:0:0:0:
448,192,329627,128,0,329690:0:0:0:0:
320,191,329785,128,0,329875:0:0:0:0:
448,192,329785,128,0,329995:0:0:0:0:
192,192,329785,128,0,329925:0:0:0:0:
192,191,330101,128,0,330276:0:0:0:0:
320,192,330101,128,0,330219:0:0:0:0:
64,192,330101,128,0,330171:0:0:0:0:
64,192,330337,128,0,330512:0:0:0:0:
320,192,330337,128,0,330456:0:0:0:0:
192,192,330337,128,0,330407:0:0:0:0:
320,192,330574,1,0,0:0:0:0:
448,192,330574,1,0,0:0:0:0:
64,192,330574,128,0,330710:0:0:0:0:
448,192,330653,128,0,330732:0:0:0:0:
320,192,330653,128,0,330811:0:0:0:0:
192,192,330811,1,0,0:0:0:0:
64,192,330811,1,0,0:0:0:0:
448,192,330811,128,0,330947:0:0:0:0:
192,192,330890,128,0,331048:0:0:0:0:
64,192,330890,128,0,330969:0:0:0:0:
320,192,331048,1,0,0:0:0:0:
448,192,331048,1,0,0:0:0:0:
64,192,331048,128,0,331184:0:0:0:0:
320,192,331127,128,0,331285:0:0:0:0:
448,192,331127,128,0,331206:0:0:0:0:
192,192,331285,1,0,0:0:0:0:
448,192,331285,128,0,331421:0:0:0:0:
64,192,331285,1,0,0:0:0:0:
192,192,331364,128,0,331522:0:0:0:0:
64,192,331364,128,0,331443:0:0:0:0:
320,192,331522,128,0,331612:0:0:0:0:
64,192,331522,128,0,331711:0:0:0:0:
448,192,331522,128,0,331837:0:0:0:0:
320,192,331758,128,0,331943:0:0:0:0:
192,192,331837,128,0,332232:0:0:0:0:
305,191,332311,128,0,332416:0:0:0:0:
64,192,332311,128,0,332416:0:0:0:0:
433,192,332337,128,0,332390:0:0:0:0:
433,192,332469,128,0,332574:0:0:0:0:
192,192,332469,128,0,332574:0:0:0:0:
305,191,332495,128,0,332548:0:0:0:0:
433,192,332627,128,0,332732:0:0:0:0:
64,192,332627,128,0,332732:0:0:0:0:
192,192,332653,128,0,332706:0:0:0:0:
305,191,332785,128,0,332995:0:0:0:0:
192,192,332785,128,0,332943:0:0:0:0:
64,192,332811,128,0,332890:0:0:0:0:
433,192,332943,1,0,0:0:0:0:
192,192,333022,1,0,0:0:0:0:
305,191,333101,128,0,333258:0:0:0:0:
64,192,333101,128,0,333311:0:0:0:0:
433,192,333127,128,0,333206:0:0:0:0:
192,192,333258,1,0,0:0:0:0:
320,192,333337,1,0,0:0:0:0:
64,192,333416,128,0,333495:0:0:0:0:
448,192,333416,1,0,0:0:0:0:
192,192,333495,1,0,0:0:0:0:
448,192,333495,128,0,333574:0:0:0:0:
320,192,333574,128,0,333758:0:0:0:0:
192,192,333574,128,0,333732:0:0:0:0:
64,192,333601,128,0,333691:0:0:0:0:
448,192,333811,128,0,333916:0:0:0:0:
64,192,333811,128,0,333943:0:0:0:0:
192,192,333837,128,0,333900:0:0:0:0:
64,192,334048,1,0,0:0:0:0:
448,192,334048,128,0,334127:0:0:0:0:
64,192,334127,128,0,334206:0:0:0:0:
320,192,334127,1,0,0:0:0:0:
320,192,334206,128,0,334364:0:0:0:0:
192,192,334206,128,0,334390:0:0:0:0:
448,192,334232,128,0,334324:0:0:0:0:
64,192,334443,128,0,334574:0:0:0:0:
448,192,334443,128,0,334680:0:0:0:0:
320,192,334469,128,0,334627:0:0:0:0:
192,192,334627,128,0,335112:0:0:0:0:
192,192,335220,1,0,0:0:0:0:
448,192,335328,128,0,335643:0:0:0:0:
320,192,335328,128,0,338959:0:0:0:0:
64,192,336591,1,0,0:0:0:0:
64,192,336906,1,0,0:0:0:0:
192,192,337222,1,0,0:0:0:0:
192,192,337538,1,0,0:0:0:0:
448,192,337854,1,0,0:0:0:0:
448,192,338170,1,0,0:0:0:0:
64,192,338485,1,0,0:0:0:0:
64,192,338801,1,0,0:0:0:0:
320,192,339117,1,0,0:0:0:0:
320,192,339433,1,0,0:0:0:0:
192,192,339749,1,0,0:0:0:0:
448,192,339906,128,0,340064:0:0:0:0:
192,192,340064,128,0,340143:0:0:0:0:
448,192,340380,1,0,0:0:0:0:
448,192,340696,1,0,0:0:0:0:
64,192,341012,1,0,0:0:0:0:
64,192,341328,1,0,0:0:0:0:
320,192,341643,1,0,0:0:0:0:
320,192,341959,1,0,0:0:0:0:
192,192,342275,1,0,0:0:0:0:
192,192,342591,1,0,0:0:0:0:
448,192,342906,1,0,0:0:0:0:
448,192,343222,1,0,0:0:0:0:
64,192,343538,1,0,0:0:0:0:
64,192,343854,1,0,0:0:0:0:
192,192,344170,1,0,0:0:0:0:
192,192,344485,128,0,344549:0:0:0:0:
64,192,344612,1,0,0:0:0:0:
320,192,344801,128,0,344891:0:0:0:0:
448,192,344959,1,0,0:0:0:0:
320,192,345117,1,0,0:0:0:0:
192,192,345275,1,0,0:0:0:0:
64,192,345354,128,0,345472:0:0:0:0:
448,192,345433,128,0,345512:0:0:0:0:
