osu file format v14

[General]
AudioFilename: audio.ogg
AudioLeadIn: 0
PreviewTime: 154341
Countdown: 0
SampleSet: Drum
StackLeniency: 0.7
Mode: 3
LetterboxInBreaks: 0
SpecialStyle: 1
WidescreenStoryboard: 1

[Editor]
Bookmarks: 43472,71298,99124,113037,126950,154776,168689,182602,196515,210428
DistanceSpacing: 0.8
BeatDivisor: 2
GridSize: 8
TimelineZoom: 0.9

[Metadata]
Title:NekovhParavh (Trance Edit)
TitleUnicode:NekovhParavh (Trance Edit)
Artist:Sad Keyboard Guy & Gardens
ArtistUnicode:Sad Keyboard Guy & Gardens
Creator:Asherz007
Version:Beginner
Source:
Tags:psytrance electronic instrumental self remix procedural reconstruction of a forgotten memory nekopara ネコぱら psychedelic minseo2000 madbricktree 7k+1 7+1k 7k1s n+1 special style
BeatmapID:3926668
BeatmapSetID:1904397

[Difficulty]
HPDrainRate:6
CircleSize:8
OverallDifficulty:7
ApproachRate:5
SliderMultiplier:1.4
SliderTickRate:1

[Events]
//Background and Video events
0,0,"bg.jpg",0,0
//Break Periods
2,99324,104011
//Storyboard Layer 0 (Background)
//Storyboard Layer 1 (Fail)
//Storyboard Layer 2 (Pass)
//Storyboard Layer 3 (Foreground)
//Storyboard Layer 4 (Overlay)
//Storyboard Sound Samples

[TimingPoints]
1733,434.782608695652,4,3,1,100,1,0
154776,-100,4,3,1,100,0,1
182602,-100,4,3,1,100,0,0

[HitObjects]
96,192,42602,1,0,0:0:0:0:
32,192,43472,1,4,0:0:0:60:
480,192,43472,1,2,0:0:0:60:
96,192,44341,1,2,0:0:0:60:
416,192,45211,1,2,0:0:0:60:
160,192,46080,1,2,0:0:0:60:
224,192,46950,1,2,0:0:0:60:
288,192,47819,1,2,0:0:0:60:
352,192,48689,1,2,0:0:0:60:
96,192,49559,1,2,0:0:0:60:
416,192,50428,1,2,0:0:0:60:
288,192,51298,1,2,0:0:0:60:
224,192,52167,1,2,0:0:0:60:
352,192,53037,1,2,0:0:0:60:
480,192,53906,1,2,0:0:0:60:
96,192,54776,1,2,0:0:0:60:
288,192,55646,1,2,0:0:0:60:
160,192,56515,1,2,0:0:0:60:
224,192,56950,1,2,0:0:0:60:
352,192,57167,1,0,0:0:0:0:
32,192,57385,1,4,0:0:0:60:
480,192,57385,1,2,0:0:0:60:
224,192,58254,1,2,0:0:0:60:
416,192,58689,1,2,0:0:0:60:
160,192,58906,1,0,0:0:0:0:
96,192,59341,1,0,0:0:0:0:
288,192,59776,1,0,0:0:0:0:
224,192,60211,1,0,0:0:0:0:
416,192,60646,1,0,0:0:0:0:
480,192,61732,1,2,0:0:0:60:
96,192,62385,1,0,0:0:0:0:
224,192,63472,1,2,0:0:0:60:
352,192,64124,1,0,0:0:0:0:
224,192,65211,1,2,0:0:0:60:
416,192,66080,1,2,0:0:0:60:
96,192,66515,1,2,0:0:0:60:
224,192,66950,1,2,0:0:0:60:
352,192,67385,1,2,0:0:0:60:
480,192,67819,1,2,0:0:0:60:
160,192,68689,1,2,0:0:0:60:
416,192,69124,1,2,0:0:0:60:
288,192,69341,1,0,0:0:0:0:
96,192,69776,1,0,0:0:0:0:
352,192,70211,1,0,0:0:0:0:
224,192,70646,1,0,0:0:0:0:
416,192,71080,1,0,0:0:0:0:
32,192,71298,1,4,0:0:0:60:
288,192,71298,1,2,0:0:0:60:
288,192,72167,1,2,0:0:0:60:
96,192,73037,1,2,0:0:0:60:
96,192,73906,1,2,0:0:0:60:
480,192,74776,1,2,0:0:0:60:
480,192,75646,1,2,0:0:0:60:
224,192,76515,1,2,0:0:0:60:
224,192,77385,1,2,0:0:0:60:
352,192,78254,1,2,0:0:0:60:
352,192,79124,1,2,0:0:0:60:
160,192,79993,1,2,0:0:0:60:
160,192,80863,1,2,0:0:0:60:
416,192,81732,1,2,0:0:0:60:
416,192,82602,1,2,0:0:0:60:
288,192,83472,1,2,0:0:0:60:
288,192,84341,1,2,0:0:0:60:
32,192,85211,1,4,0:0:0:60:
480,192,85211,1,2,0:0:0:60:
96,192,86080,1,2,0:0:0:60:
416,192,86515,1,2,0:0:0:60:
288,192,86732,1,0,0:0:0:0:
160,192,87167,1,0,0:0:0:0:
352,192,87602,1,0,0:0:0:0:
224,192,88037,1,0,0:0:0:0:
480,192,88472,1,0,0:0:0:0:
160,192,89559,1,2,0:0:0:60:
352,192,90211,1,0,0:0:0:0:
288,192,91298,1,2,0:0:0:60:
160,192,91950,1,0,0:0:0:0:
352,192,93037,1,2,0:0:0:60:
288,192,93906,1,2,0:0:0:60:
480,192,94341,1,2,0:0:0:60:
352,192,94776,1,2,0:0:0:60:
224,192,95211,1,2,0:0:0:60:
96,192,95646,1,2,0:0:0:60:
352,192,96515,1,2,0:0:0:60:
160,192,96950,1,2,0:0:0:60:
480,192,97167,1,0,0:0:0:0:
416,192,97602,1,0,0:0:0:0:
288,192,98037,1,0,0:0:0:0:
160,192,98472,1,0,0:0:0:0:
96,192,98906,1,0,0:0:0:0:
32,192,99124,1,4,0:0:0:60:
480,192,99124,1,2,0:0:0:60:
416,192,105211,5,0,0:0:0:0:
352,192,106080,1,0,0:0:0:0:
224,192,109559,1,0,0:0:0:0:
288,192,113037,1,0,0:0:0:0:
416,192,113472,1,0,0:0:0:0:
160,192,114341,1,0,0:0:0:0:
224,192,115211,1,0,0:0:0:0:
352,192,116080,1,0,0:0:0:0:
480,192,116950,1,0,0:0:0:0:
160,192,117819,1,0,0:0:0:0:
288,192,118689,1,0,0:0:0:0:
96,192,119559,1,0,0:0:0:0:
480,192,120428,1,0,0:0:0:0:
224,192,121298,1,0,0:0:0:0:
352,192,122167,1,0,0:0:0:0:
160,192,123037,1,0,0:0:0:0:
288,192,123906,1,0,0:0:0:0:
352,192,124776,1,0,0:0:0:0:
224,192,125646,1,0,0:0:0:0:
480,192,126080,1,10,0:0:0:100:
352,192,126298,1,8,0:0:0:100:
224,192,126515,1,8,0:0:0:100:
96,192,126732,1,0,0:0:0:0:
32,192,126950,1,4,0:0:0:60:
480,192,126950,1,2,0:0:0:60:
288,192,127385,1,0,0:0:0:0:
352,192,127819,1,0,0:0:0:0:
160,192,128254,1,0,0:0:0:0:
416,192,128472,1,0,0:0:0:0:
160,192,128689,1,0,0:0:0:0:
352,192,129124,1,0,0:0:0:0:
288,192,129559,1,0,0:0:0:0:
224,192,129993,1,0,0:0:0:0:
480,192,130211,1,0,0:0:0:0:
96,192,130428,1,0,0:0:0:0:
288,192,130863,1,0,0:0:0:0:
416,192,131298,1,0,0:0:0:0:
224,192,131732,1,0,0:0:0:0:
352,192,132167,1,0,0:0:0:0:
160,192,132602,1,0,0:0:0:0:
288,192,133037,1,0,0:0:0:0:
416,192,133472,1,0,0:0:0:0:
352,192,133689,1,0,0:0:0:0:
224,192,133906,1,0,0:0:0:0:
96,192,134341,1,0,0:0:0:0:
288,192,134776,1,0,0:0:0:0:
416,192,135211,1,0,0:0:0:0:
352,192,135428,1,0,0:0:0:0:
160,192,135646,1,0,0:0:0:0:
224,192,136080,1,0,0:0:0:0:
416,192,136515,1,0,0:0:0:0:
96,192,136950,1,0,0:0:0:0:
288,192,137167,1,0,0:0:0:0:
480,192,137385,1,0,0:0:0:0:
416,192,137819,1,0,0:0:0:0:
352,192,138254,1,0,0:0:0:0:
288,192,138689,1,0,0:0:0:0:
416,192,138906,1,0,0:0:0:0:
96,192,139124,1,0,0:0:0:0:
160,192,139559,1,0,0:0:0:0:
224,192,139993,1,0,0:0:0:0:
288,192,140428,1,0,0:0:0:0:
352,192,140646,1,0,0:0:0:0:
480,192,140863,1,0,0:0:0:0:
288,192,141298,1,0,0:0:0:0:
352,192,141732,1,0,0:0:0:0:
160,192,142167,1,0,0:0:0:0:
416,192,142385,1,0,0:0:0:0:
160,192,142602,1,0,0:0:0:0:
352,192,143037,1,0,0:0:0:0:
288,192,143472,1,0,0:0:0:0:
224,192,143906,1,0,0:0:0:0:
480,192,144124,1,0,0:0:0:0:
96,192,144341,1,0,0:0:0:0:
288,192,144776,1,0,0:0:0:0:
416,192,145211,1,0,0:0:0:0:
224,192,145646,1,0,0:0:0:0:
352,192,146080,1,0,0:0:0:0:
160,192,146515,1,0,0:0:0:0:
288,192,146950,1,0,0:0:0:0:
416,192,147385,1,0,0:0:0:0:
352,192,147602,1,0,0:0:0:0:
224,192,147819,1,0,0:0:0:0:
96,192,148254,1,0,0:0:0:0:
288,192,148689,1,0,0:0:0:0:
416,192,149124,1,0,0:0:0:0:
352,192,149341,1,0,0:0:0:0:
160,192,149559,1,0,0:0:0:0:
224,192,149993,1,0,0:0:0:0:
416,192,150428,1,0,0:0:0:0:
96,192,150863,1,0,0:0:0:0:
288,192,151080,1,0,0:0:0:0:
480,192,151298,1,0,0:0:0:0:
416,192,151732,1,0,0:0:0:0:
352,192,152167,1,0,0:0:0:0:
288,192,152602,1,0,0:0:0:0:
416,192,152819,1,0,0:0:0:0:
96,192,153037,1,0,0:0:0:0:
160,192,153472,1,0,0:0:0:0:
224,192,153906,1,0,0:0:0:0:
288,192,154341,1,0,0:0:0:0:
352,192,154559,1,0,0:0:0:0:
32,192,154776,1,4,0:0:0:60:
480,192,154776,1,2,0:0:0:60:
160,192,155211,1,2,0:0:0:60:
288,192,155211,1,8,0:0:0:100:
416,192,155646,1,2,0:0:0:60:
224,192,156080,1,10,0:0:0:60:
288,192,156298,1,0,0:0:0:0:
352,192,156515,1,6,0:0:0:60:
96,192,156950,1,2,0:0:0:60:
480,192,156950,1,8,0:0:0:100:
224,192,157385,1,2,0:0:0:60:
288,192,157819,1,10,0:0:0:60:
416,192,158037,1,0,0:0:0:0:
160,192,158254,1,6,0:0:0:60:
224,192,158689,1,2,0:0:0:60:
352,192,158689,1,8,0:0:0:100:
480,192,159124,1,2,0:0:0:60:
96,192,159559,1,2,0:0:0:60:
288,192,159559,1,8,0:0:0:100:
224,192,159993,1,6,0:0:0:60:
160,192,160428,1,2,0:0:0:60:
416,192,160428,1,8,0:0:0:100:
352,192,160863,1,2,0:0:0:60:
288,192,161298,1,10,0:0:0:60:
480,192,161515,1,0,0:0:0:0:
224,192,161732,1,6,0:0:0:60:
96,192,162167,1,2,0:0:0:60:
352,192,162167,1,8,0:0:0:100:
160,192,162602,1,2,0:0:0:60:
288,192,163037,1,10,0:0:0:60:
480,192,163254,1,0,0:0:0:0:
224,192,163472,1,6,0:0:0:60:
160,192,163906,1,2,0:0:0:60:
416,192,163906,1,8,0:0:0:100:
352,192,164341,1,2,0:0:0:60:
288,192,164776,1,10,0:0:0:60:
96,192,164993,1,0,0:0:0:0:
224,192,165211,1,6,0:0:0:60:
352,192,165646,1,2,0:0:0:60:
480,192,165646,1,8,0:0:0:100:
160,192,166080,1,2,0:0:0:60:
416,192,166515,1,10,0:0:0:60:
224,192,166732,1,0,0:0:0:0:
288,192,166950,1,6,0:0:0:60:
160,192,167385,1,2,0:0:0:60:
352,192,167385,1,8,0:0:0:100:
224,192,167819,1,2,0:0:0:60:
288,192,168254,1,10,0:0:0:60:
96,192,168472,1,0,0:0:0:0:
32,192,168689,1,2,0:0:0:60:
480,192,168689,1,4,0:0:0:60:
224,192,169124,1,2,0:0:0:60:
352,192,169124,1,8,0:0:0:100:
160,192,169559,1,2,0:0:0:60:
288,192,169993,1,10,0:0:0:60:
416,192,170211,1,0,0:0:0:0:
96,192,170428,1,6,0:0:0:60:
224,192,170863,1,2,0:0:0:60:
352,192,170863,1,8,0:0:0:100:
480,192,171298,1,2,0:0:0:60:
288,192,171732,1,10,0:0:0:60:
160,192,171950,1,0,0:0:0:0:
352,192,172167,1,6,0:0:0:60:
96,192,172602,1,2,0:0:0:60:
224,192,172602,1,8,0:0:0:100:
416,192,173037,1,2,0:0:0:60:
160,192,173472,1,2,0:0:0:60:
480,192,173472,1,8,0:0:0:100:
288,192,173906,1,6,0:0:0:60:
224,192,174341,1,2,0:0:0:60:
416,192,174341,1,8,0:0:0:100:
352,192,174776,1,2,0:0:0:60:
96,192,175211,1,10,0:0:0:60:
288,192,175428,1,0,0:0:0:0:
480,192,175646,1,6,0:0:0:60:
160,192,176080,1,2,0:0:0:60:
352,192,176080,1,8,0:0:0:100:
224,192,176515,1,2,0:0:0:60:
416,192,176950,1,10,0:0:0:60:
288,192,177167,1,0,0:0:0:0:
96,192,177385,1,6,0:0:0:60:
160,192,177819,1,2,0:0:0:60:
480,192,177819,1,8,0:0:0:100:
352,192,178254,1,2,0:0:0:60:
224,192,178689,1,10,0:0:0:60:
416,192,178906,1,0,0:0:0:0:
288,192,179124,1,6,0:0:0:60:
160,192,179559,1,8,0:0:0:100:
480,192,179559,1,2,0:0:0:60:
96,192,179993,1,2,0:0:0:60:
416,192,180428,1,10,0:0:0:60:
224,192,180646,1,0,0:0:0:0:
352,192,180863,1,6,0:0:0:60:
160,192,181298,1,2,0:0:0:60:
288,192,181298,1,8,0:0:0:100:
416,192,181732,1,2,0:0:0:60:
96,192,182167,1,10,0:0:0:60:
288,192,182385,1,0,0:0:0:0:
32,192,182602,1,2,0:0:0:60:
480,192,182602,1,4,0:0:0:60:
480,192,183472,1,2,0:0:0:60:
288,192,184124,1,0,0:0:0:0:
96,192,184341,1,2,0:0:0:60:
96,192,185211,1,2,0:0:0:60:
224,192,185863,1,0,0:0:0:0:
416,192,186080,1,2,0:0:0:60:
416,192,186950,1,2,0:0:0:60:
160,192,187819,1,2,0:0:0:60:
160,192,188689,1,2,0:0:0:60:
480,192,189124,1,2,0:0:0:60:
224,192,189341,1,0,0:0:0:0:
352,192,189559,1,2,0:0:0:60:
352,192,190428,1,2,0:0:0:60:
96,192,190863,1,2,0:0:0:60:
416,192,191080,1,0,0:0:0:0:
224,192,191298,1,2,0:0:0:60:
224,192,192167,1,2,0:0:0:60:
160,192,192602,1,2,0:0:0:60:
288,192,192819,1,0,0:0:0:0:
416,192,193037,1,2,0:0:0:60:
416,192,193906,1,2,0:0:0:60:
352,192,194341,1,2,0:0:0:60:
224,192,194559,1,0,0:0:0:0:
160,192,194776,1,2,0:0:0:60:
160,192,195646,1,2,0:0:0:60:
480,192,196080,1,0,0:0:0:0:
288,192,196298,1,0,0:0:0:0:
32,192,196515,1,2,0:0:0:60:
96,192,196515,1,4,0:0:0:60:
