osu file format v14

[General]
AudioFilename: audio.ogg
AudioLeadIn: 0
PreviewTime: 154341
Countdown: 0
SampleSet: Drum
StackLeniency: 0.7
Mode: 3
LetterboxInBreaks: 0
SpecialStyle: 1
WidescreenStoryboard: 0

[Editor]
Bookmarks: 43472,71298,99124,113037,126950,154776,168689,182602,196515,210428
DistanceSpacing: 0.8
BeatDivisor: 4
GridSize: 8
TimelineZoom: 1.1

[Metadata]
Title:NekovhParavh (Trance Edit)
TitleUnicode:NekovhParavh (Trance Edit)
Artist:Sad Keyboard Guy & Gardens
ArtistUnicode:Sad Keyboard Guy & Gardens
Creator:Asherz007
Version:Another
Source:
Tags:psytrance electronic instrumental self remix procedural reconstruction of a forgotten memory nekopara ネコぱら psychedelic minseo2000 madbricktree 7k+1 7+1k 7k1s n+1 special style
BeatmapID:3926667
BeatmapSetID:1904397

[Difficulty]
HPDrainRate:8
CircleSize:8
OverallDifficulty:8
ApproachRate:5
SliderMultiplier:1.4
SliderTickRate:1

[Events]
//Background and Video events
0,0,"bg.jpg",0,0
//Break Periods
2,99324,104011
//Storyboard Layer 0 (Background)
//Storyboard Layer 1 (Fail)
//Storyboard Layer 2 (Pass)
//Storyboard Layer 3 (Foreground)
//Storyboard Layer 4 (Overlay)
//Storyboard Sound Samples

[TimingPoints]
1733,434.782608695652,4,3,1,100,1,0
154776,-100,4,3,1,100,0,1
182602,-100,4,3,1,100,0,0

[HitObjects]
96,192,42602,5,0,0:0:0:0:
416,192,42711,1,0,0:0:0:0:
288,192,42819,1,0,0:0:0:0:
160,192,42928,1,0,0:0:0:0:
480,192,43146,1,0,0:0:0:0:
352,192,43254,1,0,0:0:0:0:
224,192,43363,1,0,0:0:0:0:
32,192,43472,1,4,0:0:0:60:
96,192,43472,1,2,0:0:0:60:
288,192,43472,1,0,0:0:0:0:
480,192,43472,1,0,0:0:0:0:
416,192,43580,1,0,0:0:0:0:
160,192,43689,1,0,0:0:0:0:
352,192,43798,1,0,0:0:0:0:
96,192,43906,1,2,0:0:0:60:
224,192,43906,1,0,0:0:0:0:
480,192,43906,1,0,0:0:0:0:
288,192,44015,1,0,0:0:0:0:
416,192,44124,1,0,0:0:0:0:
96,192,44341,1,2,0:0:0:60:
160,192,44341,1,0,0:0:0:0:
352,192,44341,1,0,0:0:0:0:
224,192,44450,1,0,0:0:0:0:
288,192,44559,1,0,0:0:0:0:
416,192,44667,1,0,0:0:0:0:
96,192,44776,1,2,0:0:0:60:
480,192,44776,1,0,0:0:0:0:
224,192,44776,1,0,0:0:0:0:
352,192,44885,1,0,0:0:0:0:
288,192,44993,1,0,0:0:0:0:
96,192,45211,1,2,0:0:0:60:
160,192,45211,1,0,0:0:0:0:
416,192,45211,1,0,0:0:0:0:
288,192,45319,1,0,0:0:0:0:
480,192,45428,1,0,0:0:0:0:
352,192,45537,1,0,0:0:0:0:
96,192,45646,1,2,0:0:0:60:
224,192,45646,1,0,0:0:0:0:
288,192,45646,1,0,0:0:0:0:
416,192,45754,1,0,0:0:0:0:
352,192,45863,1,0,0:0:0:0:
96,192,46080,1,2,0:0:0:60:
160,192,46080,1,0,0:0:0:0:
480,192,46080,1,0,0:0:0:0:
224,192,46189,1,0,0:0:0:0:
352,192,46298,1,0,0:0:0:0:
288,192,46406,1,0,0:0:0:0:
96,192,46515,1,2,0:0:0:60:
224,192,46515,1,0,0:0:0:0:
416,192,46515,1,0,0:0:0:0:
480,192,46624,1,0,0:0:0:0:
288,192,46732,1,0,0:0:0:0:
96,192,46950,1,2,0:0:0:60:
160,192,46950,1,0,0:0:0:0:
352,192,46950,1,0,0:0:0:0:
288,192,47059,1,0,0:0:0:0:
416,192,47167,1,0,0:0:0:0:
352,192,47276,1,0,0:0:0:0:
96,192,47385,1,2,0:0:0:60:
224,192,47385,1,0,0:0:0:0:
480,192,47385,1,0,0:0:0:0:
416,192,47493,1,0,0:0:0:0:
288,192,47602,1,0,0:0:0:0:
96,192,47819,1,2,0:0:0:60:
160,192,47819,1,0,0:0:0:0:
480,192,47819,1,0,0:0:0:0:
224,192,47928,1,0,0:0:0:0:
352,192,48037,1,0,0:0:0:0:
416,192,48146,1,0,0:0:0:0:
96,192,48254,1,2,0:0:0:60:
224,192,48254,1,0,0:0:0:0:
288,192,48254,1,0,0:0:0:0:
480,192,48363,1,0,0:0:0:0:
352,192,48472,1,0,0:0:0:0:
96,192,48689,1,2,0:0:0:60:
160,192,48689,1,0,0:0:0:0:
416,192,48689,1,0,0:0:0:0:
288,192,48798,1,0,0:0:0:0:
480,192,48906,1,0,0:0:0:0:
352,192,49015,1,0,0:0:0:0:
96,192,49124,1,2,0:0:0:60:
224,192,49124,1,0,0:0:0:0:
288,192,49124,1,0,0:0:0:0:
416,192,49232,1,0,0:0:0:0:
480,192,49341,1,0,0:0:0:0:
96,192,49559,1,2,0:0:0:60:
160,192,49559,1,0,0:0:0:0:
352,192,49559,1,0,0:0:0:0:
288,192,49667,1,0,0:0:0:0:
224,192,49776,1,0,0:0:0:0:
352,192,49885,1,0,0:0:0:0:
96,192,49993,1,2,0:0:0:60:
224,192,49993,1,0,0:0:0:0:
416,192,49993,1,0,0:0:0:0:
480,192,50102,1,0,0:0:0:0:
160,192,50211,1,0,0:0:0:0:
160,192,50428,1,0,0:0:0:0:
96,192,50428,1,2,0:0:0:60:
352,192,50428,1,0,0:0:0:0:
288,192,50537,1,0,0:0:0:0:
224,192,50646,1,0,0:0:0:0:
416,192,50754,1,0,0:0:0:0:
352,192,50863,1,0,0:0:0:0:
96,192,50863,1,2,0:0:0:60:
224,192,50863,1,0,0:0:0:0:
288,192,50972,1,0,0:0:0:0:
160,192,51080,1,0,0:0:0:0:
96,192,51298,1,2,0:0:0:60:
160,192,51298,1,0,0:0:0:0:
480,192,51298,1,0,0:0:0:0:
288,192,51406,1,0,0:0:0:0:
416,192,51515,1,0,0:0:0:0:
352,192,51624,1,0,0:0:0:0:
224,192,51732,1,0,0:0:0:0:
96,192,51732,1,2,0:0:0:60:
288,192,51732,1,0,0:0:0:0:
416,192,51841,1,0,0:0:0:0:
480,192,51950,1,0,0:0:0:0:
160,192,52167,1,0,0:0:0:0:
96,192,52167,1,2,0:0:0:60:
352,192,52167,1,0,0:0:0:0:
288,192,52276,1,0,0:0:0:0:
416,192,52385,1,0,0:0:0:0:
352,192,52493,1,0,0:0:0:0:
224,192,52602,1,0,0:0:0:0:
96,192,52602,1,2,0:0:0:60:
480,192,52602,1,0,0:0:0:0:
288,192,52711,1,0,0:0:0:0:
416,192,52819,1,0,0:0:0:0:
96,192,53037,1,2,0:0:0:60:
160,192,53037,1,0,0:0:0:0:
288,192,53037,1,0,0:0:0:0:
224,192,53146,1,0,0:0:0:0:
352,192,53254,1,0,0:0:0:0:
480,192,53363,1,0,0:0:0:0:
96,192,53472,1,2,0:0:0:60:
224,192,53472,1,0,0:0:0:0:
416,192,53472,1,0,0:0:0:0:
352,192,53580,1,0,0:0:0:0:
288,192,53689,1,0,0:0:0:0:
160,192,53906,1,0,0:0:0:0:
96,192,53906,1,2,0:0:0:60:
352,192,53906,1,0,0:0:0:0:
288,192,54015,1,0,0:0:0:0:
224,192,54124,1,0,0:0:0:0:
416,192,54232,1,0,0:0:0:0:
96,192,54341,1,2,0:0:0:60:
224,192,54341,1,0,0:0:0:0:
352,192,54341,1,0,0:0:0:0:
288,192,54450,1,0,0:0:0:0:
160,192,54559,1,0,0:0:0:0:
96,192,54776,1,2,0:0:0:60:
160,192,54776,1,0,0:0:0:0:
416,192,54776,1,0,0:0:0:0:
224,192,54885,1,0,0:0:0:0:
352,192,54993,1,0,0:0:0:0:
416,192,55102,1,0,0:0:0:0:
480,192,55211,1,0,0:0:0:0:
96,192,55211,1,2,0:0:0:60:
224,192,55211,1,0,0:0:0:0:
288,192,55319,1,0,0:0:0:0:
352,192,55428,1,0,0:0:0:0:
96,192,55646,1,2,0:0:0:60:
160,192,55646,1,0,0:0:0:0:
416,192,55646,1,0,0:0:0:0:
288,192,55754,1,0,0:0:0:0:
352,192,55863,1,0,0:0:0:0:
480,192,55972,1,0,0:0:0:0:
96,192,56080,1,2,0:0:0:60:
224,192,56080,1,0,0:0:0:0:
416,192,56080,1,0,0:0:0:0:
352,192,56189,1,0,0:0:0:0:
288,192,56298,1,0,0:0:0:0:
160,192,56515,1,0,0:0:0:0:
96,192,56515,1,2,0:0:0:60:
416,192,56515,1,0,0:0:0:0:
224,192,56624,1,0,0:0:0:0:
352,192,56732,1,0,0:0:0:0:
416,192,56841,1,0,0:0:0:0:
96,192,56950,1,2,0:0:0:60:
480,192,56950,1,0,0:0:0:0:
288,192,56950,1,0,0:0:0:0:
160,192,57059,1,0,0:0:0:0:
352,192,57059,1,0,0:0:0:0:
224,192,57167,1,0,0:0:0:0:
416,192,57167,1,0,0:0:0:0:
288,192,57276,1,0,0:0:0:0:
480,192,57276,1,0,0:0:0:0:
32,192,57385,1,4,0:0:0:60:
96,192,57385,1,2,0:0:0:60:
160,192,57385,1,0,0:0:0:0:
352,192,57385,1,0,0:0:0:0:
224,192,57493,1,0,0:0:0:0:
416,192,57602,1,0,0:0:0:0:
288,192,57711,1,0,0:0:0:0:
96,192,57819,1,2,0:0:0:60:
480,192,57819,1,0,0:0:0:0:
352,192,57819,1,0,0:0:0:0:
224,192,57928,1,0,0:0:0:0:
160,192,58037,1,0,0:0:0:0:
96,192,58254,1,2,0:0:0:60:
288,192,58254,1,0,0:0:0:0:
416,192,58254,1,0,0:0:0:0:
352,192,58363,1,0,0:0:0:0:
224,192,58472,1,0,0:0:0:0:
160,192,58580,1,0,0:0:0:0:
96,192,58689,1,2,0:0:0:60:
288,192,58689,1,0,0:0:0:0:
480,192,58689,1,0,0:0:0:0:
352,192,58798,1,0,0:0:0:0:
224,192,58906,1,0,0:0:0:0:
416,192,58906,1,0,0:0:0:0:
96,192,59124,1,2,0:0:0:60:
160,192,59124,1,0,0:0:0:0:
288,192,59124,1,0,0:0:0:0:
480,192,59232,1,0,0:0:0:0:
352,192,59341,1,0,0:0:0:0:
224,192,59341,1,0,0:0:0:0:
160,192,59450,1,0,0:0:0:0:
96,192,59559,1,2,0:0:0:60:
288,192,59559,1,0,0:0:0:0:
416,192,59559,1,0,0:0:0:0:
224,192,59667,1,0,0:0:0:0:
352,192,59776,1,0,0:0:0:0:
480,192,59776,1,0,0:0:0:0:
96,192,59993,1,2,0:0:0:60:
160,192,59993,1,0,0:0:0:0:
288,192,59993,1,0,0:0:0:0:
416,192,60102,1,0,0:0:0:0:
352,192,60211,1,0,0:0:0:0:
224,192,60211,1,0,0:0:0:0:
160,192,60319,1,0,0:0:0:0:
96,192,60428,1,2,0:0:0:60:
288,192,60428,1,0,0:0:0:0:
480,192,60428,1,0,0:0:0:0:
416,192,60537,1,0,0:0:0:0:
352,192,60646,1,0,0:0:0:0:
160,192,60646,1,0,0:0:0:0:
96,192,60863,1,2,0:0:0:60:
288,192,60863,1,0,0:0:0:0:
416,192,60863,1,0,0:0:0:0:
224,192,60972,1,0,0:0:0:0:
160,192,61080,1,0,0:0:0:0:
352,192,61189,1,0,0:0:0:0:
288,192,61298,1,0,0:0:0:0:
96,192,61298,1,2,0:0:0:60:
480,192,61298,1,0,0:0:0:0:
416,192,61406,1,0,0:0:0:0:
352,192,61515,1,0,0:0:0:0:
96,192,61732,1,2,0:0:0:60:
224,192,61732,1,0,0:0:0:0:
480,192,61732,1,0,0:0:0:0:
352,192,61841,1,0,0:0:0:0:
288,192,61950,1,0,0:0:0:0:
160,192,62059,1,0,0:0:0:0:
96,192,62167,1,2,0:0:0:60:
352,192,62167,1,0,0:0:0:0:
480,192,62167,1,0,0:0:0:0:
224,192,62276,1,0,0:0:0:0:
416,192,62385,1,0,0:0:0:0:
288,192,62385,1,0,0:0:0:0:
96,192,62602,1,2,0:0:0:60:
160,192,62602,1,0,0:0:0:0:
352,192,62602,1,0,0:0:0:0:
288,192,62711,1,0,0:0:0:0:
224,192,62819,1,0,0:0:0:0:
416,192,62928,1,0,0:0:0:0:
96,192,63037,1,2,0:0:0:60:
288,192,63037,1,0,0:0:0:0:
480,192,63037,1,0,0:0:0:0:
160,192,63146,1,0,0:0:0:0:
352,192,63254,1,0,0:0:0:0:
96,192,63472,1,2,0:0:0:60:
224,192,63472,1,0,0:0:0:0:
416,192,63472,1,0,0:0:0:0:
352,192,63580,1,0,0:0:0:0:
288,192,63689,1,0,0:0:0:0:
160,192,63798,1,0,0:0:0:0:
96,192,63906,1,2,0:0:0:60:
352,192,63906,1,0,0:0:0:0:
480,192,63906,1,0,0:0:0:0:
224,192,64015,1,0,0:0:0:0:
288,192,64124,1,0,0:0:0:0:
416,192,64124,1,0,0:0:0:0:
96,192,64341,1,2,0:0:0:60:
224,192,64341,1,0,0:0:0:0:
480,192,64341,1,0,0:0:0:0:
416,192,64450,1,0,0:0:0:0:
352,192,64559,1,0,0:0:0:0:
288,192,64667,1,0,0:0:0:0:
160,192,64776,1,0,0:0:0:0:
96,192,64776,1,2,0:0:0:60:
416,192,64776,1,0,0:0:0:0:
224,192,64885,1,0,0:0:0:0:
352,192,64993,1,0,0:0:0:0:
96,192,65211,1,2,0:0:0:60:
416,192,65211,1,0,0:0:0:0:
480,192,65211,1,0,0:0:0:0:
288,192,65319,1,0,0:0:0:0:
160,192,65428,1,0,0:0:0:0:
352,192,65537,1,0,0:0:0:0:
224,192,65646,1,0,0:0:0:0:
96,192,65646,1,2,0:0:0:60:
416,192,65646,1,0,0:0:0:0:
288,192,65754,1,0,0:0:0:0:
480,192,65863,1,0,0:0:0:0:
96,192,66080,1,2,0:0:0:60:
160,192,66080,1,0,0:0:0:0:
352,192,66080,1,0,0:0:0:0:
288,192,66189,1,0,0:0:0:0:
224,192,66298,1,0,0:0:0:0:
480,192,66406,1,0,0:0:0:0:
96,192,66515,1,2,0:0:0:60:
288,192,66515,1,0,0:0:0:0:
416,192,66515,1,0,0:0:0:0:
160,192,66624,1,0,0:0:0:0:
352,192,66732,1,0,0:0:0:0:
96,192,66950,1,2,0:0:0:60:
224,192,66950,1,0,0:0:0:0:
416,192,66950,1,0,0:0:0:0:
288,192,67059,1,0,0:0:0:0:
352,192,67167,1,0,0:0:0:0:
160,192,67276,1,0,0:0:0:0:
96,192,67385,1,2,0:0:0:60:
288,192,67385,1,0,0:0:0:0:
480,192,67385,1,0,0:0:0:0:
416,192,67493,1,0,0:0:0:0:
224,192,67602,1,0,0:0:0:0:
96,192,67819,1,2,0:0:0:60:
288,192,67819,1,0,0:0:0:0:
352,192,67819,1,0,0:0:0:0:
416,192,67928,1,0,0:0:0:0:
160,192,68037,1,0,0:0:0:0:
224,192,68146,1,0,0:0:0:0:
96,192,68254,1,2,0:0:0:60:
352,192,68254,1,0,0:0:0:0:
480,192,68254,1,0,0:0:0:0:
288,192,68363,1,0,0:0:0:0:
416,192,68472,1,0,0:0:0:0:
96,192,68689,1,2,0:0:0:60:
160,192,68689,1,0,0:0:0:0:
352,192,68689,1,0,0:0:0:0:
288,192,68798,1,0,0:0:0:0:
224,192,68906,1,0,0:0:0:0:
416,192,69015,1,0,0:0:0:0:
352,192,69124,1,0,0:0:0:0:
288,192,69124,1,0,0:0:0:0:
96,192,69124,1,2,0:0:0:60:
160,192,69232,1,0,0:0:0:0:
224,192,69341,1,0,0:0:0:0:
416,192,69341,1,0,0:0:0:0:
96,192,69559,1,2,0:0:0:60:
288,192,69559,1,0,0:0:0:0:
480,192,69559,1,0,0:0:0:0:
416,192,69667,1,0,0:0:0:0:
160,192,69776,1,0,0:0:0:0:
352,192,69776,1,0,0:0:0:0:
224,192,69885,1,0,0:0:0:0:
96,192,69993,1,2,0:0:0:60:
416,192,69993,1,0,0:0:0:0:
288,192,69993,1,0,0:0:0:0:
480,192,70102,1,0,0:0:0:0:
352,192,70211,1,0,0:0:0:0:
224,192,70211,1,0,0:0:0:0:
160,192,70428,1,0,0:0:0:0:
96,192,70428,1,2,0:0:0:60:
288,192,70428,1,0,0:0:0:0:
416,192,70537,1,0,0:0:0:0:
224,192,70646,1,0,0:0:0:0:
480,192,70646,1,0,0:0:0:0:
288,192,70754,1,0,0:0:0:0:
352,192,70863,1,0,0:0:0:0:
96,192,70863,1,2,0:0:0:60:
480,192,70863,1,0,0:0:0:0:
160,192,70972,1,0,0:0:0:0:
224,192,71080,1,0,0:0:0:0:
416,192,71080,1,0,0:0:0:0:
32,192,71298,1,4,0:0:0:60:
96,192,71298,1,2,0:0:0:60:
288,192,71298,1,0,0:0:0:0:
480,192,71298,1,0,0:0:0:0:
160,192,71406,1,0,0:0:0:0:
224,192,71461,1,0,0:0:0:0:
352,192,71515,1,0,0:0:0:0:
416,192,71624,1,0,0:0:0:0:
96,192,71732,1,2,0:0:0:60:
224,192,71732,1,0,0:0:0:0:
480,192,71732,1,0,0:0:0:0:
288,192,71841,1,0,0:0:0:0:
352,192,71950,1,0,0:0:0:0:
96,192,72167,1,2,0:0:0:60:
160,192,72167,1,0,0:0:0:0:
416,192,72167,1,0,0:0:0:0:
352,192,72276,1,0,0:0:0:0:
288,192,72385,1,0,0:0:0:0:
224,192,72493,1,0,0:0:0:0:
96,192,72602,1,2,0:0:0:60:
352,192,72602,1,0,0:0:0:0:
480,192,72602,1,0,0:0:0:0:
160,192,72711,1,0,0:0:0:0:
416,192,72819,1,0,0:0:0:0:
352,192,72874,1,0,0:0:0:0:
288,192,72928,1,0,0:0:0:0:
224,192,72982,1,0,0:0:0:0:
160,192,73037,1,0,0:0:0:0:
96,192,73037,1,2,0:0:0:60:
480,192,73037,1,0,0:0:0:0:
352,192,73146,1,0,0:0:0:0:
224,192,73254,1,0,0:0:0:0:
288,192,73363,1,0,0:0:0:0:
96,192,73472,1,2,0:0:0:60:
352,192,73472,1,0,0:0:0:0:
416,192,73472,1,0,0:0:0:0:
160,192,73526,1,0,0:0:0:0:
224,192,73580,1,0,0:0:0:0:
288,192,73689,1,0,0:0:0:0:
160,192,73798,1,0,0:0:0:0:
96,192,73906,1,2,0:0:0:60:
480,192,73906,1,0,0:0:0:0:
416,192,73906,1,0,0:0:0:0:
288,192,74015,1,0,0:0:0:0:
352,192,74124,1,0,0:0:0:0:
416,192,74232,1,0,0:0:0:0:
96,192,74341,1,2,0:0:0:60:
224,192,74341,1,0,0:0:0:0:
480,192,74341,1,0,0:0:0:0:
288,192,74450,1,0,0:0:0:0:
352,192,74559,1,0,0:0:0:0:
96,192,74776,1,2,0:0:0:60:
288,192,74776,1,0,0:0:0:0:
480,192,74776,1,0,0:0:0:0:
416,192,74885,1,0,0:0:0:0:
352,192,74993,1,0,0:0:0:0:
224,192,75102,1,0,0:0:0:0:
160,192,75211,1,0,0:0:0:0:
96,192,75211,1,2,0:0:0:60:
288,192,75211,1,0,0:0:0:0:
480,192,75319,1,0,0:0:0:0:
352,192,75428,1,0,0:0:0:0:
224,192,75537,1,0,0:0:0:0:
96,192,75646,1,2,0:0:0:60:
288,192,75646,1,0,0:0:0:0:
416,192,75646,1,0,0:0:0:0:
160,192,75754,1,0,0:0:0:0:
480,192,75863,1,0,0:0:0:0:
352,192,75972,1,0,0:0:0:0:
96,192,76080,1,2,0:0:0:60:
224,192,76080,1,0,0:0:0:0:
416,192,76080,1,0,0:0:0:0:
288,192,76189,1,0,0:0:0:0:
160,192,76298,1,0,0:0:0:0:
224,192,76352,1,0,0:0:0:0:
288,192,76406,1,0,0:0:0:0:
352,192,76461,1,0,0:0:0:0:
416,192,76515,1,0,0:0:0:0:
480,192,76515,1,0,0:0:0:0:
96,192,76515,1,2,0:0:0:60:
160,192,76624,1,0,0:0:0:0:
288,192,76732,1,0,0:0:0:0:
416,192,76841,1,0,0:0:0:0:
224,192,76950,1,0,0:0:0:0:
96,192,76950,1,2,0:0:0:60:
480,192,76950,1,0,0:0:0:0:
288,192,77059,1,0,0:0:0:0:
352,192,77113,1,0,0:0:0:0:
416,192,77167,1,0,0:0:0:0:
96,192,77385,1,2,0:0:0:60:
160,192,77385,1,0,0:0:0:0:
352,192,77385,1,0,0:0:0:0:
288,192,77493,1,0,0:0:0:0:
224,192,77602,1,0,0:0:0:0:
480,192,77711,1,0,0:0:0:0:
96,192,77819,1,2,0:0:0:60:
416,192,77819,1,0,0:0:0:0:
288,192,77819,1,0,0:0:0:0:
160,192,77928,1,0,0:0:0:0:
352,192,78037,1,0,0:0:0:0:
96,192,78254,1,2,0:0:0:60:
224,192,78254,1,0,0:0:0:0:
480,192,78254,1,0,0:0:0:0:
416,192,78363,1,0,0:0:0:0:
288,192,78472,1,0,0:0:0:0:
160,192,78580,1,0,0:0:0:0:
96,192,78689,1,2,0:0:0:60:
352,192,78689,1,0,0:0:0:0:
480,192,78689,1,0,0:0:0:0:
224,192,78798,1,0,0:0:0:0:
288,192,78906,1,0,0:0:0:0:
352,192,79015,1,0,0:0:0:0:
96,192,79124,1,2,0:0:0:60:
160,192,79124,1,0,0:0:0:0:
416,192,79124,1,0,0:0:0:0:
224,192,79232,1,0,0:0:0:0:
480,192,79341,1,0,0:0:0:0:
288,192,79450,1,0,0:0:0:0:
96,192,79559,1,2,0:0:0:60:
352,192,79559,1,0,0:0:0:0:
224,192,79559,1,0,0:0:0:0:
480,192,79667,1,0,0:0:0:0:
416,192,79776,1,0,0:0:0:0:
352,192,79830,1,0,0:0:0:0:
288,192,79885,1,0,0:0:0:0:
224,192,79939,1,0,0:0:0:0:
480,192,79993,1,0,0:0:0:0:
96,192,79993,1,2,0:0:0:60:
160,192,79993,1,0,0:0:0:0:
416,192,80102,1,0,0:0:0:0:
288,192,80211,1,0,0:0:0:0:
224,192,80319,1,0,0:0:0:0:
96,192,80428,1,2,0:0:0:60:
352,192,80428,1,0,0:0:0:0:
480,192,80428,1,0,0:0:0:0:
160,192,80537,1,0,0:0:0:0:
224,192,80591,1,0,0:0:0:0:
288,192,80646,1,0,0:0:0:0:
96,192,80863,1,2,0:0:0:60:
160,192,80863,1,0,0:0:0:0:
416,192,80863,1,0,0:0:0:0:
352,192,80972,1,0,0:0:0:0:
224,192,81080,1,0,0:0:0:0:
288,192,81189,1,0,0:0:0:0:
352,192,81298,1,0,0:0:0:0:
480,192,81298,1,0,0:0:0:0:
96,192,81298,1,2,0:0:0:60:
160,192,81406,1,0,0:0:0:0:
288,192,81515,1,0,0:0:0:0:
96,192,81732,1,2,0:0:0:60:
224,192,81732,1,0,0:0:0:0:
416,192,81732,1,0,0:0:0:0:
352,192,81841,1,0,0:0:0:0:
288,192,81950,1,0,0:0:0:0:
160,192,82059,1,0,0:0:0:0:
96,192,82167,1,2,0:0:0:60:
352,192,82167,1,0,0:0:0:0:
480,192,82167,1,0,0:0:0:0:
224,192,82276,1,0,0:0:0:0:
288,192,82385,1,0,0:0:0:0:
352,192,82493,1,0,0:0:0:0:
416,192,82602,1,0,0:0:0:0:
160,192,82602,1,0,0:0:0:0:
96,192,82602,1,2,0:0:0:60:
224,192,82711,1,0,0:0:0:0:
352,192,82819,1,0,0:0:0:0:
480,192,82928,1,0,0:0:0:0:
416,192,83037,1,0,0:0:0:0:
96,192,83037,1,2,0:0:0:60:
224,192,83037,1,0,0:0:0:0:
288,192,83146,1,0,0:0:0:0:
160,192,83254,1,0,0:0:0:0:
224,192,83309,1,0,0:0:0:0:
288,192,83363,1,0,0:0:0:0:
352,192,83417,1,0,0:0:0:0:
416,192,83472,1,0,0:0:0:0:
480,192,83472,1,0,0:0:0:0:
96,192,83472,1,2,0:0:0:60:
160,192,83580,1,0,0:0:0:0:
288,192,83689,1,0,0:0:0:0:
480,192,83798,1,0,0:0:0:0:
96,192,83906,1,2,0:0:0:60:
160,192,83906,1,0,0:0:0:0:
416,192,83906,1,0,0:0:0:0:
224,192,84015,1,0,0:0:0:0:
288,192,84069,1,0,0:0:0:0:
352,192,84124,1,0,0:0:0:0:
96,192,84341,1,2,0:0:0:60:
224,192,84341,1,0,0:0:0:0:
480,192,84341,1,0,0:0:0:0:
416,192,84450,1,0,0:0:0:0:
288,192,84559,1,0,0:0:0:0:
160,192,84667,1,0,0:0:0:0:
96,192,84776,1,2,0:0:0:60:
288,192,84776,1,0,0:0:0:0:
480,192,84776,1,0,0:0:0:0:
352,192,84885,1,0,0:0:0:0:
224,192,84993,1,0,0:0:0:0:
352,192,85102,1,0,0:0:0:0:
32,192,85211,1,4,0:0:0:60:
96,192,85211,1,2,0:0:0:60:
288,192,85211,1,0,0:0:0:0:
480,192,85211,1,0,0:0:0:0:
160,192,85319,1,0,0:0:0:0:
224,192,85428,1,0,0:0:0:0:
352,192,85537,1,0,0:0:0:0:
96,192,85646,1,2,0:0:0:60:
288,192,85646,1,0,0:0:0:0:
416,192,85646,1,0,0:0:0:0:
480,192,85754,1,0,0:0:0:0:
224,192,85863,1,0,0:0:0:0:
160,192,86080,1,0,0:0:0:0:
96,192,86080,1,2,0:0:0:60:
352,192,86080,1,0,0:0:0:0:
288,192,86189,1,0,0:0:0:0:
224,192,86298,1,0,0:0:0:0:
480,192,86406,1,0,0:0:0:0:
416,192,86515,1,0,0:0:0:0:
288,192,86515,1,0,0:0:0:0:
96,192,86515,1,2,0:0:0:60:
224,192,86624,1,0,0:0:0:0:
160,192,86732,1,0,0:0:0:0:
352,192,86732,1,0,0:0:0:0:
96,192,86950,1,2,0:0:0:60:
224,192,86950,1,0,0:0:0:0:
480,192,86950,1,0,0:0:0:0:
352,192,87059,1,0,0:0:0:0:
288,192,87167,1,0,0:0:0:0:
416,192,87167,1,0,0:0:0:0:
160,192,87276,1,0,0:0:0:0:
96,192,87385,1,2,0:0:0:60:
480,192,87385,1,0,0:0:0:0:
352,192,87385,1,0,0:0:0:0:
224,192,87493,1,0,0:0:0:0:
160,192,87602,1,0,0:0:0:0:
288,192,87602,1,0,0:0:0:0:
96,192,87819,1,2,0:0:0:60:
224,192,87819,1,0,0:0:0:0:
352,192,87819,1,0,0:0:0:0:
416,192,87928,1,0,0:0:0:0:
288,192,88037,1,0,0:0:0:0:
480,192,88037,1,0,0:0:0:0:
224,192,88146,1,0,0:0:0:0:
160,192,88254,1,0,0:0:0:0:
96,192,88254,1,2,0:0:0:60:
416,192,88254,1,0,0:0:0:0:
288,192,88363,1,0,0:0:0:0:
224,192,88472,1,0,0:0:0:0:
352,192,88472,1,0,0:0:0:0:
96,192,88689,1,2,0:0:0:60:
416,192,88689,1,0,0:0:0:0:
288,192,88689,1,0,0:0:0:0:
160,192,88798,1,0,0:0:0:0:
480,192,88906,1,0,0:0:0:0:
352,192,89015,1,0,0:0:0:0:
224,192,89124,1,0,0:0:0:0:
96,192,89124,1,2,0:0:0:60:
416,192,89124,1,0,0:0:0:0:
288,192,89232,1,0,0:0:0:0:
160,192,89341,1,0,0:0:0:0:
480,192,89450,1,0,0:0:0:0:
416,192,89559,1,0,0:0:0:0:
288,192,89559,1,0,0:0:0:0:
96,192,89559,1,2,0:0:0:60:
224,192,89667,1,0,0:0:0:0:
352,192,89776,1,0,0:0:0:0:
288,192,89885,1,0,0:0:0:0:
96,192,89993,1,2,0:0:0:60:
224,192,89993,1,0,0:0:0:0:
416,192,89993,1,0,0:0:0:0:
352,192,90102,1,0,0:0:0:0:
160,192,90211,1,0,0:0:0:0:
480,192,90211,1,0,0:0:0:0:
224,192,90265,1,0,0:0:0:0:
288,192,90319,1,0,0:0:0:0:
352,192,90374,1,0,0:0:0:0:
416,192,90428,1,0,0:0:0:0:
480,192,90428,1,0,0:0:0:0:
96,192,90428,1,2,0:0:0:60:
160,192,90537,1,0,0:0:0:0:
288,192,90646,1,0,0:0:0:0:
224,192,90754,1,0,0:0:0:0:
96,192,90863,1,2,0:0:0:60:
352,192,90863,1,0,0:0:0:0:
480,192,90863,1,0,0:0:0:0:
288,192,90972,1,0,0:0:0:0:
224,192,91026,1,0,0:0:0:0:
160,192,91080,1,0,0:0:0:0:
224,192,91298,1,0,0:0:0:0:
96,192,91298,1,2,0:0:0:60:
352,192,91298,1,0,0:0:0:0:
288,192,91406,1,0,0:0:0:0:
416,192,91515,1,0,0:0:0:0:
160,192,91624,1,0,0:0:0:0:
96,192,91732,1,2,0:0:0:60:
352,192,91732,1,0,0:0:0:0:
480,192,91732,1,0,0:0:0:0:
288,192,91841,1,0,0:0:0:0:
224,192,91950,1,0,0:0:0:0:
96,192,92167,1,2,0:0:0:60:
288,192,92167,1,0,0:0:0:0:
416,192,92167,1,0,0:0:0:0:
224,192,92276,1,0,0:0:0:0:
352,192,92385,1,0,0:0:0:0:
288,192,92493,1,0,0:0:0:0:
160,192,92602,1,0,0:0:0:0:
96,192,92602,1,2,0:0:0:60:
480,192,92602,1,0,0:0:0:0:
224,192,92711,1,0,0:0:0:0:
352,192,92819,1,0,0:0:0:0:
416,192,92928,1,0,0:0:0:0:
96,192,93037,1,2,0:0:0:60:
224,192,93037,1,0,0:0:0:0:
288,192,93037,1,0,0:0:0:0:
352,192,93146,1,0,0:0:0:0:
480,192,93254,1,0,0:0:0:0:
160,192,93363,1,0,0:0:0:0:
96,192,93472,1,2,0:0:0:60:
352,192,93472,1,0,0:0:0:0:
416,192,93472,1,0,0:0:0:0:
224,192,93580,1,0,0:0:0:0:
416,192,93689,1,0,0:0:0:0:
352,192,93743,1,0,0:0:0:0:
288,192,93798,1,0,0:0:0:0:
224,192,93852,1,0,0:0:0:0:
160,192,93906,1,0,0:0:0:0:
96,192,93906,1,2,0:0:0:60:
480,192,93906,1,0,0:0:0:0:
352,192,94015,1,0,0:0:0:0:
288,192,94124,1,0,0:0:0:0:
416,192,94232,1,0,0:0:0:0:
96,192,94341,1,2,0:0:0:60:
224,192,94341,1,0,0:0:0:0:
480,192,94341,1,0,0:0:0:0:
288,192,94450,1,0,0:0:0:0:
352,192,94504,1,0,0:0:0:0:
416,192,94559,1,0,0:0:0:0:
160,192,94776,1,0,0:0:0:0:
96,192,94776,1,2,0:0:0:60:
288,192,94776,1,0,0:0:0:0:
352,192,94885,1,0,0:0:0:0:
224,192,94993,1,0,0:0:0:0:
288,192,95102,1,0,0:0:0:0:
96,192,95211,1,2,0:0:0:60:
352,192,95211,1,0,0:0:0:0:
480,192,95211,1,0,0:0:0:0:
160,192,95319,1,0,0:0:0:0:
416,192,95428,1,0,0:0:0:0:
96,192,95646,1,2,0:0:0:60:
288,192,95646,1,0,0:0:0:0:
352,192,95646,1,0,0:0:0:0:
224,192,95754,1,0,0:0:0:0:
160,192,95863,1,0,0:0:0:0:
416,192,95972,1,0,0:0:0:0:
288,192,96080,1,0,0:0:0:0:
96,192,96080,1,2,0:0:0:60:
480,192,96080,1,0,0:0:0:0:
352,192,96189,1,0,0:0:0:0:
224,192,96298,1,0,0:0:0:0:
288,192,96406,1,0,0:0:0:0:
96,192,96515,1,2,0:0:0:60:
352,192,96515,1,0,0:0:0:0:
416,192,96515,1,0,0:0:0:0:
160,192,96624,1,0,0:0:0:0:
480,192,96732,1,0,0:0:0:0:
288,192,96841,1,0,0:0:0:0:
224,192,96950,1,0,0:0:0:0:
96,192,96950,1,2,0:0:0:60:
416,192,96950,1,0,0:0:0:0:
352,192,97059,1,0,0:0:0:0:
160,192,97167,1,0,0:0:0:0:
480,192,97167,1,0,0:0:0:0:
224,192,97222,1,0,0:0:0:0:
288,192,97276,1,0,0:0:0:0:
352,192,97330,1,0,0:0:0:0:
416,192,97385,1,0,0:0:0:0:
480,192,97385,1,0,0:0:0:0:
96,192,97385,1,2,0:0:0:60:
160,192,97493,1,0,0:0:0:0:
224,192,97602,1,0,0:0:0:0:
352,192,97602,1,0,0:0:0:0:
416,192,97711,1,0,0:0:0:0:
96,192,97819,1,2,0:0:0:60:
480,192,97819,1,0,0:0:0:0:
288,192,97819,1,0,0:0:0:0:
160,192,97928,1,0,0:0:0:0:
224,192,97982,1,0,0:0:0:0:
416,192,98037,1,0,0:0:0:0:
352,192,98037,1,0,0:0:0:0:
96,192,98254,1,2,0:0:0:60:
480,192,98254,1,0,0:0:0:0:
224,192,98254,1,0,0:0:0:0:
288,192,98363,1,0,0:0:0:0:
352,192,98472,1,0,0:0:0:0:
160,192,98472,1,0,0:0:0:0:
416,192,98580,1,0,0:0:0:0:
480,192,98689,1,0,0:0:0:0:
288,192,98689,1,0,0:0:0:0:
96,192,98689,1,2,0:0:0:60:
224,192,98906,1,0,0:0:0:0:
352,192,98906,1,0,0:0:0:0:
32,192,99124,1,4,0:0:0:60:
160,192,99124,1,0,0:0:0:0:
96,192,99124,1,2,0:0:0:60:
288,192,99124,1,0,0:0:0:0:
416,192,105211,5,0,0:0:0:0:
352,192,106080,1,0,0:0:0:0:
224,192,109559,1,0,0:0:0:0:
288,192,113037,1,0,0:0:0:0:
96,192,113037,1,0,0:0:0:0:
224,192,113254,1,0,0:0:0:0:
96,192,113363,1,0,0:0:0:0:
480,192,113363,1,0,0:0:0:0:
160,192,113472,1,0,0:0:0:0:
416,192,113472,1,0,0:0:0:0:
32,192,113689,1,0,0:0:0:0:
288,192,113906,1,0,0:0:0:0:
96,192,114015,1,0,0:0:0:0:
480,192,114015,1,0,0:0:0:0:
224,192,114124,1,0,0:0:0:0:
352,192,114232,1,0,0:0:0:0:
416,192,114232,1,0,0:0:0:0:
160,192,114341,1,0,0:0:0:0:
224,192,114341,1,0,0:0:0:0:
32,192,114559,1,0,0:0:0:0:
96,192,114776,1,0,0:0:0:0:
480,192,114776,1,0,0:0:0:0:
352,192,114993,1,0,0:0:0:0:
160,192,115211,1,0,0:0:0:0:
288,192,115211,1,0,0:0:0:0:
32,192,115428,1,0,0:0:0:0:
416,192,115537,1,0,0:0:0:0:
224,192,115646,1,0,0:0:0:0:
416,192,115754,1,0,0:0:0:0:
96,192,115863,1,0,0:0:0:0:
352,192,115863,1,0,0:0:0:0:
160,192,116080,1,0,0:0:0:0:
480,192,116080,1,0,0:0:0:0:
32,192,116298,1,0,0:0:0:0:
96,192,116515,1,0,0:0:0:0:
288,192,116515,1,0,0:0:0:0:
224,192,116732,1,0,0:0:0:0:
96,192,116841,1,0,0:0:0:0:
352,192,116841,1,0,0:0:0:0:
160,192,116950,1,0,0:0:0:0:
416,192,116950,1,0,0:0:0:0:
32,192,117167,1,0,0:0:0:0:
288,192,117385,1,0,0:0:0:0:
96,192,117493,1,0,0:0:0:0:
480,192,117493,1,0,0:0:0:0:
352,192,117602,1,0,0:0:0:0:
224,192,117711,1,0,0:0:0:0:
160,192,117711,1,0,0:0:0:0:
352,192,117819,1,0,0:0:0:0:
416,192,117819,1,0,0:0:0:0:
32,192,118037,1,0,0:0:0:0:
96,192,118254,1,0,0:0:0:0:
416,192,118254,1,0,0:0:0:0:
224,192,118472,1,0,0:0:0:0:
160,192,118689,1,0,0:0:0:0:
480,192,118689,1,0,0:0:0:0:
32,192,118906,1,0,0:0:0:0:
416,192,119015,1,0,0:0:0:0:
288,192,119124,1,0,0:0:0:0:
416,192,119232,1,0,0:0:0:0:
96,192,119341,1,0,0:0:0:0:
352,192,119341,1,0,0:0:0:0:
160,192,119559,1,0,0:0:0:0:
480,192,119559,1,0,0:0:0:0:
32,192,119776,1,0,0:0:0:0:
96,192,119993,1,0,0:0:0:0:
224,192,119993,1,0,0:0:0:0:
288,192,120211,1,0,0:0:0:0:
96,192,120319,1,0,0:0:0:0:
480,192,120319,1,0,0:0:0:0:
160,192,120428,1,0,0:0:0:0:
352,192,120428,1,0,0:0:0:0:
32,192,120646,1,0,0:0:0:0:
224,192,120863,1,0,0:0:0:0:
96,192,120972,1,0,0:0:0:0:
480,192,120972,1,0,0:0:0:0:
288,192,121080,1,0,0:0:0:0:
416,192,121189,1,0,0:0:0:0:
224,192,121189,1,0,0:0:0:0:
160,192,121298,1,0,0:0:0:0:
352,192,121298,1,0,0:0:0:0:
32,192,121515,1,0,0:0:0:0:
96,192,121732,1,0,0:0:0:0:
224,192,121732,1,0,0:0:0:0:
288,192,121950,1,0,0:0:0:0:
160,192,122167,1,0,0:0:0:0:
416,192,122167,1,0,0:0:0:0:
32,192,122385,1,0,0:0:0:0:
480,192,122493,1,0,0:0:0:0:
288,192,122602,1,0,0:0:0:0:
480,192,122711,1,0,0:0:0:0:
96,192,122819,1,0,0:0:0:0:
352,192,122819,1,0,0:0:0:0:
160,192,123037,1,0,0:0:0:0:
416,192,123037,1,0,0:0:0:0:
32,192,123254,1,0,0:0:0:0:
96,192,123472,1,0,0:0:0:0:
480,192,123472,1,0,0:0:0:0:
288,192,123689,1,0,0:0:0:0:
96,192,123798,1,0,0:0:0:0:
416,192,123798,1,0,0:0:0:0:
352,192,123906,1,0,0:0:0:0:
160,192,123906,1,0,0:0:0:0:
32,192,124124,1,0,0:0:0:0:
224,192,124341,1,0,0:0:0:0:
96,192,124450,1,0,0:0:0:0:
480,192,124450,1,0,0:0:0:0:
288,192,124559,1,0,0:0:0:0:
224,192,124667,1,0,0:0:0:0:
416,192,124667,1,0,0:0:0:0:
352,192,124776,1,0,0:0:0:0:
160,192,124776,1,0,0:0:0:0:
32,192,124993,1,0,0:0:0:0:
96,192,125211,1,0,0:0:0:0:
352,192,125211,1,0,0:0:0:0:
352,192,125428,1,0,0:0:0:0:
352,192,125646,1,0,0:0:0:0:
416,192,125754,1,0,0:0:0:0:
352,192,125863,1,0,0:0:0:0:
32,192,125863,1,0,0:0:0:0:
96,192,126080,1,2,0:0:0:60:
480,192,126080,1,8,0:0:0:100:
288,192,126080,1,0,0:0:0:0:
224,192,126080,1,0,0:0:0:0:
480,192,126298,1,8,0:0:0:100:
288,192,126298,1,0,0:0:0:0:
96,192,126298,1,0,0:0:0:0:
96,192,126515,1,0,0:0:0:0:
288,192,126515,1,0,0:0:0:0:
480,192,126515,1,8,0:0:0:100:
160,192,126624,1,0,0:0:0:0:
352,192,126624,1,0,0:0:0:0:
224,192,126732,1,0,0:0:0:0:
416,192,126732,1,0,0:0:0:0:
288,192,126841,1,0,0:0:0:0:
480,192,126841,1,0,0:0:0:0:
32,192,126950,1,4,0:0:0:60:
96,192,126950,1,2,0:0:0:60:
160,192,126950,1,0,0:0:0:0:
352,192,126950,1,0,0:0:0:0:
224,192,127276,1,0,0:0:0:0:
288,192,127385,1,0,0:0:0:0:
480,192,127385,1,0,0:0:0:0:
416,192,127711,1,0,0:0:0:0:
352,192,127819,1,0,0:0:0:0:
160,192,127819,1,0,0:0:0:0:
288,192,128146,1,0,0:0:0:0:
96,192,128254,1,0,0:0:0:0:
224,192,128254,1,0,0:0:0:0:
160,192,128472,1,0,0:0:0:0:
352,192,128472,1,0,0:0:0:0:
96,192,128580,1,0,0:0:0:0:
288,192,128580,1,0,0:0:0:0:
160,192,128689,1,0,0:0:0:0:
352,192,128689,1,0,0:0:0:0:
224,192,129015,1,0,0:0:0:0:
480,192,129124,1,0,0:0:0:0:
288,192,129124,1,0,0:0:0:0:
416,192,129450,1,0,0:0:0:0:
160,192,129559,1,0,0:0:0:0:
352,192,129559,1,0,0:0:0:0:
288,192,129885,1,0,0:0:0:0:
224,192,129993,1,0,0:0:0:0:
96,192,129993,1,0,0:0:0:0:
288,192,130211,1,0,0:0:0:0:
416,192,130211,1,0,0:0:0:0:
352,192,130319,1,0,0:0:0:0:
224,192,130319,1,0,0:0:0:0:
160,192,130428,1,0,0:0:0:0:
288,192,130428,1,0,0:0:0:0:
160,192,130754,1,0,0:0:0:0:
224,192,130863,1,0,0:0:0:0:
352,192,130863,1,0,0:0:0:0:
224,192,131189,1,0,0:0:0:0:
288,192,131298,1,0,0:0:0:0:
416,192,131298,1,0,0:0:0:0:
480,192,131624,1,0,0:0:0:0:
224,192,131732,1,0,0:0:0:0:
96,192,131732,1,0,0:0:0:0:
224,192,132059,1,0,0:0:0:0:
288,192,132167,1,0,0:0:0:0:
416,192,132167,1,0,0:0:0:0:
480,192,132493,1,0,0:0:0:0:
224,192,132602,1,0,0:0:0:0:
96,192,132602,1,0,0:0:0:0:
288,192,132928,1,0,0:0:0:0:
160,192,133037,1,0,0:0:0:0:
352,192,133037,1,0,0:0:0:0:
224,192,133363,1,0,0:0:0:0:
416,192,133472,1,0,0:0:0:0:
480,192,133472,1,0,0:0:0:0:
288,192,133689,1,0,0:0:0:0:
352,192,133689,1,0,0:0:0:0:
224,192,133906,1,0,0:0:0:0:
160,192,133906,1,0,0:0:0:0:
288,192,134232,1,0,0:0:0:0:
96,192,134341,1,0,0:0:0:0:
160,192,134341,1,0,0:0:0:0:
224,192,134667,1,0,0:0:0:0:
96,192,134776,1,0,0:0:0:0:
288,192,134776,1,0,0:0:0:0:
160,192,135102,1,0,0:0:0:0:
416,192,135211,1,0,0:0:0:0:
480,192,135211,1,0,0:0:0:0:
352,192,135428,1,0,0:0:0:0:
288,192,135428,1,0,0:0:0:0:
160,192,135646,1,0,0:0:0:0:
480,192,135646,1,0,0:0:0:0:
352,192,135972,1,0,0:0:0:0:
224,192,136080,1,0,0:0:0:0:
288,192,136080,1,0,0:0:0:0:
288,192,136406,1,0,0:0:0:0:
352,192,136515,1,0,0:0:0:0:
416,192,136515,1,0,0:0:0:0:
160,192,136841,1,0,0:0:0:0:
352,192,136950,1,0,0:0:0:0:
416,192,136950,1,0,0:0:0:0:
224,192,137167,1,0,0:0:0:0:
480,192,137167,1,0,0:0:0:0:
352,192,137385,1,0,0:0:0:0:
96,192,137385,1,0,0:0:0:0:
416,192,137711,1,0,0:0:0:0:
288,192,137819,1,0,0:0:0:0:
160,192,137819,1,0,0:0:0:0:
352,192,138146,1,0,0:0:0:0:
96,192,138254,1,0,0:0:0:0:
224,192,138254,1,0,0:0:0:0:
288,192,138580,1,0,0:0:0:0:
224,192,138689,1,0,0:0:0:0:
96,192,138689,1,0,0:0:0:0:
160,192,138906,1,0,0:0:0:0:
416,192,138906,1,0,0:0:0:0:
288,192,139124,1,0,0:0:0:0:
352,192,139124,1,0,0:0:0:0:
96,192,139450,1,0,0:0:0:0:
288,192,139559,1,0,0:0:0:0:
416,192,139559,1,0,0:0:0:0:
160,192,139885,1,0,0:0:0:0:
288,192,139993,1,0,0:0:0:0:
480,192,139993,1,0,0:0:0:0:
352,192,140319,1,0,0:0:0:0:
416,192,140428,1,0,0:0:0:0:
480,192,140428,1,0,0:0:0:0:
288,192,140646,1,0,0:0:0:0:
224,192,140646,1,0,0:0:0:0:
32,192,140863,1,0,0:0:0:0:
96,192,140863,1,0,0:0:0:0:
352,192,140863,1,0,0:0:0:0:
224,192,141189,1,0,0:0:0:0:
288,192,141298,1,0,0:0:0:0:
480,192,141298,1,0,0:0:0:0:
416,192,141624,1,0,0:0:0:0:
352,192,141732,1,0,0:0:0:0:
160,192,141732,1,0,0:0:0:0:
288,192,142059,1,0,0:0:0:0:
96,192,142167,1,0,0:0:0:0:
224,192,142167,1,0,0:0:0:0:
160,192,142385,1,0,0:0:0:0:
352,192,142385,1,0,0:0:0:0:
96,192,142493,1,0,0:0:0:0:
288,192,142493,1,0,0:0:0:0:
160,192,142602,1,0,0:0:0:0:
352,192,142602,1,0,0:0:0:0:
224,192,142928,1,0,0:0:0:0:
480,192,143037,1,0,0:0:0:0:
288,192,143037,1,0,0:0:0:0:
416,192,143363,1,0,0:0:0:0:
160,192,143472,1,0,0:0:0:0:
352,192,143472,1,0,0:0:0:0:
288,192,143798,1,0,0:0:0:0:
224,192,143906,1,0,0:0:0:0:
96,192,143906,1,0,0:0:0:0:
288,192,144124,1,0,0:0:0:0:
416,192,144124,1,0,0:0:0:0:
352,192,144232,1,0,0:0:0:0:
224,192,144232,1,0,0:0:0:0:
160,192,144341,1,0,0:0:0:0:
288,192,144341,1,0,0:0:0:0:
160,192,144667,1,0,0:0:0:0:
224,192,144776,1,0,0:0:0:0:
352,192,144776,1,0,0:0:0:0:
224,192,145102,1,0,0:0:0:0:
288,192,145211,1,0,0:0:0:0:
416,192,145211,1,0,0:0:0:0:
480,192,145537,1,0,0:0:0:0:
224,192,145646,1,0,0:0:0:0:
96,192,145646,1,0,0:0:0:0:
224,192,145972,1,0,0:0:0:0:
288,192,146080,1,0,0:0:0:0:
416,192,146080,1,0,0:0:0:0:
480,192,146406,1,0,0:0:0:0:
224,192,146515,1,0,0:0:0:0:
96,192,146515,1,0,0:0:0:0:
288,192,146841,1,0,0:0:0:0:
160,192,146950,1,0,0:0:0:0:
352,192,146950,1,0,0:0:0:0:
224,192,147276,1,0,0:0:0:0:
416,192,147385,1,0,0:0:0:0:
480,192,147385,1,0,0:0:0:0:
288,192,147602,1,0,0:0:0:0:
352,192,147602,1,0,0:0:0:0:
224,192,147819,1,0,0:0:0:0:
160,192,147819,1,0,0:0:0:0:
288,192,148146,1,0,0:0:0:0:
96,192,148254,1,0,0:0:0:0:
160,192,148254,1,0,0:0:0:0:
224,192,148580,1,0,0:0:0:0:
96,192,148689,1,0,0:0:0:0:
288,192,148689,1,0,0:0:0:0:
160,192,149015,1,0,0:0:0:0:
416,192,149124,1,0,0:0:0:0:
480,192,149124,1,0,0:0:0:0:
352,192,149341,1,0,0:0:0:0:
288,192,149341,1,0,0:0:0:0:
160,192,149559,1,0,0:0:0:0:
480,192,149559,1,0,0:0:0:0:
352,192,149885,1,0,0:0:0:0:
224,192,149993,1,0,0:0:0:0:
288,192,149993,1,0,0:0:0:0:
288,192,150319,1,0,0:0:0:0:
352,192,150428,1,0,0:0:0:0:
416,192,150428,1,0,0:0:0:0:
160,192,150754,1,0,0:0:0:0:
352,192,150863,1,0,0:0:0:0:
416,192,150863,1,0,0:0:0:0:
224,192,151080,1,0,0:0:0:0:
480,192,151080,1,0,0:0:0:0:
352,192,151298,1,0,0:0:0:0:
96,192,151298,1,0,0:0:0:0:
416,192,151624,1,0,0:0:0:0:
288,192,151732,1,0,0:0:0:0:
160,192,151732,1,0,0:0:0:0:
352,192,152059,1,0,0:0:0:0:
96,192,152167,1,0,0:0:0:0:
224,192,152167,1,0,0:0:0:0:
288,192,152493,1,0,0:0:0:0:
224,192,152602,1,0,0:0:0:0:
96,192,152602,1,0,0:0:0:0:
160,192,152819,1,0,0:0:0:0:
416,192,152819,1,0,0:0:0:0:
288,192,153037,1,0,0:0:0:0:
352,192,153037,1,0,0:0:0:0:
160,192,153363,1,0,0:0:0:0:
416,192,153472,1,0,0:0:0:0:
224,192,153798,1,0,0:0:0:0:
480,192,153906,1,0,0:0:0:0:
96,192,154341,1,0,0:0:0:0:
288,192,154341,1,0,0:0:0:0:
160,192,154450,1,0,0:0:0:0:
352,192,154450,1,0,0:0:0:0:
224,192,154559,1,0,0:0:0:0:
416,192,154559,1,0,0:0:0:0:
288,192,154667,1,0,0:0:0:0:
480,192,154667,1,0,0:0:0:0:
32,192,154776,1,4,0:0:0:60:
352,192,154776,1,0,0:0:0:0:
160,192,154776,1,0,0:0:0:0:
96,192,154776,1,2,0:0:0:60:
416,192,154885,1,0,0:0:0:0:
224,192,154993,1,0,0:0:0:0:
288,192,155102,1,0,0:0:0:0:
96,192,155211,1,2,0:0:0:60:
160,192,155211,1,0,0:0:0:0:
352,192,155211,1,0,0:0:0:0:
480,192,155211,1,8,0:0:0:100:
224,192,155319,1,0,0:0:0:0:
416,192,155428,1,0,0:0:0:0:
352,192,155537,1,0,0:0:0:0:
96,192,155646,1,2,0:0:0:60:
288,192,155646,1,0,0:0:0:0:
480,192,155646,1,0,0:0:0:0:
224,192,155754,1,0,0:0:0:0:
160,192,155863,1,0,0:0:0:0:
352,192,155972,1,0,0:0:0:0:
224,192,156080,1,0,0:0:0:0:
96,192,156080,1,2,0:0:0:60:
288,192,156080,1,0,0:0:0:0:
480,192,156080,1,8,0:0:0:100:
416,192,156189,1,0,0:0:0:0:
160,192,156298,1,0,0:0:0:0:
288,192,156298,1,0,0:0:0:0:
224,192,156406,1,0,0:0:0:0:
352,192,156406,1,0,0:0:0:0:
32,192,156515,1,4,0:0:0:60:
96,192,156515,1,2,0:0:0:60:
416,192,156515,1,0,0:0:0:0:
480,192,156515,1,0,0:0:0:0:
160,192,156624,1,0,0:0:0:0:
288,192,156732,1,0,0:0:0:0:
352,192,156841,1,0,0:0:0:0:
224,192,156950,1,0,0:0:0:0:
96,192,156950,1,2,0:0:0:60:
416,192,156950,1,0,0:0:0:0:
480,192,156950,1,8,0:0:0:100:
288,192,157059,1,0,0:0:0:0:
160,192,157167,1,0,0:0:0:0:
224,192,157276,1,0,0:0:0:0:
96,192,157385,1,2,0:0:0:60:
352,192,157385,1,0,0:0:0:0:
480,192,157385,1,0,0:0:0:0:
288,192,157493,1,0,0:0:0:0:
224,192,157602,1,0,0:0:0:0:
480,192,157711,1,0,0:0:0:0:
288,192,157819,1,0,0:0:0:0:
160,192,157819,1,0,0:0:0:0:
96,192,157819,1,2,0:0:0:60:
416,192,157819,1,8,0:0:0:100:
352,192,157928,1,0,0:0:0:0:
224,192,158037,1,0,0:0:0:0:
480,192,158037,1,0,0:0:0:0:
160,192,158146,1,0,0:0:0:0:
416,192,158146,1,0,0:0:0:0:
352,192,158254,1,0,0:0:0:0:
288,192,158254,1,0,0:0:0:0:
96,192,158254,1,2,0:0:0:60:
32,192,158254,1,4,0:0:0:60:
224,192,158363,1,0,0:0:0:0:
416,192,158472,1,0,0:0:0:0:
288,192,158580,1,0,0:0:0:0:
160,192,158689,1,0,0:0:0:0:
96,192,158689,1,2,0:0:0:60:
352,192,158689,1,0,0:0:0:0:
480,192,158689,1,8,0:0:0:100:
224,192,158798,1,0,0:0:0:0:
288,192,158906,1,0,0:0:0:0:
416,192,159015,1,0,0:0:0:0:
352,192,159124,1,0,0:0:0:0:
224,192,159124,1,0,0:0:0:0:
96,192,159124,1,2,0:0:0:60:
480,192,159232,1,0,0:0:0:0:
160,192,159341,1,0,0:0:0:0:
224,192,159450,1,0,0:0:0:0:
96,192,159559,1,2,0:0:0:60:
288,192,159559,1,0,0:0:0:0:
416,192,159559,1,8,0:0:0:100:
480,192,159559,1,0,0:0:0:0:
160,192,159667,1,0,0:0:0:0:
352,192,159776,1,0,0:0:0:0:
288,192,159885,1,0,0:0:0:0:
96,192,159993,1,2,0:0:0:60:
32,192,159993,1,4,0:0:0:60:
224,192,159993,1,0,0:0:0:0:
480,192,159993,1,0,0:0:0:0:
352,192,160102,1,0,0:0:0:0:
416,192,160211,1,0,0:0:0:0:
160,192,160319,1,0,0:0:0:0:
96,192,160428,1,2,0:0:0:60:
288,192,160428,1,0,0:0:0:0:
352,192,160428,1,0,0:0:0:0:
480,192,160428,1,8,0:0:0:100:
224,192,160537,1,0,0:0:0:0:
160,192,160646,1,0,0:0:0:0:
416,192,160754,1,0,0:0:0:0:
96,192,160863,1,2,0:0:0:60:
480,192,160863,1,0,0:0:0:0:
288,192,160863,1,0,0:0:0:0:
352,192,160972,1,0,0:0:0:0:
224,192,161080,1,0,0:0:0:0:
288,192,161189,1,0,0:0:0:0:
96,192,161298,1,2,0:0:0:60:
352,192,161298,1,8,0:0:0:100:
480,192,161298,1,0,0:0:0:0:
160,192,161298,1,0,0:0:0:0:
224,192,161406,1,0,0:0:0:0:
416,192,161515,1,0,0:0:0:0:
288,192,161515,1,0,0:0:0:0:
480,192,161624,1,0,0:0:0:0:
96,192,161732,1,2,0:0:0:60:
32,192,161732,1,4,0:0:0:60:
352,192,161732,1,0,0:0:0:0:
224,192,161732,1,0,0:0:0:0:
288,192,161841,1,0,0:0:0:0:
160,192,161950,1,0,0:0:0:0:
416,192,162059,1,0,0:0:0:0:
96,192,162167,1,2,0:0:0:60:
224,192,162167,1,0,0:0:0:0:
288,192,162167,1,0,0:0:0:0:
352,192,162167,1,8,0:0:0:100:
480,192,162276,1,0,0:0:0:0:
416,192,162385,1,0,0:0:0:0:
160,192,162493,1,0,0:0:0:0:
96,192,162602,1,2,0:0:0:60:
288,192,162602,1,0,0:0:0:0:
480,192,162602,1,0,0:0:0:0:
224,192,162711,1,0,0:0:0:0:
352,192,162819,1,0,0:0:0:0:
416,192,162928,1,0,0:0:0:0:
288,192,163037,1,0,0:0:0:0:
160,192,163037,1,0,0:0:0:0:
96,192,163037,1,2,0:0:0:60:
480,192,163037,1,8,0:0:0:100:
352,192,163146,1,0,0:0:0:0:
224,192,163254,1,0,0:0:0:0:
416,192,163254,1,0,0:0:0:0:
160,192,163363,1,0,0:0:0:0:
96,192,163472,1,2,0:0:0:60:
32,192,163472,1,4,0:0:0:60:
288,192,163472,1,0,0:0:0:0:
480,192,163472,1,0,0:0:0:0:
224,192,163580,1,0,0:0:0:0:
352,192,163689,1,0,0:0:0:0:
160,192,163798,1,0,0:0:0:0:
96,192,163906,1,2,0:0:0:60:
288,192,163906,1,0,0:0:0:0:
416,192,163906,1,8,0:0:0:100:
480,192,163906,1,0,0:0:0:0:
224,192,164015,1,0,0:0:0:0:
352,192,164124,1,0,0:0:0:0:
288,192,164232,1,0,0:0:0:0:
96,192,164341,1,2,0:0:0:60:
160,192,164341,1,0,0:0:0:0:
480,192,164341,1,0,0:0:0:0:
416,192,164450,1,0,0:0:0:0:
224,192,164559,1,0,0:0:0:0:
288,192,164667,1,0,0:0:0:0:
96,192,164776,1,2,0:0:0:60:
352,192,164776,1,8,0:0:0:100:
160,192,164776,1,0,0:0:0:0:
480,192,164776,1,0,0:0:0:0:
224,192,164885,1,0,0:0:0:0:
288,192,164993,1,0,0:0:0:0:
416,192,164993,1,0,0:0:0:0:
480,192,165102,1,0,0:0:0:0:
32,192,165211,1,4,0:0:0:60:
96,192,165211,1,2,0:0:0:60:
224,192,165211,1,0,0:0:0:0:
352,192,165211,1,0,0:0:0:0:
288,192,165319,1,0,0:0:0:0:
160,192,165428,1,0,0:0:0:0:
224,192,165537,1,0,0:0:0:0:
96,192,165646,1,2,0:0:0:60:
288,192,165646,1,0,0:0:0:0:
416,192,165646,1,8,0:0:0:100:
480,192,165646,1,0,0:0:0:0:
352,192,165754,1,0,0:0:0:0:
224,192,165863,1,0,0:0:0:0:
160,192,165972,1,0,0:0:0:0:
96,192,166080,1,2,0:0:0:60:
352,192,166080,1,0,0:0:0:0:
480,192,166080,1,0,0:0:0:0:
288,192,166189,1,0,0:0:0:0:
224,192,166298,1,0,0:0:0:0:
416,192,166406,1,0,0:0:0:0:
288,192,166515,1,0,0:0:0:0:
352,192,166515,1,8,0:0:0:100:
96,192,166515,1,2,0:0:0:60:
160,192,166515,1,0,0:0:0:0:
480,192,166624,1,0,0:0:0:0:
416,192,166732,1,0,0:0:0:0:
224,192,166732,1,0,0:0:0:0:
160,192,166841,1,0,0:0:0:0:
32,192,166950,1,4,0:0:0:60:
96,192,166950,1,2,0:0:0:60:
288,192,166950,1,0,0:0:0:0:
480,192,166950,1,0,0:0:0:0:
352,192,167059,1,0,0:0:0:0:
224,192,167167,1,0,0:0:0:0:
160,192,167276,1,0,0:0:0:0:
96,192,167385,1,2,0:0:0:60:
288,192,167385,1,0,0:0:0:0:
416,192,167385,1,8,0:0:0:100:
480,192,167385,1,0,0:0:0:0:
352,192,167493,1,0,0:0:0:0:
224,192,167602,1,0,0:0:0:0:
288,192,167711,1,0,0:0:0:0:
160,192,167819,1,0,0:0:0:0:
96,192,167819,1,2,0:0:0:60:
480,192,167819,1,0,0:0:0:0:
416,192,167928,1,0,0:0:0:0:
352,192,168037,1,0,0:0:0:0:
224,192,168146,1,0,0:0:0:0:
96,192,168254,1,2,0:0:0:60:
288,192,168254,1,0,0:0:0:0:
416,192,168254,1,8,0:0:0:100:
480,192,168254,1,0,0:0:0:0:
160,192,168363,1,0,0:0:0:0:
224,192,168472,1,0,0:0:0:0:
352,192,168472,1,0,0:0:0:0:
416,192,168580,1,0,0:0:0:0:
288,192,168689,1,0,0:0:0:0:
160,192,168689,1,0,0:0:0:0:
96,192,168689,1,2,0:0:0:60:
32,192,168689,1,4,0:0:0:60:
352,192,168798,1,0,0:0:0:0:
224,192,168906,1,0,0:0:0:0:
288,192,169015,1,0,0:0:0:0:
96,192,169124,1,2,0:0:0:60:
160,192,169124,1,0,0:0:0:0:
352,192,169124,1,8,0:0:0:100:
480,192,169124,1,0,0:0:0:0:
224,192,169232,1,0,0:0:0:0:
416,192,169341,1,0,0:0:0:0:
352,192,169450,1,0,0:0:0:0:
288,192,169559,1,0,0:0:0:0:
96,192,169559,1,2,0:0:0:60:
224,192,169559,1,0,0:0:0:0:
480,192,169667,1,0,0:0:0:0:
160,192,169776,1,0,0:0:0:0:
224,192,169885,1,0,0:0:0:0:
96,192,169993,1,2,0:0:0:60:
288,192,169993,1,0,0:0:0:0:
352,192,169993,1,0,0:0:0:0:
416,192,169993,1,8,0:0:0:100:
480,192,170102,1,0,0:0:0:0:
160,192,170211,1,0,0:0:0:0:
288,192,170211,1,0,0:0:0:0:
224,192,170319,1,0,0:0:0:0:
352,192,170319,1,0,0:0:0:0:
288,192,170428,1,0,0:0:0:0:
416,192,170428,1,0,0:0:0:0:
96,192,170428,1,2,0:0:0:60:
32,192,170428,1,4,0:0:0:60:
480,192,170537,1,0,0:0:0:0:
160,192,170646,1,0,0:0:0:0:
352,192,170754,1,0,0:0:0:0:
96,192,170863,1,2,0:0:0:60:
224,192,170863,1,0,0:0:0:0:
288,192,170863,1,8,0:0:0:100:
480,192,170863,1,0,0:0:0:0:
416,192,170972,1,0,0:0:0:0:
352,192,171080,1,0,0:0:0:0:
160,192,171189,1,0,0:0:0:0:
96,192,171298,1,2,0:0:0:60:
288,192,171298,1,0,0:0:0:0:
416,192,171298,1,0,0:0:0:0:
224,192,171406,1,0,0:0:0:0:
352,192,171515,1,0,0:0:0:0:
288,192,171624,1,0,0:0:0:0:
96,192,171732,1,2,0:0:0:60:
160,192,171732,1,0,0:0:0:0:
480,192,171732,1,0,0:0:0:0:
416,192,171732,1,8,0:0:0:100:
352,192,171841,1,0,0:0:0:0:
288,192,171950,1,0,0:0:0:0:
480,192,171950,1,0,0:0:0:0:
416,192,172059,1,0,0:0:0:0:
224,192,172059,1,0,0:0:0:0:
96,192,172167,1,2,0:0:0:60:
32,192,172167,1,4,0:0:0:60:
160,192,172167,1,0,0:0:0:0:
352,192,172167,1,0,0:0:0:0:
288,192,172276,1,0,0:0:0:0:
416,192,172385,1,0,0:0:0:0:
224,192,172493,1,0,0:0:0:0:
96,192,172602,1,2,0:0:0:60:
288,192,172602,1,0,0:0:0:0:
352,192,172602,1,8,0:0:0:100:
480,192,172602,1,0,0:0:0:0:
160,192,172711,1,0,0:0:0:0:
224,192,172819,1,0,0:0:0:0:
416,192,172928,1,0,0:0:0:0:
352,192,173037,1,0,0:0:0:0:
96,192,173037,1,2,0:0:0:60:
160,192,173037,1,0,0:0:0:0:
288,192,173146,1,0,0:0:0:0:
480,192,173254,1,0,0:0:0:0:
224,192,173363,1,0,0:0:0:0:
288,192,173472,1,0,0:0:0:0:
96,192,173472,1,2,0:0:0:60:
416,192,173472,1,8,0:0:0:100:
352,192,173472,1,0,0:0:0:0:
160,192,173580,1,0,0:0:0:0:
480,192,173689,1,0,0:0:0:0:
224,192,173798,1,0,0:0:0:0:
96,192,173906,1,2,0:0:0:60:
32,192,173906,1,4,0:0:0:60:
288,192,173906,1,0,0:0:0:0:
416,192,173906,1,0,0:0:0:0:
352,192,174015,1,0,0:0:0:0:
160,192,174124,1,0,0:0:0:0:
288,192,174232,1,0,0:0:0:0:
96,192,174341,1,2,0:0:0:60:
416,192,174341,1,0,0:0:0:0:
224,192,174341,1,0,0:0:0:0:
352,192,174341,1,8,0:0:0:100:
480,192,174450,1,0,0:0:0:0:
288,192,174559,1,0,0:0:0:0:
160,192,174667,1,0,0:0:0:0:
96,192,174776,1,2,0:0:0:60:
352,192,174776,1,0,0:0:0:0:
480,192,174776,1,0,0:0:0:0:
288,192,174885,1,0,0:0:0:0:
416,192,174993,1,0,0:0:0:0:
224,192,175102,1,0,0:0:0:0:
160,192,175211,1,0,0:0:0:0:
96,192,175211,1,2,0:0:0:60:
288,192,175211,1,0,0:0:0:0:
480,192,175211,1,8,0:0:0:100:
352,192,175319,1,0,0:0:0:0:
224,192,175428,1,0,0:0:0:0:
416,192,175428,1,0,0:0:0:0:
288,192,175537,1,0,0:0:0:0:
352,192,175646,1,0,0:0:0:0:
160,192,175646,1,0,0:0:0:0:
96,192,175646,1,2,0:0:0:60:
32,192,175646,1,4,0:0:0:60:
480,192,175754,1,0,0:0:0:0:
224,192,175863,1,0,0:0:0:0:
160,192,175972,1,0,0:0:0:0:
96,192,176080,1,2,0:0:0:60:
288,192,176080,1,0,0:0:0:0:
416,192,176080,1,8,0:0:0:100:
480,192,176080,1,0,0:0:0:0:
352,192,176189,1,0,0:0:0:0:
224,192,176298,1,0,0:0:0:0:
288,192,176406,1,0,0:0:0:0:
96,192,176515,1,2,0:0:0:60:
160,192,176515,1,0,0:0:0:0:
416,192,176515,1,0,0:0:0:0:
480,192,176624,1,0,0:0:0:0:
224,192,176732,1,0,0:0:0:0:
352,192,176841,1,0,0:0:0:0:
288,192,176950,1,0,0:0:0:0:
96,192,176950,1,2,0:0:0:60:
480,192,176950,1,0,0:0:0:0:
416,192,176950,1,8,0:0:0:100:
160,192,177059,1,0,0:0:0:0:
224,192,177167,1,0,0:0:0:0:
352,192,177167,1,0,0:0:0:0:
480,192,177276,1,0,0:0:0:0:
96,192,177385,1,2,0:0:0:60:
160,192,177385,1,0,0:0:0:0:
32,192,177385,1,4,0:0:0:60:
416,192,177385,1,0,0:0:0:0:
288,192,177493,1,0,0:0:0:0:
224,192,177602,1,0,0:0:0:0:
480,192,177711,1,0,0:0:0:0:
416,192,177819,1,0,0:0:0:0:
96,192,177819,1,2,0:0:0:60:
288,192,177819,1,0,0:0:0:0:
352,192,177819,1,8,0:0:0:100:
160,192,177928,1,0,0:0:0:0:
480,192,178037,1,0,0:0:0:0:
288,192,178146,1,0,0:0:0:0:
224,192,178254,1,0,0:0:0:0:
96,192,178254,1,2,0:0:0:60:
352,192,178254,1,0,0:0:0:0:
416,192,178363,1,0,0:0:0:0:
160,192,178472,1,0,0:0:0:0:
224,192,178580,1,0,0:0:0:0:
416,192,178689,1,8,0:0:0:100:
96,192,178689,1,2,0:0:0:60:
288,192,178689,1,0,0:0:0:0:
480,192,178689,1,0,0:0:0:0:
352,192,178798,1,0,0:0:0:0:
160,192,178906,1,0,0:0:0:0:
224,192,178906,1,0,0:0:0:0:
288,192,179015,1,0,0:0:0:0:
96,192,179124,1,2,0:0:0:60:
32,192,179124,1,4,0:0:0:60:
352,192,179124,1,0,0:0:0:0:
416,192,179124,1,0,0:0:0:0:
480,192,179232,1,0,0:0:0:0:
224,192,179341,1,0,0:0:0:0:
288,192,179450,1,0,0:0:0:0:
352,192,179559,1,8,0:0:0:100:
480,192,179559,1,0,0:0:0:0:
160,192,179559,1,0,0:0:0:0:
96,192,179559,1,2,0:0:0:60:
224,192,179667,1,0,0:0:0:0:
288,192,179776,1,0,0:0:0:0:
416,192,179885,1,0,0:0:0:0:
96,192,179993,1,2,0:0:0:60:
352,192,179993,1,0,0:0:0:0:
224,192,179993,1,0,0:0:0:0:
480,192,180102,1,0,0:0:0:0:
288,192,180211,1,0,0:0:0:0:
160,192,180319,1,0,0:0:0:0:
96,192,180428,1,2,0:0:0:60:
352,192,180428,1,0,0:0:0:0:
416,192,180428,1,8,0:0:0:100:
480,192,180428,1,0,0:0:0:0:
224,192,180537,1,0,0:0:0:0:
160,192,180646,1,0,0:0:0:0:
288,192,180646,1,0,0:0:0:0:
416,192,180754,1,0,0:0:0:0:
352,192,180863,1,0,0:0:0:0:
224,192,180863,1,0,0:0:0:0:
96,192,180863,1,2,0:0:0:60:
32,192,180863,1,4,0:0:0:60:
288,192,180972,1,0,0:0:0:0:
480,192,181080,1,0,0:0:0:0:
224,192,181189,1,0,0:0:0:0:
160,192,181298,1,0,0:0:0:0:
96,192,181298,1,2,0:0:0:60:
288,192,181298,1,0,0:0:0:0:
416,192,181298,1,8,0:0:0:100:
352,192,181406,1,0,0:0:0:0:
224,192,181515,1,0,0:0:0:0:
480,192,181624,1,0,0:0:0:0:
416,192,181732,1,0,0:0:0:0:
352,192,181732,1,0,0:0:0:0:
96,192,181732,1,2,0:0:0:60:
288,192,181841,1,0,0:0:0:0:
160,192,181950,1,0,0:0:0:0:
224,192,182059,1,0,0:0:0:0:
96,192,182167,1,2,0:0:0:60:
288,192,182167,1,0,0:0:0:0:
480,192,182167,1,0,0:0:0:0:
416,192,182167,1,8,0:0:0:100:
160,192,182276,1,0,0:0:0:0:
352,192,182276,1,0,0:0:0:0:
224,192,182385,1,0,0:0:0:0:
416,192,182385,1,0,0:0:0:0:
288,192,182493,1,0,0:0:0:0:
480,192,182493,1,0,0:0:0:0:
352,192,182602,1,0,0:0:0:0:
96,192,182602,1,2,0:0:0:60:
32,192,182602,1,4,0:0:0:60:
160,192,182602,1,0,0:0:0:0:
416,192,182819,1,0,0:0:0:0:
224,192,183037,1,0,0:0:0:0:
480,192,183037,1,0,0:0:0:0:
96,192,183037,1,2,0:0:0:60:
416,192,183254,1,0,0:0:0:0:
160,192,183472,1,0,0:0:0:0:
352,192,183472,1,0,0:0:0:0:
96,192,183472,1,2,0:0:0:60:
288,192,183689,1,0,0:0:0:0:
96,192,183906,1,2,0:0:0:60:
224,192,183906,1,0,0:0:0:0:
160,192,183906,1,0,0:0:0:0:
352,192,184124,1,0,0:0:0:0:
288,192,184232,1,0,0:0:0:0:
352,192,184341,1,0,0:0:0:0:
96,192,184341,1,2,0:0:0:60:
160,192,184341,1,0,0:0:0:0:
416,192,184559,1,0,0:0:0:0:
480,192,184776,1,0,0:0:0:0:
96,192,184776,1,2,0:0:0:60:
224,192,184776,1,0,0:0:0:0:
416,192,184993,1,0,0:0:0:0:
352,192,185211,1,0,0:0:0:0:
160,192,185211,1,0,0:0:0:0:
96,192,185211,1,2,0:0:0:60:
288,192,185428,1,0,0:0:0:0:
224,192,185646,1,0,0:0:0:0:
160,192,185646,1,0,0:0:0:0:
96,192,185646,1,2,0:0:0:60:
352,192,185863,1,0,0:0:0:0:
288,192,185972,1,0,0:0:0:0:
224,192,186080,1,0,0:0:0:0:
96,192,186080,1,2,0:0:0:60:
480,192,186080,1,0,0:0:0:0:
160,192,186298,1,0,0:0:0:0:
96,192,186515,1,2,0:0:0:60:
288,192,186515,1,0,0:0:0:0:
480,192,186515,1,0,0:0:0:0:
160,192,186732,1,0,0:0:0:0:
96,192,186950,1,2,0:0:0:60:
352,192,186950,1,0,0:0:0:0:
480,192,186950,1,0,0:0:0:0:
160,192,187167,1,0,0:0:0:0:
96,192,187385,1,2,0:0:0:60:
416,192,187385,1,0,0:0:0:0:
480,192,187385,1,0,0:0:0:0:
160,192,187602,1,0,0:0:0:0:
96,192,187819,1,2,0:0:0:60:
224,192,187819,1,0,0:0:0:0:
288,192,187819,1,0,0:0:0:0:
480,192,188037,1,0,0:0:0:0:
96,192,188254,1,2,0:0:0:60:
224,192,188254,1,0,0:0:0:0:
352,192,188254,1,0,0:0:0:0:
480,192,188472,1,0,0:0:0:0:
96,192,188689,1,2,0:0:0:60:
224,192,188689,1,0,0:0:0:0:
416,192,188689,1,0,0:0:0:0:
480,192,188906,1,0,0:0:0:0:
96,192,189124,1,2,0:0:0:60:
352,192,189124,1,0,0:0:0:0:
416,192,189124,1,0,0:0:0:0:
288,192,189341,1,0,0:0:0:0:
224,192,189341,1,0,0:0:0:0:
96,192,189559,1,2,0:0:0:60:
352,192,189559,1,0,0:0:0:0:
480,192,189559,1,0,0:0:0:0:
224,192,189776,1,0,0:0:0:0:
160,192,189993,1,0,0:0:0:0:
96,192,189993,1,2,0:0:0:60:
288,192,189993,1,0,0:0:0:0:
416,192,190211,1,0,0:0:0:0:
352,192,190428,1,0,0:0:0:0:
224,192,190428,1,0,0:0:0:0:
96,192,190428,1,2,0:0:0:60:
480,192,190646,1,0,0:0:0:0:
416,192,190863,1,0,0:0:0:0:
352,192,190863,1,0,0:0:0:0:
96,192,190863,1,2,0:0:0:60:
224,192,191080,1,0,0:0:0:0:
288,192,191080,1,0,0:0:0:0:
96,192,191298,1,2,0:0:0:60:
352,192,191298,1,0,0:0:0:0:
480,192,191298,1,0,0:0:0:0:
224,192,191515,1,0,0:0:0:0:
160,192,191732,1,0,0:0:0:0:
96,192,191732,1,2,0:0:0:60:
288,192,191732,1,0,0:0:0:0:
416,192,191950,1,0,0:0:0:0:
352,192,192167,1,0,0:0:0:0:
224,192,192167,1,0,0:0:0:0:
96,192,192167,1,2,0:0:0:60:
288,192,192385,1,0,0:0:0:0:
224,192,192602,1,0,0:0:0:0:
352,192,192602,1,0,0:0:0:0:
96,192,192602,1,2,0:0:0:60:
416,192,192819,1,0,0:0:0:0:
480,192,192819,1,0,0:0:0:0:
288,192,193037,1,0,0:0:0:0:
352,192,193037,1,0,0:0:0:0:
96,192,193037,1,2,0:0:0:60:
160,192,193254,1,0,0:0:0:0:
224,192,193472,1,0,0:0:0:0:
352,192,193472,1,0,0:0:0:0:
96,192,193472,1,2,0:0:0:60:
288,192,193689,1,0,0:0:0:0:
160,192,193906,1,0,0:0:0:0:
96,192,193906,1,2,0:0:0:60:
352,192,193906,1,0,0:0:0:0:
416,192,194124,1,0,0:0:0:0:
352,192,194341,1,0,0:0:0:0:
160,192,194341,1,0,0:0:0:0:
96,192,194341,1,2,0:0:0:60:
224,192,194559,1,0,0:0:0:0:
288,192,194559,1,0,0:0:0:0:
96,192,194776,1,2,0:0:0:60:
160,192,194776,1,0,0:0:0:0:
416,192,194776,1,0,0:0:0:0:
352,192,194993,1,0,0:0:0:0:
96,192,195211,1,2,0:0:0:60:
224,192,195211,1,0,0:0:0:0:
416,192,195211,1,0,0:0:0:0:
480,192,195428,1,0,0:0:0:0:
96,192,195646,1,2,0:0:0:60:
288,192,195646,1,0,0:0:0:0:
416,192,195646,1,0,0:0:0:0:
352,192,196080,1,0,0:0:0:0:
480,192,196080,1,0,0:0:0:0:
416,192,196298,1,0,0:0:0:0:
288,192,196298,1,0,0:0:0:0:
224,192,196515,1,0,0:0:0:0:
96,192,196515,1,2,0:0:0:60:
352,192,196515,1,0,0:0:0:0:
32,192,196515,1,4,0:0:0:60:
