osu file format v14

[General]
AudioFilename: audio.mp3
AudioLeadIn: 0
PreviewTime: 300810
Countdown: 0
SampleSet: Normal
StackLeniency: 0.7
Mode: 3
LetterboxInBreaks: 0
SpecialStyle: 0
WidescreenStoryboard: 1

[Editor]
Bookmarks: 14980,38962,50980,62962,74962,86962,98962,110962,139462,151480,166462,178480,194962,218962,224878,230555,253144,258477,279810,290505,301143,322476,333170,343809,354476,365142,366809,375809,386504,397142,407809
DistanceSpacing: 0.8
BeatDivisor: 8
GridSize: 16
TimelineZoom: 2.6

[Metadata]
Title:NekovhParavh
TitleUnicode:NekovhParavh
Artist:Sad Keyboard Guy & Gardens
ArtistUnicode:Sad Keyboard Guy & Gardens
Creator:AelSan
Version:Blessings of The Eschaton
Source:
Tags:Electronic Instrumental Procedural Reconstruction of a Forgotten Memory hardcore
BeatmapID:3875444
BeatmapSetID:1882345

[Difficulty]
HPDrainRate:8.4
CircleSize:4
OverallDifficulty:7.8
ApproachRate:5
SliderMultiplier:1.4
SliderTickRate:1

[Events]
//Background and Video events
0,0,"NekovhParavh.jpg",0,0
//Break Periods
//Storyboard Layer 0 (Background)
//Storyboard Layer 1 (Fail)
//Storyboard Layer 2 (Pass)
//Storyboard Layer 3 (Foreground)
//Storyboard Layer 4 (Overlay)
//Storyboard Sound Samples

[TimingPoints]
1480,375,4,1,1,40,1,0
38980,-100,4,1,1,50,0,0
62980,-100,4,1,1,70,0,1
68230,-100,4,1,1,70,0,0
68980,-100,4,1,1,70,0,1
74980,-100,4,1,1,70,0,0
86980,-100,4,1,1,70,0,1
92230,-100,4,1,1,70,0,0
92980,-100,4,1,1,70,0,1
98980,-100,4,1,1,70,0,0
110980,-100,4,1,1,40,0,0
218980,372.670807453416,4,1,1,60,1,0
218980,-101.010101010101,4,1,1,60,0,0
220480,368.098159509202,4,1,1,60,1,0
220480,-102.040816326531,4,1,1,60,0,0
223424,363.636363636364,4,1,1,60,1,0
223424,-103.092783505155,4,1,1,60,0,0
224878,359.281437125748,4,1,1,60,1,0
224878,-104.166666666667,4,1,1,60,0,0
227752,355.029585798817,4,1,1,60,1,0
227752,-105.263157894737,4,1,1,60,0,0
229172,352.941176470588,4,1,1,60,1,0
229172,-106.382978723404,4,1,1,60,0,0
253172,333.333333333333,4,1,1,50,1,0
253172,-112.359550561798,4,1,1,50,0,0
301171,-112.359550561798,4,1,1,70,0,1
321838,-112.359550561798,4,1,1,70,0,0
322505,-112.359550561798,4,1,1,70,0,1
343838,-112.359550561798,4,1,1,70,0,0
365171,-112.359550561798,4,1,1,70,0,1
369838,-112.359550561798,4,1,1,70,0,0
370505,-112.359550561798,4,1,1,70,0,1
375171,-112.359550561798,4,1,1,70,0,0
397171,-112.359550561798,4,1,1,70,0,1
401838,-112.359550561798,4,1,1,70,0,0
402505,-112.359550561798,4,1,1,70,0,1
407838,-112.359550561798,4,1,1,70,0,0

[HitObjects]
64,192,14605,128,0,14792:0:0:0:0:
192,192,14698,128,0,14886:0:0:0:0:
320,192,14792,128,0,14980:0:0:0:0:
448,192,14886,128,0,14980:0:0:0:0:
64,192,14980,128,0,16855:0:0:0:0:
448,192,15448,1,0,0:0:0:0:
192,192,15636,1,0,0:0:0:0:
320,192,15823,1,0,0:0:0:0:
448,192,16011,1,0,0:0:0:0:
320,192,16292,128,0,17042:0:0:0:0:
448,192,16855,128,0,17230:0:0:0:0:
64,192,17042,128,0,17417:0:0:0:0:
320,192,17230,128,0,17605:0:0:0:0:
192,192,17417,128,0,17980:0:0:0:0:
320,192,17886,128,0,17980:0:0:0:0:
448,192,17980,128,0,19292:0:0:0:0:
64,192,19105,128,0,19480:0:0:0:0:
192,192,19292,128,0,21167:0:0:0:0:
64,192,19855,1,0,0:0:0:0:
320,192,20042,1,0,0:0:0:0:
448,192,20230,1,0,0:0:0:0:
64,192,20417,1,0,0:0:0:0:
64,192,20980,128,0,22105:0:0:0:0:
448,192,21730,128,0,22105:0:0:0:0:
320,192,21917,128,0,22292:0:0:0:0:
192,192,22105,128,0,23042:0:0:0:0:
448,192,22480,1,0,0:0:0:0:
320,192,22855,128,0,23417:0:0:0:0:
64,192,23042,1,0,0:0:0:0:
448,192,23230,128,0,23792:0:0:0:0:
64,192,23605,128,0,23980:0:0:0:0:
320,192,23980,128,0,24073:0:0:0:0:
64,192,24073,128,0,25292:0:0:0:0:
448,192,24730,1,0,0:0:0:0:
448,192,25105,128,0,25480:0:0:0:0:
192,192,25292,128,0,25855:0:0:0:0:
64,192,25667,128,0,26230:0:0:0:0:
320,192,26042,128,0,26605:0:0:0:0:
192,192,26417,128,0,26980:0:0:0:0:
64,192,26792,128,0,26886:0:0:0:0:
320,192,26886,128,0,26980:0:0:0:0:
448,192,26980,128,0,28292:0:0:0:0:
64,192,27355,1,0,0:0:0:0:
192,192,27542,1,0,0:0:0:0:
320,192,27730,1,0,0:0:0:0:
64,192,27917,1,0,0:0:0:0:
192,192,28105,128,0,28480:0:0:0:0:
320,192,28292,128,0,28855:0:0:0:0:
64,192,28667,128,0,29230:0:0:0:0:
448,192,28855,1,0,0:0:0:0:
192,192,29042,128,0,29605:0:0:0:0:
320,192,29230,1,0,0:0:0:0:
448,192,29417,128,0,29980:0:0:0:0:
64,192,29605,1,0,0:0:0:0:
64,192,29792,128,0,29886:0:0:0:0:
192,192,29886,128,0,29980:0:0:0:0:
320,192,29980,128,0,31292:0:0:0:0:
64,192,30542,1,0,0:0:0:0:
192,192,30730,1,0,0:0:0:0:
64,192,30917,1,0,0:0:0:0:
448,192,31105,128,0,31480:0:0:0:0:
192,192,31292,128,0,31855:0:0:0:0:
320,192,31480,1,0,0:0:0:0:
64,192,31667,128,0,32230:0:0:0:0:
320,192,31855,1,0,0:0:0:0:
448,192,32042,128,0,32605:0:0:0:0:
192,192,32230,1,0,0:0:0:0:
320,192,32417,128,0,33167:0:0:0:0:
64,192,32605,1,0,0:0:0:0:
448,192,32792,1,0,0:0:0:0:
64,192,32980,128,0,34292:0:0:0:0:
192,192,33167,1,0,0:0:0:0:
320,192,33355,1,0,0:0:0:0:
448,192,33542,1,0,0:0:0:0:
320,192,33730,1,0,0:0:0:0:
192,192,33917,1,0,0:0:0:0:
448,192,34105,128,0,34480:0:0:0:0:
192,192,34292,128,0,34855:0:0:0:0:
64,192,34667,128,0,35230:0:0:0:0:
320,192,35042,128,0,36167:0:0:0:0:
192,192,35417,1,0,0:0:0:0:
448,192,35605,1,0,0:0:0:0:
64,192,35792,1,0,0:0:0:0:
192,192,35980,128,0,36542:0:0:0:0:
448,192,36355,128,0,37105:0:0:0:0:
320,192,36730,1,0,0:0:0:0:
64,192,36917,128,0,37292:0:0:0:0:
320,192,37105,128,0,37480:0:0:0:0:
192,192,37292,128,0,37855:0:0:0:0:
64,192,37667,128,0,38230:0:0:0:0:
320,192,38042,128,0,38605:0:0:0:0:
192,192,38417,128,0,38792:0:0:0:0:
448,192,38605,128,0,38980:0:0:0:0:
64,192,38792,1,0,0:0:0:0:
320,192,38980,1,0,0:0:0:0:
64,192,38980,1,0,0:0:0:0:
192,192,38980,1,0,0:0:0:0:
320,192,39167,1,0,0:0:0:0:
448,192,39355,1,0,0:0:0:0:
192,192,39448,1,0,0:0:0:0:
448,192,39542,1,0,0:0:0:0:
64,192,39636,1,0,0:0:0:0:
320,192,39730,1,0,0:0:0:0:
192,192,39917,1,0,0:0:0:0:
64,192,40105,1,0,0:0:0:0:
320,192,40198,1,0,0:0:0:0:
192,192,40292,1,0,0:0:0:0:
448,192,40386,1,0,0:0:0:0:
320,192,40480,1,0,0:0:0:0:
64,192,40667,1,0,0:0:0:0:
448,192,40855,1,0,0:0:0:0:
64,192,40948,1,0,0:0:0:0:
320,192,41042,1,0,0:0:0:0:
448,192,41136,1,0,0:0:0:0:
192,192,41230,1,0,0:0:0:0:
320,192,41417,1,0,0:0:0:0:
64,192,41605,1,0,0:0:0:0:
192,192,41698,1,0,0:0:0:0:
448,192,41792,1,0,0:0:0:0:
320,192,41886,1,0,0:0:0:0:
192,192,41980,1,0,0:0:0:0:
64,192,41980,1,0,0:0:0:0:
448,192,41980,1,0,0:0:0:0:
448,192,42167,1,0,0:0:0:0:
64,192,42355,1,0,0:0:0:0:
448,192,42448,1,0,0:0:0:0:
192,192,42542,1,0,0:0:0:0:
320,192,42636,1,0,0:0:0:0:
64,192,42730,1,0,0:0:0:0:
448,192,42917,1,0,0:0:0:0:
64,192,43105,1,0,0:0:0:0:
320,192,43198,1,0,0:0:0:0:
448,192,43292,1,0,0:0:0:0:
192,192,43386,1,0,0:0:0:0:
64,192,43480,1,0,0:0:0:0:
320,192,43667,1,0,0:0:0:0:
192,192,43855,1,0,0:0:0:0:
448,192,43948,1,0,0:0:0:0:
64,192,44042,1,0,0:0:0:0:
320,192,44136,1,0,0:0:0:0:
192,192,44230,1,0,0:0:0:0:
64,192,44230,1,0,0:0:0:0:
448,192,44230,1,0,0:0:0:0:
448,192,44417,1,0,0:0:0:0:
192,192,44605,1,0,0:0:0:0:
64,192,44605,1,0,0:0:0:0:
448,192,44605,1,0,0:0:0:0:
448,192,44698,1,0,0:0:0:0:
192,192,44792,1,0,0:0:0:0:
320,192,44886,1,0,0:0:0:0:
64,192,44980,1,0,0:0:0:0:
192,192,45073,1,0,0:0:0:0:
320,192,45167,1,0,0:0:0:0:
448,192,45261,1,0,0:0:0:0:
192,192,45355,1,0,0:0:0:0:
64,192,45355,1,0,0:0:0:0:
320,192,45355,1,0,0:0:0:0:
320,192,45448,1,0,0:0:0:0:
64,192,45542,1,0,0:0:0:0:
448,192,45636,1,0,0:0:0:0:
320,192,45730,1,0,0:0:0:0:
64,192,45917,1,0,0:0:0:0:
320,192,46105,1,0,0:0:0:0:
192,192,46198,1,0,0:0:0:0:
448,192,46292,1,0,0:0:0:0:
64,192,46386,1,0,0:0:0:0:
320,192,46480,1,0,0:0:0:0:
192,192,46667,1,0,0:0:0:0:
448,192,46855,1,0,0:0:0:0:
64,192,46948,1,0,0:0:0:0:
320,192,47042,1,0,0:0:0:0:
448,192,47136,1,0,0:0:0:0:
192,192,47230,1,0,0:0:0:0:
320,192,47417,1,0,0:0:0:0:
192,192,47605,1,0,0:0:0:0:
64,192,47605,1,0,0:0:0:0:
448,192,47605,1,0,0:0:0:0:
448,192,47698,1,0,0:0:0:0:
64,192,47792,1,0,0:0:0:0:
320,192,47886,1,0,0:0:0:0:
192,192,47980,1,0,0:0:0:0:
64,192,47980,1,0,0:0:0:0:
448,192,47980,1,0,0:0:0:0:
448,192,48167,1,0,0:0:0:0:
64,192,48355,1,0,0:0:0:0:
320,192,48448,1,0,0:0:0:0:
192,192,48542,1,0,0:0:0:0:
448,192,48636,1,0,0:0:0:0:
320,192,48730,1,0,0:0:0:0:
64,192,48917,1,0,0:0:0:0:
448,192,49105,1,0,0:0:0:0:
192,192,49198,1,0,0:0:0:0:
448,192,49292,1,0,0:0:0:0:
320,192,49386,1,0,0:0:0:0:
64,192,49480,1,0,0:0:0:0:
192,192,49480,1,0,0:0:0:0:
448,192,49480,1,0,0:0:0:0:
192,192,49667,1,0,0:0:0:0:
448,192,49855,1,0,0:0:0:0:
64,192,49948,1,0,0:0:0:0:
320,192,50042,1,0,0:0:0:0:
192,192,50136,1,0,0:0:0:0:
448,192,50230,1,0,0:0:0:0:
320,192,50230,1,0,0:0:0:0:
64,192,50230,1,0,0:0:0:0:
448,192,50417,1,0,0:0:0:0:
192,192,50605,1,0,0:0:0:0:
320,192,50698,1,0,0:0:0:0:
64,192,50792,1,0,0:0:0:0:
448,192,50886,1,0,0:0:0:0:
192,192,50980,1,0,0:0:0:0:
64,192,51073,1,0,0:0:0:0:
320,192,51167,1,0,0:0:0:0:
448,192,51261,1,0,0:0:0:0:
192,192,51355,1,0,0:0:0:0:
64,192,51355,1,0,0:0:0:0:
320,192,51355,1,0,0:0:0:0:
320,192,51448,1,0,0:0:0:0:
64,192,51542,1,0,0:0:0:0:
448,192,51636,1,0,0:0:0:0:
320,192,51730,1,0,0:0:0:0:
192,192,51917,1,0,0:0:0:0:
448,192,52105,1,0,0:0:0:0:
320,192,52105,1,0,0:0:0:0:
64,192,52105,1,0,0:0:0:0:
64,192,52198,1,0,0:0:0:0:
192,192,52292,1,0,0:0:0:0:
448,192,52386,1,0,0:0:0:0:
192,192,52480,1,0,0:0:0:0:
448,192,52667,1,0,0:0:0:0:
192,192,52855,1,0,0:0:0:0:
64,192,52855,1,0,0:0:0:0:
320,192,52855,1,0,0:0:0:0:
320,192,52948,1,0,0:0:0:0:
448,192,53042,1,0,0:0:0:0:
192,192,53136,1,0,0:0:0:0:
320,192,53230,1,0,0:0:0:0:
64,192,53417,1,0,0:0:0:0:
448,192,53605,1,0,0:0:0:0:
320,192,53605,1,0,0:0:0:0:
192,192,53605,1,0,0:0:0:0:
192,192,53698,1,0,0:0:0:0:
448,192,53792,1,0,0:0:0:0:
64,192,53886,1,0,0:0:0:0:
192,192,53980,1,0,0:0:0:0:
448,192,54167,1,0,0:0:0:0:
192,192,54355,1,0,0:0:0:0:
64,192,54355,1,0,0:0:0:0:
320,192,54355,1,0,0:0:0:0:
320,192,54448,1,0,0:0:0:0:
448,192,54542,1,0,0:0:0:0:
192,192,54636,1,0,0:0:0:0:
320,192,54730,1,0,0:0:0:0:
64,192,54917,1,0,0:0:0:0:
448,192,55105,1,0,0:0:0:0:
320,192,55105,1,0,0:0:0:0:
192,192,55105,1,0,0:0:0:0:
192,192,55198,1,0,0:0:0:0:
448,192,55292,1,0,0:0:0:0:
64,192,55386,1,0,0:0:0:0:
192,192,55480,1,0,0:0:0:0:
448,192,55667,1,0,0:0:0:0:
64,192,55855,1,0,0:0:0:0:
192,192,55855,1,0,0:0:0:0:
320,192,55855,1,0,0:0:0:0:
320,192,55948,1,0,0:0:0:0:
448,192,56042,1,0,0:0:0:0:
192,192,56136,1,0,0:0:0:0:
320,192,56230,1,0,0:0:0:0:
64,192,56417,1,0,0:0:0:0:
320,192,56605,1,0,0:0:0:0:
448,192,56605,1,0,0:0:0:0:
192,192,56605,1,0,0:0:0:0:
192,192,56698,1,0,0:0:0:0:
448,192,56792,1,0,0:0:0:0:
64,192,56886,1,0,0:0:0:0:
192,192,56886,1,0,0:0:0:0:
448,192,56980,1,0,0:0:0:0:
320,192,56980,1,0,0:0:0:0:
64,192,57073,1,0,0:0:0:0:
192,192,57167,1,0,0:0:0:0:
64,192,57261,1,0,0:0:0:0:
448,192,57355,1,0,0:0:0:0:
192,192,57355,1,0,0:0:0:0:
320,192,57448,1,0,0:0:0:0:
64,192,57542,1,0,0:0:0:0:
192,192,57589,1,0,0:0:0:0:
320,192,57636,1,0,0:0:0:0:
448,192,57683,1,0,0:0:0:0:
192,192,57730,1,0,0:0:0:0:
64,192,57730,1,0,0:0:0:0:
320,192,57823,1,0,0:0:0:0:
448,192,57917,1,0,0:0:0:0:
192,192,57964,1,0,0:0:0:0:
64,192,58011,1,0,0:0:0:0:
320,192,58105,1,0,0:0:0:0:
448,192,58105,1,0,0:0:0:0:
192,192,58167,1,0,0:0:0:0:
64,192,58230,1,0,0:0:0:0:
320,192,58292,1,0,0:0:0:0:
192,192,58355,1,0,0:0:0:0:
320,192,58417,1,0,0:0:0:0:
64,192,58480,1,0,0:0:0:0:
448,192,58480,1,0,0:0:0:0:
320,192,58573,1,0,0:0:0:0:
192,192,58667,1,0,0:0:0:0:
448,192,58761,1,0,0:0:0:0:
64,192,58855,1,0,0:0:0:0:
320,192,58855,1,0,0:0:0:0:
192,192,58948,1,0,0:0:0:0:
448,192,59042,1,0,0:0:0:0:
320,192,59089,1,0,0:0:0:0:
192,192,59136,1,0,0:0:0:0:
64,192,59183,1,0,0:0:0:0:
320,192,59230,1,0,0:0:0:0:
448,192,59230,1,0,0:0:0:0:
192,192,59323,1,0,0:0:0:0:
64,192,59417,1,0,0:0:0:0:
192,192,59464,1,0,0:0:0:0:
448,192,59511,1,0,0:0:0:0:
64,192,59605,1,0,0:0:0:0:
192,192,59605,1,0,0:0:0:0:
320,192,59667,1,0,0:0:0:0:
448,192,59730,1,0,0:0:0:0:
192,192,59792,1,0,0:0:0:0:
320,192,59792,1,0,0:0:0:0:
64,192,59855,1,0,0:0:0:0:
192,192,59917,1,0,0:0:0:0:
448,192,59980,1,0,0:0:0:0:
320,192,59980,1,0,0:0:0:0:
64,192,60167,1,0,0:0:0:0:
192,192,60167,1,0,0:0:0:0:
320,192,60167,1,0,0:0:0:0:
320,192,60355,1,0,0:0:0:0:
448,192,60355,1,0,0:0:0:0:
64,192,60355,1,0,0:0:0:0:
64,192,60542,1,0,0:0:0:0:
448,192,60542,1,0,0:0:0:0:
192,192,60589,1,0,0:0:0:0:
320,192,60636,1,0,0:0:0:0:
448,192,60683,1,0,0:0:0:0:
64,192,60730,1,0,0:0:0:0:
192,192,60730,1,0,0:0:0:0:
448,192,60917,1,0,0:0:0:0:
64,192,60917,1,0,0:0:0:0:
320,192,60964,1,0,0:0:0:0:
192,192,61011,1,0,0:0:0:0:
448,192,61105,1,0,0:0:0:0:
320,192,61105,1,0,0:0:0:0:
192,192,61167,1,0,0:0:0:0:
64,192,61230,1,0,0:0:0:0:
320,192,61292,1,0,0:0:0:0:
192,192,61292,1,0,0:0:0:0:
448,192,61355,1,0,0:0:0:0:
320,192,61417,1,0,0:0:0:0:
64,192,61480,1,0,0:0:0:0:
64,192,61855,1,0,0:0:0:0:
64,192,62230,1,0,0:0:0:0:
64,192,62605,1,0,0:0:0:0:
64,192,62792,1,0,0:0:0:0:
64,192,62886,1,0,0:0:0:0:
448,192,62980,1,0,0:0:0:0:
320,192,62980,1,0,0:0:0:0:
64,192,62980,1,0,0:0:0:0:
192,192,63167,1,0,0:0:0:0:
448,192,63355,1,0,0:0:0:0:
320,192,63355,1,0,0:0:0:0:
64,192,63355,1,0,0:0:0:0:
320,192,63448,1,0,0:0:0:0:
64,192,63542,1,0,0:0:0:0:
192,192,63573,1,0,0:0:0:0:
448,192,63605,1,0,0:0:0:0:
192,192,63698,1,0,0:0:0:0:
320,192,63730,1,0,0:0:0:0:
64,192,63730,1,0,0:0:0:0:
448,192,63823,1,0,0:0:0:0:
64,192,63917,1,0,0:0:0:0:
192,192,63948,1,0,0:0:0:0:
448,192,63980,1,0,0:0:0:0:
320,192,64011,1,0,0:0:0:0:
192,192,64042,1,0,0:0:0:0:
448,192,64105,1,0,0:0:0:0:
320,192,64105,1,0,0:0:0:0:
192,192,64198,1,0,0:0:0:0:
64,192,64292,1,0,0:0:0:0:
448,192,64292,1,0,0:0:0:0:
320,192,64323,1,0,0:0:0:0:
64,192,64386,1,0,0:0:0:0:
192,192,64417,1,0,0:0:0:0:
320,192,64480,1,0,0:0:0:0:
448,192,64480,1,0,0:0:0:0:
192,192,64667,1,0,0:0:0:0:
320,192,64855,1,0,0:0:0:0:
448,192,64855,1,0,0:0:0:0:
64,192,64855,1,0,0:0:0:0:
64,192,64948,1,0,0:0:0:0:
320,192,65042,1,0,0:0:0:0:
192,192,65073,1,0,0:0:0:0:
64,192,65167,1,0,0:0:0:0:
192,192,65198,1,0,0:0:0:0:
448,192,65230,1,0,0:0:0:0:
320,192,65230,1,0,0:0:0:0:
64,192,65323,1,0,0:0:0:0:
448,192,65417,1,0,0:0:0:0:
320,192,65448,1,0,0:0:0:0:
64,192,65480,1,0,0:0:0:0:
192,192,65511,1,0,0:0:0:0:
320,192,65542,1,0,0:0:0:0:
448,192,65573,1,0,0:0:0:0:
192,192,65605,1,0,0:0:0:0:
64,192,65605,1,0,0:0:0:0:
192,192,65698,1,0,0:0:0:0:
448,192,65792,1,0,0:0:0:0:
320,192,65792,1,0,0:0:0:0:
320,192,65886,1,0,0:0:0:0:
64,192,65980,1,0,0:0:0:0:
448,192,65980,1,0,0:0:0:0:
192,192,66167,1,0,0:0:0:0:
448,192,66355,1,0,0:0:0:0:
320,192,66355,1,0,0:0:0:0:
64,192,66355,1,0,0:0:0:0:
320,192,66448,1,0,0:0:0:0:
64,192,66542,1,0,0:0:0:0:
192,192,66573,1,0,0:0:0:0:
448,192,66605,1,0,0:0:0:0:
192,192,66698,1,0,0:0:0:0:
320,192,66730,1,0,0:0:0:0:
64,192,66730,1,0,0:0:0:0:
448,192,66823,1,0,0:0:0:0:
64,192,66917,1,0,0:0:0:0:
192,192,66948,1,0,0:0:0:0:
448,192,66980,1,0,0:0:0:0:
320,192,67011,1,0,0:0:0:0:
192,192,67042,1,0,0:0:0:0:
448,192,67105,1,0,0:0:0:0:
320,192,67105,1,0,0:0:0:0:
192,192,67198,1,0,0:0:0:0:
64,192,67292,1,0,0:0:0:0:
448,192,67292,1,0,0:0:0:0:
320,192,67323,1,0,0:0:0:0:
64,192,67386,1,0,0:0:0:0:
192,192,67417,1,0,0:0:0:0:
320,192,67480,1,0,0:0:0:0:
448,192,67480,1,0,0:0:0:0:
192,192,67667,1,0,0:0:0:0:
320,192,67855,1,0,0:0:0:0:
448,192,67855,1,0,0:0:0:0:
64,192,67855,1,0,0:0:0:0:
64,192,67948,1,0,0:0:0:0:
320,192,68042,1,0,0:0:0:0:
192,192,68073,1,0,0:0:0:0:
320,192,68167,1,0,0:0:0:0:
448,192,68198,1,0,0:0:0:0:
64,192,68230,1,0,0:0:0:0:
192,192,68230,1,0,0:0:0:0:
192,192,68417,1,0,0:0:0:0:
64,192,68417,1,0,0:0:0:0:
448,192,68511,1,0,0:0:0:0:
192,192,68511,1,0,0:0:0:0:
64,192,68605,1,0,0:0:0:0:
448,192,68605,1,0,0:0:0:0:
320,192,68605,1,0,0:0:0:0:
320,192,68792,1,0,0:0:0:0:
448,192,68792,1,0,0:0:0:0:
192,192,68886,1,0,0:0:0:0:
64,192,68886,1,0,0:0:0:0:
64,192,68980,1,0,0:0:0:0:
448,192,68980,1,0,0:0:0:0:
320,192,68980,1,0,0:0:0:0:
64,192,69167,1,0,0:0:0:0:
320,192,69355,1,0,0:0:0:0:
448,192,69355,1,0,0:0:0:0:
64,192,69355,1,0,0:0:0:0:
64,192,69542,1,0,0:0:0:0:
192,192,69542,1,0,0:0:0:0:
64,192,69636,1,0,0:0:0:0:
192,192,69636,1,0,0:0:0:0:
448,192,69730,1,0,0:0:0:0:
320,192,69730,1,0,0:0:0:0:
64,192,69823,1,0,0:0:0:0:
448,192,69855,1,0,0:0:0:0:
64,192,69917,1,0,0:0:0:0:
320,192,69948,1,0,0:0:0:0:
64,192,70011,1,0,0:0:0:0:
192,192,70042,1,0,0:0:0:0:
448,192,70105,1,0,0:0:0:0:
320,192,70105,1,0,0:0:0:0:
64,192,70198,1,0,0:0:0:0:
192,192,70198,1,0,0:0:0:0:
64,192,70386,1,0,0:0:0:0:
320,192,70386,1,0,0:0:0:0:
320,192,70480,1,0,0:0:0:0:
448,192,70480,1,0,0:0:0:0:
192,192,70480,1,0,0:0:0:0:
64,192,70667,1,0,0:0:0:0:
192,192,70667,1,0,0:0:0:0:
192,192,70855,1,0,0:0:0:0:
64,192,70855,1,0,0:0:0:0:
448,192,70855,1,0,0:0:0:0:
448,192,71042,1,0,0:0:0:0:
320,192,71042,1,0,0:0:0:0:
448,192,71136,1,0,0:0:0:0:
320,192,71136,1,0,0:0:0:0:
64,192,71230,1,0,0:0:0:0:
192,192,71230,1,0,0:0:0:0:
448,192,71323,1,0,0:0:0:0:
192,192,71355,1,0,0:0:0:0:
448,192,71417,1,0,0:0:0:0:
64,192,71448,1,0,0:0:0:0:
448,192,71511,1,0,0:0:0:0:
320,192,71542,1,0,0:0:0:0:
64,192,71605,1,0,0:0:0:0:
192,192,71605,1,0,0:0:0:0:
448,192,71698,1,0,0:0:0:0:
64,192,71761,1,0,0:0:0:0:
448,192,71792,1,0,0:0:0:0:
192,192,71823,1,0,0:0:0:0:
448,192,71886,1,0,0:0:0:0:
320,192,71917,1,0,0:0:0:0:
192,192,71980,1,0,0:0:0:0:
64,192,71980,1,0,0:0:0:0:
320,192,72167,1,0,0:0:0:0:
320,192,72355,1,0,0:0:0:0:
448,192,72355,1,0,0:0:0:0:
64,192,72355,1,0,0:0:0:0:
64,192,72542,1,0,0:0:0:0:
192,192,72542,1,0,0:0:0:0:
64,192,72636,1,0,0:0:0:0:
192,192,72636,1,0,0:0:0:0:
448,192,72730,1,0,0:0:0:0:
320,192,72730,1,0,0:0:0:0:
64,192,72823,1,0,0:0:0:0:
448,192,72855,1,0,0:0:0:0:
192,192,72917,1,0,0:0:0:0:
320,192,72948,1,0,0:0:0:0:
64,192,73011,1,0,0:0:0:0:
192,192,73042,1,0,0:0:0:0:
448,192,73105,1,0,0:0:0:0:
320,192,73105,1,0,0:0:0:0:
64,192,73198,1,0,0:0:0:0:
192,192,73198,1,0,0:0:0:0:
64,192,73386,1,0,0:0:0:0:
448,192,73386,1,0,0:0:0:0:
320,192,73480,1,0,0:0:0:0:
448,192,73480,1,0,0:0:0:0:
192,192,73480,1,0,0:0:0:0:
64,192,73667,1,0,0:0:0:0:
192,192,73667,1,0,0:0:0:0:
192,192,73855,1,0,0:0:0:0:
64,192,73855,1,0,0:0:0:0:
448,192,73855,1,0,0:0:0:0:
448,192,74042,1,0,0:0:0:0:
320,192,74042,1,0,0:0:0:0:
448,192,74136,1,0,0:0:0:0:
320,192,74136,1,0,0:0:0:0:
64,192,74230,1,0,0:0:0:0:
192,192,74230,1,0,0:0:0:0:
320,192,74323,1,0,0:0:0:0:
448,192,74355,1,0,0:0:0:0:
192,192,74386,1,0,0:0:0:0:
64,192,74417,1,0,0:0:0:0:
320,192,74464,1,0,0:0:0:0:
192,192,74511,1,0,0:0:0:0:
448,192,74558,1,0,0:0:0:0:
64,192,74605,1,0,0:0:0:0:
192,192,74667,1,0,0:0:0:0:
448,192,74730,1,0,0:0:0:0:
320,192,74792,1,0,0:0:0:0:
192,192,74855,1,0,0:0:0:0:
64,192,74917,1,0,0:0:0:0:
320,192,74980,1,0,0:0:0:0:
448,192,74980,1,0,0:0:0:0:
64,192,75167,1,0,0:0:0:0:
320,192,75198,1,0,0:0:0:0:
64,192,75355,1,0,0:0:0:0:
448,192,75386,1,0,0:0:0:0:
64,192,75542,1,0,0:0:0:0:
192,192,75542,1,0,0:1:0:0:
448,192,75730,1,0,0:0:0:0:
192,192,75730,1,0,0:0:0:0:
320,192,75823,1,0,0:0:0:0:
320,192,75917,1,0,0:0:0:0:
64,192,76011,1,0,0:0:0:0:
448,192,76058,1,0,0:0:0:0:
320,192,76105,1,0,0:0:0:0:
64,192,76105,1,0,0:0:0:0:
192,192,76198,1,0,0:0:0:0:
192,192,76292,1,0,0:0:0:0:
448,192,76386,1,0,0:0:0:0:
64,192,76433,1,0,0:0:0:0:
320,192,76480,1,0,0:0:0:0:
192,192,76480,1,0,0:0:0:0:
448,192,76480,1,0,0:0:0:0:
320,192,76573,1,0,0:0:0:0:
320,192,76667,1,0,0:0:0:0:
448,192,76761,1,0,0:0:0:0:
320,192,76855,1,0,0:0:0:0:
64,192,76855,1,0,0:0:0:0:
192,192,76948,1,0,0:0:0:0:
64,192,77042,1,0,0:0:0:0:
448,192,77042,1,0,0:0:0:0:
192,192,77136,1,0,0:0:0:0:
320,192,77230,1,0,0:0:0:0:
448,192,77230,1,0,0:0:0:0:
64,192,77230,1,0,0:0:0:0:
192,192,77417,1,0,0:0:0:0:
448,192,77417,1,0,0:0:0:0:
320,192,77511,1,0,0:0:0:0:
64,192,77605,1,0,0:0:0:0:
192,192,77605,1,0,0:0:0:0:
448,192,77605,1,0,0:0:0:0:
320,192,77698,1,0,0:0:0:0:
192,192,77792,1,0,0:0:0:0:
64,192,77792,1,0,0:0:0:0:
192,192,77886,1,0,0:0:0:0:
448,192,77980,1,0,0:0:0:0:
320,192,77980,1,0,0:0:0:0:
64,192,77980,1,0,0:0:0:0:
192,192,78167,1,0,0:0:0:0:
448,192,78261,1,0,0:0:0:0:
64,192,78355,1,0,0:0:0:0:
320,192,78355,1,0,0:0:0:0:
192,192,78448,1,0,0:0:0:0:
192,192,78542,1,0,0:0:0:0:
320,192,78542,1,0,0:0:0:0:
64,192,78542,1,0,0:0:0:0:
448,192,78636,1,0,0:0:0:0:
64,192,78683,1,0,0:0:0:0:
448,192,78730,1,0,0:0:0:0:
192,192,78730,1,0,0:0:0:0:
320,192,78823,1,0,0:0:0:0:
320,192,78917,1,0,0:0:0:0:
448,192,79011,1,0,0:0:0:0:
320,192,79105,1,0,0:0:0:0:
64,192,79105,1,0,0:0:0:0:
192,192,79198,1,0,0:0:0:0:
192,192,79292,1,0,0:0:0:0:
320,192,79386,1,0,0:0:0:0:
64,192,79480,1,0,0:0:0:0:
448,192,79480,1,0,0:0:0:0:
192,192,79480,1,0,0:0:0:0:
320,192,79573,1,0,0:0:0:0:
320,192,79667,1,0,0:0:0:0:
448,192,79761,1,0,0:0:0:0:
64,192,79808,1,0,0:0:0:0:
192,192,79855,1,0,0:0:0:0:
448,192,79855,1,0,0:0:0:0:
320,192,79948,1,0,0:0:0:0:
448,192,80042,1,0,0:0:0:0:
192,192,80042,1,0,0:0:0:0:
320,192,80136,1,0,0:0:0:0:
64,192,80136,1,0,0:0:0:0:
64,192,80230,1,0,0:0:0:0:
192,192,80230,1,0,0:0:0:0:
448,192,80230,1,0,0:0:0:0:
192,192,80417,1,0,0:0:0:0:
448,192,80605,1,0,0:0:0:0:
192,192,80651,1,0,0:0:0:0:
448,192,80698,1,0,0:0:0:0:
192,192,80745,1,0,0:0:0:0:
64,192,80792,1,0,0:0:0:0:
320,192,80792,1,0,0:0:0:0:
192,192,80886,1,0,0:0:0:0:
320,192,80980,1,0,0:0:0:0:
448,192,80980,1,0,0:0:0:0:
64,192,80980,1,0,0:0:0:0:
192,192,81167,1,0,0:0:0:0:
448,192,81167,1,0,0:0:0:0:
64,192,81261,1,0,0:0:0:0:
320,192,81261,1,0,0:0:0:0:
192,192,81355,1,0,0:0:0:0:
448,192,81355,1,0,0:0:0:0:
64,192,81355,1,0,0:0:0:0:
192,192,81542,1,0,0:0:0:0:
320,192,81542,1,0,0:0:0:0:
448,192,81730,1,0,0:0:0:0:
320,192,81730,1,0,0:0:0:0:
64,192,81730,1,0,0:0:0:0:
192,192,81823,1,0,0:0:0:0:
320,192,81823,1,0,0:0:0:0:
64,192,81870,1,0,0:0:0:0:
448,192,81917,1,0,0:0:0:0:
192,192,81964,1,0,0:0:0:0:
320,192,82011,1,0,0:0:0:0:
448,192,82058,1,0,0:0:0:0:
64,192,82105,1,0,0:0:0:0:
192,192,82105,1,0,0:0:0:0:
320,192,82198,1,0,0:0:0:0:
192,192,82198,1,0,0:0:0:0:
448,192,82245,1,0,0:0:0:0:
64,192,82292,1,0,0:0:0:0:
320,192,82339,1,0,0:0:0:0:
192,192,82386,1,0,0:0:0:0:
64,192,82433,1,0,0:0:0:0:
320,192,82480,1,0,0:0:0:0:
448,192,82480,1,0,0:0:0:0:
448,192,82573,1,0,0:0:0:0:
192,192,82573,1,0,0:0:0:0:
64,192,82620,1,0,0:0:0:0:
320,192,82667,1,0,0:0:0:0:
192,192,82714,1,0,0:0:0:0:
448,192,82761,1,0,0:0:0:0:
320,192,82808,1,0,0:0:0:0:
64,192,82855,1,0,0:0:0:0:
192,192,82855,1,0,0:0:0:0:
64,192,82948,1,0,0:0:0:0:
448,192,82948,1,0,0:0:0:0:
192,192,82995,1,0,0:0:0:0:
320,192,83042,1,0,0:0:0:0:
320,192,83136,1,0,0:0:0:0:
64,192,83136,1,0,0:0:0:0:
192,192,83230,1,0,0:0:0:0:
448,192,83230,1,0,0:0:0:0:
192,192,83323,1,0,0:0:0:0:
320,192,83417,1,0,0:0:0:0:
448,192,83511,1,0,0:0:0:0:
320,192,83605,1,0,0:0:0:0:
192,192,83605,1,0,0:0:0:0:
64,192,83698,1,0,0:0:0:0:
192,192,83792,1,0,0:0:0:0:
448,192,83792,1,0,0:0:0:0:
64,192,83886,1,0,0:0:0:0:
448,192,83980,1,0,0:0:0:0:
320,192,83980,1,0,0:0:0:0:
192,192,83980,1,0,0:0:0:0:
64,192,84167,1,0,0:0:0:0:
320,192,84167,1,0,0:0:0:0:
192,192,84261,1,0,0:0:0:0:
448,192,84261,1,0,0:0:0:0:
448,192,84355,1,0,0:0:0:0:
320,192,84355,1,0,0:0:0:0:
64,192,84355,1,0,0:0:0:0:
320,192,84542,1,0,0:0:0:0:
192,192,84542,1,0,0:0:0:0:
64,192,84730,1,0,0:0:0:0:
192,192,84730,1,0,0:0:0:0:
448,192,84730,1,0,0:0:0:0:
320,192,84823,1,0,0:0:0:0:
192,192,84823,1,0,0:0:0:0:
448,192,84870,1,0,0:0:0:0:
64,192,84917,1,0,0:0:0:0:
320,192,84964,1,0,0:0:0:0:
192,192,85011,1,0,0:0:0:0:
64,192,85058,1,0,0:0:0:0:
448,192,85105,1,0,0:0:0:0:
320,192,85105,1,0,0:0:0:0:
192,192,85198,1,0,0:0:0:0:
320,192,85198,1,0,0:0:0:0:
64,192,85245,1,0,0:0:0:0:
448,192,85292,1,0,0:0:0:0:
192,192,85339,1,0,0:0:0:0:
320,192,85386,1,0,0:0:0:0:
448,192,85433,1,0,0:0:0:0:
192,192,85480,1,0,0:0:0:0:
64,192,85480,1,0,0:0:0:0:
64,192,85573,1,0,0:0:0:0:
320,192,85573,1,0,0:0:0:0:
448,192,85620,1,0,0:0:0:0:
192,192,85667,1,0,0:0:0:0:
320,192,85714,1,0,0:0:0:0:
64,192,85761,1,0,0:0:0:0:
192,192,85808,1,0,0:0:0:0:
448,192,85855,1,0,0:0:0:0:
320,192,85855,1,0,0:0:0:0:
448,192,85948,1,0,0:0:0:0:
64,192,85948,1,0,0:0:0:0:
320,192,85995,1,0,0:0:0:0:
192,192,86042,1,0,0:0:0:0:
192,192,86136,1,0,0:0:0:0:
448,192,86136,1,0,0:0:0:0:
64,192,86230,1,0,0:0:0:0:
320,192,86230,1,0,0:0:0:0:
320,192,86417,1,0,0:0:0:0:
192,192,86448,1,0,0:0:0:0:
448,192,86605,1,0,0:0:0:0:
64,192,86605,1,0,0:0:0:0:
320,192,86651,1,0,0:0:0:0:
192,192,86698,1,0,0:0:0:0:
64,192,86745,1,0,0:0:0:0:
448,192,86792,1,0,0:0:0:0:
320,192,86839,1,0,0:0:0:0:
192,192,86886,1,0,0:0:0:0:
64,192,86933,1,0,0:0:0:0:
448,192,86980,5,0,0:0:0:0:
320,192,86980,1,0,0:0:0:0:
192,192,87167,1,0,0:0:0:0:
448,192,87355,1,0,0:0:0:0:
320,192,87355,1,0,0:0:0:0:
192,192,87355,1,0,0:0:0:0:
320,192,87448,1,0,0:0:0:0:
64,192,87542,1,0,0:0:0:0:
192,192,87573,1,0,0:0:0:0:
448,192,87605,1,0,0:0:0:0:
192,192,87698,1,0,0:0:0:0:
320,192,87730,1,0,0:0:0:0:
64,192,87730,1,0,0:0:0:0:
448,192,87823,1,0,0:0:0:0:
64,192,87917,1,0,0:0:0:0:
192,192,87948,1,0,0:0:0:0:
448,192,87980,1,0,0:0:0:0:
320,192,88011,1,0,0:0:0:0:
192,192,88042,1,0,0:0:0:0:
448,192,88105,1,0,0:0:0:0:
320,192,88105,1,0,0:0:0:0:
192,192,88198,1,0,0:0:0:0:
64,192,88292,1,0,0:0:0:0:
448,192,88292,1,0,0:0:0:0:
320,192,88323,1,0,0:0:0:0:
64,192,88386,1,0,0:0:0:0:
192,192,88417,1,0,0:0:0:0:
448,192,88480,1,0,0:0:0:0:
320,192,88480,1,0,0:0:0:0:
192,192,88667,1,0,0:0:0:0:
320,192,88855,1,0,0:0:0:0:
448,192,88855,1,0,0:0:0:0:
64,192,88855,1,0,0:0:0:0:
64,192,88948,1,0,0:0:0:0:
320,192,89042,1,0,0:0:0:0:
192,192,89073,1,0,0:0:0:0:
64,192,89167,1,0,0:0:0:0:
192,192,89198,1,0,0:0:0:0:
448,192,89230,1,0,0:0:0:0:
320,192,89230,1,0,0:0:0:0:
64,192,89323,1,0,0:0:0:0:
448,192,89417,1,0,0:0:0:0:
320,192,89448,1,0,0:0:0:0:
64,192,89480,1,0,0:0:0:0:
192,192,89511,1,0,0:0:0:0:
320,192,89542,1,0,0:0:0:0:
448,192,89573,1,0,0:0:0:0:
192,192,89605,1,0,0:0:0:0:
64,192,89605,1,0,0:0:0:0:
192,192,89698,1,0,0:0:0:0:
448,192,89792,1,0,0:0:0:0:
320,192,89792,1,0,0:0:0:0:
320,192,89886,1,0,0:0:0:0:
64,192,89980,1,0,0:0:0:0:
448,192,89980,1,0,0:0:0:0:
192,192,90167,1,0,0:0:0:0:
448,192,90355,1,0,0:0:0:0:
320,192,90355,1,0,0:0:0:0:
64,192,90355,1,0,0:0:0:0:
320,192,90448,1,0,0:0:0:0:
64,192,90542,1,0,0:0:0:0:
192,192,90573,1,0,0:0:0:0:
448,192,90605,1,0,0:0:0:0:
192,192,90698,1,0,0:0:0:0:
320,192,90730,1,0,0:0:0:0:
64,192,90730,1,0,0:0:0:0:
448,192,90823,1,0,0:0:0:0:
64,192,90917,1,0,0:0:0:0:
192,192,90948,1,0,0:0:0:0:
448,192,90980,1,0,0:0:0:0:
320,192,91011,1,0,0:0:0:0:
192,192,91042,1,0,0:0:0:0:
448,192,91105,1,0,0:0:0:0:
320,192,91105,1,0,0:0:0:0:
192,192,91198,1,0,0:0:0:0:
64,192,91292,1,0,0:0:0:0:
448,192,91292,1,0,0:0:0:0:
320,192,91323,1,0,0:0:0:0:
64,192,91386,1,0,0:0:0:0:
192,192,91417,1,0,0:0:0:0:
448,192,91480,1,0,0:0:0:0:
320,192,91480,1,0,0:0:0:0:
192,192,91667,1,0,0:0:0:0:
320,192,91855,1,0,0:0:0:0:
448,192,91855,1,0,0:0:0:0:
64,192,91855,1,0,0:0:0:0:
64,192,91948,1,0,0:0:0:0:
320,192,92042,1,0,0:0:0:0:
192,192,92073,1,0,0:0:0:0:
320,192,92167,1,0,0:0:0:0:
448,192,92198,1,0,0:0:0:0:
64,192,92230,1,0,0:0:0:0:
192,192,92230,1,0,0:0:0:0:
192,192,92417,1,0,0:0:0:0:
64,192,92417,1,0,0:0:0:0:
448,192,92511,1,0,0:0:0:0:
192,192,92511,1,0,0:0:0:0:
64,192,92605,1,0,0:0:0:0:
448,192,92605,1,0,0:0:0:0:
320,192,92605,1,0,0:0:0:0:
320,192,92792,1,0,0:0:0:0:
448,192,92792,1,0,0:0:0:0:
64,192,92886,1,0,0:0:0:0:
192,192,92886,1,0,0:0:0:0:
320,192,92980,1,0,0:0:0:0:
448,192,92980,1,0,0:0:0:0:
64,192,92980,1,0,0:0:0:0:
64,192,93167,1,0,0:0:0:0:
320,192,93355,1,0,0:0:0:0:
448,192,93355,1,0,0:0:0:0:
64,192,93355,1,0,0:0:0:0:
64,192,93542,1,0,0:0:0:0:
192,192,93542,1,0,0:0:0:0:
64,192,93636,1,0,0:0:0:0:
192,192,93636,1,0,0:0:0:0:
448,192,93730,1,0,0:0:0:0:
320,192,93730,1,0,0:0:0:0:
64,192,93823,1,0,0:0:0:0:
448,192,93855,1,0,0:0:0:0:
64,192,93917,1,0,0:0:0:0:
320,192,93948,1,0,0:0:0:0:
64,192,94011,1,0,0:0:0:0:
192,192,94042,1,0,0:0:0:0:
448,192,94105,1,0,0:0:0:0:
320,192,94105,1,0,0:0:0:0:
64,192,94198,1,0,0:0:0:0:
192,192,94198,1,0,0:0:0:0:
64,192,94386,1,0,0:0:0:0:
320,192,94386,1,0,0:0:0:0:
320,192,94480,1,0,0:0:0:0:
448,192,94480,1,0,0:0:0:0:
192,192,94480,1,0,0:0:0:0:
64,192,94667,1,0,0:0:0:0:
192,192,94667,1,0,0:0:0:0:
192,192,94855,1,0,0:0:0:0:
64,192,94855,1,0,0:0:0:0:
448,192,94855,1,0,0:0:0:0:
448,192,95042,1,0,0:0:0:0:
320,192,95042,1,0,0:0:0:0:
448,192,95136,1,0,0:0:0:0:
320,192,95136,1,0,0:0:0:0:
64,192,95230,1,0,0:0:0:0:
192,192,95230,1,0,0:0:0:0:
448,192,95323,1,0,0:0:0:0:
192,192,95355,1,0,0:0:0:0:
448,192,95417,1,0,0:0:0:0:
64,192,95448,1,0,0:0:0:0:
448,192,95511,1,0,0:0:0:0:
320,192,95542,1,0,0:0:0:0:
64,192,95605,1,0,0:0:0:0:
192,192,95605,1,0,0:0:0:0:
448,192,95698,1,0,0:0:0:0:
64,192,95730,1,0,0:0:0:0:
448,192,95792,1,0,0:0:0:0:
192,192,95823,1,0,0:0:0:0:
448,192,95886,1,0,0:0:0:0:
320,192,95917,1,0,0:0:0:0:
192,192,95980,1,0,0:0:0:0:
64,192,95980,1,0,0:0:0:0:
320,192,96167,1,0,0:0:0:0:
320,192,96355,1,0,0:0:0:0:
448,192,96355,1,0,0:0:0:0:
64,192,96355,1,0,0:0:0:0:
64,192,96542,1,0,0:0:0:0:
192,192,96542,1,0,0:0:0:0:
64,192,96636,1,0,0:0:0:0:
192,192,96636,1,0,0:0:0:0:
448,192,96730,1,0,0:0:0:0:
320,192,96730,1,0,0:0:0:0:
64,192,96823,1,0,0:0:0:0:
448,192,96855,1,0,0:0:0:0:
192,192,96917,1,0,0:0:0:0:
320,192,96948,1,0,0:0:0:0:
64,192,97011,1,0,0:0:0:0:
192,192,97042,1,0,0:0:0:0:
448,192,97105,1,0,0:0:0:0:
320,192,97105,1,0,0:0:0:0:
64,192,97198,1,0,0:0:0:0:
192,192,97198,1,0,0:0:0:0:
64,192,97386,1,0,0:0:0:0:
448,192,97386,1,0,0:0:0:0:
320,192,97480,1,0,0:0:0:0:
448,192,97480,1,0,0:0:0:0:
192,192,97480,1,0,0:0:0:0:
64,192,97667,1,0,0:0:0:0:
192,192,97667,1,0,0:0:0:0:
192,192,97855,1,0,0:0:0:0:
64,192,97855,1,0,0:0:0:0:
448,192,97855,1,0,0:0:0:0:
448,192,98042,1,0,0:0:0:0:
320,192,98042,1,0,0:0:0:0:
448,192,98136,1,0,0:0:0:0:
320,192,98136,1,0,0:0:0:0:
64,192,98230,1,0,0:0:0:0:
192,192,98230,1,0,0:0:0:0:
448,192,98323,1,0,0:0:0:0:
320,192,98417,1,0,0:0:0:0:
448,192,98511,1,0,0:0:0:0:
320,192,98605,1,0,0:0:0:0:
64,192,98605,1,0,0:0:0:0:
192,192,98605,1,0,0:0:0:0:
320,192,98792,1,0,0:0:0:0:
192,192,98792,1,0,0:0:0:0:
64,192,98792,1,0,0:0:0:0:
320,192,98886,1,0,0:0:0:0:
192,192,98886,1,0,0:0:0:0:
320,192,98980,1,0,0:0:0:0:
64,192,98980,1,0,0:0:0:0:
448,192,98980,1,0,0:0:0:0:
64,192,99073,128,0,99167:0:0:0:0:
448,192,99167,128,0,99261:0:0:0:0:
320,192,99261,128,0,99355:0:0:0:0:
448,192,99355,1,0,0:0:0:0:
192,192,99355,1,0,0:0:0:0:
64,192,99355,1,0,0:0:0:0:
448,192,99448,128,0,99542:0:0:0:0:
64,192,99542,128,0,99636:0:0:0:0:
320,192,99636,128,0,99730:0:0:0:0:
192,192,99730,1,0,0:0:0:0:
64,192,99730,1,0,0:0:0:0:
448,192,99730,1,0,0:0:0:0:
64,192,99823,128,0,99917:0:0:0:0:
448,192,99917,128,0,100011:0:0:0:0:
192,192,100011,128,0,100105:0:0:0:0:
320,192,100105,1,0,0:0:0:0:
64,192,100105,1,0,0:0:0:0:
448,192,100105,1,0,0:0:0:0:
192,192,100198,128,0,100292:0:0:0:0:
64,192,100292,128,0,100386:0:0:0:0:
448,192,100292,1,0,0:0:0:0:
320,192,100386,128,0,100480:0:0:0:0:
192,192,100386,1,0,0:0:0:0:
192,192,100480,1,0,0:0:0:0:
64,192,100480,1,0,0:0:0:0:
448,192,100480,1,0,0:0:0:0:
448,192,100573,128,0,100667:0:0:0:0:
64,192,100667,128,0,100761:0:0:0:0:
192,192,100761,128,0,100855:0:0:0:0:
64,192,100855,1,0,0:0:0:0:
320,192,100855,1,0,0:0:0:0:
448,192,100855,1,0,0:0:0:0:
320,192,100948,128,0,101042:0:0:0:0:
448,192,101042,128,0,101136:0:0:0:0:
192,192,101136,128,0,101230:0:0:0:0:
320,192,101230,1,0,0:0:0:0:
448,192,101230,1,0,0:0:0:0:
64,192,101230,1,0,0:0:0:0:
448,192,101323,128,0,101417:0:0:0:0:
64,192,101417,128,0,101511:0:0:0:0:
320,192,101511,128,0,101605:0:0:0:0:
192,192,101605,1,0,0:0:0:0:
448,192,101605,1,0,0:0:0:0:
64,192,101605,1,0,0:0:0:0:
192,192,101698,128,0,101792:0:0:0:0:
320,192,101792,1,0,0:0:0:0:
448,192,101792,128,0,101886:0:0:0:0:
192,192,101886,128,0,101980:0:0:0:0:
448,192,101980,1,0,0:0:0:0:
320,192,101980,1,0,0:0:0:0:
64,192,101980,128,0,102073:0:0:0:0:
448,192,102073,128,0,102167:0:0:0:0:
64,192,102167,128,0,102261:0:0:0:0:
320,192,102261,128,0,102355:0:0:0:0:
64,192,102355,1,0,0:0:0:0:
192,192,102355,1,0,0:0:0:0:
448,192,102355,128,0,102448:0:0:0:0:
64,192,102448,128,0,102542:0:0:0:0:
448,192,102542,128,0,102636:0:0:0:0:
192,192,102636,128,0,102730:0:0:0:0:
448,192,102730,1,0,0:0:0:0:
320,192,102730,128,0,102823:0:0:0:0:
64,192,102730,1,0,0:0:0:0:
192,192,102823,128,0,102917:0:0:0:0:
64,192,102917,128,0,103011:0:0:0:0:
320,192,103011,128,0,103105:0:0:0:0:
192,192,103105,1,0,0:0:0:0:
64,192,103105,1,0,0:0:0:0:
448,192,103105,128,0,103198:0:0:0:0:
320,192,103198,128,0,103292:0:0:0:0:
64,192,103292,1,0,0:0:0:0:
192,192,103292,128,0,103386:0:0:0:0:
64,192,103386,128,0,103480:0:0:0:0:
448,192,103386,1,0,0:0:0:0:
320,192,103480,1,0,0:0:0:0:
192,192,103480,1,0,0:0:0:0:
448,192,103480,128,0,103573:0:0:0:0:
64,192,103573,128,0,103667:0:0:0:0:
448,192,103667,128,0,103761:0:0:0:0:
192,192,103761,128,0,103855:0:0:0:0:
448,192,103855,1,0,0:0:0:0:
64,192,103855,1,0,0:0:0:0:
320,192,103855,128,0,103948:0:0:0:0:
64,192,103948,128,0,104042:0:0:0:0:
448,192,104042,128,0,104136:0:0:0:0:
320,192,104136,128,0,104230:0:0:0:0:
192,192,104230,1,0,0:0:0:0:
64,192,104230,1,0,0:0:0:0:
448,192,104230,1,0,0:0:0:0:
448,192,104323,128,0,104417:0:0:0:0:
64,192,104417,1,0,0:0:0:0:
320,192,104417,128,0,104511:0:0:0:0:
192,192,104511,1,0,0:0:0:0:
64,192,104511,128,0,104605:0:0:0:0:
448,192,104605,128,0,104698:0:0:0:0:
64,192,104698,128,0,104792:0:0:0:0:
320,192,104792,1,0,0:0:0:0:
448,192,104792,128,0,104886:0:0:0:0:
192,192,104886,128,0,104980:0:0:0:0:
448,192,104980,1,0,0:0:0:0:
320,192,104980,1,0,0:0:0:0:
64,192,104980,1,0,0:0:0:0:
448,192,105073,128,0,105261:0:0:0:0:
64,192,105167,128,0,105261:0:0:0:0:
320,192,105261,128,0,105355:0:0:0:0:
192,192,105355,1,0,0:0:0:0:
64,192,105355,1,0,0:0:0:0:
448,192,105355,1,0,0:0:0:0:
192,192,105448,128,0,105636:0:0:0:0:
448,192,105542,128,0,105636:0:0:0:0:
64,192,105636,128,0,105730:0:0:0:0:
448,192,105730,1,0,0:0:0:0:
320,192,105730,1,0,0:0:0:0:
192,192,105730,1,0,0:0:0:0:
448,192,105823,128,0,106011:0:0:0:0:
192,192,105917,128,0,106011:0:0:0:0:
320,192,106011,128,0,106105:0:0:0:0:
192,192,106105,1,0,0:0:0:0:
64,192,106105,1,0,0:0:0:0:
448,192,106105,1,0,0:0:0:0:
448,192,106198,128,0,106292:0:0:0:0:
64,192,106292,1,0,0:0:0:0:
192,192,106292,128,0,106386:0:0:0:0:
448,192,106386,1,0,0:0:0:0:
320,192,106386,128,0,106480:0:0:0:0:
64,192,106480,1,0,0:0:0:0:
448,192,106480,1,0,0:0:0:0:
192,192,106480,1,0,0:0:0:0:
64,192,106573,128,0,106761:0:0:0:0:
192,192,106667,128,0,106761:0:0:0:0:
448,192,106761,128,0,106855:0:0:0:0:
320,192,106855,1,0,0:0:0:0:
192,192,106855,1,0,0:0:0:0:
64,192,106855,1,0,0:0:0:0:
320,192,106948,128,0,107136:0:0:0:0:
64,192,107042,128,0,107136:0:0:0:0:
192,192,107136,128,0,107230:0:0:0:0:
448,192,107230,1,0,0:0:0:0:
320,192,107230,1,0,0:0:0:0:
64,192,107230,1,0,0:0:0:0:
64,192,107323,128,0,107511:0:0:0:0:
448,192,107417,128,0,107511:0:0:0:0:
320,192,107511,128,0,107605:0:0:0:0:
192,192,107605,1,0,0:0:0:0:
64,192,107605,1,0,0:0:0:0:
448,192,107605,1,0,0:0:0:0:
448,192,107698,128,0,107886:0:0:0:0:
320,192,107792,128,0,107886:0:0:0:0:
64,192,107792,1,0,0:0:0:0:
192,192,107886,128,0,107980:0:0:0:0:
320,192,107980,1,0,0:0:0:0:
448,192,107980,1,0,0:0:0:0:
64,192,107980,128,0,108167:0:0:0:0:
448,192,108073,128,0,108261:0:0:0:0:
320,192,108167,128,0,108261:0:0:0:0:
64,192,108261,128,0,108355:0:0:0:0:
448,192,108355,1,0,0:0:0:0:
192,192,108355,1,0,0:0:0:0:
320,192,108355,128,0,108636:0:0:0:0:
192,192,108448,128,0,108636:0:0:0:0:
448,192,108542,128,0,108636:0:0:0:0:
64,192,108636,128,0,108730:0:0:0:0:
448,192,108730,1,0,0:0:0:0:
192,192,108730,128,0,109011:0:0:0:0:
320,192,108730,1,0,0:0:0:0:
448,192,108823,128,0,109011:0:0:0:0:
64,192,108917,128,0,109011:0:0:0:0:
320,192,109011,128,0,109105:0:0:0:0:
192,192,109105,1,0,0:0:0:0:
64,192,109105,1,0,0:0:0:0:
448,192,109105,128,0,109386:0:0:0:0:
320,192,109198,128,0,109386:0:0:0:0:
192,192,109292,1,0,0:0:0:0:
64,192,109292,1,0,0:0:0:0:
192,192,109386,1,0,0:0:0:0:
64,192,109386,1,0,0:0:0:0:
448,192,109480,1,0,0:0:0:0:
64,192,109480,1,0,0:0:0:0:
320,192,109480,128,0,109761:0:0:0:0:
448,192,109573,128,0,109761:0:0:0:0:
64,192,109667,128,0,109761:0:0:0:0:
192,192,109761,128,0,109855:0:0:0:0:
448,192,109855,5,0,0:0:0:0:
64,192,109855,1,0,0:0:0:0:
320,192,109855,128,0,110136:0:0:0:0:
64,192,109948,128,0,110136:0:0:0:0:
448,192,110042,128,0,110136:0:0:0:0:
192,192,110136,128,0,110230:0:0:0:0:
64,192,110230,1,0,0:0:0:0:
448,192,110230,1,0,0:0:0:0:
320,192,110230,1,0,0:0:0:0:
192,192,110417,1,0,0:0:0:0:
64,192,110417,1,0,0:0:0:0:
448,192,110417,1,0,0:0:0:0:
320,192,110511,1,0,0:0:0:0:
448,192,110511,1,0,0:0:0:0:
192,192,110511,1,0,0:0:0:0:
192,192,110792,1,0,0:0:0:0:
64,192,110792,1,0,0:0:0:0:
448,192,110792,1,0,0:0:0:0:
320,192,110886,1,0,0:0:0:0:
192,192,110886,1,0,0:0:0:0:
64,192,110980,128,0,113980:0:0:0:0:
320,192,110980,1,0,0:0:0:0:
448,192,110980,1,0,0:0:0:0:
320,192,112480,128,0,114730:0:0:0:0:
448,192,113980,128,0,115480:0:0:0:0:
64,192,115198,128,0,115292:0:0:0:0:
192,192,115292,128,0,115386:0:0:0:0:
320,192,115386,128,0,115480:0:0:0:0:
64,192,115480,128,0,116792:0:0:0:0:
448,192,116042,1,0,0:0:0:0:
320,192,116792,128,0,117355:0:0:0:0:
64,192,116980,1,0,0:0:0:0:
192,192,117355,128,0,117730:0:0:0:0:
64,192,117542,1,0,0:0:0:0:
448,192,117730,128,0,117917:0:0:0:0:
320,192,117917,128,0,118480:0:0:0:0:
64,192,118417,128,0,118542:0:0:0:0:
192,192,118480,128,0,119980:0:0:0:0:
448,192,118542,1,0,0:0:0:0:
448,192,119042,1,0,0:0:0:0:
64,192,119417,1,0,0:0:0:0:
320,192,119605,1,0,0:0:0:0:
64,192,119792,128,0,121292:0:0:0:0:
448,192,119792,1,0,0:0:0:0:
320,192,119980,1,0,0:0:0:0:
448,192,120355,1,0,0:0:0:0:
192,192,120730,1,0,0:0:0:0:
320,192,121105,1,0,0:0:0:0:
448,192,121292,128,0,122230:0:0:0:0:
192,192,121480,1,0,0:0:0:0:
64,192,122230,128,0,122417:0:0:0:0:
192,192,122417,128,0,122605:0:0:0:0:
320,192,122605,128,0,123355:0:0:0:0:
448,192,122792,1,0,0:0:0:0:
64,192,122980,1,0,0:0:0:0:
192,192,123355,128,0,123730:0:0:0:0:
64,192,123542,1,0,0:0:0:0:
320,192,123730,128,0,124105:0:0:0:0:
448,192,124105,128,0,124386:0:0:0:0:
192,192,124105,1,0,0:0:0:0:
320,192,124292,1,0,0:0:0:0:
64,192,124480,1,0,0:0:0:0:
192,192,124526,128,0,124667:0:0:0:0:
448,192,124605,128,0,125605:0:0:0:0:
192,192,125042,1,0,0:0:0:0:
320,192,125605,128,0,125792:0:0:0:0:
64,192,125605,1,0,0:0:0:0:
192,192,125792,128,0,126167:0:0:0:0:
448,192,125792,1,0,0:0:0:0:
320,192,125980,1,0,0:0:0:0:
64,192,126167,128,0,126542:0:0:0:0:
448,192,126355,1,0,0:0:0:0:
192,192,126542,128,0,126917:0:0:0:0:
320,192,126730,1,0,0:0:0:0:
64,192,126917,128,0,127480:0:0:0:0:
192,192,127105,1,0,0:0:0:0:
448,192,127198,1,0,0:0:0:0:
320,192,127292,1,0,0:0:0:0:
192,192,127386,1,0,0:0:0:0:
448,192,127480,128,0,128417:0:0:0:0:
320,192,128042,1,0,0:0:0:0:
64,192,128230,1,0,0:0:0:0:
192,192,128417,1,0,0:0:0:0:
448,192,128605,1,0,0:0:0:0:
320,192,128792,1,0,0:0:0:0:
64,192,128980,1,0,0:0:0:0:
192,192,129355,1,0,0:0:0:0:
320,192,129542,1,0,0:0:0:0:
448,192,129730,1,0,0:0:0:0:
320,192,129917,1,0,0:0:0:0:
64,192,130105,1,0,0:0:0:0:
192,192,130480,1,0,0:0:0:0:
64,192,131230,1,0,0:0:0:0:
448,192,131605,1,0,0:0:0:0:
448,192,131792,1,0,0:0:0:0:
64,192,131980,1,0,0:0:0:0:
192,192,132355,1,0,0:0:0:0:
320,192,132542,1,0,0:0:0:0:
448,192,132730,1,0,0:0:0:0:
64,192,132730,1,0,0:0:0:0:
192,192,132917,1,0,0:0:0:0:
64,192,133105,1,0,0:0:0:0:
448,192,133480,1,0,0:0:0:0:
448,192,134042,1,0,0:0:0:0:
448,192,134605,1,0,0:0:0:0:
320,192,134792,1,0,0:0:0:0:
64,192,134980,1,0,0:0:0:0:
192,192,135355,1,0,0:0:0:0:
448,192,135542,1,0,0:0:0:0:
320,192,135730,1,0,0:0:0:0:
448,192,136105,1,0,0:0:0:0:
64,192,136105,1,0,0:0:0:0:
192,192,136292,1,0,0:0:0:0:
448,192,136480,1,0,0:0:0:0:
320,192,136573,1,0,0:0:0:0:
192,192,137042,1,0,0:0:0:0:
64,192,137417,1,0,0:0:0:0:
448,192,137605,1,0,0:0:0:0:
320,192,137792,1,0,0:0:0:0:
64,192,137980,1,0,0:0:0:0:
192,192,138167,1,0,0:0:0:0:
448,192,138355,1,0,0:0:0:0:
320,192,138542,1,0,0:0:0:0:
64,192,138730,1,0,0:0:0:0:
448,192,138917,1,0,0:0:0:0:
64,192,139105,128,0,139480:0:0:0:0:
320,192,139292,1,0,0:0:0:0:
192,192,139386,1,0,0:0:0:0:
448,192,139480,128,0,141167:0:0:0:0:
320,192,140417,1,0,0:0:0:0:
64,192,140605,1,0,0:0:0:0:
192,192,140792,1,0,0:0:0:0:
320,192,140980,128,0,142667:0:0:0:0:
64,192,141355,1,0,0:0:0:0:
192,192,141542,1,0,0:0:0:0:
448,192,141730,1,0,0:0:0:0:
448,192,141917,1,0,0:0:0:0:
192,192,142105,1,0,0:0:0:0:
64,192,142480,128,0,144167:0:0:0:0:
448,192,143230,1,0,0:0:0:0:
320,192,143605,1,0,0:0:0:0:
320,192,143792,1,0,0:0:0:0:
448,192,143980,128,0,145667:0:0:0:0:
64,192,144355,1,0,0:0:0:0:
192,192,144542,1,0,0:0:0:0:
320,192,144730,1,0,0:0:0:0:
64,192,144917,1,0,0:0:0:0:
320,192,145105,1,0,0:0:0:0:
64,192,145480,128,0,147167:0:0:0:0:
448,192,146042,1,0,0:0:0:0:
448,192,146605,1,0,0:0:0:0:
192,192,146980,128,0,148667:0:0:0:0:
448,192,147355,1,0,0:0:0:0:
320,192,147542,1,0,0:0:0:0:
64,192,147730,1,0,0:0:0:0:
320,192,148105,1,0,0:0:0:0:
448,192,148480,128,0,150167:0:0:0:0:
320,192,148573,1,0,0:0:0:0:
320,192,149605,1,0,0:0:0:0:
64,192,149792,1,0,0:0:0:0:
192,192,149980,128,0,151480:0:0:0:0:
448,192,150355,1,0,0:0:0:0:
64,192,150730,1,0,0:0:0:0:
64,192,151292,128,0,151386:0:0:0:0:
448,192,151386,128,0,151480:0:0:0:0:
320,192,151480,128,0,152980:0:0:0:0:
64,192,151480,128,0,152230:0:0:0:0:
448,192,152230,1,0,0:0:0:0:
64,192,152605,1,0,0:0:0:0:
192,192,152792,1,0,0:0:0:0:
192,192,152980,128,0,154480:0:0:0:0:
448,192,152980,128,0,153730:0:0:0:0:
320,192,153167,1,0,0:0:0:0:
64,192,153355,1,0,0:0:0:0:
320,192,153542,1,0,0:0:0:0:
64,192,153636,1,0,0:0:0:0:
320,192,153730,128,0,154480:0:0:0:0:
448,192,154105,1,0,0:0:0:0:
64,192,154292,1,0,0:0:0:0:
448,192,154480,128,0,155980:0:0:0:0:
64,192,154480,128,0,155230:0:0:0:0:
320,192,154855,1,0,0:0:0:0:
192,192,155042,1,0,0:0:0:0:
64,192,155605,1,0,0:0:0:0:
192,192,155792,1,0,0:0:0:0:
64,192,155980,128,0,157480:0:0:0:0:
320,192,155980,128,0,156730:0:0:0:0:
448,192,156355,1,0,0:0:0:0:
192,192,156542,1,0,0:0:0:0:
448,192,156730,128,0,157480:0:0:0:0:
320,192,156917,1,0,0:0:0:0:
192,192,157011,1,0,0:0:0:0:
320,192,157105,1,0,0:0:0:0:
320,192,157292,1,0,0:0:0:0:
320,192,157480,128,0,158980:0:0:0:0:
192,192,157480,128,0,158230:0:0:0:0:
448,192,158230,1,0,0:0:0:0:
64,192,158605,1,0,0:0:0:0:
192,192,158792,1,0,0:0:0:0:
192,192,158980,128,0,160480:0:0:0:0:
448,192,158980,128,0,159730:0:0:0:0:
320,192,159542,1,0,0:0:0:0:
64,192,159730,1,0,0:0:0:0:
320,192,159917,1,0,0:0:0:0:
448,192,160105,1,0,0:0:0:0:
320,192,160292,128,0,160480:0:0:0:0:
448,192,160480,128,0,161980:0:0:0:0:
64,192,160480,128,0,161230:0:0:0:0:
192,192,160855,128,0,160948:0:0:0:0:
192,192,161042,128,0,161136:0:0:0:0:
320,192,161417,1,0,0:0:0:0:
192,192,161511,1,0,0:0:0:0:
64,192,161605,1,0,0:0:0:0:
64,192,161792,1,0,0:0:0:0:
64,192,161980,128,0,163480:0:0:0:0:
320,192,161980,128,0,162730:0:0:0:0:
448,192,162167,1,0,0:0:0:0:
192,192,162542,1,0,0:0:0:0:
448,192,162730,128,0,163480:0:0:0:0:
320,192,162917,1,0,0:0:0:0:
448,192,165730,1,0,0:0:0:0:
320,192,165823,1,0,0:0:0:0:
448,192,165917,1,0,0:0:0:0:
320,192,166011,1,0,0:0:0:0:
448,192,166105,1,0,0:0:0:0:
320,192,166198,1,0,0:0:0:0:
448,192,166292,1,0,0:0:0:0:
320,192,166386,1,0,0:0:0:0:
64,192,166480,128,0,167394:0:0:0:0:
192,192,166480,128,0,166808:0:0:0:0:
448,192,166480,1,0,0:0:0:0:
192,192,166901,128,0,166995:0:0:0:0:
192,192,167089,128,0,167323:0:0:0:0:
448,192,167323,128,0,167464:0:0:0:0:
320,192,167417,128,0,167511:0:0:0:0:
192,192,167480,128,0,167542:0:0:0:0:
64,192,167521,128,0,167563:0:0:0:0:
448,192,167558,128,0,167628:0:0:0:0:
320,192,167605,128,0,167651:0:0:0:0:
192,192,167642,128,0,167680:0:0:0:0:
448,192,167698,128,0,167745:0:0:0:0:
320,192,167792,1,0,0:0:0:0:
64,192,167792,1,0,0:0:0:0:
192,192,167886,1,0,0:0:0:0:
64,192,167886,1,0,0:0:0:0:
64,192,167980,1,0,0:0:0:0:
448,192,167980,128,0,168073:0:0:0:0:
192,192,168542,128,0,168730:0:0:0:0:
448,192,169011,1,0,0:0:0:0:
448,192,169292,1,0,0:0:0:0:
320,192,169292,1,0,0:0:0:0:
448,192,169480,128,0,170698:0:0:0:0:
320,192,169480,128,0,169948:0:0:0:0:
64,192,169480,1,0,0:0:0:0:
64,192,170042,1,0,0:0:0:0:
320,192,170042,128,0,170605:0:0:0:0:
64,192,170605,128,0,170730:0:0:0:0:
192,192,170698,128,0,170761:0:0:0:0:
320,192,170755,128,0,170792:0:0:0:0:
64,192,170792,1,0,0:0:0:0:
448,192,170792,1,0,0:0:0:0:
448,192,170886,1,0,0:0:0:0:
192,192,170886,1,0,0:0:0:0:
448,192,170980,1,0,0:0:0:0:
320,192,170980,1,0,0:0:0:0:
448,192,171261,1,0,0:0:0:0:
448,192,171542,1,0,0:0:0:0:
64,192,171730,1,0,0:0:0:0:
320,192,171730,128,0,172480:0:0:0:0:
448,192,171917,1,0,0:0:0:0:
64,192,172058,128,0,172105:0:0:0:0:
64,192,172151,128,0,172198:0:0:0:0:
448,192,172292,1,0,0:0:0:0:
448,192,172386,1,0,0:0:0:0:
192,192,172480,1,0,0:0:0:0:
64,192,172480,1,0,0:0:0:0:
64,192,172948,128,0,173792:0:0:0:0:
448,192,173230,128,0,173698:0:0:0:0:
192,192,173511,128,0,173792:0:0:0:0:
448,192,173792,128,0,173886:0:0:0:0:
320,192,173792,128,0,173839:0:0:0:0:
192,192,173886,128,0,173933:0:0:0:0:
320,192,173909,128,0,173956:0:0:0:0:
64,192,173980,1,0,0:0:0:0:
192,192,173980,128,0,174073:0:0:0:0:
192,192,174167,1,0,0:0:0:0:
192,192,174355,128,0,174417:0:0:0:0:
192,192,174480,128,0,174542:0:0:0:0:
320,192,174605,128,0,174667:0:0:0:0:
320,192,174730,128,0,174792:0:0:0:0:
192,192,174870,128,0,174964:0:0:0:0:
448,192,175011,128,0,175292:0:0:0:0:
64,192,175105,128,0,175222:0:0:0:0:
192,192,175198,128,0,175245:0:0:0:0:
192,192,175292,1,0,0:0:0:0:
64,192,175292,1,0,0:0:0:0:
320,192,175292,128,0,175433:0:0:0:0:
448,192,175386,128,0,175480:0:0:0:0:
192,192,175480,1,0,0:0:0:0:
64,192,175480,1,0,0:0:0:0:
64,192,176042,128,0,176792:0:0:0:0:
448,192,176230,128,0,176698:0:0:0:0:
192,192,176417,128,0,176511:0:0:0:0:
192,192,176605,128,0,176698:0:0:0:0:
320,192,176792,1,0,0:0:0:0:
448,192,176792,1,0,0:0:0:0:
448,192,176886,1,0,0:0:0:0:
64,192,176886,1,0,0:0:0:0:
448,192,176980,1,0,0:0:0:0:
320,192,176980,128,0,177167:0:0:0:0:
64,192,177261,1,0,0:0:0:0:
448,192,177261,128,0,177448:0:0:0:0:
64,192,177542,1,0,0:0:0:0:
320,192,177542,128,0,177730:0:0:0:0:
192,192,177730,128,0,178105:0:0:0:0:
448,192,177917,1,0,0:0:0:0:
320,192,177917,1,0,0:0:0:0:
448,192,178105,1,0,0:0:0:0:
64,192,178198,1,0,0:0:0:0:
192,192,178292,1,0,0:0:0:0:
64,192,178386,1,0,0:0:0:0:
448,192,178480,128,0,179394:0:0:0:0:
320,192,178480,128,0,178808:0:0:0:0:
192,192,178480,1,0,0:0:0:0:
320,192,178901,128,0,178995:0:0:0:0:
320,192,179089,128,0,179323:0:0:0:0:
64,192,179323,128,0,179464:0:0:0:0:
192,192,179417,128,0,179511:0:0:0:0:
320,192,179480,128,0,179542:0:0:0:0:
448,192,179522,128,0,179563:0:0:0:0:
64,192,179558,128,0,179628:0:0:0:0:
192,192,179605,128,0,179651:0:0:0:0:
320,192,179642,128,0,179680:0:0:0:0:
64,192,179698,128,0,179745:0:0:0:0:
192,192,179792,1,0,0:0:0:0:
448,192,179792,1,0,0:0:0:0:
320,192,179886,1,0,0:0:0:0:
448,192,179980,1,0,0:0:0:0:
64,192,179980,128,0,180073:0:0:0:0:
192,192,179980,1,0,0:0:0:0:
64,192,180167,128,0,180261:0:0:0:0:
64,192,180355,128,0,180448:0:0:0:0:
64,192,180542,128,0,180636:0:0:0:0:
320,192,180542,1,0,0:0:0:0:
64,192,180730,128,0,180823:0:0:0:0:
448,192,180730,1,0,0:0:0:0:
320,192,180792,1,0,0:0:0:0:
192,192,180855,1,0,0:0:0:0:
448,192,180917,128,0,181386:0:0:0:0:
320,192,180917,128,0,181011:0:0:0:0:
320,192,181105,128,0,181198:0:0:0:0:
64,192,181292,1,0,0:0:0:0:
320,192,181292,128,0,181386:0:0:0:0:
448,192,181480,128,0,181526:0:0:0:0:
320,192,181480,128,0,181573:0:0:0:0:
192,192,181542,128,0,181636:0:0:0:0:
64,192,181605,128,0,181667:0:0:0:0:
448,192,181620,128,0,181683:0:0:0:0:
320,192,181667,128,0,181761:0:0:0:0:
448,192,181730,128,0,181792:0:0:0:0:
192,192,181792,128,0,181870:0:0:0:0:
320,192,181855,128,0,181901:0:0:0:0:
64,192,182230,128,0,182792:0:0:0:0:
320,192,182417,128,0,182698:0:0:0:0:
192,192,182605,1,0,0:0:0:0:
192,192,182698,1,0,0:0:0:0:
448,192,182792,1,0,0:0:0:0:
320,192,182792,1,0,0:0:0:0:
64,192,182886,1,0,0:0:0:0:
320,192,182886,1,0,0:0:0:0:
64,192,182980,1,0,0:0:0:0:
192,192,182980,1,0,0:0:0:0:
64,192,183261,1,0,0:0:0:0:
64,192,183636,128,0,183730:0:0:0:0:
320,192,183730,1,0,0:0:0:0:
448,192,183730,128,0,183823:0:0:0:0:
448,192,183917,1,0,0:0:0:0:
320,192,183917,128,0,184480:0:0:0:0:
64,192,184105,128,0,184198:0:0:0:0:
192,192,184292,1,0,0:0:0:0:
192,192,184386,1,0,0:0:0:0:
448,192,184480,1,0,0:0:0:0:
64,192,184480,128,0,185417:0:0:0:0:
448,192,185230,128,0,185605:0:0:0:0:
320,192,185417,128,0,185792:0:0:0:0:
64,192,185605,128,0,185792:0:0:0:0:
192,192,185792,1,0,0:0:0:0:
448,192,185792,1,0,0:0:0:0:
192,192,185886,1,0,0:0:0:0:
320,192,185886,1,0,0:0:0:0:
192,192,185980,1,0,0:0:0:0:
64,192,185980,1,0,0:0:0:0:
448,192,186167,128,0,186261:0:0:0:0:
320,192,186355,128,0,186448:0:0:0:0:
64,192,186542,128,0,186636:0:0:0:0:
448,192,186730,128,0,187105:0:0:0:0:
320,192,186917,128,0,187386:0:0:0:0:
64,192,187105,128,0,187198:0:0:0:0:
192,192,187198,128,0,187292:0:0:0:0:
64,192,187292,128,0,187386:0:0:0:0:
448,192,187292,1,0,0:0:0:0:
192,192,187386,128,0,187480:0:0:0:0:
320,192,187480,1,0,0:0:0:0:
448,192,187480,1,0,0:0:0:0:
448,192,187855,128,0,187938:0:0:0:0:
320,192,187938,128,0,188021:0:0:0:0:
448,192,188021,128,0,188105:0:0:0:0:
320,192,188105,128,0,188230:0:0:0:0:
64,192,188230,128,0,188698:0:0:0:0:
192,192,188417,128,0,188698:0:0:0:0:
448,192,188605,128,0,188792:0:0:0:0:
320,192,188792,1,0,0:0:0:0:
64,192,188792,1,0,0:0:0:0:
320,192,188886,1,0,0:0:0:0:
192,192,188886,1,0,0:0:0:0:
320,192,188980,1,0,0:0:0:0:
448,192,188980,1,0,0:0:0:0:
448,192,189261,1,0,0:0:0:0:
64,192,189261,128,0,189448:0:0:0:0:
448,192,189542,1,0,0:0:0:0:
192,192,189542,128,0,189730:0:0:0:0:
64,192,189730,128,0,190105:0:0:0:0:
448,192,189917,1,0,0:0:0:0:
320,192,189917,1,0,0:0:0:0:
448,192,190105,128,0,190480:0:0:0:0:
192,192,190105,1,0,0:0:0:0:
64,192,190292,1,0,0:0:0:0:
64,192,190386,1,0,0:0:0:0:
64,192,190480,1,0,0:0:0:0:
192,192,190480,1,0,0:0:0:0:
448,192,191230,1,0,0:0:0:0:
192,192,191230,1,0,0:0:0:0:
192,192,191792,1,0,0:0:0:0:
64,192,191792,1,0,0:0:0:0:
192,192,192917,128,0,193011:0:0:0:0:
448,192,193011,128,0,193105:0:0:0:0:
320,192,193105,128,0,193198:0:0:0:0:
64,192,193198,128,0,193292:0:0:0:0:
320,192,193292,128,0,193386:0:0:0:0:
448,192,193292,1,0,0:0:0:0:
192,192,193386,128,0,193480:0:0:0:0:
64,192,194605,128,0,194886:0:0:0:0:
192,192,194698,128,0,194886:0:0:0:0:
320,192,194792,128,0,194886:0:0:0:0:
448,192,194886,128,0,195448:0:0:0:0:
64,192,194980,128,0,195730:0:0:0:0:
192,192,194980,128,0,195730:0:0:0:0:
320,192,194980,128,0,195448:0:0:0:0:
320,192,195542,1,0,0:0:0:0:
448,192,195542,128,0,195730:0:0:0:0:
320,192,195730,1,0,0:0:0:0:
320,192,195823,1,0,0:0:0:0:
64,192,195917,1,0,0:0:0:0:
64,192,196011,1,0,0:0:0:0:
192,192,196105,1,0,0:0:0:0:
448,192,196105,1,0,0:0:0:0:
320,192,196151,1,0,0:0:0:0:
64,192,196198,1,0,0:0:0:0:
192,192,196245,1,0,0:0:0:0:
448,192,196292,128,0,197136:0:0:0:0:
320,192,196292,128,0,197042:0:0:0:0:
64,192,196292,128,0,196667:0:0:0:0:
192,192,196667,128,0,196948:0:0:0:0:
192,192,197042,1,0,0:0:0:0:
64,192,197042,128,0,197230:0:0:0:0:
320,192,197136,1,0,0:0:0:0:
192,192,197136,128,0,197230:0:0:0:0:
320,192,197230,128,0,197417:0:0:0:0:
448,192,197230,128,0,197698:0:0:0:0:
64,192,197417,128,0,197698:0:0:0:0:
64,192,197792,128,0,198730:0:0:0:0:
192,192,197792,128,0,198730:0:0:0:0:
320,192,197792,128,0,198448:0:0:0:0:
320,192,198542,1,0,0:0:0:0:
448,192,198542,128,0,198730:0:0:0:0:
320,192,198730,1,0,0:0:0:0:
448,192,198792,1,0,0:0:0:0:
192,192,198855,1,0,0:0:0:0:
64,192,198917,1,0,0:0:0:0:
320,192,198980,1,0,0:0:0:0:
448,192,199042,1,0,0:0:0:0:
64,192,199105,1,0,0:0:0:0:
192,192,199198,1,0,0:0:0:0:
320,192,199292,1,0,0:0:0:0:
320,192,199386,1,0,0:0:0:0:
64,192,199386,1,0,0:0:0:0:
448,192,199480,128,0,199948:0:0:0:0:
192,192,199480,128,0,199667:0:0:0:0:
64,192,199480,128,0,199667:0:0:0:0:
320,192,199761,128,0,199948:0:0:0:0:
64,192,199761,128,0,200136:0:0:0:0:
192,192,200042,128,0,200136:0:0:0:0:
448,192,200042,128,0,200136:0:0:0:0:
320,192,200230,128,0,200323:0:0:0:0:
448,192,200230,128,0,200323:0:0:0:0:
192,192,200230,128,0,200698:0:0:0:0:
64,192,200417,128,0,200698:0:0:0:0:
448,192,200417,128,0,200698:0:0:0:0:
64,192,200792,128,0,200886:0:0:0:0:
320,192,200792,1,0,0:0:0:0:
448,192,200886,1,0,0:0:0:0:
192,192,200886,128,0,200980:0:0:0:0:
320,192,200980,128,0,201730:0:0:0:0:
448,192,200980,128,0,201730:0:0:0:0:
64,192,200980,128,0,201448:0:0:0:0:
64,192,201542,1,0,0:0:0:0:
192,192,201542,128,0,201730:0:0:0:0:
64,192,201730,1,0,0:0:0:0:
64,192,201823,1,0,0:0:0:0:
448,192,201917,1,0,0:0:0:0:
192,192,201964,1,0,0:0:0:0:
448,192,202011,1,0,0:0:0:0:
192,192,202058,1,0,0:0:0:0:
320,192,202105,128,0,202198:0:0:0:0:
64,192,202198,128,0,202292:0:0:0:0:
448,192,202292,128,0,202948:0:0:0:0:
192,192,202292,128,0,202948:0:0:0:0:
320,192,202292,128,0,202948:0:0:0:0:
192,192,203042,1,0,0:0:0:0:
64,192,203042,1,0,0:0:0:0:
192,192,203136,1,0,0:0:0:0:
448,192,203230,128,0,203417:0:0:0:0:
320,192,203230,1,0,0:0:0:0:
64,192,203323,1,0,0:0:0:0:
192,192,203417,1,0,0:0:0:0:
320,192,203417,1,0,0:0:0:0:
448,192,203511,1,0,0:0:0:0:
192,192,203605,1,0,0:0:0:0:
64,192,203605,1,0,0:0:0:0:
320,192,203698,1,0,0:0:0:0:
192,192,203698,1,0,0:0:0:0:
64,192,203792,128,0,204730:0:0:0:0:
320,192,203792,128,0,204730:0:0:0:0:
448,192,203792,128,0,204730:0:0:0:0:
192,192,204730,1,0,0:0:0:0:
448,192,204792,1,0,0:0:0:0:
64,192,204855,1,0,0:0:0:0:
320,192,204917,1,0,0:0:0:0:
192,192,204980,1,0,0:0:0:0:
64,192,204980,1,0,0:0:0:0:
448,192,205105,128,0,205292:0:0:0:0:
64,192,205292,1,0,0:0:0:0:
192,192,205292,1,0,0:0:0:0:
320,192,205292,128,0,205667:0:0:0:0:
64,192,205386,128,0,205667:0:0:0:0:
192,192,205386,128,0,205948:0:0:0:0:
448,192,205761,1,0,0:0:0:0:
320,192,205761,1,0,0:0:0:0:
320,192,205855,128,0,205948:0:0:0:0:
448,192,205855,128,0,206136:0:0:0:0:
192,192,206042,128,0,206886:0:0:0:0:
64,192,206042,128,0,206605:0:0:0:0:
320,192,206230,128,0,206323:0:0:0:0:
448,192,206230,1,0,0:0:0:0:
448,192,206417,128,0,206511:0:0:0:0:
320,192,206417,1,0,0:0:0:0:
448,192,206605,1,0,0:0:0:0:
320,192,206605,1,0,0:0:0:0:
320,192,206698,128,0,206886:0:0:0:0:
448,192,206698,128,0,206886:0:0:0:0:
64,192,206980,128,0,207448:0:0:0:0:
192,192,206980,128,0,207448:0:0:0:0:
448,192,206980,128,0,207730:0:0:0:0:
192,192,207542,1,0,0:0:0:0:
64,192,207542,1,0,0:0:0:0:
320,192,207730,1,0,0:0:0:0:
64,192,207776,1,0,0:0:0:0:
192,192,207823,1,0,0:0:0:0:
320,192,207870,1,0,0:0:0:0:
448,192,207917,1,0,0:0:0:0:
64,192,207917,1,0,0:0:0:0:
192,192,208011,128,0,208105:0:0:0:0:
448,192,208105,128,0,208198:0:0:0:0:
320,192,208198,128,0,208292:0:0:0:0:
64,192,208292,128,0,208948:0:0:0:0:
192,192,208292,128,0,208948:0:0:0:0:
448,192,208292,128,0,208948:0:0:0:0:
320,192,209042,1,0,0:0:0:0:
448,192,209042,128,0,209136:0:0:0:0:
64,192,209136,1,0,0:0:0:0:
320,192,209136,128,0,209230:0:0:0:0:
192,192,209230,1,0,0:0:0:0:
64,192,209230,1,0,0:0:0:0:
448,192,209417,1,0,0:0:0:0:
64,192,209605,1,0,0:0:0:0:
320,192,209792,128,0,210730:0:0:0:0:
448,192,209792,128,0,210730:0:0:0:0:
64,192,209792,128,0,211667:0:0:0:0:
192,192,210730,1,0,0:0:0:0:
320,192,210823,1,0,0:0:0:0:
448,192,210917,1,0,0:0:0:0:
192,192,211105,1,0,0:0:0:0:
192,192,211198,1,0,0:0:0:0:
448,192,211292,1,0,0:0:0:0:
448,192,211386,1,0,0:0:0:0:
192,192,211480,128,0,211667:0:0:0:0:
448,192,211667,128,0,211855:0:0:0:0:
320,192,211761,1,0,0:0:0:0:
64,192,211761,1,0,0:0:0:0:
192,192,211855,128,0,212136:0:0:0:0:
64,192,211855,128,0,212042:0:0:0:0:
320,192,212042,1,0,0:0:0:0:
448,192,212042,128,0,212136:0:0:0:0:
64,192,212136,1,0,0:0:0:0:
320,192,212136,128,0,212230:0:0:0:0:
64,192,212230,128,0,212417:0:0:0:0:
192,192,212230,128,0,212417:0:0:0:0:
448,192,212230,128,0,212605:0:0:0:0:
192,192,212511,128,0,212698:0:0:0:0:
64,192,212511,128,0,212698:0:0:0:0:
320,192,212605,128,0,212792:0:0:0:0:
192,192,212792,1,0,0:0:0:0:
64,192,212792,1,0,0:0:0:0:
448,192,212886,1,0,0:0:0:0:
320,192,212886,1,0,0:0:0:0:
64,192,212980,128,0,213636:0:0:0:0:
192,192,212980,128,0,213636:0:0:0:0:
448,192,212980,128,0,213448:0:0:0:0:
320,192,213542,128,0,214011:0:0:0:0:
448,192,213542,128,0,214011:0:0:0:0:
192,192,213730,1,0,0:0:0:0:
64,192,213730,128,0,213823:0:0:0:0:
192,192,213917,128,0,214011:0:0:0:0:
64,192,213917,1,0,0:0:0:0:
192,192,214105,128,0,214292:0:0:0:0:
64,192,214105,128,0,214198:0:0:0:0:
448,192,214105,128,0,214198:0:0:0:0:
320,192,214292,128,0,214948:0:0:0:0:
64,192,214292,128,0,214667:0:0:0:0:
448,192,214292,128,0,214948:0:0:0:0:
192,192,214667,128,0,215042:0:0:0:0:
448,192,215042,1,0,0:0:0:0:
64,192,215042,128,0,215698:0:0:0:0:
320,192,215042,1,0,0:0:0:0:
448,192,215136,1,0,0:0:0:0:
192,192,215136,1,0,0:0:0:0:
320,192,215230,128,0,215511:0:0:0:0:
192,192,215230,128,0,215323:0:0:0:0:
192,192,215417,128,0,215511:0:0:0:0:
448,192,215417,128,0,215511:0:0:0:0:
320,192,215605,128,0,215698:0:0:0:0:
192,192,215605,128,0,215698:0:0:0:0:
192,192,215792,128,0,216355:0:0:0:0:
64,192,215792,128,0,216355:0:0:0:0:
320,192,215792,128,0,215980:0:0:0:0:
448,192,215980,128,0,217011:0:0:0:0:
192,192,216448,128,0,216636:0:0:0:0:
64,192,216448,128,0,216542:0:0:0:0:
320,192,216542,128,0,216636:0:0:0:0:
64,192,216636,1,0,0:0:0:0:
192,192,216730,128,0,217198:0:0:0:0:
320,192,216730,128,0,217011:0:0:0:0:
64,192,216730,128,0,217011:0:0:0:0:
64,192,217105,128,0,217198:0:0:0:0:
448,192,217105,128,0,217292:0:0:0:0:
320,192,217292,128,0,217386:0:0:0:0:
64,192,217292,1,0,0:0:0:0:
192,192,217386,128,0,217667:0:0:0:0:
448,192,217386,1,0,0:0:0:0:
448,192,217480,128,0,217573:0:0:0:0:
320,192,217480,128,0,217573:0:0:0:0:
64,192,217480,128,0,217667:0:0:0:0:
320,192,217667,128,0,217761:0:0:0:0:
448,192,217667,128,0,217761:0:0:0:0:
64,192,217761,1,0,0:0:0:0:
192,192,217761,1,0,0:0:0:0:
320,192,217855,128,0,218136:0:0:0:0:
448,192,217855,128,0,218136:0:0:0:0:
64,192,217855,128,0,217948:0:0:0:0:
192,192,218042,128,0,218230:0:0:0:0:
64,192,218042,1,0,0:0:0:0:
448,192,218230,128,0,218511:0:0:0:0:
320,192,218230,128,0,218417:0:0:0:0:
64,192,218230,128,0,218323:0:0:0:0:
192,192,218323,128,0,218417:0:0:0:0:
64,192,218417,128,0,218511:0:0:0:0:
320,192,218511,128,0,218605:0:0:0:0:
192,192,218605,128,0,218698:0:0:0:0:
64,192,218605,128,0,218698:0:0:0:0:
320,192,218698,128,0,218792:0:0:0:0:
448,192,218698,128,0,218792:0:0:0:0:
192,192,218792,128,0,218886:0:0:0:0:
64,192,218792,128,0,218886:0:0:0:0:
320,192,218886,1,0,0:0:0:0:
448,192,218980,5,0,0:0:0:0:
192,192,218980,128,0,219259:0:0:0:0:
64,192,218980,128,0,219073:0:0:0:0:
448,192,219073,128,0,219259:0:0:0:0:
320,192,219073,128,0,219166:0:0:0:0:
64,192,219166,128,0,219259:0:0:0:0:
320,192,219259,128,0,219352:0:0:0:0:
192,192,219352,1,0,0:0:0:0:
64,192,219352,1,0,0:0:0:0:
448,192,219352,128,0,219632:0:0:0:0:
320,192,219445,128,0,219539:0:0:0:0:
64,192,219445,128,0,219539:0:0:0:0:
192,192,219539,128,0,219632:0:0:0:0:
64,192,219632,128,0,219725:0:0:0:0:
320,192,219725,1,0,0:0:0:0:
192,192,219725,1,0,0:0:0:0:
448,192,219725,128,0,219911:0:0:0:0:
320,192,219818,128,0,220004:0:0:0:0:
192,192,219911,128,0,220004:0:0:0:0:
64,192,220004,128,0,220098:0:0:0:0:
448,192,220098,1,0,0:0:0:0:
320,192,220098,1,0,0:0:0:0:
192,192,220098,128,0,220284:0:0:0:0:
64,192,220191,128,0,220284:0:0:0:0:
320,192,220284,1,0,0:0:0:0:
448,192,220284,1,0,0:0:0:0:
320,192,220377,1,0,0:0:0:0:
448,192,220470,128,0,220664:0:0:0:0:
64,192,220480,1,0,0:0:0:0:
192,192,220480,1,0,0:0:0:0:
320,192,220572,128,0,220664:0:0:0:0:
64,192,220664,128,0,220756:0:0:0:0:
192,192,220756,128,0,220848:0:0:0:0:
64,192,220848,1,0,0:0:0:0:
320,192,220848,1,0,0:0:0:0:
448,192,220848,128,0,221032:0:0:0:0:
192,192,220940,128,0,221032:0:0:0:0:
320,192,221032,128,0,221124:0:0:0:0:
192,192,221124,128,0,221216:0:0:0:0:
320,192,221216,1,0,0:0:0:0:
64,192,221216,1,0,0:0:0:0:
448,192,221216,1,0,0:0:0:0:
192,192,221308,128,0,221400:0:0:0:0:
448,192,221400,128,0,221492:0:0:0:0:
320,192,221492,128,0,221584:0:0:0:0:
448,192,221584,1,0,0:0:0:0:
64,192,221584,1,0,0:0:0:0:
192,192,221584,128,0,221676:0:0:0:0:
448,192,221676,1,0,0:0:0:0:
320,192,221768,1,0,0:0:0:0:
192,192,221768,1,0,0:0:0:0:
64,192,221768,128,0,221860:0:0:0:0:
320,192,221860,1,0,0:0:0:0:
64,192,221952,1,0,0:0:0:0:
448,192,221952,1,0,0:0:0:0:
192,192,221952,1,0,0:0:0:0:
320,192,222044,128,0,222136:0:0:0:0:
64,192,222136,128,0,222228:0:0:0:0:
192,192,222228,128,0,222320:0:0:0:0:
448,192,222320,1,0,0:0:0:0:
320,192,222320,1,0,0:0:0:0:
64,192,222320,1,0,0:0:0:0:
448,192,222412,128,0,222504:0:0:0:0:
320,192,222504,128,0,222596:0:0:0:0:
192,192,222596,128,0,222688:0:0:0:0:
64,192,222688,1,0,0:0:0:0:
320,192,222688,1,0,0:0:0:0:
448,192,222688,1,0,0:0:0:0:
64,192,222780,1,0,0:0:0:0:
448,192,222872,1,0,0:0:0:0:
192,192,222964,1,0,0:0:0:0:
320,192,223056,1,0,0:0:0:0:
448,192,223056,1,0,0:0:0:0:
64,192,223056,1,0,0:0:0:0:
192,192,223148,1,0,0:0:0:0:
320,192,223240,1,0,0:0:0:0:
64,192,223240,1,0,0:0:0:0:
192,192,223332,1,0,0:0:0:0:
448,192,223332,1,0,0:0:0:0:
64,192,223424,1,0,0:0:0:0:
320,192,223424,1,0,0:0:0:0:
448,192,223424,1,0,0:0:0:0:
192,192,223514,1,0,0:0:0:0:
320,192,223605,1,0,0:0:0:0:
64,192,223696,1,0,0:0:0:0:
320,192,223787,1,0,0:0:0:0:
448,192,223787,1,0,0:0:0:0:
192,192,223787,1,0,0:0:0:0:
64,192,223878,1,0,0:0:0:0:
320,192,223969,1,0,0:0:0:0:
192,192,224060,1,0,0:0:0:0:
448,192,224151,1,0,0:0:0:0:
320,192,224151,1,0,0:0:0:0:
64,192,224151,1,0,0:0:0:0:
448,192,224242,1,0,0:0:0:0:
64,192,224333,1,0,0:0:0:0:
192,192,224333,1,0,0:0:0:0:
320,192,224424,1,0,0:0:0:0:
64,192,224424,1,0,0:0:0:0:
448,192,224424,1,0,0:0:0:0:
192,192,224514,1,0,0:0:0:0:
64,192,224605,1,0,0:0:0:0:
448,192,224696,1,0,0:0:0:0:
320,192,224696,1,0,0:0:0:0:
192,192,224696,1,0,0:0:0:0:
192,192,224787,1,0,0:0:0:0:
448,192,224878,1,0,0:0:0:0:
320,192,224878,1,0,0:0:0:0:
64,192,224878,1,0,0:0:0:0:
448,192,224967,1,0,0:0:0:0:
64,192,225057,1,0,0:0:0:0:
192,192,225147,1,0,0:0:0:0:
64,192,225237,1,0,0:0:0:0:
448,192,225237,1,0,0:0:0:0:
320,192,225237,1,0,0:0:0:0:
192,192,225327,128,0,225416:0:0:0:0:
320,192,225416,128,0,225506:0:0:0:0:
64,192,225506,128,0,225596:0:0:0:0:
192,192,225596,1,0,0:0:0:0:
320,192,225596,1,0,0:0:0:0:
448,192,225596,128,0,225686:0:0:0:0:
64,192,225686,128,0,225776:0:0:0:0:
192,192,225776,128,0,225866:0:0:0:0:
320,192,225866,128,0,225955:0:0:0:0:
64,192,225955,1,0,0:0:0:0:
448,192,225955,1,0,0:0:0:0:
192,192,225955,128,0,226045:0:0:0:0:
448,192,226045,128,0,226135:0:0:0:0:
192,192,226135,1,0,0:0:0:0:
64,192,226135,1,0,0:0:0:0:
192,192,226225,1,0,0:0:0:0:
320,192,226225,1,0,0:0:0:0:
64,192,226315,1,0,0:0:0:0:
448,192,226315,1,0,0:0:0:0:
320,192,226315,1,0,0:0:0:0:
448,192,226404,128,0,226584:0:0:0:0:
320,192,226494,128,0,226584:0:0:0:0:
64,192,226584,128,0,226674:0:0:0:0:
192,192,226674,1,0,0:0:0:0:
320,192,226674,1,0,0:0:0:0:
448,192,226674,128,0,226854:0:0:0:0:
64,192,226764,128,0,226943:0:0:0:0:
192,192,226854,128,0,226943:0:0:0:0:
320,192,226943,128,0,227033:0:0:0:0:
192,192,227033,1,0,0:0:0:0:
448,192,227033,128,0,227213:0:0:0:0:
64,192,227033,1,0,0:0:0:0:
192,192,227123,128,0,227303:0:0:0:0:
320,192,227213,128,0,227303:0:0:0:0:
64,192,227303,128,0,227392:0:0:0:0:
448,192,227392,1,0,0:0:0:0:
320,192,227392,1,0,0:0:0:0:
192,192,227392,128,0,227482:0:0:0:0:
448,192,227482,1,0,0:0:0:0:
192,192,227572,1,0,0:0:0:0:
320,192,227572,128,0,227662:0:0:0:0:
64,192,227572,1,0,0:0:0:0:
192,192,227662,1,0,0:0:0:0:
64,192,227752,1,0,0:0:0:0:
320,192,227752,128,0,227929:0:0:0:0:
448,192,227752,1,0,0:0:0:0:
192,192,227840,128,0,228018:0:0:0:0:
64,192,227840,1,0,0:0:0:0:
448,192,227929,128,0,228018:0:0:0:0:
64,192,228018,128,0,228107:0:0:0:0:
320,192,228107,1,0,0:0:0:0:
192,192,228107,128,0,228284:0:0:0:0:
448,192,228107,1,0,0:0:0:0:
448,192,228195,128,0,228373:0:0:0:0:
64,192,228195,1,0,0:0:0:0:
320,192,228284,128,0,228373:0:0:0:0:
64,192,228373,128,0,228462:0:0:0:0:
448,192,228462,1,0,0:0:0:0:
320,192,228462,128,0,228639:0:0:0:0:
192,192,228462,1,0,0:0:0:0:
64,192,228550,128,0,228728:0:0:0:0:
192,192,228550,1,0,0:0:0:0:
448,192,228639,128,0,228728:0:0:0:0:
192,192,228728,128,0,228817:0:0:0:0:
448,192,228817,1,0,0:0:0:0:
64,192,228817,1,0,0:0:0:0:
320,192,228817,1,0,0:0:0:0:
192,192,228905,1,0,0:0:0:0:
448,192,228994,1,0,0:0:0:0:
320,192,228994,1,0,0:0:0:0:
64,192,228994,1,0,0:0:0:0:
320,192,229083,1,0,0:0:0:0:
192,192,229083,1,0,0:0:0:0:
192,192,229172,1,0,0:0:0:0:
64,192,229172,1,0,0:0:0:0:
448,192,229172,1,0,0:0:0:0:
320,192,229260,1,0,0:0:0:0:
64,192,229348,1,0,0:0:0:0:
448,192,229348,1,0,0:0:0:0:
192,192,229436,1,0,0:0:0:0:
448,192,229524,1,0,0:0:0:0:
320,192,229524,1,0,0:0:0:0:
192,192,229613,1,0,0:0:0:0:
320,192,229613,1,0,0:0:0:0:
448,192,229701,1,0,0:0:0:0:
64,192,229701,1,0,0:0:0:0:
320,192,229789,1,0,0:0:0:0:
192,192,229877,1,0,0:0:0:0:
64,192,229877,1,0,0:0:0:0:
320,192,229966,1,0,0:0:0:0:
192,192,229966,1,0,0:0:0:0:
448,192,230054,1,0,0:0:0:0:
64,192,230054,1,0,0:0:0:0:
64,192,230142,1,0,0:0:0:0:
192,192,230142,1,0,0:0:0:0:
320,192,230230,1,0,0:0:0:0:
448,192,230230,1,0,0:0:0:0:
192,192,230319,1,0,0:0:0:0:
64,192,230319,1,0,0:0:0:0:
320,192,230407,1,0,0:0:0:0:
448,192,230407,1,0,0:0:0:0:
192,192,230495,1,0,0:0:0:0:
64,192,230495,1,0,0:0:0:0:
64,192,230583,1,0,0:0:0:0:
320,192,230583,128,0,230936:0:0:0:0:
448,192,230583,128,0,230936:0:0:0:0:
64,192,230936,128,0,231024:0:0:0:0:
192,192,230936,128,0,231113:0:0:0:0:
448,192,231024,128,0,231201:0:0:0:0:
320,192,231113,128,0,231201:0:0:0:0:
64,192,231201,128,0,231289:0:0:0:0:
448,192,231289,1,0,0:0:0:0:
192,192,231289,1,0,0:0:0:0:
320,192,231377,1,0,0:0:0:0:
64,192,231466,1,0,0:0:0:0:
192,192,231466,1,0,0:0:0:0:
448,192,231642,1,0,0:0:0:0:
320,192,231642,1,0,0:0:0:0:
64,192,231730,1,0,0:0:0:0:
320,192,231730,1,0,0:0:0:0:
64,192,231819,1,0,0:0:0:0:
192,192,231907,1,0,0:0:0:0:
448,192,231907,1,0,0:0:0:0:
320,192,231995,128,0,232172:0:0:0:0:
448,192,231995,128,0,232083:0:0:0:0:
64,192,232083,128,0,232260:0:0:0:0:
192,192,232172,128,0,232348:0:0:0:0:
448,192,232260,128,0,232348:0:0:0:0:
320,192,232348,1,0,0:0:0:0:
64,192,232348,1,0,0:0:0:0:
448,192,232436,1,0,0:0:0:0:
192,192,232436,128,0,232524:0:0:0:0:
448,192,232524,1,0,0:0:0:0:
64,192,232524,128,0,232613:0:0:0:0:
320,192,232613,1,0,0:0:0:0:
192,192,232613,1,0,0:0:0:0:
448,192,232701,1,0,0:0:0:0:
64,192,232701,1,0,0:0:0:0:
192,192,232789,1,0,0:0:0:0:
64,192,232877,1,0,0:0:0:0:
448,192,232877,1,0,0:0:0:0:
320,192,232966,1,0,0:0:0:0:
64,192,233054,1,0,0:0:0:0:
192,192,233054,128,0,233142:0:0:0:0:
448,192,233142,1,0,0:0:0:0:
64,192,233142,128,0,233230:0:0:0:0:
192,192,233230,1,0,0:0:0:0:
448,192,233230,128,0,233319:0:0:0:0:
64,192,233319,1,0,0:0:0:0:
320,192,233319,128,0,233407:0:0:0:0:
448,192,233407,1,0,0:0:0:0:
64,192,233407,128,0,233760:0:0:0:0:
192,192,233407,128,0,233760:0:0:0:0:
320,192,233760,1,0,0:0:0:0:
448,192,233760,128,0,233936:0:0:0:0:
64,192,233848,128,0,233936:0:0:0:0:
320,192,233936,1,0,0:0:0:0:
192,192,233936,1,0,0:0:0:0:
448,192,234113,128,0,234289:0:0:0:0:
320,192,234113,128,0,234201:0:0:0:0:
64,192,234201,128,0,234377:0:0:0:0:
192,192,234289,128,0,234466:0:0:0:0:
320,192,234377,128,0,234554:0:0:0:0:
64,192,234466,128,0,234554:0:0:0:0:
448,192,234466,128,0,234554:0:0:0:0:
192,192,234554,128,0,234642:0:0:0:0:
448,192,234642,1,0,0:0:0:0:
320,192,234642,1,0,0:0:0:0:
192,192,234730,1,0,0:0:0:0:
64,192,234730,1,0,0:0:0:0:
64,192,234819,1,0,0:0:0:0:
448,192,234819,1,0,0:0:0:0:
320,192,234863,1,0,0:0:0:0:
192,192,234907,1,0,0:0:0:0:
64,192,234995,1,0,0:0:0:0:
448,192,234995,1,0,0:0:0:0:
320,192,235083,1,0,0:0:0:0:
192,192,235083,1,0,0:0:0:0:
320,192,235172,1,0,0:0:0:0:
448,192,235172,128,0,235348:0:0:0:0:
64,192,235348,128,0,235524:0:0:0:0:
192,192,235348,1,0,0:0:0:0:
448,192,235524,128,0,235701:0:0:0:0:
320,192,235524,1,0,0:0:0:0:
192,192,235613,128,0,235789:0:0:0:0:
64,192,235701,128,0,235877:0:0:0:0:
320,192,235789,128,0,235877:0:0:0:0:
448,192,235877,1,0,0:0:0:0:
192,192,235877,1,0,0:0:0:0:
64,192,235966,1,0,0:0:0:0:
448,192,235966,1,0,0:0:0:0:
320,192,236010,1,0,0:0:0:0:
192,192,236054,1,0,0:0:0:0:
64,192,236054,1,0,0:0:0:0:
320,192,236230,128,0,236583:0:0:0:0:
448,192,236230,128,0,236583:0:0:0:0:
192,192,236230,1,0,0:0:0:0:
64,192,236583,128,0,236760:0:0:0:0:
192,192,236583,1,0,0:0:0:0:
448,192,236672,128,0,236760:0:0:0:0:
320,192,236760,1,0,0:0:0:0:
192,192,236760,1,0,0:0:0:0:
192,192,236936,1,0,0:0:0:0:
64,192,236936,1,0,0:0:0:0:
192,192,237024,1,0,0:0:0:0:
448,192,237113,1,0,0:0:0:0:
320,192,237113,1,0,0:0:0:0:
64,192,237157,1,0,0:0:0:0:
192,192,237201,1,0,0:0:0:0:
320,192,237245,1,0,0:0:0:0:
448,192,237289,1,0,0:0:0:0:
64,192,237289,1,0,0:0:0:0:
192,192,237377,1,0,0:0:0:0:
448,192,237377,1,0,0:0:0:0:
320,192,237466,1,0,0:0:0:0:
64,192,237554,1,0,0:0:0:0:
64,192,237642,128,0,237995:0:0:0:0:
192,192,237642,128,0,237995:0:0:0:0:
448,192,237642,1,0,0:0:0:0:
320,192,237995,1,0,0:0:0:0:
448,192,237995,128,0,238172:0:0:0:0:
64,192,238083,128,0,238172:0:0:0:0:
320,192,238172,1,0,0:0:0:0:
192,192,238172,1,0,0:0:0:0:
192,192,238260,1,0,0:0:0:0:
64,192,238260,1,0,0:0:0:0:
64,192,238348,1,0,0:0:0:0:
448,192,238348,128,0,238495:0:0:0:0:
192,192,238495,128,0,238583:0:0:0:0:
192,192,238642,1,0,0:0:0:0:
448,192,238701,1,0,0:0:0:0:
320,192,238701,1,0,0:0:0:0:
64,192,238789,1,0,0:0:0:0:
192,192,238789,1,0,0:0:0:0:
64,192,238877,1,0,0:0:0:0:
320,192,238877,1,0,0:0:0:0:
192,192,238966,1,0,0:0:0:0:
448,192,238966,1,0,0:0:0:0:
320,192,239054,128,0,239407:0:0:0:0:
448,192,239054,128,0,239407:0:0:0:0:
64,192,239054,1,0,0:0:0:0:
192,192,239407,1,0,0:0:0:0:
64,192,239407,128,0,239583:0:0:0:0:
448,192,239495,128,0,239583:0:0:0:0:
320,192,239583,1,0,0:0:0:0:
192,192,239583,1,0,0:0:0:0:
64,192,239642,1,0,0:0:0:0:
448,192,239701,1,0,0:0:0:0:
192,192,239760,1,0,0:0:0:0:
64,192,239760,1,0,0:0:0:0:
320,192,239848,1,0,0:0:0:0:
448,192,239848,1,0,0:0:0:0:
64,192,239936,128,0,240113:0:0:0:0:
192,192,240024,128,0,240113:0:0:0:0:
448,192,240113,1,0,0:0:0:0:
320,192,240113,1,0,0:0:0:0:
448,192,240289,1,0,0:0:0:0:
320,192,240289,1,0,0:0:0:0:
320,192,240377,1,0,0:0:0:0:
64,192,240466,128,0,240819:0:0:0:0:
192,192,240466,128,0,240819:0:0:0:0:
448,192,240466,1,0,0:0:0:0:
448,192,240730,1,0,0:0:0:0:
448,192,240819,128,0,240995:0:0:0:0:
320,192,240819,128,0,240995:0:0:0:0:
64,192,240995,128,0,241260:0:0:0:0:
192,192,240995,128,0,241172:0:0:0:0:
448,192,241172,128,0,241436:0:0:0:0:
320,192,241172,128,0,241260:0:0:0:0:
192,192,241260,128,0,241348:0:0:0:0:
64,192,241348,128,0,241436:0:0:0:0:
320,192,241436,128,0,241524:0:0:0:0:
64,192,241524,128,0,241701:0:0:0:0:
192,192,241524,128,0,241613:0:0:0:0:
448,192,241613,128,0,241789:0:0:0:0:
320,192,241613,128,0,241701:0:0:0:0:
192,192,241701,128,0,241789:0:0:0:0:
64,192,241789,128,0,241877:0:0:0:0:
320,192,241877,128,0,242230:0:0:0:0:
448,192,241877,128,0,242230:0:0:0:0:
192,192,241877,1,0,0:0:0:0:
64,192,242230,128,0,242319:0:0:0:0:
192,192,242230,128,0,242407:0:0:0:0:
448,192,242319,128,0,242495:0:0:0:0:
320,192,242407,128,0,242495:0:0:0:0:
64,192,242495,128,0,242583:0:0:0:0:
448,192,242583,1,0,0:0:0:0:
192,192,242583,1,0,0:0:0:0:
320,192,242672,1,0,0:0:0:0:
64,192,242760,1,0,0:0:0:0:
192,192,242760,1,0,0:0:0:0:
320,192,242936,1,0,0:0:0:0:
448,192,242936,1,0,0:0:0:0:
64,192,243024,1,0,0:0:0:0:
320,192,243024,1,0,0:0:0:0:
64,192,243113,1,0,0:0:0:0:
192,192,243201,1,0,0:0:0:0:
448,192,243201,1,0,0:0:0:0:
320,192,243289,128,0,243466:0:0:0:0:
448,192,243289,128,0,243377:0:0:0:0:
64,192,243377,128,0,243554:0:0:0:0:
192,192,243466,128,0,243642:0:0:0:0:
448,192,243554,128,0,243642:0:0:0:0:
320,192,243642,1,0,0:0:0:0:
64,192,243642,1,0,0:0:0:0:
448,192,243730,1,0,0:0:0:0:
64,192,243819,1,0,0:0:0:0:
192,192,243819,1,0,0:0:0:0:
192,192,243907,1,0,0:0:0:0:
448,192,243907,1,0,0:0:0:0:
448,192,243995,1,0,0:0:0:0:
64,192,243995,1,0,0:0:0:0:
192,192,244083,1,0,0:0:0:0:
64,192,244172,1,0,0:0:0:0:
448,192,244172,1,0,0:0:0:0:
320,192,244260,1,0,0:0:0:0:
64,192,244348,1,0,0:0:0:0:
192,192,244348,128,0,244436:0:0:0:0:
448,192,244436,1,0,0:0:0:0:
64,192,244436,128,0,244524:0:0:0:0:
192,192,244524,1,0,0:0:0:0:
448,192,244524,128,0,244613:0:0:0:0:
64,192,244613,1,0,0:0:0:0:
320,192,244613,128,0,244701:0:0:0:0:
448,192,244701,1,0,0:0:0:0:
64,192,244701,128,0,245054:0:0:0:0:
192,192,244701,128,0,245054:0:0:0:0:
320,192,245054,1,0,0:0:0:0:
448,192,245054,128,0,245230:0:0:0:0:
64,192,245142,128,0,245230:0:0:0:0:
320,192,245230,1,0,0:0:0:0:
192,192,245230,1,0,0:0:0:0:
448,192,245407,128,0,245583:0:0:0:0:
320,192,245407,128,0,245495:0:0:0:0:
64,192,245495,128,0,245672:0:0:0:0:
192,192,245583,128,0,245760:0:0:0:0:
320,192,245672,128,0,245848:0:0:0:0:
64,192,245760,128,0,245848:0:0:0:0:
448,192,245760,128,0,245848:0:0:0:0:
192,192,245848,128,0,245936:0:0:0:0:
448,192,245936,1,0,0:0:0:0:
320,192,245936,1,0,0:0:0:0:
192,192,246024,1,0,0:0:0:0:
64,192,246024,1,0,0:0:0:0:
64,192,246113,1,0,0:0:0:0:
448,192,246113,128,0,246260:0:0:0:0:
192,192,246260,128,0,246348:0:0:0:0:
192,192,246407,1,0,0:0:0:0:
320,192,246466,1,0,0:0:0:0:
448,192,246466,128,0,246642:0:0:0:0:
64,192,246466,128,0,246554:0:0:0:0:
64,192,246642,128,0,246819:0:0:0:0:
192,192,246642,1,0,0:0:0:0:
320,192,246642,128,0,246730:0:0:0:0:
448,192,246819,128,0,246995:0:0:0:0:
320,192,246819,1,0,0:0:0:0:
192,192,246907,128,0,247083:0:0:0:0:
64,192,246995,128,0,247172:0:0:0:0:
320,192,247083,128,0,247172:0:0:0:0:
448,192,247172,1,0,0:0:0:0:
192,192,247172,1,0,0:0:0:0:
64,192,247260,1,0,0:0:0:0:
448,192,247260,1,0,0:0:0:0:
320,192,247304,1,0,0:0:0:0:
192,192,247348,1,0,0:0:0:0:
64,192,247348,1,0,0:0:0:0:
320,192,247524,128,0,247877:0:0:0:0:
448,192,247524,128,0,247877:0:0:0:0:
192,192,247524,1,0,0:0:0:0:
64,192,247877,128,0,248054:0:0:0:0:
192,192,247877,1,0,0:0:0:0:
448,192,247966,128,0,248054:0:0:0:0:
320,192,248054,1,0,0:0:0:0:
192,192,248054,1,0,0:0:0:0:
192,192,248230,1,0,0:0:0:0:
64,192,248230,1,0,0:0:0:0:
192,192,248319,1,0,0:0:0:0:
448,192,248407,1,0,0:0:0:0:
320,192,248407,1,0,0:0:0:0:
64,192,248451,1,0,0:0:0:0:
192,192,248495,1,0,0:0:0:0:
320,192,248539,1,0,0:0:0:0:
448,192,248583,1,0,0:0:0:0:
64,192,248583,1,0,0:0:0:0:
192,192,248672,1,0,0:0:0:0:
448,192,248672,1,0,0:0:0:0:
320,192,248760,1,0,0:0:0:0:
192,192,248760,1,0,0:0:0:0:
64,192,248848,1,0,0:0:0:0:
64,192,248936,128,0,249289:0:0:0:0:
192,192,248936,128,0,249289:0:0:0:0:
448,192,248936,1,0,0:0:0:0:
320,192,249289,1,0,0:0:0:0:
448,192,249289,128,0,249466:0:0:0:0:
64,192,249377,128,0,249466:0:0:0:0:
320,192,249466,1,0,0:0:0:0:
192,192,249466,1,0,0:0:0:0:
192,192,249554,1,0,0:0:0:0:
64,192,249554,1,0,0:0:0:0:
64,192,249642,1,0,0:0:0:0:
448,192,249642,128,0,249819:0:0:0:0:
320,192,249730,128,0,249819:0:0:0:0:
64,192,249819,128,0,249995:0:0:0:0:
192,192,249907,128,0,249995:0:0:0:0:
320,192,249995,1,0,0:0:0:0:
448,192,249995,128,0,250083:0:0:0:0:
64,192,250083,128,0,250172:0:0:0:0:
192,192,250083,1,0,0:0:0:0:
320,192,250172,128,0,250260:0:0:0:0:
448,192,250172,1,0,0:0:0:0:
192,192,250260,128,0,250348:0:0:0:0:
64,192,250260,1,0,0:0:0:0:
320,192,250348,128,0,250701:0:0:0:0:
448,192,250348,128,0,250701:0:0:0:0:
64,192,250348,1,0,0:0:0:0:
192,192,250701,1,0,0:0:0:0:
64,192,250701,128,0,250877:0:0:0:0:
320,192,250789,128,0,250877:0:0:0:0:
448,192,250877,1,0,0:0:0:0:
192,192,250877,128,0,250966:0:0:0:0:
448,192,250966,128,0,251054:0:0:0:0:
64,192,251054,128,0,251142:0:0:0:0:
192,192,251054,128,0,251230:0:0:0:0:
320,192,251142,128,0,251230:0:0:0:0:
448,192,251142,128,0,251319:0:0:0:0:
64,192,251230,128,0,251407:0:0:0:0:
320,192,251319,128,0,251407:0:0:0:0:
192,192,251407,128,0,251583:0:0:0:0:
448,192,251407,1,0,0:0:0:0:
448,192,251583,128,0,251672:0:0:0:0:
64,192,251583,128,0,251672:0:0:0:0:
320,192,251672,128,0,251760:0:0:0:0:
448,192,251760,1,0,0:0:0:0:
64,192,251760,128,0,252113:0:0:0:0:
192,192,251760,128,0,252113:0:0:0:0:
448,192,251936,1,0,0:0:0:0:
320,192,252024,1,0,0:0:0:0:
448,192,252113,128,0,252289:0:0:0:0:
320,192,252113,128,0,252289:0:0:0:0:
64,192,252289,128,0,252554:0:0:0:0:
192,192,252289,128,0,252466:0:0:0:0:
448,192,252466,128,0,252730:0:0:0:0:
320,192,252466,128,0,252554:0:0:0:0:
192,192,252554,128,0,252642:0:0:0:0:
64,192,252642,128,0,252730:0:0:0:0:
320,192,252730,128,0,252819:0:0:0:0:
64,192,252819,128,0,252995:0:0:0:0:
192,192,252819,128,0,252907:0:0:0:0:
448,192,252907,128,0,253083:0:0:0:0:
320,192,252907,128,0,252995:0:0:0:0:
192,192,252995,128,0,253083:0:0:0:0:
64,192,253083,128,0,253172:0:0:0:0:
320,192,253172,128,0,253672:0:0:0:0:
448,192,253172,128,0,253672:0:0:0:0:
64,192,255838,128,0,256338:0:0:0:0:
448,192,255838,128,0,256338:0:0:0:0:
64,192,257172,1,0,0:0:0:0:
448,192,257227,1,0,0:0:0:0:
192,192,257283,1,0,0:0:0:0:
448,192,257338,1,0,0:0:0:0:
320,192,257394,1,0,0:0:0:0:
448,192,257449,1,0,0:0:0:0:
64,192,257505,1,0,0:0:0:0:
320,192,257560,1,0,0:0:0:0:
64,192,257616,1,0,0:0:0:0:
192,192,257672,1,0,0:0:0:0:
64,192,257727,1,0,0:0:0:0:
320,192,257783,1,0,0:0:0:0:
448,192,257838,1,0,0:0:0:0:
64,192,257905,1,0,0:0:0:0:
448,192,257972,1,0,0:0:0:0:
192,192,258038,1,0,0:0:0:0:
320,192,258105,1,0,0:0:0:0:
64,192,258172,128,0,258338:0:0:0:0:
448,192,258172,1,0,0:0:0:0:
192,192,258255,128,0,258422:0:0:0:0:
320,192,258338,128,0,258505:0:0:0:0:
448,192,258422,128,0,258505:0:0:0:0:
64,192,258505,128,0,259505:0:0:0:0:
192,192,258505,1,0,0:0:0:0:
448,192,258838,1,0,0:0:0:0:
320,192,259172,1,0,0:0:0:0:
320,192,259338,1,0,0:0:0:0:
448,192,259505,128,0,259672:0:0:0:0:
192,192,259672,128,0,259838:0:0:0:0:
64,192,259838,128,0,259922:0:0:0:0:
448,192,259922,128,0,260005:0:0:0:0:
320,192,260005,128,0,260172:0:0:0:0:
64,192,260172,128,0,260255:0:0:0:0:
448,192,260255,128,0,260338:0:0:0:0:
192,192,260338,128,0,260505:0:0:0:0:
448,192,260505,128,0,260588:0:0:0:0:
64,192,260588,128,0,260672:0:0:0:0:
320,192,260672,128,0,260838:0:0:0:0:
192,192,260838,128,0,260922:0:0:0:0:
448,192,260922,128,0,261005:0:0:0:0:
64,192,261005,128,0,261172:0:0:0:0:
192,192,261172,128,0,262505:0:0:0:0:
448,192,261505,1,0,0:0:0:0:
320,192,261672,1,0,0:0:0:0:
64,192,261838,1,0,0:0:0:0:
320,192,262005,1,0,0:0:0:0:
448,192,262338,128,0,263838:0:0:0:0:
320,192,262672,1,0,0:0:0:0:
64,192,262838,1,0,0:0:0:0:
192,192,263005,1,0,0:0:0:0:
320,192,263172,1,0,0:0:0:0:
192,192,263338,1,0,0:0:0:0:
64,192,263672,128,0,265505:0:0:0:0:
192,192,263838,1,0,0:0:0:0:
320,192,264172,1,0,0:0:0:0:
448,192,264338,1,0,0:0:0:0:
192,192,264505,1,0,0:0:0:0:
320,192,264672,1,0,0:0:0:0:
192,192,264838,1,0,0:0:0:0:
448,192,265005,1,0,0:0:0:0:
320,192,265338,1,0,0:0:0:0:
320,192,265505,128,0,265838:0:0:0:0:
64,192,265672,1,0,0:0:0:0:
192,192,265838,128,0,266172:0:0:0:0:
320,192,266005,1,0,0:0:0:0:
448,192,266172,128,0,266422:0:0:0:0:
64,192,266338,1,0,0:0:0:0:
448,192,266505,128,0,267505:0:0:0:0:
192,192,266838,1,0,0:0:0:0:
192,192,267005,1,0,0:0:0:0:
64,192,267172,1,0,0:0:0:0:
320,192,267338,1,0,0:0:0:0:
64,192,267505,128,0,267672:0:0:0:0:
320,192,267672,128,0,267838:0:0:0:0:
192,192,267838,128,0,267922:0:0:0:0:
448,192,267922,128,0,268005:0:0:0:0:
64,192,268005,128,0,268172:0:0:0:0:
320,192,268172,128,0,268255:0:0:0:0:
448,192,268255,128,0,268338:0:0:0:0:
192,192,268338,128,0,268505:0:0:0:0:
64,192,268505,128,0,268588:0:0:0:0:
448,192,268588,128,0,268672:0:0:0:0:
320,192,268672,128,0,269172:0:0:0:0:
64,192,268838,1,0,0:0:0:0:
448,192,269005,128,0,269088:0:0:0:0:
64,192,269088,128,0,269172:0:0:0:0:
192,192,269172,128,0,270172:0:0:0:0:
320,192,269338,1,0,0:0:0:0:
448,192,269505,1,0,0:0:0:0:
320,192,269672,1,0,0:0:0:0:
64,192,269838,1,0,0:0:0:0:
320,192,270005,1,0,0:0:0:0:
64,192,270172,128,0,270338:0:0:0:0:
448,192,270338,128,0,270505:0:0:0:0:
192,192,270505,128,0,270588:0:0:0:0:
320,192,270588,128,0,270672:0:0:0:0:
64,192,270672,128,0,270838:0:0:0:0:
448,192,270838,128,0,270922:0:0:0:0:
192,192,270922,128,0,271005:0:0:0:0:
320,192,271005,128,0,271172:0:0:0:0:
64,192,271172,128,0,271255:0:0:0:0:
448,192,271255,128,0,271338:0:0:0:0:
192,192,271338,128,0,271505:0:0:0:0:
320,192,271505,128,0,271588:0:0:0:0:
64,192,271588,128,0,271672:0:0:0:0:
448,192,271672,128,0,271838:0:0:0:0:
320,192,271838,128,0,273005:0:0:0:0:
448,192,272172,1,0,0:0:0:0:
64,192,272338,1,0,0:0:0:0:
192,192,272505,1,0,0:0:0:0:
64,192,272672,1,0,0:0:0:0:
448,192,272838,1,0,0:0:0:0:
192,192,273005,128,0,274172:0:0:0:0:
64,192,273338,1,0,0:0:0:0:
320,192,273505,1,0,0:0:0:0:
448,192,273672,1,0,0:0:0:0:
320,192,273838,1,0,0:0:0:0:
64,192,274005,1,0,0:0:0:0:
448,192,274172,128,0,274505:0:0:0:0:
320,192,274505,128,0,275505:0:0:0:0:
192,192,274672,1,0,0:0:0:0:
64,192,274838,1,0,0:0:0:0:
192,192,275005,1,0,0:0:0:0:
448,192,275172,1,0,0:0:0:0:
64,192,275338,1,0,0:0:0:0:
64,192,275505,128,0,275672:0:0:0:0:
448,192,275672,128,0,275838:0:0:0:0:
192,192,275838,128,0,275922:0:0:0:0:
320,192,275922,128,0,276005:0:0:0:0:
64,192,276005,128,0,276172:0:0:0:0:
448,192,276172,128,0,276255:0:0:0:0:
192,192,276255,128,0,276338:0:0:0:0:
320,192,276338,128,0,276505:0:0:0:0:
64,192,276505,128,0,276588:0:0:0:0:
448,192,276588,128,0,276672:0:0:0:0:
192,192,276672,128,0,276838:0:0:0:0:
320,192,276838,128,0,276922:0:0:0:0:
64,192,276922,128,0,277005:0:0:0:0:
448,192,277005,128,0,277172:0:0:0:0:
192,192,277172,128,0,278172:0:0:0:0:
448,192,277505,1,0,0:0:0:0:
448,192,277672,1,0,0:0:0:0:
320,192,277838,1,0,0:0:0:0:
448,192,278172,128,0,278338:0:0:0:0:
320,192,278338,128,0,278505:0:0:0:0:
64,192,278505,128,0,278588:0:0:0:0:
448,192,278588,128,0,278672:0:0:0:0:
192,192,278672,128,0,278838:0:0:0:0:
448,192,278838,128,0,278922:0:0:0:0:
320,192,278922,128,0,279005:0:0:0:0:
64,192,279005,128,0,279172:0:0:0:0:
448,192,279172,128,0,279255:0:0:0:0:
192,192,279255,128,0,279338:0:0:0:0:
320,192,279338,128,0,279505:0:0:0:0:
64,192,279505,128,0,279672:0:0:0:0:
192,192,279588,128,0,279755:0:0:0:0:
320,192,279672,128,0,279755:0:0:0:0:
448,192,279755,128,0,279838:0:0:0:0:
64,192,279838,128,0,280005:0:0:0:0:
192,192,279838,128,0,280005:0:0:0:0:
320,192,279838,1,0,0:0:0:0:
448,192,280005,128,0,280088:0:0:0:0:
320,192,280088,128,0,280172:0:0:0:0:
448,192,280172,128,0,280338:0:0:0:0:
64,192,280172,128,0,280338:0:0:0:0:
192,192,280338,128,0,280422:0:0:0:0:
64,192,280422,128,0,280505:0:0:0:0:
192,192,280505,128,0,280672:0:0:0:0:
448,192,280505,128,0,280672:0:0:0:0:
320,192,280672,128,0,280755:0:0:0:0:
192,192,280755,128,0,280838:0:0:0:0:
64,192,280838,128,0,281005:0:0:0:0:
448,192,280838,128,0,281005:0:0:0:0:
320,192,281005,128,0,281088:0:0:0:0:
192,192,281005,128,0,281088:0:0:0:0:
448,192,281088,128,0,281172:0:0:0:0:
64,192,281088,128,0,281172:0:0:0:0:
192,192,281172,128,0,281338:0:0:0:0:
320,192,281172,128,0,281338:0:0:0:0:
64,192,281338,128,0,281422:0:0:0:0:
192,192,281422,128,0,281505:0:0:0:0:
64,192,281505,128,0,281672:0:0:0:0:
448,192,281505,128,0,281672:0:0:0:0:
192,192,281672,128,0,281755:0:0:0:0:
320,192,281755,128,0,281838:0:0:0:0:
192,192,281838,128,0,282005:0:0:0:0:
448,192,281838,128,0,282005:0:0:0:0:
64,192,282005,128,0,282088:0:0:0:0:
192,192,282088,128,0,282171:0:0:0:0:
320,192,282171,128,0,282338:0:0:0:0:
448,192,282171,128,0,282338:0:0:0:0:
64,192,282338,128,0,282505:0:0:0:0:
192,192,282338,128,0,282421:0:0:0:0:
320,192,282421,128,0,282505:0:0:0:0:
448,192,282505,128,0,282671:0:0:0:0:
192,192,282505,128,0,282671:0:0:0:0:
320,192,282671,128,0,282755:0:0:0:0:
448,192,282755,128,0,282838:0:0:0:0:
320,192,282838,128,0,283005:0:0:0:0:
64,192,282838,128,0,283005:0:0:0:0:
192,192,283005,128,0,283088:0:0:0:0:
64,192,283088,128,0,283171:0:0:0:0:
192,192,283171,128,0,283338:0:0:0:0:
448,192,283171,128,0,283338:0:0:0:0:
320,192,283338,128,0,283421:0:0:0:0:
192,192,283421,128,0,283505:0:0:0:0:
320,192,283505,128,0,283671:0:0:0:0:
448,192,283505,128,0,283671:0:0:0:0:
192,192,283671,128,0,283755:0:0:0:0:
64,192,283755,128,0,283838:0:0:0:0:
192,192,283838,128,0,284005:0:0:0:0:
320,192,283838,128,0,284005:0:0:0:0:
448,192,284005,128,0,284088:0:0:0:0:
320,192,284088,128,0,284171:0:0:0:0:
448,192,284171,128,0,284338:0:0:0:0:
192,192,284171,128,0,284338:0:0:0:0:
64,192,284338,128,0,284421:0:0:0:0:
192,192,284421,128,0,284505:0:0:0:0:
64,192,284505,128,0,284671:0:0:0:0:
320,192,284505,128,0,284671:0:0:0:0:
448,192,284671,128,0,284755:0:0:0:0:
320,192,284755,128,0,284838:0:0:0:0:
448,192,284838,128,0,285005:0:0:0:0:
64,192,284838,128,0,285005:0:0:0:0:
320,192,284921,128,0,285005:0:0:0:0:
192,192,285005,128,0,285171:0:0:0:0:
64,192,285088,128,0,285171:0:0:0:0:
448,192,285171,128,0,285338:0:0:0:0:
320,192,285171,128,0,285338:0:0:0:0:
64,192,285338,128,0,285421:0:0:0:0:
192,192,285421,128,0,285505:0:0:0:0:
64,192,285505,128,0,285671:0:0:0:0:
448,192,285505,128,0,285671:0:0:0:0:
320,192,285671,128,0,285755:0:0:0:0:
192,192,285755,128,0,285838:0:0:0:0:
320,192,285838,128,0,286005:0:0:0:0:
448,192,285838,128,0,286005:0:0:0:0:
64,192,286005,128,0,286088:0:0:0:0:
192,192,286088,128,0,286171:0:0:0:0:
64,192,286171,128,0,286338:0:0:0:0:
448,192,286171,128,0,286338:0:0:0:0:
192,192,286255,128,0,286338:0:0:0:0:
320,192,286338,128,0,286505:0:0:0:0:
192,192,286421,128,0,286505:0:0:0:0:
448,192,286505,128,0,286671:0:0:0:0:
64,192,286505,128,0,286671:0:0:0:0:
320,192,286671,128,0,286755:0:0:0:0:
448,192,286755,128,0,286838:0:0:0:0:
320,192,286838,128,0,287005:0:0:0:0:
64,192,286838,128,0,287005:0:0:0:0:
192,192,287005,128,0,287088:0:0:0:0:
64,192,287088,128,0,287171:0:0:0:0:
192,192,287171,128,0,287338:0:0:0:0:
320,192,287171,128,0,287338:0:0:0:0:
448,192,287338,128,0,287421:0:0:0:0:
320,192,287421,128,0,287505:0:0:0:0:
448,192,287505,128,0,287671:0:0:0:0:
64,192,287505,128,0,287671:0:0:0:0:
320,192,287588,128,0,287671:0:0:0:0:
192,192,287671,128,0,287838:0:0:0:0:
64,192,287755,128,0,287838:0:0:0:0:
448,192,287838,128,0,288005:0:0:0:0:
320,192,287838,128,0,288005:0:0:0:0:
64,192,288005,128,0,288088:0:0:0:0:
192,192,288088,128,0,288171:0:0:0:0:
64,192,288171,128,0,288338:0:0:0:0:
448,192,288171,128,0,288338:0:0:0:0:
192,192,288338,128,0,288421:0:0:0:0:
320,192,288421,128,0,288505:0:0:0:0:
192,192,288505,128,0,288671:0:0:0:0:
448,192,288505,128,0,288671:0:0:0:0:
320,192,288671,128,0,288755:0:0:0:0:
448,192,288755,128,0,288838:0:0:0:0:
320,192,288838,128,0,289005:0:0:0:0:
64,192,288838,128,0,289005:0:0:0:0:
192,192,288921,128,0,289005:0:0:0:0:
448,192,289005,128,0,289171:0:0:0:0:
320,192,289088,128,0,289171:0:0:0:0:
64,192,289171,128,0,289338:0:0:0:0:
192,192,289171,128,0,289338:0:0:0:0:
320,192,289338,128,0,289421:0:0:0:0:
192,192,289421,128,0,289505:0:0:0:0:
320,192,289505,128,0,289671:0:0:0:0:
448,192,289505,128,0,289671:0:0:0:0:
64,192,289671,128,0,289755:0:0:0:0:
192,192,289755,128,0,289838:0:0:0:0:
64,192,289838,128,0,290005:0:0:0:0:
448,192,289838,128,0,290005:0:0:0:0:
320,192,290005,128,0,290088:0:0:0:0:
192,192,290088,128,0,290171:0:0:0:0:
320,192,290171,128,0,290338:0:0:0:0:
448,192,290171,128,0,290338:0:0:0:0:
64,192,290255,128,0,290338:0:0:0:0:
192,192,290338,128,0,290505:0:0:0:0:
64,192,290421,128,0,290505:0:0:0:0:
448,192,290505,1,0,0:0:0:0:
320,192,290505,1,0,0:0:0:0:
448,192,290671,1,0,0:0:0:0:
448,192,290838,1,0,0:0:0:0:
64,192,290838,128,0,290921:0:0:0:0:
448,192,291005,1,0,0:0:0:0:
448,192,291171,1,0,0:0:0:0:
192,192,291171,128,0,291255:0:0:0:0:
448,192,291338,1,0,0:0:0:0:
448,192,291505,1,0,0:0:0:0:
64,192,291505,128,0,291671:0:0:0:0:
448,192,291671,1,0,0:0:0:0:
192,192,291671,128,0,291755:0:0:0:0:
64,192,291755,128,0,291838:0:0:0:0:
448,192,291838,1,0,0:0:0:0:
192,192,291838,128,0,291921:0:0:0:0:
448,192,292005,1,0,0:0:0:0:
448,192,292171,1,0,0:0:0:0:
64,192,292171,128,0,292255:0:0:0:0:
448,192,292338,1,0,0:0:0:0:
448,192,292505,1,0,0:0:0:0:
192,192,292505,128,0,292588:0:0:0:0:
448,192,292671,1,0,0:0:0:0:
448,192,292838,1,0,0:0:0:0:
64,192,292838,128,0,293005:0:0:0:0:
192,192,293005,128,0,293088:0:0:0:0:
448,192,293005,1,0,0:0:0:0:
320,192,293088,128,0,293171:0:0:0:0:
448,192,293171,128,0,293255:0:0:0:0:
64,192,293171,1,0,0:0:0:0:
64,192,293338,1,0,0:0:0:0:
64,192,293505,1,0,0:0:0:0:
448,192,293505,128,0,293588:0:0:0:0:
64,192,293671,1,0,0:0:0:0:
64,192,293838,1,0,0:0:0:0:
320,192,293838,128,0,293921:0:0:0:0:
64,192,294005,1,0,0:0:0:0:
64,192,294171,1,0,0:0:0:0:
320,192,294171,128,0,294255:0:0:0:0:
64,192,294338,1,0,0:0:0:0:
64,192,294505,1,0,0:0:0:0:
448,192,294505,128,0,294588:0:0:0:0:
64,192,294671,1,0,0:0:0:0:
64,192,294838,1,0,0:0:0:0:
448,192,294838,128,0,294921:0:0:0:0:
64,192,295005,1,0,0:0:0:0:
64,192,295171,1,0,0:0:0:0:
320,192,295171,128,0,295255:0:0:0:0:
64,192,295338,1,0,0:0:0:0:
64,192,295505,1,0,0:0:0:0:
448,192,295505,128,0,295671:0:0:0:0:
64,192,295671,1,0,0:0:0:0:
320,192,295671,128,0,295838:0:0:0:0:
448,192,295838,128,0,296005:0:0:0:0:
64,192,295838,1,0,0:0:0:0:
192,192,295921,1,0,0:0:0:0:
320,192,296005,1,0,0:0:0:0:
64,192,296005,1,0,0:0:0:0:
448,192,296088,1,0,0:0:0:0:
192,192,296171,128,0,296338:0:0:0:0:
64,192,296171,1,0,0:0:0:0:
320,192,296255,1,0,0:0:0:0:
448,192,296338,1,0,0:0:0:0:
64,192,296338,1,0,0:0:0:0:
192,192,296421,1,0,0:0:0:0:
320,192,296505,128,0,296671:0:0:0:0:
448,192,296505,1,0,0:0:0:0:
64,192,296588,1,0,0:0:0:0:
192,192,296671,1,0,0:0:0:0:
448,192,296671,1,0,0:0:0:0:
320,192,296755,1,0,0:0:0:0:
64,192,296838,128,0,296921:0:0:0:0:
192,192,296838,128,0,297005:0:0:0:0:
448,192,296921,128,0,297005:0:0:0:0:
320,192,297005,128,0,297171:0:0:0:0:
64,192,297005,128,0,297088:0:0:0:0:
192,192,297088,128,0,297171:0:0:0:0:
64,192,297171,128,0,297338:0:0:0:0:
448,192,297171,128,0,297255:0:0:0:0:
320,192,297255,128,0,297421:0:0:0:0:
448,192,297338,1,0,0:0:0:0:
192,192,297338,128,0,297421:0:0:0:0:
64,192,297421,1,0,0:0:0:0:
320,192,297505,128,0,297671:0:0:0:0:
448,192,297505,128,0,297588:0:0:0:0:
192,192,297588,128,0,297755:0:0:0:0:
448,192,297671,1,0,0:0:0:0:
64,192,297671,128,0,297755:0:0:0:0:
320,192,297755,1,0,0:0:0:0:
192,192,297838,128,0,298005:0:0:0:0:
64,192,297838,128,0,297921:0:0:0:0:
448,192,297921,128,0,298088:0:0:0:0:
64,192,298005,1,0,0:0:0:0:
320,192,298005,128,0,298088:0:0:0:0:
192,192,298088,1,0,0:0:0:0:
320,192,298171,128,0,298338:0:0:0:0:
448,192,298171,128,0,298255:0:0:0:0:
64,192,298255,128,0,298338:0:0:0:0:
192,192,298338,128,0,298505:0:0:0:0:
448,192,298338,128,0,298421:0:0:0:0:
320,192,298421,128,0,298505:0:0:0:0:
448,192,298505,1,0,0:0:0:0:
64,192,298505,1,0,0:0:0:0:
192,192,298546,1,0,0:0:0:0:
320,192,298588,1,0,0:0:0:0:
448,192,298630,1,0,0:0:0:0:
192,192,298671,1,0,0:0:0:0:
64,192,298713,1,0,0:0:0:0:
320,192,298755,1,0,0:0:0:0:
448,192,298796,1,0,0:0:0:0:
192,192,298838,1,0,0:0:0:0:
64,192,298880,1,0,0:0:0:0:
448,192,298921,1,0,0:0:0:0:
320,192,298963,1,0,0:0:0:0:
192,192,299005,1,0,0:0:0:0:
64,192,299046,1,0,0:0:0:0:
320,192,299088,1,0,0:0:0:0:
448,192,299130,1,0,0:0:0:0:
192,192,299171,1,0,0:0:0:0:
64,192,299213,1,0,0:0:0:0:
320,192,299255,1,0,0:0:0:0:
448,192,299296,1,0,0:0:0:0:
64,192,299338,1,0,0:0:0:0:
192,192,299380,1,0,0:0:0:0:
320,192,299421,1,0,0:0:0:0:
448,192,299463,1,0,0:0:0:0:
192,192,299505,1,0,0:0:0:0:
64,192,299546,1,0,0:0:0:0:
320,192,299588,1,0,0:0:0:0:
448,192,299630,1,0,0:0:0:0:
192,192,299671,1,0,0:0:0:0:
64,192,299713,1,0,0:0:0:0:
448,192,299755,1,0,0:0:0:0:
320,192,299796,1,0,0:0:0:0:
192,192,299838,1,0,0:0:0:0:
64,192,299880,1,0,0:0:0:0:
320,192,299921,1,0,0:0:0:0:
448,192,299963,1,0,0:0:0:0:
192,192,300005,1,0,0:0:0:0:
64,192,300046,1,0,0:0:0:0:
320,192,300088,1,0,0:0:0:0:
448,192,300130,1,0,0:0:0:0:
192,192,300171,1,0,0:0:0:0:
64,192,300213,1,0,0:0:0:0:
320,192,300255,1,0,0:0:0:0:
448,192,300296,1,0,0:0:0:0:
192,192,300338,1,0,0:0:0:0:
64,192,300380,1,0,0:0:0:0:
320,192,300421,1,0,0:0:0:0:
448,192,300463,1,0,0:0:0:0:
192,192,300505,1,0,0:0:0:0:
64,192,300505,1,0,0:0:0:0:
448,192,300838,128,0,301005:0:0:0:0:
64,192,300838,128,0,300921:0:0:0:0:
192,192,300921,128,0,301005:0:0:0:0:
320,192,301005,128,0,301088:0:0:0:0:
448,192,301088,128,0,301171:0:0:0:0:
64,192,301171,128,0,301338:0:0:0:0:
192,192,301171,128,0,301338:0:0:0:0:
320,192,301171,1,0,0:0:0:0:
448,192,301255,128,0,301338:0:0:0:0:
320,192,301338,128,0,301421:0:0:0:0:
64,192,301421,128,0,301505:0:0:0:0:
448,192,301505,128,0,301671:0:0:0:0:
320,192,301505,128,0,301671:0:0:0:0:
192,192,301505,1,0,0:0:0:0:
64,192,301588,128,0,301671:0:0:0:0:
192,192,301671,128,0,301755:0:0:0:0:
448,192,301755,128,0,301838:0:0:0:0:
192,192,301838,128,0,302005:0:0:0:0:
64,192,301838,128,0,302005:0:0:0:0:
320,192,301838,1,0,0:0:0:0:
448,192,301921,128,0,302005:0:0:0:0:
320,192,302005,128,0,302088:0:0:0:0:
64,192,302088,128,0,302171:0:0:0:0:
320,192,302171,128,0,302338:0:0:0:0:
448,192,302171,128,0,302255:0:0:0:0:
192,192,302171,1,0,0:0:0:0:
64,192,302255,128,0,302338:0:0:0:0:
448,192,302338,128,0,302421:0:0:0:0:
192,192,302338,128,0,302421:0:0:0:0:
320,192,302421,128,0,302505:0:0:0:0:
64,192,302421,128,0,302505:0:0:0:0:
192,192,302505,128,0,302671:0:0:0:0:
448,192,302505,128,0,302671:0:0:0:0:
320,192,302588,128,0,302671:0:0:0:0:
64,192,302671,128,0,302755:0:0:0:0:
192,192,302755,128,0,302838:0:0:0:0:
64,192,302838,128,0,303005:0:0:0:0:
320,192,302838,128,0,303005:0:0:0:0:
448,192,302838,1,0,0:0:0:0:
192,192,302921,128,0,303005:0:0:0:0:
448,192,303005,128,0,303088:0:0:0:0:
320,192,303088,128,0,303171:0:0:0:0:
192,192,303171,128,0,303338:0:0:0:0:
448,192,303171,128,0,303338:0:0:0:0:
64,192,303171,1,0,0:0:0:0:
320,192,303255,128,0,303338:0:0:0:0:
64,192,303338,128,0,303421:0:0:0:0:
448,192,303421,128,0,303505:0:0:0:0:
192,192,303505,128,0,303671:0:0:0:0:
64,192,303505,128,0,303588:0:0:0:0:
320,192,303505,1,0,0:0:0:0:
448,192,303588,128,0,303671:0:0:0:0:
64,192,303671,128,0,303755:0:0:0:0:
320,192,303671,128,0,303755:0:0:0:0:
192,192,303755,128,0,303838:0:0:0:0:
448,192,303755,128,0,303838:0:0:0:0:
64,192,303838,128,0,303921:0:0:0:0:
320,192,303838,128,0,304005:0:0:0:0:
192,192,303921,128,0,304088:0:0:0:0:
64,192,304005,128,0,304088:0:0:0:0:
448,192,304005,128,0,304088:0:0:0:0:
320,192,304088,128,0,304171:0:0:0:0:
448,192,304171,128,0,304255:0:0:0:0:
192,192,304171,128,0,304338:0:0:0:0:
64,192,304171,1,0,0:0:0:0:
320,192,304255,128,0,304421:0:0:0:0:
448,192,304338,128,0,304421:0:0:0:0:
64,192,304338,128,0,304421:0:0:0:0:
192,192,304421,128,0,304505:0:0:0:0:
64,192,304505,128,0,304588:0:0:0:0:
320,192,304505,128,0,304671:0:0:0:0:
448,192,304505,1,0,0:0:0:0:
192,192,304588,128,0,304755:0:0:0:0:
448,192,304671,128,0,304755:0:0:0:0:
64,192,304671,128,0,304755:0:0:0:0:
320,192,304755,128,0,304838:0:0:0:0:
192,192,304838,128,0,305005:0:0:0:0:
448,192,304838,128,0,304921:0:0:0:0:
64,192,304838,1,0,0:0:0:0:
320,192,304921,128,0,305088:0:0:0:0:
64,192,305005,128,0,305088:0:0:0:0:
448,192,305005,128,0,305088:0:0:0:0:
192,192,305088,128,0,305171:0:0:0:0:
64,192,305171,128,0,305338:0:0:0:0:
320,192,305171,128,0,305255:0:0:0:0:
448,192,305171,1,0,0:0:0:0:
192,192,305255,128,0,305421:0:0:0:0:
448,192,305338,128,0,305421:0:0:0:0:
64,192,305421,128,0,305505:0:0:0:0:
448,192,305505,128,0,305671:0:0:0:0:
320,192,305505,128,0,305588:0:0:0:0:
192,192,305505,1,0,0:0:0:0:
64,192,305588,128,0,305755:0:0:0:0:
192,192,305671,128,0,305755:0:0:0:0:
320,192,305755,128,0,305838:0:0:0:0:
192,192,305838,128,0,305921:0:0:0:0:
64,192,305838,128,0,305921:0:0:0:0:
448,192,305838,128,0,305921:0:0:0:0:
320,192,305921,128,0,306005:0:0:0:0:
448,192,306005,128,0,306088:0:0:0:0:
192,192,306005,128,0,306088:0:0:0:0:
64,192,306005,128,0,306088:0:0:0:0:
320,192,306171,128,0,306338:0:0:0:0:
64,192,306338,128,0,306505:0:0:0:0:
192,192,306338,1,0,0:0:0:0:
448,192,306338,1,0,0:0:0:0:
320,192,306505,128,0,306671:0:0:0:0:
448,192,306505,128,0,306671:0:0:0:0:
192,192,306505,1,0,0:0:0:0:
64,192,306588,128,0,306671:0:0:0:0:
192,192,306671,128,0,306755:0:0:0:0:
64,192,306755,128,0,306838:0:0:0:0:
192,192,306838,128,0,307005:0:0:0:0:
448,192,306838,128,0,307005:0:0:0:0:
320,192,306838,1,0,0:0:0:0:
64,192,306921,128,0,307005:0:0:0:0:
320,192,307005,128,0,307088:0:0:0:0:
192,192,307088,128,0,307171:0:0:0:0:
64,192,307171,128,0,307338:0:0:0:0:
448,192,307171,128,0,307338:0:0:0:0:
320,192,307171,1,0,0:0:0:0:
192,192,307255,128,0,307338:0:0:0:0:
320,192,307338,128,0,307421:0:0:0:0:
192,192,307421,128,0,307505:0:0:0:0:
64,192,307505,128,0,307755:0:0:0:0:
448,192,307505,128,0,307588:0:0:0:0:
320,192,307505,128,0,307588:0:0:0:0:
320,192,307671,128,0,307755:0:0:0:0:
192,192,307671,128,0,307755:0:0:0:0:
448,192,307671,128,0,307838:0:0:0:0:
192,192,307838,128,0,308005:0:0:0:0:
64,192,307838,128,0,308005:0:0:0:0:
320,192,307838,1,0,0:0:0:0:
448,192,307921,128,0,308005:0:0:0:0:
320,192,308005,128,0,308088:0:0:0:0:
448,192,308088,128,0,308171:0:0:0:0:
320,192,308171,128,0,308338:0:0:0:0:
64,192,308171,128,0,308338:0:0:0:0:
192,192,308171,1,0,0:0:0:0:
448,192,308255,128,0,308338:0:0:0:0:
192,192,308338,128,0,308421:0:0:0:0:
320,192,308421,128,0,308505:0:0:0:0:
448,192,308505,128,0,308671:0:0:0:0:
64,192,308505,128,0,308671:0:0:0:0:
192,192,308505,1,0,0:0:0:0:
320,192,308588,128,0,308671:0:0:0:0:
192,192,308671,128,0,308755:0:0:0:0:
320,192,308755,128,0,308838:0:0:0:0:
448,192,308838,128,0,309088:0:0:0:0:
64,192,308838,128,0,308921:0:0:0:0:
192,192,308838,128,0,308921:0:0:0:0:
320,192,309005,128,0,309088:0:0:0:0:
64,192,309005,128,0,309171:0:0:0:0:
192,192,309171,128,0,309338:0:0:0:0:
320,192,309171,128,0,309338:0:0:0:0:
448,192,309171,1,0,0:0:0:0:
64,192,309255,128,0,309338:0:0:0:0:
448,192,309338,128,0,309421:0:0:0:0:
192,192,309421,128,0,309505:0:0:0:0:
320,192,309505,128,0,309671:0:0:0:0:
64,192,309505,128,0,309671:0:0:0:0:
448,192,309505,1,0,0:0:0:0:
192,192,309588,128,0,309671:0:0:0:0:
448,192,309671,128,0,309755:0:0:0:0:
320,192,309755,128,0,309838:0:0:0:0:
192,192,309838,128,0,310005:0:0:0:0:
448,192,309838,128,0,310005:0:0:0:0:
64,192,309838,1,0,0:0:0:0:
320,192,309921,128,0,310005:0:0:0:0:
64,192,310005,128,0,310088:0:0:0:0:
192,192,310088,128,0,310171:0:0:0:0:
64,192,310171,128,0,310421:0:0:0:0:
320,192,310171,128,0,310255:0:0:0:0:
448,192,310171,128,0,310255:0:0:0:0:
192,192,310338,128,0,310505:0:0:0:0:
448,192,310338,128,0,310421:0:0:0:0:
448,192,310505,128,0,310671:0:0:0:0:
320,192,310505,128,0,310588:0:0:0:0:
64,192,310505,1,0,0:0:0:0:
192,192,310588,128,0,310671:0:0:0:0:
64,192,310671,128,0,310755:0:0:0:0:
320,192,310755,128,0,310838:0:0:0:0:
64,192,310838,128,0,311005:0:0:0:0:
192,192,310838,128,0,310921:0:0:0:0:
320,192,310921,128,0,311005:0:0:0:0:
448,192,311005,128,0,311088:0:0:0:0:
192,192,311088,128,0,311171:0:0:0:0:
320,192,311171,128,0,311255:0:0:0:0:
448,192,311171,128,0,311338:0:0:0:0:
64,192,311255,128,0,311338:0:0:0:0:
192,192,311338,128,0,311421:0:0:0:0:
320,192,311421,128,0,311505:0:0:0:0:
64,192,311505,128,0,311671:0:0:0:0:
192,192,311505,128,0,311588:0:0:0:0:
448,192,311505,128,0,311588:0:0:0:0:
192,192,311671,1,0,0:0:0:0:
448,192,311671,1,0,0:0:0:0:
64,192,311838,128,0,312005:0:0:0:0:
192,192,311838,128,0,312005:0:0:0:0:
320,192,311838,1,0,0:0:0:0:
448,192,311921,128,0,312005:0:0:0:0:
320,192,312005,128,0,312088:0:0:0:0:
64,192,312088,128,0,312171:0:0:0:0:
448,192,312171,128,0,312338:0:0:0:0:
320,192,312171,128,0,312338:0:0:0:0:
192,192,312171,1,0,0:0:0:0:
64,192,312255,128,0,312338:0:0:0:0:
192,192,312338,128,0,312421:0:0:0:0:
448,192,312421,128,0,312505:0:0:0:0:
192,192,312505,128,0,312671:0:0:0:0:
64,192,312505,128,0,312671:0:0:0:0:
320,192,312505,1,0,0:0:0:0:
448,192,312588,128,0,312671:0:0:0:0:
320,192,312671,128,0,312755:0:0:0:0:
64,192,312755,128,0,312838:0:0:0:0:
320,192,312838,128,0,313005:0:0:0:0:
448,192,312838,128,0,312921:0:0:0:0:
192,192,312838,1,0,0:0:0:0:
64,192,312921,128,0,313005:0:0:0:0:
448,192,313005,128,0,313088:0:0:0:0:
192,192,313005,128,0,313088:0:0:0:0:
320,192,313088,128,0,313171:0:0:0:0:
64,192,313088,128,0,313171:0:0:0:0:
192,192,313171,128,0,313338:0:0:0:0:
448,192,313171,128,0,313338:0:0:0:0:
320,192,313255,128,0,313338:0:0:0:0:
64,192,313338,128,0,313421:0:0:0:0:
192,192,313421,128,0,313505:0:0:0:0:
64,192,313505,128,0,313671:0:0:0:0:
320,192,313505,128,0,313671:0:0:0:0:
448,192,313505,1,0,0:0:0:0:
192,192,313588,128,0,313671:0:0:0:0:
448,192,313671,128,0,313755:0:0:0:0:
320,192,313755,128,0,313838:0:0:0:0:
192,192,313838,128,0,314005:0:0:0:0:
448,192,313838,128,0,314005:0:0:0:0:
64,192,313838,1,0,0:0:0:0:
320,192,313921,128,0,314005:0:0:0:0:
64,192,314005,128,0,314088:0:0:0:0:
448,192,314088,128,0,314171:0:0:0:0:
192,192,314171,128,0,314338:0:0:0:0:
64,192,314171,128,0,314255:0:0:0:0:
320,192,314171,1,0,0:0:0:0:
448,192,314255,128,0,314338:0:0:0:0:
64,192,314338,128,0,314421:0:0:0:0:
320,192,314338,128,0,314421:0:0:0:0:
192,192,314421,128,0,314505:0:0:0:0:
448,192,314421,128,0,314505:0:0:0:0:
64,192,314505,128,0,314588:0:0:0:0:
320,192,314505,128,0,314671:0:0:0:0:
192,192,314588,128,0,314755:0:0:0:0:
64,192,314671,128,0,314755:0:0:0:0:
448,192,314671,128,0,314755:0:0:0:0:
320,192,314755,128,0,314838:0:0:0:0:
448,192,314838,128,0,314921:0:0:0:0:
192,192,314838,128,0,315005:0:0:0:0:
64,192,314838,1,0,0:0:0:0:
320,192,314921,128,0,315088:0:0:0:0:
448,192,315005,128,0,315088:0:0:0:0:
64,192,315005,128,0,315088:0:0:0:0:
192,192,315088,128,0,315171:0:0:0:0:
64,192,315171,128,0,315255:0:0:0:0:
320,192,315171,128,0,315338:0:0:0:0:
448,192,315171,1,0,0:0:0:0:
192,192,315255,128,0,315421:0:0:0:0:
448,192,315338,128,0,315421:0:0:0:0:
64,192,315338,128,0,315421:0:0:0:0:
320,192,315421,128,0,315505:0:0:0:0:
192,192,315505,128,0,315671:0:0:0:0:
448,192,315505,128,0,315588:0:0:0:0:
64,192,315505,1,0,0:0:0:0:
320,192,315588,128,0,315755:0:0:0:0:
64,192,315671,128,0,315755:0:0:0:0:
448,192,315671,128,0,315755:0:0:0:0:
192,192,315755,128,0,315838:0:0:0:0:
64,192,315838,128,0,316005:0:0:0:0:
320,192,315838,128,0,315921:0:0:0:0:
448,192,315838,1,0,0:0:0:0:
192,192,315921,128,0,316088:0:0:0:0:
448,192,316005,128,0,316088:0:0:0:0:
64,192,316088,128,0,316171:0:0:0:0:
448,192,316171,128,0,316338:0:0:0:0:
320,192,316171,128,0,316255:0:0:0:0:
192,192,316171,1,0,0:0:0:0:
64,192,316255,128,0,316421:0:0:0:0:
192,192,316338,128,0,316421:0:0:0:0:
320,192,316421,128,0,316505:0:0:0:0:
192,192,316505,128,0,316588:0:0:0:0:
64,192,316505,128,0,316588:0:0:0:0:
448,192,316505,128,0,316588:0:0:0:0:
320,192,316588,128,0,316671:0:0:0:0:
448,192,316671,128,0,316755:0:0:0:0:
192,192,316671,128,0,316755:0:0:0:0:
64,192,316671,128,0,316755:0:0:0:0:
320,192,316838,128,0,317005:0:0:0:0:
64,192,317005,128,0,317171:0:0:0:0:
192,192,317005,1,0,0:0:0:0:
448,192,317005,1,0,0:0:0:0:
320,192,317171,128,0,317338:0:0:0:0:
448,192,317171,128,0,317338:0:0:0:0:
192,192,317171,1,0,0:0:0:0:
64,192,317255,128,0,317338:0:0:0:0:
192,192,317338,128,0,317421:0:0:0:0:
64,192,317421,128,0,317505:0:0:0:0:
192,192,317505,128,0,317671:0:0:0:0:
448,192,317505,128,0,317671:0:0:0:0:
320,192,317505,1,0,0:0:0:0:
64,192,317588,128,0,317671:0:0:0:0:
320,192,317671,128,0,317755:0:0:0:0:
192,192,317755,128,0,317838:0:0:0:0:
64,192,317838,128,0,318005:0:0:0:0:
448,192,317838,128,0,318005:0:0:0:0:
320,192,317838,1,0,0:0:0:0:
192,192,317921,128,0,318005:0:0:0:0:
320,192,318005,128,0,318088:0:0:0:0:
192,192,318088,128,0,318171:0:0:0:0:
64,192,318171,128,0,318421:0:0:0:0:
448,192,318171,128,0,318255:0:0:0:0:
320,192,318171,128,0,318255:0:0:0:0:
320,192,318338,128,0,318421:0:0:0:0:
192,192,318338,128,0,318421:0:0:0:0:
448,192,318338,128,0,318505:0:0:0:0:
192,192,318505,128,0,318671:0:0:0:0:
64,192,318505,128,0,318671:0:0:0:0:
320,192,318505,1,0,0:0:0:0:
448,192,318588,128,0,318671:0:0:0:0:
320,192,318671,128,0,318755:0:0:0:0:
448,192,318755,128,0,318838:0:0:0:0:
320,192,318838,128,0,319005:0:0:0:0:
64,192,318838,128,0,319005:0:0:0:0:
192,192,318838,1,0,0:0:0:0:
448,192,318921,128,0,319005:0:0:0:0:
192,192,319005,128,0,319088:0:0:0:0:
320,192,319088,128,0,319171:0:0:0:0:
448,192,319171,128,0,319338:0:0:0:0:
64,192,319171,128,0,319338:0:0:0:0:
192,192,319171,1,0,0:0:0:0:
320,192,319255,128,0,319338:0:0:0:0:
192,192,319338,128,0,319421:0:0:0:0:
320,192,319421,128,0,319505:0:0:0:0:
448,192,319505,128,0,319755:0:0:0:0:
64,192,319505,128,0,319588:0:0:0:0:
192,192,319505,128,0,319588:0:0:0:0:
320,192,319671,128,0,319755:0:0:0:0:
64,192,319671,128,0,319838:0:0:0:0:
192,192,319838,128,0,320005:0:0:0:0:
320,192,319838,128,0,320005:0:0:0:0:
448,192,319838,1,0,0:0:0:0:
64,192,319921,128,0,320005:0:0:0:0:
448,192,320005,128,0,320088:0:0:0:0:
192,192,320088,128,0,320171:0:0:0:0:
320,192,320171,128,0,320338:0:0:0:0:
64,192,320171,128,0,320338:0:0:0:0:
448,192,320171,1,0,0:0:0:0:
192,192,320255,128,0,320338:0:0:0:0:
448,192,320338,128,0,320421:0:0:0:0:
320,192,320421,128,0,320505:0:0:0:0:
192,192,320505,128,0,320671:0:0:0:0:
448,192,320505,128,0,320671:0:0:0:0:
64,192,320505,1,0,0:0:0:0:
320,192,320588,128,0,320671:0:0:0:0:
64,192,320671,128,0,320755:0:0:0:0:
192,192,320755,128,0,320838:0:0:0:0:
64,192,320838,128,0,321005:0:0:0:0:
448,192,320838,128,0,320921:0:0:0:0:
320,192,320838,128,0,320921:0:0:0:0:
192,192,321005,128,0,321171:0:0:0:0:
448,192,321005,128,0,321088:0:0:0:0:
448,192,321171,128,0,321338:0:0:0:0:
320,192,321171,128,0,321255:0:0:0:0:
64,192,321171,1,0,0:0:0:0:
192,192,321255,128,0,321338:0:0:0:0:
64,192,321338,128,0,321421:0:0:0:0:
320,192,321421,128,0,321505:0:0:0:0:
64,192,321505,128,0,321671:0:0:0:0:
192,192,321505,128,0,321588:0:0:0:0:
320,192,321588,128,0,321671:0:0:0:0:
448,192,321671,128,0,321755:0:0:0:0:
192,192,321755,128,0,321838:0:0:0:0:
320,192,321838,1,0,0:0:0:0:
448,192,321838,1,0,0:0:0:0:
64,192,321838,1,0,0:0:0:0:
192,192,321921,1,0,0:0:0:0:
448,192,322005,1,0,0:0:0:0:
320,192,322088,1,0,0:0:0:0:
192,192,322088,1,0,0:0:0:0:
64,192,322171,128,0,322338:0:0:0:0:
448,192,322171,128,0,322338:0:0:0:0:
192,192,322255,128,0,322421:0:0:0:0:
320,192,322338,128,0,322421:0:0:0:0:
448,192,322421,128,0,322505:0:0:0:0:
64,192,322505,128,0,323338:0:0:0:0:
192,192,322505,128,0,322671:0:0:0:0:
320,192,322505,128,0,322588:0:0:0:0:
448,192,322588,128,0,322671:0:0:0:0:
320,192,322671,128,0,322755:0:0:0:0:
192,192,322755,128,0,322838:0:0:0:0:
448,192,322838,128,0,322921:0:0:0:0:
320,192,322838,128,0,323005:0:0:0:0:
192,192,322921,128,0,323005:0:0:0:0:
448,192,323005,128,0,323088:0:0:0:0:
320,192,323088,128,0,323171:0:0:0:0:
192,192,323171,128,0,323338:0:0:0:0:
448,192,323171,128,0,323255:0:0:0:0:
320,192,323255,128,0,323338:0:0:0:0:
448,192,323338,128,0,323671:0:0:0:0:
192,192,323421,128,0,323505:0:0:0:0:
64,192,323505,128,0,323588:0:0:0:0:
320,192,323505,128,0,323588:0:0:0:0:
192,192,323588,128,0,323671:0:0:0:0:
320,192,323671,128,0,323838:0:0:0:0:
64,192,323671,128,0,323755:0:0:0:0:
448,192,323755,128,0,323838:0:0:0:0:
64,192,323838,128,0,324005:0:0:0:0:
192,192,323838,128,0,323921:0:0:0:0:
320,192,323921,128,0,324005:0:0:0:0:
448,192,324005,128,0,324088:0:0:0:0:
192,192,324005,128,0,324171:0:0:0:0:
64,192,324088,128,0,324171:0:0:0:0:
448,192,324171,128,0,324338:0:0:0:0:
320,192,324171,128,0,324255:0:0:0:0:
192,192,324255,128,0,324338:0:0:0:0:
320,192,324338,128,0,324505:0:0:0:0:
64,192,324338,128,0,324421:0:0:0:0:
448,192,324421,128,0,324505:0:0:0:0:
64,192,324505,128,0,324671:0:0:0:0:
192,192,324505,128,0,324588:0:0:0:0:
320,192,324588,128,0,324671:0:0:0:0:
192,192,324671,128,0,324838:0:0:0:0:
448,192,324671,128,0,324755:0:0:0:0:
64,192,324755,128,0,324838:0:0:0:0:
448,192,324838,128,0,325005:0:0:0:0:
320,192,324838,128,0,324921:0:0:0:0:
192,192,324921,128,0,325005:0:0:0:0:
320,192,325005,128,0,326338:0:0:0:0:
448,192,325088,128,0,325171:0:0:0:0:
192,192,325171,128,0,325338:0:0:0:0:
64,192,325171,128,0,325255:0:0:0:0:
448,192,325255,128,0,325338:0:0:0:0:
64,192,325338,128,0,325421:0:0:0:0:
192,192,325421,128,0,325505:0:0:0:0:
448,192,325505,128,0,325588:0:0:0:0:
64,192,325505,128,0,325671:0:0:0:0:
192,192,325588,128,0,325671:0:0:0:0:
448,192,325671,128,0,325755:0:0:0:0:
64,192,325755,128,0,325838:0:0:0:0:
192,192,325838,128,0,325921:0:0:0:0:
448,192,325838,128,0,326005:0:0:0:0:
64,192,325921,128,0,326005:0:0:0:0:
192,192,326005,128,0,326088:0:0:0:0:
448,192,326088,128,0,326171:0:0:0:0:
64,192,326171,128,0,326338:0:0:0:0:
192,192,326171,128,0,326255:0:0:0:0:
448,192,326255,128,0,326338:0:0:0:0:
192,192,326338,128,0,327671:0:0:0:0:
320,192,326421,128,0,326505:0:0:0:0:
448,192,326505,128,0,326671:0:0:0:0:
64,192,326505,128,0,326588:0:0:0:0:
320,192,326588,128,0,326671:0:0:0:0:
64,192,326671,128,0,326755:0:0:0:0:
448,192,326755,128,0,326838:0:0:0:0:
64,192,326838,128,0,327005:0:0:0:0:
320,192,326838,128,0,326921:0:0:0:0:
448,192,326921,128,0,327005:0:0:0:0:
320,192,327005,128,0,327088:0:0:0:0:
64,192,327088,128,0,327171:0:0:0:0:
320,192,327171,128,0,327338:0:0:0:0:
448,192,327171,128,0,327255:0:0:0:0:
64,192,327255,128,0,327338:0:0:0:0:
448,192,327338,128,0,327421:0:0:0:0:
320,192,327421,128,0,327505:0:0:0:0:
64,192,327505,128,0,327588:0:0:0:0:
448,192,327505,128,0,327671:0:0:0:0:
320,192,327588,128,0,327671:0:0:0:0:
64,192,327671,128,0,329171:0:0:0:0:
448,192,327755,128,0,327838:0:0:0:0:
192,192,327838,128,0,328005:0:0:0:0:
320,192,327838,128,0,327921:0:0:0:0:
448,192,327921,128,0,328005:0:0:0:0:
320,192,328005,128,0,328088:0:0:0:0:
192,192,328088,128,0,328171:0:0:0:0:
448,192,328171,128,0,328338:0:0:0:0:
320,192,328171,128,0,328255:0:0:0:0:
192,192,328255,128,0,328338:0:0:0:0:
320,192,328338,128,0,328421:0:0:0:0:
448,192,328421,128,0,328505:0:0:0:0:
192,192,328505,128,0,328671:0:0:0:0:
320,192,328505,128,0,328588:0:0:0:0:
448,192,328588,128,0,328671:0:0:0:0:
320,192,328671,128,0,328755:0:0:0:0:
192,192,328755,128,0,328838:0:0:0:0:
448,192,328838,128,0,329005:0:0:0:0:
320,192,328838,128,0,328921:0:0:0:0:
192,192,328921,128,0,329005:0:0:0:0:
320,192,329005,128,0,329088:0:0:0:0:
448,192,329088,128,0,329171:0:0:0:0:
192,192,329171,128,0,329338:0:0:0:0:
320,192,329171,128,0,329255:0:0:0:0:
64,192,329255,128,0,329338:0:0:0:0:
448,192,329338,128,0,329421:0:0:0:0:
320,192,329421,128,0,329505:0:0:0:0:
64,192,329505,128,0,329838:0:0:0:0:
192,192,329505,128,0,329588:0:0:0:0:
448,192,329505,128,0,329671:0:0:0:0:
320,192,329588,128,0,329671:0:0:0:0:
192,192,329671,128,0,329755:0:0:0:0:
448,192,329755,128,0,329838:0:0:0:0:
192,192,329838,128,0,330171:0:0:0:0:
320,192,329838,128,0,330005:0:0:0:0:
64,192,329921,128,0,330005:0:0:0:0:
448,192,330005,128,0,330088:0:0:0:0:
64,192,330088,128,0,330171:0:0:0:0:
320,192,330171,128,0,330421:0:0:0:0:
448,192,330171,128,0,330338:0:0:0:0:
192,192,330255,128,0,330338:0:0:0:0:
64,192,330338,128,0,330421:0:0:0:0:
192,192,330421,128,0,330505:0:0:0:0:
320,192,330505,128,0,331505:0:0:0:0:
64,192,330505,128,0,330671:0:0:0:0:
448,192,330505,128,0,330588:0:0:0:0:
192,192,330588,128,0,330671:0:0:0:0:
448,192,330671,128,0,330755:0:0:0:0:
64,192,330755,128,0,330838:0:0:0:0:
448,192,330838,128,0,331005:0:0:0:0:
192,192,330838,128,0,330921:0:0:0:0:
64,192,330921,128,0,331005:0:0:0:0:
192,192,331005,128,0,331088:0:0:0:0:
448,192,331088,128,0,331171:0:0:0:0:
64,192,331171,128,0,331338:0:0:0:0:
192,192,331171,128,0,331255:0:0:0:0:
448,192,331255,128,0,331338:0:0:0:0:
192,192,331338,128,0,331421:0:0:0:0:
64,192,331421,128,0,331505:0:0:0:0:
448,192,331505,128,0,331671:0:0:0:0:
192,192,331505,128,0,331588:0:0:0:0:
64,192,331671,128,0,331838:0:0:0:0:
320,192,331671,128,0,331755:0:0:0:0:
192,192,331755,128,0,331838:0:0:0:0:
448,192,331838,128,0,332005:0:0:0:0:
320,192,331838,128,0,331921:0:0:0:0:
64,192,331921,128,0,332005:0:0:0:0:
192,192,332005,128,0,332088:0:0:0:0:
320,192,332005,128,0,332088:0:0:0:0:
64,192,332088,128,0,332171:0:0:0:0:
320,192,332171,128,0,332338:0:0:0:0:
192,192,332171,128,0,332255:0:0:0:0:
448,192,332255,128,0,332338:0:0:0:0:
192,192,332338,128,0,332421:0:0:0:0:
64,192,332338,128,0,332421:0:0:0:0:
320,192,332421,128,0,332505:0:0:0:0:
192,192,332505,128,0,332671:0:0:0:0:
64,192,332505,128,0,332588:0:0:0:0:
448,192,332588,128,0,332671:0:0:0:0:
320,192,332671,128,0,332755:0:0:0:0:
64,192,332671,128,0,332755:0:0:0:0:
448,192,332755,128,0,332838:0:0:0:0:
320,192,332838,128,0,332921:0:0:0:0:
192,192,332838,128,0,333005:0:0:0:0:
64,192,332921,128,0,333088:0:0:0:0:
448,192,333005,128,0,333088:0:0:0:0:
320,192,333088,128,0,333171:0:0:0:0:
448,192,333171,128,0,334171:0:0:0:0:
192,192,333171,128,0,333338:0:0:0:0:
64,192,333171,128,0,333255:0:0:0:0:
320,192,333255,128,0,333338:0:0:0:0:
64,192,333338,128,0,333421:0:0:0:0:
192,192,333421,128,0,333505:0:0:0:0:
64,192,333505,128,0,333671:0:0:0:0:
320,192,333505,128,0,333588:0:0:0:0:
192,192,333588,128,0,333671:0:0:0:0:
320,192,333671,128,0,333755:0:0:0:0:
64,192,333755,128,0,333838:0:0:0:0:
320,192,333838,128,0,334005:0:0:0:0:
192,192,333838,128,0,333921:0:0:0:0:
64,192,333921,128,0,334005:0:0:0:0:
192,192,334005,128,0,334088:0:0:0:0:
320,192,334088,128,0,334171:0:0:0:0:
64,192,334171,128,0,334338:0:0:0:0:
192,192,334171,128,0,334255:0:0:0:0:
320,192,334255,128,0,334338:0:0:0:0:
448,192,334338,128,0,334505:0:0:0:0:
192,192,334338,128,0,334421:0:0:0:0:
320,192,334421,128,0,334505:0:0:0:0:
64,192,334505,128,0,334671:0:0:0:0:
192,192,334505,128,0,334588:0:0:0:0:
320,192,334588,128,0,334671:0:0:0:0:
448,192,334671,128,0,334755:0:0:0:0:
192,192,334671,128,0,334838:0:0:0:0:
64,192,334755,128,0,334838:0:0:0:0:
448,192,334838,128,0,335005:0:0:0:0:
320,192,334838,128,0,334921:0:0:0:0:
192,192,334921,128,0,335005:0:0:0:0:
320,192,335005,128,0,335171:0:0:0:0:
64,192,335005,128,0,335088:0:0:0:0:
448,192,335088,128,0,335171:0:0:0:0:
64,192,335171,128,0,335338:0:0:0:0:
192,192,335171,128,0,335255:0:0:0:0:
320,192,335255,128,0,335338:0:0:0:0:
192,192,335338,128,0,335505:0:0:0:0:
448,192,335338,128,0,335421:0:0:0:0:
64,192,335421,128,0,335505:0:0:0:0:
320,192,335505,128,0,335671:0:0:0:0:
448,192,335505,128,0,335588:0:0:0:0:
192,192,335588,128,0,335755:0:0:0:0:
64,192,335671,128,0,335755:0:0:0:0:
448,192,335671,128,0,335755:0:0:0:0:
320,192,335755,128,0,335838:0:0:0:0:
64,192,335838,128,0,337005:0:0:0:0:
448,192,335838,128,0,336005:0:0:0:0:
192,192,335838,128,0,335921:0:0:0:0:
320,192,335921,128,0,336005:0:0:0:0:
192,192,336005,128,0,336088:0:0:0:0:
448,192,336088,128,0,336171:0:0:0:0:
192,192,336171,128,0,336338:0:0:0:0:
320,192,336171,128,0,336255:0:0:0:0:
448,192,336255,128,0,336338:0:0:0:0:
320,192,336338,128,0,336421:0:0:0:0:
192,192,336421,128,0,336505:0:0:0:0:
320,192,336505,128,0,336671:0:0:0:0:
448,192,336505,128,0,336588:0:0:0:0:
192,192,336588,128,0,336671:0:0:0:0:
448,192,336671,128,0,336755:0:0:0:0:
320,192,336755,128,0,336838:0:0:0:0:
192,192,336838,128,0,336921:0:0:0:0:
448,192,336838,128,0,337005:0:0:0:0:
320,192,336921,128,0,337005:0:0:0:0:
192,192,337005,128,0,338171:0:0:0:0:
448,192,337088,128,0,337171:0:0:0:0:
64,192,337171,128,0,337338:0:0:0:0:
320,192,337171,128,0,337255:0:0:0:0:
448,192,337255,128,0,337338:0:0:0:0:
320,192,337338,128,0,337421:0:0:0:0:
64,192,337421,128,0,337505:0:0:0:0:
320,192,337505,128,0,337671:0:0:0:0:
448,192,337505,128,0,337588:0:0:0:0:
64,192,337588,128,0,337671:0:0:0:0:
448,192,337671,128,0,337755:0:0:0:0:
320,192,337755,128,0,337838:0:0:0:0:
448,192,337838,128,0,338005:0:0:0:0:
64,192,337838,128,0,337921:0:0:0:0:
320,192,337921,128,0,338005:0:0:0:0:
64,192,338005,128,0,338088:0:0:0:0:
320,192,338088,128,0,338171:0:0:0:0:
448,192,338171,128,0,338505:0:0:0:0:
64,192,338171,128,0,338338:0:0:0:0:
192,192,338255,128,0,338421:0:0:0:0:
320,192,338338,128,0,338421:0:0:0:0:
192,192,338505,128,0,339505:0:0:0:0:
64,192,338505,128,0,338671:0:0:0:0:
320,192,338505,128,0,338588:0:0:0:0:
448,192,338588,128,0,338671:0:0:0:0:
320,192,338671,128,0,338755:0:0:0:0:
64,192,338755,128,0,338838:0:0:0:0:
320,192,338838,128,0,339005:0:0:0:0:
448,192,338838,128,0,338921:0:0:0:0:
64,192,338921,128,0,339005:0:0:0:0:
448,192,339005,128,0,339088:0:0:0:0:
320,192,339088,128,0,339171:0:0:0:0:
448,192,339171,128,0,339338:0:0:0:0:
64,192,339171,128,0,339255:0:0:0:0:
320,192,339255,128,0,339338:0:0:0:0:
64,192,339338,128,0,339421:0:0:0:0:
320,192,339421,128,0,339505:0:0:0:0:
448,192,339505,128,0,339588:0:0:0:0:
64,192,339505,128,0,339671:0:0:0:0:
320,192,339588,128,0,339671:0:0:0:0:
448,192,339671,128,0,339838:0:0:0:0:
192,192,339671,128,0,339755:0:0:0:0:
320,192,339755,128,0,339838:0:0:0:0:
64,192,339838,128,0,340005:0:0:0:0:
192,192,339838,128,0,339921:0:0:0:0:
448,192,339921,128,0,340005:0:0:0:0:
320,192,340005,128,0,340088:0:0:0:0:
192,192,340005,128,0,340088:0:0:0:0:
448,192,340088,128,0,340171:0:0:0:0:
192,192,340171,128,0,340338:0:0:0:0:
320,192,340171,128,0,340255:0:0:0:0:
64,192,340255,128,0,340338:0:0:0:0:
320,192,340338,128,0,340421:0:0:0:0:
448,192,340338,128,0,340421:0:0:0:0:
192,192,340421,128,0,340505:0:0:0:0:
320,192,340505,128,0,340671:0:0:0:0:
448,192,340505,128,0,340588:0:0:0:0:
64,192,340588,128,0,340671:0:0:0:0:
192,192,340671,128,0,340755:0:0:0:0:
448,192,340671,128,0,340755:0:0:0:0:
64,192,340755,128,0,340838:0:0:0:0:
192,192,340838,128,0,340921:0:0:0:0:
320,192,340838,128,0,341005:0:0:0:0:
448,192,340921,128,0,341088:0:0:0:0:
192,192,341005,128,0,341088:0:0:0:0:
64,192,341005,128,0,341088:0:0:0:0:
320,192,341088,128,0,341171:0:0:0:0:
64,192,341171,128,0,342171:0:0:0:0:
448,192,341171,128,0,341338:0:0:0:0:
192,192,341171,128,0,341255:0:0:0:0:
320,192,341255,128,0,341338:0:0:0:0:
192,192,341338,128,0,341421:0:0:0:0:
448,192,341421,128,0,341505:0:0:0:0:
192,192,341505,128,0,341671:0:0:0:0:
320,192,341505,128,0,341588:0:0:0:0:
448,192,341588,128,0,341671:0:0:0:0:
320,192,341671,128,0,341755:0:0:0:0:
192,192,341755,128,0,341838:0:0:0:0:
320,192,341838,128,0,342005:0:0:0:0:
448,192,341838,128,0,341921:0:0:0:0:
192,192,341921,128,0,342005:0:0:0:0:
448,192,342005,128,0,342088:0:0:0:0:
320,192,342088,128,0,342171:0:0:0:0:
448,192,342171,128,0,342338:0:0:0:0:
192,192,342171,128,0,342255:0:0:0:0:
320,192,342255,128,0,342338:0:0:0:0:
64,192,342338,128,0,342505:0:0:0:0:
192,192,342338,128,0,342421:0:0:0:0:
320,192,342421,128,0,342505:0:0:0:0:
192,192,342505,128,0,342588:0:0:0:0:
448,192,342505,128,0,342671:0:0:0:0:
64,192,342588,128,0,342671:0:0:0:0:
320,192,342671,128,0,342755:0:0:0:0:
192,192,342671,128,0,342755:0:0:0:0:
64,192,342755,128,0,342838:0:0:0:0:
192,192,342838,128,0,342921:0:0:0:0:
320,192,342838,128,0,343005:0:0:0:0:
448,192,342921,128,0,343005:0:0:0:0:
64,192,343005,128,0,343088:0:0:0:0:
192,192,343005,128,0,343088:0:0:0:0:
320,192,343088,128,0,343171:0:0:0:0:
64,192,343171,128,0,343255:0:0:0:0:
192,192,343171,128,0,343338:0:0:0:0:
448,192,343255,128,0,343338:0:0:0:0:
64,192,343338,128,0,343421:0:0:0:0:
320,192,343338,128,0,343421:0:0:0:0:
448,192,343421,128,0,343505:0:0:0:0:
192,192,343505,128,0,343671:0:0:0:0:
320,192,343505,128,0,343588:0:0:0:0:
64,192,343588,128,0,343755:0:0:0:0:
448,192,343671,128,0,343755:0:0:0:0:
320,192,343755,128,0,343838:0:0:0:0:
192,192,343838,5,0,0:0:0:0:
64,192,343838,1,0,0:0:0:0:
448,192,343838,1,0,0:0:0:0:
320,192,343921,1,0,0:0:0:0:
64,192,344005,1,0,0:0:0:0:
192,192,344088,1,0,0:0:0:0:
64,192,344171,1,0,0:0:0:0:
320,192,344171,1,0,0:0:0:0:
448,192,344171,1,0,0:0:0:0:
192,192,344255,1,0,0:0:0:0:
448,192,344338,1,0,0:0:0:0:
320,192,344421,1,0,0:0:0:0:
448,192,344505,1,0,0:0:0:0:
64,192,344505,1,0,0:0:0:0:
192,192,344505,1,0,0:0:0:0:
320,192,344588,1,0,0:0:0:0:
64,192,344671,1,0,0:0:0:0:
320,192,344755,1,0,0:0:0:0:
448,192,344838,1,0,0:0:0:0:
192,192,344838,1,0,0:0:0:0:
64,192,344838,1,0,0:0:0:0:
320,192,344921,1,0,0:0:0:0:
192,192,345005,1,0,0:0:0:0:
448,192,345005,1,0,0:0:0:0:
320,192,345088,1,0,0:0:0:0:
64,192,345088,1,0,0:0:0:0:
64,192,345171,1,0,0:0:0:0:
192,192,345171,1,0,0:0:0:0:
448,192,345171,1,0,0:0:0:0:
320,192,345255,1,0,0:0:0:0:
64,192,345338,1,0,0:0:0:0:
192,192,345421,1,0,0:0:0:0:
320,192,345505,1,0,0:0:0:0:
448,192,345505,1,0,0:0:0:0:
64,192,345505,1,0,0:0:0:0:
192,192,345588,1,0,0:0:0:0:
448,192,345671,1,0,0:0:0:0:
320,192,345755,1,0,0:0:0:0:
448,192,345838,1,0,0:0:0:0:
192,192,345838,1,0,0:0:0:0:
64,192,345838,1,0,0:0:0:0:
320,192,345921,1,0,0:0:0:0:
64,192,346005,1,0,0:0:0:0:
320,192,346088,1,0,0:0:0:0:
192,192,346171,1,0,0:0:0:0:
64,192,346171,1,0,0:0:0:0:
448,192,346171,1,0,0:0:0:0:
320,192,346255,1,0,0:0:0:0:
192,192,346338,1,0,0:0:0:0:
448,192,346338,1,0,0:0:0:0:
64,192,346421,1,0,0:0:0:0:
320,192,346421,1,0,0:0:0:0:
448,192,346505,1,0,0:0:0:0:
320,192,346505,1,0,0:0:0:0:
192,192,346505,1,0,0:0:0:0:
64,192,346588,1,0,0:0:0:0:
320,192,346671,1,0,0:0:0:0:
192,192,346755,1,0,0:0:0:0:
64,192,346838,1,0,0:0:0:0:
320,192,346838,1,0,0:0:0:0:
448,192,346838,1,0,0:0:0:0:
192,192,346921,1,0,0:0:0:0:
320,192,347005,1,0,0:0:0:0:
192,192,347088,1,0,0:0:0:0:
448,192,347171,1,0,0:0:0:0:
320,192,347171,1,0,0:0:0:0:
64,192,347171,1,0,0:0:0:0:
192,192,347255,1,0,0:0:0:0:
448,192,347338,1,0,0:0:0:0:
192,192,347421,1,0,0:0:0:0:
448,192,347505,1,0,0:0:0:0:
320,192,347505,1,0,0:0:0:0:
64,192,347505,1,0,0:0:0:0:
192,192,347588,1,0,0:0:0:0:
448,192,347671,1,0,0:0:0:0:
320,192,347755,1,0,0:0:0:0:
448,192,347838,1,0,0:0:0:0:
192,192,347838,1,0,0:0:0:0:
64,192,347838,1,0,0:0:0:0:
320,192,347921,1,0,0:0:0:0:
64,192,348005,1,0,0:0:0:0:
192,192,348088,1,0,0:0:0:0:
320,192,348171,1,0,0:0:0:0:
448,192,348171,1,0,0:0:0:0:
64,192,348171,1,0,0:0:0:0:
192,192,348255,1,0,0:0:0:0:
320,192,348338,1,0,0:0:0:0:
192,192,348421,1,0,0:0:0:0:
320,192,348505,1,0,0:0:0:0:
64,192,348505,1,0,0:0:0:0:
448,192,348505,1,0,0:0:0:0:
192,192,348588,1,0,0:0:0:0:
448,192,348671,1,0,0:0:0:0:
64,192,348755,1,0,0:0:0:0:
448,192,348838,1,0,0:0:0:0:
320,192,348838,1,0,0:0:0:0:
192,192,348838,1,0,0:0:0:0:
64,192,348921,1,0,0:0:0:0:
192,192,349005,1,0,0:0:0:0:
448,192,349005,1,0,0:0:0:0:
320,192,349088,1,0,0:0:0:0:
192,192,349171,1,0,0:0:0:0:
448,192,349171,1,0,0:0:0:0:
64,192,349171,1,0,0:0:0:0:
320,192,349255,1,0,0:0:0:0:
192,192,349338,1,0,0:0:0:0:
448,192,349421,1,0,0:0:0:0:
320,192,349505,1,0,0:0:0:0:
192,192,349505,1,0,0:0:0:0:
64,192,349505,1,0,0:0:0:0:
448,192,349588,1,0,0:0:0:0:
64,192,349671,1,0,0:0:0:0:
192,192,349755,1,0,0:0:0:0:
320,192,349838,1,0,0:0:0:0:
448,192,349838,1,0,0:0:0:0:
64,192,349838,1,0,0:0:0:0:
192,192,349921,1,0,0:0:0:0:
320,192,350005,1,0,0:0:0:0:
64,192,350088,1,0,0:0:0:0:
192,192,350171,1,0,0:0:0:0:
320,192,350171,1,0,0:0:0:0:
448,192,350171,1,0,0:0:0:0:
64,192,350255,1,0,0:0:0:0:
448,192,350338,1,0,0:0:0:0:
192,192,350338,1,0,0:0:0:0:
320,192,350421,1,0,0:0:0:0:
192,192,350505,1,0,0:0:0:0:
448,192,350505,1,0,0:0:0:0:
64,192,350505,1,0,0:0:0:0:
320,192,350588,1,0,0:0:0:0:
192,192,350671,1,0,0:0:0:0:
320,192,350755,1,0,0:0:0:0:
192,192,350838,1,0,0:0:0:0:
448,192,350838,1,0,0:0:0:0:
64,192,350838,1,0,0:0:0:0:
320,192,350921,1,0,0:0:0:0:
64,192,351005,1,0,0:0:0:0:
192,192,351088,1,0,0:0:0:0:
320,192,351171,1,0,0:0:0:0:
448,192,351171,1,0,0:0:0:0:
64,192,351171,1,0,0:0:0:0:
192,192,351255,1,0,0:0:0:0:
320,192,351338,1,0,0:0:0:0:
192,192,351421,1,0,0:0:0:0:
320,192,351505,1,0,0:0:0:0:
64,192,351505,1,0,0:0:0:0:
448,192,351505,1,0,0:0:0:0:
192,192,351588,1,0,0:0:0:0:
64,192,351671,1,0,0:0:0:0:
448,192,351671,1,0,0:0:0:0:
320,192,351755,1,0,0:0:0:0:
64,192,351838,1,0,0:0:0:0:
448,192,351838,1,0,0:0:0:0:
192,192,351838,1,0,0:0:0:0:
320,192,351921,1,0,0:0:0:0:
64,192,352005,1,0,0:0:0:0:
320,192,352088,1,0,0:0:0:0:
192,192,352171,1,0,0:0:0:0:
64,192,352171,1,0,0:0:0:0:
448,192,352171,1,0,0:0:0:0:
320,192,352255,1,0,0:0:0:0:
192,192,352338,1,0,0:0:0:0:
320,192,352421,1,0,0:0:0:0:
448,192,352505,1,0,0:0:0:0:
192,192,352505,1,0,0:0:0:0:
64,192,352505,1,0,0:0:0:0:
320,192,352588,1,0,0:0:0:0:
64,192,352671,1,0,0:0:0:0:
192,192,352755,1,0,0:0:0:0:
320,192,352838,1,0,0:0:0:0:
448,192,352838,1,0,0:0:0:0:
64,192,352838,1,0,0:0:0:0:
192,192,352921,1,0,0:0:0:0:
448,192,353005,1,0,0:0:0:0:
64,192,353005,1,0,0:0:0:0:
320,192,353088,1,0,0:0:0:0:
192,192,353171,1,0,0:0:0:0:
448,192,353171,1,0,0:0:0:0:
64,192,353171,1,0,0:0:0:0:
320,192,353255,1,0,0:0:0:0:
64,192,353338,1,0,0:0:0:0:
192,192,353421,1,0,0:0:0:0:
320,192,353505,1,0,0:0:0:0:
448,192,353505,1,0,0:0:0:0:
64,192,353505,1,0,0:0:0:0:
192,192,353588,1,0,0:0:0:0:
448,192,353671,1,0,0:0:0:0:
320,192,353755,1,0,0:0:0:0:
64,192,353838,5,0,0:0:0:0:
448,192,353838,1,0,0:0:0:0:
192,192,353838,1,0,0:0:0:0:
320,192,353921,1,0,0:0:0:0:
192,192,353981,1,0,0:0:0:0:
64,192,354005,1,0,0:0:0:0:
320,192,354060,1,0,0:0:0:0:
448,192,354088,1,0,0:0:0:0:
192,192,354171,1,0,0:0:0:0:
320,192,354219,1,0,0:0:0:0:
64,192,354267,1,0,0:0:0:0:
448,192,354314,1,0,0:0:0:0:
320,192,354362,1,0,0:0:0:0:
192,192,354410,1,0,0:0:0:0:
64,192,354457,1,0,0:0:0:0:
448,192,354505,1,0,0:0:0:0:
320,192,354505,1,0,0:0:0:0:
448,192,354671,128,0,354755:0:0:0:0:
64,192,354671,1,0,0:0:0:0:
320,192,354838,128,0,354921:0:0:0:0:
64,192,354838,1,0,0:0:0:0:
192,192,355005,128,0,355088:0:0:0:0:
64,192,355005,1,0,0:0:0:0:
448,192,355171,1,0,0:0:0:0:
320,192,355171,1,0,0:0:0:0:
64,192,355338,128,0,355421:0:0:0:0:
448,192,355338,1,0,0:0:0:0:
192,192,355505,128,0,355588:0:0:0:0:
448,192,355505,1,0,0:0:0:0:
320,192,355671,128,0,355755:0:0:0:0:
448,192,355671,1,0,0:0:0:0:
64,192,355838,1,0,0:0:0:0:
192,192,355838,1,0,0:0:0:0:
448,192,356005,128,0,356088:0:0:0:0:
64,192,356005,1,0,0:0:0:0:
320,192,356171,128,0,356255:0:0:0:0:
64,192,356171,1,0,0:0:0:0:
192,192,356338,128,0,356421:0:0:0:0:
64,192,356338,1,0,0:0:0:0:
448,192,356505,1,0,0:0:0:0:
320,192,356505,1,0,0:0:0:0:
64,192,356671,128,0,356755:0:0:0:0:
448,192,356671,1,0,0:0:0:0:
192,192,356838,128,0,356921:0:0:0:0:
448,192,356838,1,0,0:0:0:0:
320,192,357005,128,0,357088:0:0:0:0:
448,192,357005,1,0,0:0:0:0:
192,192,357171,1,0,0:0:0:0:
64,192,357171,1,0,0:0:0:0:
64,192,357338,1,0,0:0:0:0:
448,192,357338,128,0,357421:0:0:0:0:
64,192,357505,1,0,0:0:0:0:
320,192,357505,128,0,357588:0:0:0:0:
64,192,357671,1,0,0:0:0:0:
192,192,357671,128,0,357755:0:0:0:0:
320,192,357838,1,0,0:0:0:0:
448,192,357838,1,0,0:0:0:0:
448,192,358005,1,0,0:0:0:0:
64,192,358005,128,0,358088:0:0:0:0:
448,192,358171,1,0,0:0:0:0:
192,192,358171,128,0,358255:0:0:0:0:
448,192,358338,1,0,0:0:0:0:
320,192,358338,128,0,358421:0:0:0:0:
64,192,358505,1,0,0:0:0:0:
192,192,358505,1,0,0:0:0:0:
64,192,358671,5,0,0:0:0:0:
448,192,358671,128,0,358755:0:0:0:0:
320,192,358838,128,0,358921:0:0:0:0:
64,192,358838,1,0,0:0:0:0:
192,192,359005,128,0,359088:0:0:0:0:
64,192,359005,1,0,0:0:0:0:
320,192,359171,1,0,0:0:0:0:
448,192,359171,1,0,0:0:0:0:
192,192,359255,1,0,0:0:0:0:
320,192,359296,1,0,0:0:0:0:
64,192,359338,1,0,0:0:0:0:
448,192,359338,1,0,0:0:0:0:
192,192,359421,1,0,0:0:0:0:
64,192,359505,1,0,0:0:0:0:
320,192,359505,1,0,0:0:0:0:
192,192,359630,1,0,0:0:0:0:
448,192,359630,1,0,0:0:0:0:
448,192,359838,5,0,0:0:0:0:
320,192,359838,1,0,0:0:0:0:
64,192,359921,1,0,0:0:0:0:
192,192,360005,1,0,0:0:0:0:
64,192,360088,1,0,0:0:0:0:
448,192,360171,1,0,0:0:0:0:
192,192,360171,1,0,0:0:0:0:
320,192,360255,1,0,0:0:0:0:
64,192,360338,1,0,0:0:0:0:
192,192,360380,1,0,0:0:0:0:
320,192,360421,1,0,0:0:0:0:
448,192,360463,1,0,0:0:0:0:
64,192,360505,1,0,0:0:0:0:
192,192,360505,1,0,0:0:0:0:
320,192,360588,1,0,0:0:0:0:
64,192,360671,1,0,0:0:0:0:
448,192,360671,1,0,0:0:0:0:
320,192,360713,1,0,0:0:0:0:
192,192,360755,1,0,0:0:0:0:
448,192,360838,1,0,0:0:0:0:
192,192,360894,1,0,0:0:0:0:
64,192,360949,1,0,0:0:0:0:
320,192,361005,1,0,0:0:0:0:
192,192,361060,1,0,0:0:0:0:
320,192,361116,1,0,0:0:0:0:
192,192,361171,1,0,0:0:0:0:
64,192,361171,1,0,0:0:0:0:
448,192,361255,1,0,0:0:0:0:
320,192,361338,1,0,0:0:0:0:
448,192,361421,1,0,0:0:0:0:
320,192,361505,1,0,0:0:0:0:
64,192,361505,1,0,0:0:0:0:
192,192,361588,1,0,0:0:0:0:
448,192,361671,1,0,0:0:0:0:
320,192,361713,1,0,0:0:0:0:
192,192,361755,1,0,0:0:0:0:
64,192,361796,1,0,0:0:0:0:
448,192,361838,1,0,0:0:0:0:
320,192,361838,1,0,0:0:0:0:
192,192,361921,1,0,0:0:0:0:
448,192,362005,1,0,0:0:0:0:
64,192,362005,1,0,0:0:0:0:
192,192,362046,1,0,0:0:0:0:
320,192,362088,1,0,0:0:0:0:
448,192,362171,1,0,0:0:0:0:
64,192,362227,1,0,0:0:0:0:
320,192,362283,1,0,0:0:0:0:
192,192,362338,1,0,0:0:0:0:
448,192,362394,1,0,0:0:0:0:
192,192,362449,1,0,0:0:0:0:
64,192,362505,1,0,0:0:0:0:
320,192,362546,1,0,0:0:0:0:
448,192,362588,1,0,0:0:0:0:
192,192,362630,1,0,0:0:0:0:
64,192,362671,1,0,0:0:0:0:
320,192,362713,1,0,0:0:0:0:
448,192,362755,1,0,0:0:0:0:
192,192,362796,1,0,0:0:0:0:
64,192,362838,1,0,0:0:0:0:
320,192,362880,1,0,0:0:0:0:
448,192,362921,1,0,0:0:0:0:
192,192,362963,1,0,0:0:0:0:
64,192,363005,1,0,0:0:0:0:
320,192,363046,1,0,0:0:0:0:
448,192,363088,1,0,0:0:0:0:
192,192,363130,1,0,0:0:0:0:
64,192,363171,1,0,0:0:0:0:
320,192,363213,1,0,0:0:0:0:
448,192,363255,1,0,0:0:0:0:
192,192,363296,1,0,0:0:0:0:
64,192,363338,1,0,0:0:0:0:
320,192,363380,1,0,0:0:0:0:
448,192,363421,1,0,0:0:0:0:
192,192,363463,1,0,0:0:0:0:
64,192,363505,1,0,0:0:0:0:
320,192,363546,1,0,0:0:0:0:
448,192,363588,1,0,0:0:0:0:
192,192,363630,1,0,0:0:0:0:
64,192,363671,1,0,0:0:0:0:
320,192,363713,1,0,0:0:0:0:
448,192,363755,1,0,0:0:0:0:
192,192,363796,1,0,0:0:0:0:
64,192,363838,1,0,0:0:0:0:
64,192,364171,1,0,0:0:0:0:
320,192,364338,1,0,0:0:0:0:
448,192,364366,1,0,0:0:0:0:
64,192,364505,1,0,0:0:0:0:
192,192,364533,1,0,0:0:0:0:
448,192,364671,1,0,0:0:0:0:
320,192,364699,1,0,0:0:0:0:
192,192,364713,1,0,0:0:0:0:
64,192,364838,1,0,0:0:0:0:
320,192,364880,1,0,0:0:0:0:
192,192,364921,1,0,0:0:0:0:
64,192,364963,1,0,0:0:0:0:
320,192,365005,1,0,0:0:0:0:
448,192,365046,1,0,0:0:0:0:
192,192,365088,1,0,0:0:0:0:
320,192,365130,1,0,0:0:0:0:
64,192,365171,1,0,0:0:0:0:
448,192,365171,1,0,0:0:0:0:
64,192,365255,1,0,0:0:0:0:
320,192,365338,1,0,0:0:0:0:
192,192,365421,1,0,0:0:0:0:
64,192,365505,1,0,0:0:0:0:
448,192,365505,1,0,0:0:0:0:
320,192,365505,1,0,0:0:0:0:
448,192,365588,1,0,0:0:0:0:
64,192,365671,1,0,0:0:0:0:
320,192,365699,1,0,0:0:0:0:
192,192,365810,1,0,0:0:0:0:
320,192,365838,1,0,0:0:0:0:
64,192,365838,1,0,0:0:0:0:
448,192,365921,1,0,0:0:0:0:
64,192,366005,1,0,0:0:0:0:
192,192,366033,1,0,0:0:0:0:
448,192,366060,1,0,0:0:0:0:
192,192,366130,1,0,0:0:0:0:
448,192,366171,1,0,0:0:0:0:
320,192,366171,1,0,0:0:0:0:
64,192,366255,1,0,0:0:0:0:
448,192,366338,1,0,0:0:0:0:
320,192,366338,1,0,0:0:0:0:
192,192,366380,1,0,0:0:0:0:
448,192,366421,1,0,0:0:0:0:
320,192,366463,1,0,0:0:0:0:
192,192,366505,1,0,0:0:0:0:
64,192,366505,1,0,0:0:0:0:
448,192,366671,1,0,0:0:0:0:
320,192,366755,1,0,0:0:0:0:
64,192,366838,1,0,0:0:0:0:
192,192,366838,1,0,0:0:0:0:
448,192,366838,1,0,0:0:0:0:
64,192,366921,1,0,0:0:0:0:
320,192,367005,1,0,0:0:0:0:
192,192,367033,1,0,0:0:0:0:
64,192,367144,1,0,0:0:0:0:
448,192,367171,1,0,0:0:0:0:
320,192,367171,1,0,0:0:0:0:
192,192,367255,1,0,0:0:0:0:
448,192,367338,1,0,0:0:0:0:
320,192,367366,1,0,0:0:0:0:
64,192,367394,1,0,0:0:0:0:
448,192,367463,1,0,0:0:0:0:
64,192,367505,1,0,0:0:0:0:
192,192,367505,1,0,0:0:0:0:
192,192,367588,1,0,0:0:0:0:
448,192,367671,1,0,0:0:0:0:
320,192,367671,1,0,0:0:0:0:
320,192,367755,1,0,0:0:0:0:
448,192,367838,1,0,0:0:0:0:
64,192,367838,1,0,0:0:0:0:
448,192,367921,1,0,0:0:0:0:
64,192,368005,1,0,0:0:0:0:
192,192,368088,1,0,0:0:0:0:
64,192,368171,1,0,0:0:0:0:
448,192,368171,1,0,0:0:0:0:
320,192,368171,1,0,0:0:0:0:
448,192,368255,1,0,0:0:0:0:
64,192,368338,1,0,0:0:0:0:
320,192,368366,1,0,0:0:0:0:
192,192,368477,1,0,0:0:0:0:
320,192,368505,1,0,0:0:0:0:
64,192,368505,1,0,0:0:0:0:
448,192,368588,1,0,0:0:0:0:
64,192,368671,1,0,0:0:0:0:
192,192,368699,1,0,0:0:0:0:
448,192,368727,1,0,0:0:0:0:
192,192,368796,1,0,0:0:0:0:
448,192,368838,1,0,0:0:0:0:
320,192,368838,1,0,0:0:0:0:
64,192,368921,1,0,0:0:0:0:
448,192,369005,1,0,0:0:0:0:
320,192,369005,1,0,0:0:0:0:
192,192,369046,1,0,0:0:0:0:
448,192,369088,1,0,0:0:0:0:
320,192,369130,1,0,0:0:0:0:
192,192,369171,1,0,0:0:0:0:
64,192,369171,1,0,0:0:0:0:
448,192,369338,1,0,0:0:0:0:
320,192,369421,1,0,0:0:0:0:
64,192,369505,1,0,0:0:0:0:
192,192,369505,1,0,0:0:0:0:
448,192,369505,1,0,0:0:0:0:
64,192,369588,1,0,0:0:0:0:
320,192,369671,1,0,0:0:0:0:
192,192,369699,1,0,0:0:0:0:
64,192,369810,1,0,0:0:0:0:
448,192,369838,1,0,0:0:0:0:
320,192,369838,1,0,0:0:0:0:
64,192,370005,1,0,0:0:0:0:
192,192,370005,1,0,0:0:0:0:
448,192,370088,1,0,0:0:0:0:
192,192,370088,1,0,0:0:0:0:
64,192,370171,1,0,0:0:0:0:
320,192,370171,1,0,0:0:0:0:
448,192,370171,1,0,0:0:0:0:
448,192,370338,1,0,0:0:0:0:
320,192,370338,1,0,0:0:0:0:
64,192,370421,1,0,0:0:0:0:
192,192,370421,1,0,0:0:0:0:
64,192,370505,1,0,0:0:0:0:
320,192,370505,1,0,0:0:0:0:
448,192,370505,1,0,0:0:0:0:
192,192,370588,1,0,0:0:0:0:
448,192,370671,1,0,0:0:0:0:
192,192,370755,1,0,0:0:0:0:
64,192,370838,1,0,0:0:0:0:
448,192,370838,1,0,0:0:0:0:
320,192,370838,1,0,0:0:0:0:
448,192,370921,1,0,0:0:0:0:
64,192,371005,1,0,0:0:0:0:
320,192,371033,1,0,0:0:0:0:
192,192,371144,1,0,0:0:0:0:
320,192,371171,1,0,0:0:0:0:
64,192,371171,1,0,0:0:0:0:
448,192,371255,1,0,0:0:0:0:
64,192,371338,1,0,0:0:0:0:
192,192,371366,1,0,0:0:0:0:
448,192,371394,1,0,0:0:0:0:
192,192,371463,1,0,0:0:0:0:
448,192,371505,1,0,0:0:0:0:
320,192,371505,1,0,0:0:0:0:
64,192,371588,1,0,0:0:0:0:
320,192,371671,1,0,0:0:0:0:
192,192,371713,1,0,0:0:0:0:
448,192,371755,1,0,0:0:0:0:
320,192,371796,1,0,0:0:0:0:
192,192,371838,1,0,0:0:0:0:
64,192,371838,1,0,0:0:0:0:
320,192,372005,1,0,0:0:0:0:
448,192,372005,1,0,0:0:0:0:
320,192,372088,1,0,0:0:0:0:
64,192,372171,1,0,0:0:0:0:
192,192,372171,1,0,0:0:0:0:
448,192,372171,1,0,0:0:0:0:
64,192,372255,1,0,0:0:0:0:
320,192,372338,1,0,0:0:0:0:
192,192,372366,1,0,0:0:0:0:
64,192,372477,1,0,0:0:0:0:
448,192,372505,1,0,0:0:0:0:
320,192,372505,1,0,0:0:0:0:
192,192,372588,1,0,0:0:0:0:
448,192,372671,1,0,0:0:0:0:
320,192,372699,1,0,0:0:0:0:
64,192,372727,1,0,0:0:0:0:
320,192,372796,1,0,0:0:0:0:
192,192,372838,1,0,0:0:0:0:
64,192,372838,1,0,0:0:0:0:
448,192,372921,1,0,0:0:0:0:
192,192,373005,1,0,0:0:0:0:
320,192,373046,1,0,0:0:0:0:
64,192,373088,1,0,0:0:0:0:
192,192,373130,1,0,0:0:0:0:
448,192,373171,1,0,0:0:0:0:
320,192,373171,1,0,0:0:0:0:
448,192,373255,1,0,0:0:0:0:
64,192,373338,1,0,0:0:0:0:
192,192,373421,1,0,0:0:0:0:
64,192,373505,1,0,0:0:0:0:
448,192,373505,1,0,0:0:0:0:
320,192,373505,1,0,0:0:0:0:
448,192,373588,1,0,0:0:0:0:
64,192,373671,1,0,0:0:0:0:
320,192,373699,1,0,0:0:0:0:
192,192,373810,1,0,0:0:0:0:
320,192,373838,1,0,0:0:0:0:
64,192,373838,1,0,0:0:0:0:
448,192,373921,1,0,0:0:0:0:
64,192,374005,5,0,0:0:0:0:
192,192,374033,1,0,0:0:0:0:
448,192,374060,1,0,0:0:0:0:
192,192,374130,1,0,0:0:0:0:
320,192,374171,1,0,0:0:0:0:
448,192,374171,1,0,0:0:0:0:
64,192,374255,1,0,0:0:0:0:
320,192,374338,1,0,0:0:0:0:
192,192,374380,1,0,0:0:0:0:
448,192,374421,1,0,0:0:0:0:
320,192,374463,1,0,0:0:0:0:
192,192,374505,1,0,0:0:0:0:
64,192,374505,1,0,0:0:0:0:
320,192,374671,1,0,0:0:0:0:
448,192,374671,1,0,0:0:0:0:
320,192,374755,1,0,0:0:0:0:
64,192,374838,1,0,0:0:0:0:
192,192,374838,1,0,0:0:0:0:
448,192,374838,1,0,0:0:0:0:
64,192,374921,1,0,0:0:0:0:
320,192,375005,1,0,0:0:0:0:
192,192,375033,1,0,0:0:0:0:
448,192,375144,1,0,0:0:0:0:
192,192,375171,1,0,0:0:0:0:
64,192,375171,1,0,0:0:0:0:
320,192,375227,1,0,0:0:0:0:
64,192,375283,1,0,0:0:0:0:
192,192,375338,1,0,0:0:0:0:
448,192,375394,1,0,0:0:0:0:
320,192,375449,1,0,0:0:0:0:
448,192,375505,1,0,0:0:0:0:
64,192,375505,1,0,0:0:0:0:
192,192,375546,1,0,0:0:0:0:
320,192,375588,1,0,0:0:0:0:
64,192,375630,1,0,0:0:0:0:
192,192,375671,1,0,0:0:0:0:
448,192,375713,1,0,0:0:0:0:
64,192,375755,1,0,0:0:0:0:
320,192,375796,1,0,0:0:0:0:
448,192,375838,1,0,0:0:0:0:
64,192,375838,128,0,376088:0:0:0:0:
192,192,375921,1,0,0:0:0:0:
320,192,376005,128,0,376088:0:0:0:0:
448,192,376088,1,0,0:0:0:0:
64,192,376171,128,0,376421:0:0:0:0:
192,192,376171,1,0,0:0:0:0:
320,192,376255,1,0,0:0:0:0:
448,192,376338,128,0,376421:0:0:0:0:
192,192,376421,1,0,0:0:0:0:
64,192,376505,128,0,376755:0:0:0:0:
320,192,376505,1,0,0:0:0:0:
448,192,376588,1,0,0:0:0:0:
192,192,376671,128,0,376755:0:0:0:0:
320,192,376755,1,0,0:0:0:0:
64,192,376838,128,0,377088:0:0:0:0:
448,192,376838,1,0,0:0:0:0:
192,192,376921,1,0,0:0:0:0:
320,192,377005,128,0,377088:0:0:0:0:
192,192,377088,1,0,0:0:0:0:
448,192,377171,128,0,377421:0:0:0:0:
320,192,377171,1,0,0:0:0:0:
64,192,377255,1,0,0:0:0:0:
192,192,377338,128,0,377421:0:0:0:0:
64,192,377421,1,0,0:0:0:0:
448,192,377505,128,0,377755:0:0:0:0:
320,192,377505,1,0,0:0:0:0:
192,192,377588,1,0,0:0:0:0:
64,192,377671,128,0,377755:0:0:0:0:
320,192,377755,1,0,0:0:0:0:
448,192,377838,128,0,378088:0:0:0:0:
192,192,377838,128,0,378088:0:0:0:0:
64,192,377921,1,0,0:0:0:0:
320,192,378005,128,0,378088:0:0:0:0:
64,192,378088,1,0,0:0:0:0:
192,192,378171,128,0,378421:0:0:0:0:
320,192,378171,128,0,378421:0:0:0:0:
448,192,378255,1,0,0:0:0:0:
64,192,378338,128,0,378421:0:0:0:0:
448,192,378421,1,0,0:0:0:0:
64,192,378505,128,0,378755:0:0:0:0:
320,192,378505,128,0,378755:0:0:0:0:
448,192,378588,1,0,0:0:0:0:
192,192,378671,128,0,378755:0:0:0:0:
448,192,378755,1,0,0:0:0:0:
64,192,378838,128,0,379088:0:0:0:0:
192,192,378838,1,0,0:0:0:0:
320,192,378921,1,0,0:0:0:0:
448,192,379005,128,0,379088:0:0:0:0:
192,192,379088,1,0,0:0:0:0:
64,192,379171,128,0,379421:0:0:0:0:
320,192,379171,1,0,0:0:0:0:
448,192,379255,1,0,0:0:0:0:
192,192,379338,128,0,379421:0:0:0:0:
320,192,379421,1,0,0:0:0:0:
64,192,379505,128,0,379755:0:0:0:0:
448,192,379505,1,0,0:0:0:0:
192,192,379588,1,0,0:0:0:0:
320,192,379671,128,0,379755:0:0:0:0:
192,192,379755,1,0,0:0:0:0:
448,192,379838,128,0,380088:0:0:0:0:
320,192,379838,1,0,0:0:0:0:
64,192,379921,1,0,0:0:0:0:
192,192,380005,128,0,380088:0:0:0:0:
64,192,380088,1,0,0:0:0:0:
448,192,380171,128,0,380421:0:0:0:0:
320,192,380171,1,0,0:0:0:0:
192,192,380255,1,0,0:0:0:0:
64,192,380338,128,0,380421:0:0:0:0:
320,192,380421,1,0,0:0:0:0:
448,192,380505,128,0,380755:0:0:0:0:
64,192,380505,128,0,380755:0:0:0:0:
192,192,380588,1,0,0:0:0:0:
320,192,380671,128,0,380755:0:0:0:0:
192,192,380755,1,0,0:0:0:0:
64,192,380838,128,0,381088:0:0:0:0:
320,192,380838,128,0,381088:0:0:0:0:
448,192,380921,1,0,0:0:0:0:
192,192,381005,128,0,381088:0:0:0:0:
448,192,381088,1,0,0:0:0:0:
64,192,381171,128,0,381421:0:0:0:0:
192,192,381171,128,0,381421:0:0:0:0:
448,192,381255,1,0,0:0:0:0:
320,192,381338,128,0,381421:0:0:0:0:
448,192,381421,1,0,0:0:0:0:
64,192,381505,128,0,381755:0:0:0:0:
192,192,381505,1,0,0:0:0:0:
320,192,381588,1,0,0:0:0:0:
448,192,381671,128,0,381755:0:0:0:0:
192,192,381755,1,0,0:0:0:0:
64,192,381838,128,0,382088:0:0:0:0:
320,192,381838,1,0,0:0:0:0:
448,192,381921,1,0,0:0:0:0:
192,192,382005,128,0,382088:0:0:0:0:
320,192,382088,1,0,0:0:0:0:
64,192,382171,128,0,382421:0:0:0:0:
448,192,382171,1,0,0:0:0:0:
192,192,382255,1,0,0:0:0:0:
320,192,382338,128,0,382421:0:0:0:0:
192,192,382421,1,0,0:0:0:0:
448,192,382505,128,0,382755:0:0:0:0:
320,192,382505,1,0,0:0:0:0:
64,192,382588,1,0,0:0:0:0:
192,192,382671,128,0,382755:0:0:0:0:
64,192,382755,1,0,0:0:0:0:
448,192,382838,128,0,383088:0:0:0:0:
320,192,382838,1,0,0:0:0:0:
192,192,382921,1,0,0:0:0:0:
64,192,383005,128,0,383088:0:0:0:0:
320,192,383088,1,0,0:0:0:0:
448,192,383171,128,0,383421:0:0:0:0:
64,192,383171,128,0,383421:0:0:0:0:
192,192,383255,1,0,0:0:0:0:
320,192,383338,128,0,383421:0:0:0:0:
192,192,383421,1,0,0:0:0:0:
64,192,383505,128,0,383755:0:0:0:0:
448,192,383505,128,0,383755:0:0:0:0:
320,192,383588,1,0,0:0:0:0:
192,192,383671,128,0,383755:0:0:0:0:
320,192,383755,1,0,0:0:0:0:
64,192,383838,128,0,384088:0:0:0:0:
192,192,383838,128,0,384088:0:0:0:0:
320,192,383921,1,0,0:0:0:0:
448,192,384005,128,0,384088:0:0:0:0:
320,192,384088,1,0,0:0:0:0:
192,192,384171,1,0,0:0:0:0:
64,192,384171,128,0,384421:0:0:0:0:
320,192,384255,1,0,0:0:0:0:
448,192,384338,128,0,384421:0:0:0:0:
192,192,384421,1,0,0:0:0:0:
320,192,384505,1,0,0:0:0:0:
64,192,384505,128,0,384755:0:0:0:0:
448,192,384588,1,0,0:0:0:0:
192,192,384671,128,0,384755:0:0:0:0:
320,192,384755,1,0,0:0:0:0:
448,192,384838,1,0,0:0:0:0:
64,192,384838,128,0,385088:0:0:0:0:
192,192,384921,1,0,0:0:0:0:
320,192,385005,128,0,385088:0:0:0:0:
192,192,385088,1,0,0:0:0:0:
320,192,385171,1,0,0:0:0:0:
448,192,385171,128,0,385421:0:0:0:0:
64,192,385255,1,0,0:0:0:0:
192,192,385338,128,0,385421:0:0:0:0:
64,192,385421,1,0,0:0:0:0:
320,192,385505,1,0,0:0:0:0:
448,192,385505,128,0,385755:0:0:0:0:
192,192,385588,1,0,0:0:0:0:
64,192,385671,128,0,385755:0:0:0:0:
320,192,385755,1,0,0:0:0:0:
192,192,385838,1,0,0:0:0:0:
64,192,385838,1,0,0:0:0:0:
448,192,385921,1,0,0:0:0:0:
192,192,385921,1,0,0:0:0:0:
64,192,386005,1,0,0:0:0:0:
320,192,386005,1,0,0:0:0:0:
320,192,386088,1,0,0:0:0:0:
64,192,386171,1,0,0:0:0:0:
448,192,386171,1,0,0:0:0:0:
320,192,386213,1,0,0:0:0:0:
192,192,386255,1,0,0:0:0:0:
64,192,386296,1,0,0:0:0:0:
448,192,386338,1,0,0:0:0:0:
320,192,386380,1,0,0:0:0:0:
192,192,386421,1,0,0:0:0:0:
64,192,386463,1,0,0:0:0:0:
448,192,386505,128,0,386755:0:0:0:0:
320,192,386505,1,0,0:0:0:0:
192,192,386588,1,0,0:0:0:0:
320,192,386671,128,0,386755:0:0:0:0:
64,192,386755,1,0,0:0:0:0:
448,192,386838,128,0,387088:0:0:0:0:
320,192,386838,1,0,0:0:0:0:
192,192,386921,1,0,0:0:0:0:
64,192,387005,128,0,387088:0:0:0:0:
320,192,387088,1,0,0:0:0:0:
448,192,387171,128,0,387421:0:0:0:0:
192,192,387171,1,0,0:0:0:0:
64,192,387255,1,0,0:0:0:0:
320,192,387338,128,0,387421:0:0:0:0:
192,192,387421,1,0,0:0:0:0:
448,192,387505,128,0,387755:0:0:0:0:
64,192,387505,128,0,387671:0:0:0:0:
320,192,387588,1,0,0:0:0:0:
192,192,387671,128,0,387838:0:0:0:0:
320,192,387755,1,0,0:0:0:0:
64,192,387838,128,0,388088:0:0:0:0:
448,192,387838,1,0,0:0:0:0:
192,192,387921,1,0,0:0:0:0:
320,192,388005,128,0,388171:0:0:0:0:
448,192,388088,1,0,0:0:0:0:
64,192,388171,128,0,388421:0:0:0:0:
192,192,388171,1,0,0:0:0:0:
320,192,388255,1,0,0:0:0:0:
448,192,388338,128,0,388505:0:0:0:0:
192,192,388421,1,0,0:0:0:0:
64,192,388505,128,0,388755:0:0:0:0:
320,192,388505,128,0,388755:0:0:0:0:
448,192,388588,1,0,0:0:0:0:
192,192,388671,128,0,388838:0:0:0:0:
448,192,388755,1,0,0:0:0:0:
320,192,388838,128,0,389088:0:0:0:0:
64,192,388838,128,0,389088:0:0:0:0:
192,192,388921,1,0,0:0:0:0:
448,192,389005,128,0,389088:0:0:0:0:
192,192,389088,1,0,0:0:0:0:
448,192,389171,128,0,389421:0:0:0:0:
64,192,389171,128,0,389421:0:0:0:0:
192,192,389255,1,0,0:0:0:0:
320,192,389338,128,0,389421:0:0:0:0:
192,192,389421,1,0,0:0:0:0:
448,192,389505,128,0,389755:0:0:0:0:
320,192,389505,1,0,0:0:0:0:
192,192,389588,1,0,0:0:0:0:
64,192,389671,128,0,389755:0:0:0:0:
320,192,389755,1,0,0:0:0:0:
448,192,389838,128,0,390088:0:0:0:0:
192,192,389838,1,0,0:0:0:0:
64,192,389921,1,0,0:0:0:0:
320,192,390005,128,0,390088:0:0:0:0:
192,192,390088,1,0,0:0:0:0:
448,192,390171,128,0,390421:0:0:0:0:
64,192,390171,1,0,0:0:0:0:
320,192,390255,1,0,0:0:0:0:
192,192,390338,128,0,390421:0:0:0:0:
320,192,390421,1,0,0:0:0:0:
64,192,390505,128,0,390755:0:0:0:0:
448,192,390505,128,0,390671:0:0:0:0:
192,192,390588,1,0,0:0:0:0:
320,192,390671,128,0,390755:0:0:0:0:
448,192,390755,1,0,0:0:0:0:
64,192,390838,128,0,391088:0:0:0:0:
192,192,390838,1,0,0:0:0:0:
448,192,390921,1,0,0:0:0:0:
192,192,391005,128,0,391088:0:0:0:0:
320,192,391088,1,0,0:0:0:0:
64,192,391171,128,0,391421:0:0:0:0:
448,192,391171,128,0,391421:0:0:0:0:
320,192,391255,1,0,0:0:0:0:
192,192,391338,128,0,391421:0:0:0:0:
320,192,391421,1,0,0:0:0:0:
448,192,391505,128,0,391755:0:0:0:0:
192,192,391505,128,0,391755:0:0:0:0:
64,192,391588,1,0,0:0:0:0:
320,192,391671,128,0,391755:0:0:0:0:
64,192,391755,1,0,0:0:0:0:
448,192,391838,128,0,392088:0:0:0:0:
320,192,391838,128,0,392088:0:0:0:0:
64,192,391921,1,0,0:0:0:0:
192,192,392005,128,0,392088:0:0:0:0:
64,192,392088,1,0,0:0:0:0:
448,192,392171,128,0,392421:0:0:0:0:
320,192,392171,1,0,0:0:0:0:
192,192,392255,1,0,0:0:0:0:
64,192,392338,128,0,392421:0:0:0:0:
320,192,392421,1,0,0:0:0:0:
448,192,392505,128,0,392755:0:0:0:0:
192,192,392505,1,0,0:0:0:0:
64,192,392588,1,0,0:0:0:0:
320,192,392671,128,0,392755:0:0:0:0:
192,192,392755,1,0,0:0:0:0:
448,192,392838,128,0,393088:0:0:0:0:
64,192,392838,128,0,393005:0:0:0:0:
320,192,392921,1,0,0:0:0:0:
192,192,393005,128,0,393088:0:0:0:0:
320,192,393088,1,0,0:0:0:0:
64,192,393171,128,0,393421:0:0:0:0:
192,192,393171,1,0,0:0:0:0:
448,192,393255,1,0,0:0:0:0:
320,192,393338,128,0,393421:0:0:0:0:
448,192,393421,1,0,0:0:0:0:
64,192,393505,128,0,393755:0:0:0:0:
192,192,393505,128,0,393671:0:0:0:0:
320,192,393588,1,0,0:0:0:0:
448,192,393671,128,0,393755:0:0:0:0:
192,192,393755,1,0,0:0:0:0:
64,192,393838,128,0,394088:0:0:0:0:
448,192,393838,128,0,394088:0:0:0:0:
320,192,393921,1,0,0:0:0:0:
192,192,394005,128,0,394088:0:0:0:0:
320,192,394088,1,0,0:0:0:0:
448,192,394171,128,0,394421:0:0:0:0:
64,192,394171,128,0,394421:0:0:0:0:
192,192,394255,1,0,0:0:0:0:
320,192,394338,128,0,394421:0:0:0:0:
192,192,394421,1,0,0:0:0:0:
64,192,394505,128,0,394755:0:0:0:0:
320,192,394505,128,0,394755:0:0:0:0:
192,192,394588,1,0,0:0:0:0:
448,192,394671,128,0,394755:0:0:0:0:
192,192,394755,1,0,0:0:0:0:
320,192,394838,1,0,0:0:0:0:
448,192,394838,128,0,395088:0:0:0:0:
192,192,394921,1,0,0:0:0:0:
64,192,395005,128,0,395088:0:0:0:0:
320,192,395088,1,0,0:0:0:0:
192,192,395171,1,0,0:0:0:0:
448,192,395171,128,0,395421:0:0:0:0:
64,192,395255,1,0,0:0:0:0:
320,192,395338,128,0,395421:0:0:0:0:
192,192,395421,1,0,0:0:0:0:
448,192,395505,128,0,395755:0:0:0:0:
64,192,395505,128,0,395671:0:0:0:0:
320,192,395588,1,0,0:0:0:0:
192,192,395671,128,0,395838:0:0:0:0:
320,192,395755,1,0,0:0:0:0:
448,192,395838,1,0,0:0:0:0:
64,192,395838,128,0,396088:0:0:0:0:
192,192,395921,1,0,0:0:0:0:
320,192,396005,128,0,396171:0:0:0:0:
448,192,396088,1,0,0:0:0:0:
192,192,396171,1,0,0:0:0:0:
64,192,396171,128,0,396421:0:0:0:0:
320,192,396255,1,0,0:0:0:0:
448,192,396338,128,0,396421:0:0:0:0:
192,192,396421,1,0,0:0:0:0:
64,192,396505,128,0,396560:0:0:0:0:
448,192,396505,128,0,396560:0:0:0:0:
192,192,396560,128,0,396616:0:0:0:0:
320,192,396616,128,0,396671:0:0:0:0:
448,192,396671,128,0,396755:0:0:0:0:
64,192,396671,128,0,396755:0:0:0:0:
192,192,396755,128,0,396838:0:0:0:0:
320,192,396755,128,0,396838:0:0:0:0:
64,192,396838,1,0,0:0:0:0:
448,192,396838,128,0,396921:0:0:0:0:
320,192,396880,128,0,396963:0:0:0:0:
192,192,396921,128,0,397005:0:0:0:0:
64,192,396963,128,0,397046:0:0:0:0:
448,192,397005,1,0,0:0:0:0:
192,192,397088,1,0,0:0:0:0:
320,192,397088,1,0,0:0:0:0:
448,192,397171,1,0,0:0:0:0:
320,192,397171,1,0,0:0:0:0:
64,192,397171,1,0,0:0:0:0:
64,192,397255,1,0,0:0:0:0:
448,192,397338,1,0,0:0:0:0:
192,192,397421,1,0,0:0:0:0:
64,192,397505,1,0,0:0:0:0:
448,192,397505,1,0,0:0:0:0:
320,192,397505,1,0,0:0:0:0:
448,192,397588,1,0,0:0:0:0:
64,192,397671,1,0,0:0:0:0:
320,192,397699,1,0,0:0:0:0:
320,192,397796,1,0,0:0:0:0:
64,192,397838,1,0,0:0:0:0:
192,192,397838,1,0,0:0:0:0:
448,192,397921,1,0,0:0:0:0:
64,192,398005,1,0,0:0:0:0:
192,192,398033,1,0,0:0:0:0:
448,192,398060,1,0,0:0:0:0:
192,192,398130,1,0,0:0:0:0:
448,192,398171,1,0,0:0:0:0:
320,192,398171,1,0,0:0:0:0:
64,192,398255,1,0,0:0:0:0:
448,192,398338,1,0,0:0:0:0:
320,192,398338,1,0,0:0:0:0:
192,192,398380,1,0,0:0:0:0:
448,192,398421,1,0,0:0:0:0:
320,192,398463,1,0,0:0:0:0:
192,192,398505,1,0,0:0:0:0:
64,192,398505,1,0,0:0:0:0:
448,192,398671,1,0,0:0:0:0:
320,192,398755,1,0,0:0:0:0:
64,192,398838,1,0,0:0:0:0:
192,192,398838,1,0,0:0:0:0:
448,192,398838,1,0,0:0:0:0:
64,192,398921,1,0,0:0:0:0:
320,192,399005,1,0,0:0:0:0:
192,192,399033,1,0,0:0:0:0:
64,192,399130,1,0,0:0:0:0:
448,192,399171,1,0,0:0:0:0:
320,192,399171,1,0,0:0:0:0:
192,192,399255,1,0,0:0:0:0:
448,192,399338,1,0,0:0:0:0:
320,192,399366,1,0,0:0:0:0:
64,192,399394,1,0,0:0:0:0:
320,192,399463,1,0,0:0:0:0:
64,192,399505,1,0,0:0:0:0:
192,192,399505,1,0,0:0:0:0:
192,192,399588,1,0,0:0:0:0:
448,192,399671,1,0,0:0:0:0:
320,192,399671,1,0,0:0:0:0:
320,192,399755,1,0,0:0:0:0:
448,192,399838,1,0,0:0:0:0:
64,192,399838,1,0,0:0:0:0:
448,192,399921,1,0,0:0:0:0:
64,192,400005,1,0,0:0:0:0:
192,192,400088,1,0,0:0:0:0:
64,192,400171,1,0,0:0:0:0:
448,192,400171,1,0,0:0:0:0:
320,192,400171,1,0,0:0:0:0:
448,192,400255,1,0,0:0:0:0:
64,192,400338,1,0,0:0:0:0:
320,192,400366,1,0,0:0:0:0:
320,192,400463,1,0,0:0:0:0:
64,192,400505,1,0,0:0:0:0:
192,192,400505,1,0,0:0:0:0:
448,192,400588,1,0,0:0:0:0:
64,192,400671,1,0,0:0:0:0:
192,192,400699,1,0,0:0:0:0:
448,192,400727,1,0,0:0:0:0:
192,192,400796,1,0,0:0:0:0:
448,192,400838,1,0,0:0:0:0:
320,192,400838,1,0,0:0:0:0:
64,192,400921,1,0,0:0:0:0:
448,192,401005,1,0,0:0:0:0:
320,192,401005,1,0,0:0:0:0:
192,192,401046,1,0,0:0:0:0:
448,192,401088,1,0,0:0:0:0:
320,192,401130,1,0,0:0:0:0:
192,192,401171,1,0,0:0:0:0:
64,192,401171,1,0,0:0:0:0:
448,192,401338,1,0,0:0:0:0:
320,192,401421,1,0,0:0:0:0:
64,192,401505,1,0,0:0:0:0:
192,192,401505,1,0,0:0:0:0:
448,192,401505,1,0,0:0:0:0:
64,192,401588,1,0,0:0:0:0:
320,192,401671,1,0,0:0:0:0:
192,192,401699,1,0,0:0:0:0:
64,192,401796,1,0,0:0:0:0:
448,192,401838,1,0,0:0:0:0:
320,192,401838,1,0,0:0:0:0:
64,192,402005,1,0,0:0:0:0:
192,192,402005,1,0,0:0:0:0:
448,192,402088,1,0,0:0:0:0:
192,192,402088,1,0,0:0:0:0:
64,192,402171,1,0,0:0:0:0:
320,192,402171,1,0,0:0:0:0:
448,192,402171,1,0,0:0:0:0:
320,192,402338,1,0,0:0:0:0:
448,192,402338,1,0,0:0:0:0:
64,192,402421,1,0,0:0:0:0:
192,192,402421,1,0,0:0:0:0:
320,192,402505,1,0,0:0:0:0:
64,192,402505,1,0,0:0:0:0:
448,192,402505,1,0,0:0:0:0:
192,192,402588,1,0,0:0:0:0:
448,192,402671,1,0,0:0:0:0:
192,192,402755,1,0,0:0:0:0:
64,192,402838,1,0,0:0:0:0:
448,192,402838,1,0,0:0:0:0:
320,192,402838,1,0,0:0:0:0:
448,192,402921,1,0,0:0:0:0:
64,192,403005,1,0,0:0:0:0:
320,192,403033,1,0,0:0:0:0:
320,192,403130,1,0,0:0:0:0:
64,192,403171,1,0,0:0:0:0:
192,192,403171,1,0,0:0:0:0:
448,192,403255,1,0,0:0:0:0:
64,192,403338,1,0,0:0:0:0:
192,192,403366,1,0,0:0:0:0:
448,192,403394,1,0,0:0:0:0:
192,192,403463,1,0,0:0:0:0:
448,192,403505,1,0,0:0:0:0:
320,192,403505,1,0,0:0:0:0:
64,192,403588,1,0,0:0:0:0:
320,192,403671,1,0,0:0:0:0:
192,192,403713,1,0,0:0:0:0:
448,192,403755,1,0,0:0:0:0:
320,192,403796,1,0,0:0:0:0:
192,192,403838,1,0,0:0:0:0:
64,192,403838,1,0,0:0:0:0:
320,192,404005,1,0,0:0:0:0:
448,192,404005,1,0,0:0:0:0:
320,192,404088,1,0,0:0:0:0:
64,192,404171,1,0,0:0:0:0:
192,192,404171,1,0,0:0:0:0:
448,192,404171,1,0,0:0:0:0:
64,192,404255,1,0,0:0:0:0:
320,192,404338,1,0,0:0:0:0:
192,192,404366,1,0,0:0:0:0:
64,192,404463,1,0,0:0:0:0:
448,192,404505,1,0,0:0:0:0:
320,192,404505,1,0,0:0:0:0:
192,192,404588,1,0,0:0:0:0:
448,192,404671,1,0,0:0:0:0:
320,192,404699,1,0,0:0:0:0:
64,192,404727,1,0,0:0:0:0:
320,192,404796,1,0,0:0:0:0:
64,192,404838,1,0,0:0:0:0:
192,192,404838,1,0,0:0:0:0:
448,192,404921,1,0,0:0:0:0:
192,192,405005,1,0,0:0:0:0:
320,192,405046,1,0,0:0:0:0:
64,192,405088,1,0,0:0:0:0:
192,192,405130,1,0,0:0:0:0:
448,192,405171,1,0,0:0:0:0:
320,192,405171,1,0,0:0:0:0:
448,192,405255,1,0,0:0:0:0:
64,192,405338,1,0,0:0:0:0:
192,192,405421,1,0,0:0:0:0:
64,192,405505,1,0,0:0:0:0:
448,192,405505,1,0,0:0:0:0:
320,192,405505,1,0,0:0:0:0:
448,192,405588,1,0,0:0:0:0:
64,192,405671,1,0,0:0:0:0:
320,192,405699,1,0,0:0:0:0:
320,192,405796,1,0,0:0:0:0:
64,192,405838,1,0,0:0:0:0:
192,192,405838,1,0,0:0:0:0:
448,192,405921,1,0,0:0:0:0:
64,192,406005,5,0,0:0:0:0:
192,192,406033,1,0,0:0:0:0:
448,192,406060,1,0,0:0:0:0:
192,192,406130,1,0,0:0:0:0:
448,192,406171,1,0,0:0:0:0:
320,192,406171,1,0,0:0:0:0:
64,192,406255,1,0,0:0:0:0:
320,192,406338,1,0,0:0:0:0:
192,192,406380,1,0,0:0:0:0:
448,192,406421,1,0,0:0:0:0:
320,192,406463,1,0,0:0:0:0:
192,192,406505,1,0,0:0:0:0:
64,192,406505,1,0,0:0:0:0:
320,192,406671,1,0,0:0:0:0:
448,192,406671,1,0,0:0:0:0:
320,192,406755,1,0,0:0:0:0:
64,192,406838,1,0,0:0:0:0:
192,192,406838,1,0,0:0:0:0:
448,192,406838,1,0,0:0:0:0:
64,192,406921,1,0,0:0:0:0:
320,192,407005,1,0,0:0:0:0:
192,192,407005,1,0,0:0:0:0:
192,192,407088,1,0,0:0:0:0:
448,192,407171,1,0,0:0:0:0:
320,192,407171,1,0,0:0:0:0:
64,192,407171,1,0,0:0:0:0:
192,192,407255,1,0,0:0:0:0:
320,192,407338,1,0,0:0:0:0:
192,192,407421,1,0,0:0:0:0:
64,192,407421,1,0,0:0:0:0:
448,192,407421,1,0,0:0:0:0:
320,192,407505,1,0,0:0:0:0:
192,192,407588,1,0,0:0:0:0:
448,192,407671,1,0,0:0:0:0:
320,192,407671,1,0,0:0:0:0:
64,192,407671,1,0,0:0:0:0:
192,192,407755,1,0,0:0:0:0:
320,192,407838,1,0,0:0:0:0:
448,192,407838,1,0,0:0:0:0:
64,192,407838,1,0,0:0:0:0:
