osu file format v14

[General]
AudioFilename: audio.mp3
AudioLeadIn: 0
PreviewTime: 48806
Countdown: 0
SampleSet: Soft
StackLeniency: 0.5
Mode: 0
LetterboxInBreaks: 0
WidescreenStoryboard: 1

[Editor]
Bookmarks: 71976
DistanceSpacing: 1
BeatDivisor: 4
GridSize: 4
TimelineZoom: 2.4

[Metadata]
Title:Links (TV Size)
TitleUnicode:リンクス (TV Size)
Artist:Sachika Misawa
ArtistUnicode:三澤紗千香
Creator:PotatoDew
Version:Easy
Source:とある科学の超電磁砲S
Tags:anime japanese ending ed 2nd misaka mikoto 御坂美琴 shirai kuroko 白井黒子 uiharu kazari 初春飾利 saten ruiko 佐天涙子 a certain scientific railgun s toaru to aru kagaku no choudenjihou season 2 j-pop pop jpop
BeatmapID:2736685
BeatmapSetID:1299243

[Difficulty]
HPDrainRate:2
CircleSize:2
OverallDifficulty:2
ApproachRate:3
SliderMultiplier:1
SliderTickRate:1

[Events]
//Background and Video events
0,0,"thing.jpg",0,0
//Break Periods
//Storyboard Layer 0 (Background)
//Storyboard Layer 1 (Fail)
//Storyboard Layer 2 (Pass)
//Storyboard Layer 3 (Foreground)
//Storyboard Layer 4 (Overlay)
//Storyboard Sound Samples

[TimingPoints]
82,402.684563758389,4,2,1,45,1,0
82,-100,4,2,1,45,0,0
484,402.684563758389,4,2,1,55,1,0
484,-100,4,2,1,55,0,0
6926,-100,4,2,1,30,0,0
18202,-100,4,2,1,35,0,0
19812,-100,4,2,1,40,0,0
32698,-100,4,2,1,35,0,0
42363,-100,4,2,1,45,0,0
45987,-100,4,2,1,50,0,0
48806,-100,4,2,1,60,0,1
74577,-100,4,2,1,50,0,0
77799,-100,4,2,1,60,0,1
79410,-100,4,2,1,55,0,0
81020,-100,4,2,1,55,0,0
85853,392.156862745098,4,2,1,55,1,0
86448,389.61038961039,4,2,1,55,1,0
87714,-99.9999999999999,4,2,1,45,0,0
88006,-99.9999999999999,4,2,1,25,0,0
88298,-99.9999999999999,4,2,1,5,0,0

[Colours]
Combo1 : 255,152,102
Combo2 : 112,236,0
Combo3 : 79,167,255
Combo4 : 255,255,0

[HitObjects]
442,209,484,6,0,P|443:279|427:367,2,150,6|2|10,3:2|0:0|0:0,0:0:0:0:
378,131,2094,1,2,3:2:0:0:
278,126,2497,1,10,0:2:0:0:
206,195,2900,2,0,L|210:294,1,100,2|10,0:0|0:0,0:0:0:0:
281,365,3705,6,0,B|375:357|375:357|416:296,2,150,2|2|14,3:2|0:0|0:0,0:0:0:0:
210,294,5316,2,0,P|169:326|107:318,1,100,2|10,3:2|0:0,0:0:0:0:
82,296,5920,2,0,L|69:134,1,150,2|10,0:0|0:0,0:0:0:0:
4,71,6926,6,0,P|50:49|170:129,1,200,6|0,3:2|3:0,0:0:0:0:
245,180,8135,1,0,3:0:0:0:
314,108,8537,2,0,L|428:98,1,100,0|2,3:2|3:2,0:0:0:0:
491,283,9745,1,2,3:2:0:0:
396,314,10148,6,0,B|277:297|321:380|201:359,1,200,2|0,3:2|3:0,0:0:0:0:
113,377,11356,1,0,3:0:0:0:
33,315,11759,2,0,L|26:203,1,100,0|2,3:2|3:2,0:0:0:0:
140,50,12967,1,8,3:2:0:0:
222,107,13369,6,0,L|207:325,1,200,2|0,3:2|3:0,0:0:0:0:
279,376,14577,1,8,3:2:0:0:
372,339,14980,2,0,P|416:294|425:157,1,200,2|0,3:2|3:0,0:0:0:0:
366,83,16188,1,8,3:2:0:0:
279,132,16591,6,0,B|163:119|219:195|92:179,1,200,2|2,3:2|3:0,0:0:0:0:
26,253,17799,1,8,0:0:0:0:
76,341,18202,2,0,L|225:359,1,150,14|10,3:2|0:0,0:0:0:0:
303,297,19208,2,0,L|297:232,1,50,0|14,3:0|3:2,0:0:0:0:
222,181,19812,6,0,P|162:212|112:207,1,100,6|2,3:2|3:2,0:0:0:0:
84,192,20416,1,2,0:0:0:0:
23,115,20819,1,2,0:0:0:0:
79,32,21222,2,0,L|234:40,1,150,2|0,0:3|3:2,0:0:0:0:
422,13,22631,1,2,3:2:0:0:
484,91,23034,6,0,P|497:162|476:204,1,100,2|2,3:2|3:2,0:0:0:0:
455,224,23638,1,2,0:0:0:0:
374,281,24041,1,2,0:0:0:0:
296,217,24443,2,0,P|243:167|170:174,1,150,2|2,0:3|3:2,0:0:0:0:
7,289,25853,1,8,3:2:0:0:
78,358,26255,6,0,L|237:367,1,150,6|2,3:2|0:0,0:0:0:0:
376,345,27463,1,8,3:2:0:0:
457,286,27866,2,0,P|452:217|477:134,1,150,2|2,3:2|0:0,0:0:0:0:
327,109,29074,1,8,3:2:0:0:
267,28,29477,6,0,L|99:33,1,150,2|2,3:2|0:0,0:0:0:0:
55,110,30483,2,0,L|50:182,1,50,2|12,0:0|3:2,0:0:0:0:
0,246,31088,2,0,P|-9:294|2:342,1,100,2|8,3:2|0:0,0:0:0:0:
98,372,31893,1,8,3:2:0:0:
167,300,32296,1,2,3:2:0:0:
246,360,32698,6,0,P|331:361|379:266,1,200,6|2,3:2|0:2,0:0:0:0:
451,198,33906,1,8,0:0:0:0:
413,105,34309,2,0,L|207:87,1,200,2|2,3:2|0:2,0:0:0:0:
140,19,35517,1,8,0:0:0:0:
74,94,35920,6,0,P|41:133|59:274,1,200,2|2,3:2|0:0,0:0:0:0:
142,324,37128,1,8,0:0:0:0:
222,264,37530,1,2,3:2:0:0:
297,198,37933,2,0,P|343:201|389:231,2,100,2|2|10,3:2|0:0|0:0,0:0:0:0:
240,115,39141,6,0,P|270:22|361:31,1,200,6|2,3:2|0:0,0:0:0:0:
497,171,40752,2,0,L|502:335,1,150,2|2,3:2|3:2,0:0:0:0:
411,365,41759,2,0,L|345:372,1,50,2|10,3:2|0:0,0:0:0:0:
270,327,42363,6,0,P|279:275|256:199,1,100,4|2,3:2|3:2,0:0:0:0:
187,172,43168,2,0,P|178:120|201:44,1,100,2|2,3:2|3:2,0:0:0:0:
261,8,43973,1,0,3:2:0:0:
331,78,44376,2,0,L|451:87,1,100,2|0,3:2|0:0,0:0:0:0:
501,155,45181,1,0,3:2:0:0:
432,228,45584,5,14,3:2:0:0:
256,192,45786,12,10,47195,0:0:0:0:
419,5,48806,5,6,3:2:0:0:
403,103,49208,1,10,0:0:0:0:
484,162,49611,1,2,3:2:0:0:
492,261,50014,1,10,0:0:0:0:
437,344,50416,2,0,L|320:335,1,100,2|8,3:2|0:0,0:0:0:0:
305,297,51020,2,0,P|244:275|159:329,1,150,2|10,0:0|0:0,0:0:0:0:
90,370,52027,5,2,3:2:0:0:
73,271,52430,1,10,0:0:0:0:
147,205,52832,2,0,P|162:157|154:91,1,100,2|10,3:2|0:0,0:0:0:0:
223,30,53638,1,2,3:2:0:0:
41,114,54443,1,10,0:0:0:0:
7,208,54846,1,10,0:2:0:0:
74,282,55249,6,0,B|161:311|143:241|226:268,1,150,6|2,3:2|0:0,0:0:0:0:
265,256,56054,1,2,0:0:0:0:
346,314,56457,1,8,0:0:0:0:
428,256,56859,2,0,B|467:211|467:211|444:110,1,150,2|2,3:2|0:0,0:0:0:0:
439,73,57665,1,2,0:0:0:0:
355,17,58067,1,8,0:0:0:0:
278,81,58470,5,2,3:2:0:0:
192,29,58873,2,0,P|132:35|103:75,1,100,10|2,0:0|0:0,0:0:0:0:
143,259,60081,2,0,P|195:273|256:261,1,100,2|2,3:2|3:2,0:0:0:0:
279,236,60685,1,2,3:2:0:0:
360,293,61088,1,6,3:2:0:0:
443,168,61692,5,6,3:2:0:0:
377,92,62094,2,0,P|330:73|226:104,1,150,10|2,0:0|3:2,0:0:0:0:
194,123,62900,1,10,0:0:0:0:
253,203,63302,1,2,3:2:0:0:
211,294,63705,2,0,L|45:301,1,150,10|2,0:0|3:2,0:0:0:0:
20,271,64510,1,10,0:0:0:0:
82,193,64913,5,2,3:2:0:0:
33,105,65316,2,0,P|59:53|160:49,1,150,10|2,0:0|3:2,0:0:0:0:
177,75,66121,1,10,0:0:0:0:
264,25,66524,2,0,L|365:29,1,100,2|10,3:2|0:0,0:0:0:0:
403,59,67128,1,2,0:0:0:0:
451,146,67530,2,0,L|455:250,1,100,2|2,3:2|0:0,0:0:0:0:
420,282,68135,6,0,P|377:324|274:320,1,150,6|2,3:2|0:0,0:0:0:0:
255,293,68940,1,2,0:0:0:0:
288,198,69343,1,8,0:0:0:0:
239,110,69745,2,0,P|137:99|72:112,1,150,2|2,3:2|0:0,0:0:0:0:
57,143,70551,1,2,0:0:0:0:
11,231,70953,1,8,0:0:0:0:
68,312,71356,6,0,L|185:307,1,100,2|10,3:2|0:0,0:0:0:0:
203,272,71960,2,0,L|320:277,1,100,2|2,0:0|3:2,0:0:0:0:
421,184,72967,2,0,B|431:132|431:132|416:70,1,100,2|2,3:2|3:2,0:0:0:0:
387,47,73571,1,10,3:2:0:0:
304,102,73973,1,14,3:2:0:0:
162,52,74577,6,0,L|57:48,1,100,6|2,3:2|3:2,0:0:0:0:
5,131,75383,2,0,L|9:236,1,100,14|2,0:0|0:0,0:0:0:0:
75,305,76188,2,0,P|114:325|183:316,1,100,2|2,3:2|3:2,0:0:0:0:
213,299,76792,1,2,3:2:0:0:
288,231,77195,2,0,L|395:237,1,100,2|2,3:2|3:2,0:0:0:0:
424,202,77799,5,14,0:0:0:0:
469,113,78202,1,0,3:2:0:0:
410,32,78604,1,8,3:2:0:0:
324,83,79007,1,8,3:2:0:0:
233,40,79410,5,6,3:2:0:0:
233,40,81020,6,0,P|129:52|65:41,2,150,6|2|10,3:2|0:0|0:0,0:0:0:0:
299,114,82631,1,2,3:2:0:0:
293,213,83034,1,10,0:0:0:0:
213,273,83437,2,0,P|149:285|107:275,1,100,2|10,0:0|0:0,0:0:0:0:
41,211,84242,5,2,3:2:0:0:
93,126,84645,1,12,0:0:0:0:
187,159,85047,1,8,0:0:0:0:
254,85,85450,1,10,0:0:0:0:
338,137,85853,6,0,L|451:143,1,100,10|10,3:2|3:2,0:0:0:0:
472,181,86448,2,0,B|494:277|494:277|455:334,1,150,10|2,0:0|3:2,0:0:0:0:
370,366,87422,5,14,3:2:0:0:
256,192,87616,12,0,88980,0:0:0:0:
