osu file format v14

[General]
AudioFilename: audio.mp3
AudioLeadIn: 0
PreviewTime: 48806
Countdown: 0
SampleSet: Soft
StackLeniency: 0.5
Mode: 0
LetterboxInBreaks: 0
WidescreenStoryboard: 0

[Editor]
Bookmarks: 71976
DistanceSpacing: 1
BeatDivisor: 4
GridSize: 4
TimelineZoom: 2.4

[Metadata]
Title:Links (TV Size)
TitleUnicode:リンクス (TV Size)
Artist:Sachika Misawa
ArtistUnicode:三澤紗千香
Creator:PotatoDew
Version:Ace of Tokiwadai
Source:とある科学の超電磁砲S
Tags:anime japanese ending ed 2nd misaka mikoto 御坂美琴 shirai kuroko 白井黒子 uiharu kazari 初春飾利 saten ruiko 佐天涙子 a certain scientific railgun s toaru to aru kagaku no choudenjihou season 2 j-pop pop jpop
BeatmapID:2694749
BeatmapSetID:1299243

[Difficulty]
HPDrainRate:5
CircleSize:4
OverallDifficulty:8.5
ApproachRate:9
SliderMultiplier:2
SliderTickRate:1

[Events]
//Background and Video events
0,0,"thing.jpg",0,0
//Break Periods
//Storyboard Layer 0 (Background)
//Storyboard Layer 1 (Fail)
//Storyboard Layer 2 (Pass)
//Storyboard Layer 3 (Foreground)
//Storyboard Layer 4 (Overlay)
//Storyboard Sound Samples

[TimingPoints]
82,402.684563758389,4,2,1,45,1,0
82,-100,4,2,1,45,0,0
484,402.684563758389,4,2,1,55,1,0
484,-100,4,2,1,55,0,0
6926,-166.666666666667,4,2,1,30,0,0
18202,-166.666666666667,4,2,1,35,0,0
19410,-250.000000000001,4,2,1,35,0,0
19812,-142.857142857143,4,2,1,40,0,0
32698,-166.666666666667,4,2,1,35,0,0
42363,-125,4,2,1,45,0,0
45584,-125,4,2,1,45,0,0
45987,-125,4,2,1,50,0,0
48806,-83.3333333333333,4,2,1,60,0,1
74577,-111.111111111111,4,2,1,50,0,0
77799,-83.3333333333333,4,2,1,60,0,1
79410,-111.111111111111,4,2,1,55,0,0
81020,-99.9999999999999,4,2,1,55,0,0
85853,392.156862745098,4,2,1,55,1,0
86448,389.61038961039,4,2,1,55,1,0
87714,-99.9999999999999,4,2,1,45,0,0
88006,-99.9999999999999,4,2,1,25,0,0
88298,-99.9999999999999,4,2,1,5,0,0

[Colours]
Combo1 : 255,152,102
Combo2 : 112,236,0
Combo3 : 79,167,255
Combo4 : 255,255,0

[HitObjects]
502,88,82,5,0,3:0:0:0:
509,122,182,1,0,3:0:0:0:
512,156,283,1,8,0:0:0:0:
508,190,384,1,8,0:0:0:0:
499,223,484,6,0,P|448:226|398:245,1,100,6|0,3:2|3:0,0:0:0:0:
312,359,886,1,8,0:0:0:0:
248,186,1088,1,2,0:0:0:0:
231,135,1188,1,8,0:0:0:0:
118,242,1390,1,0,3:0:0:0:
118,242,1490,1,0,3:0:0:0:
341,178,1692,2,0,B|361:124|361:124|335:93|335:93|339:20,1,150,10|8,0:0|0:0,0:0:0:0:
361,1,2094,5,2,3:2:0:0:
170,40,2296,1,2,3:2:0:0:
38,112,2497,5,10,0:2:0:0:
243,189,2698,1,2,0:0:0:0:
290,202,2799,1,8,0:0:0:0:
337,217,2900,5,2,0:0:0:0:
151,294,3101,1,2,3:2:0:0:
401,384,3302,2,0,L|406:268,1,100,10|0,0:0|0:0,0:0:0:0:
508,41,3705,6,0,B|481:101|481:101|403:82|327:118,1,200,2|8,3:2|0:0,0:0:0:0:
241,257,4309,1,2,0:0:0:0:
252,302,4410,1,8,0:0:0:0:
103,151,4611,1,0,3:0:0:0:
103,151,4712,1,0,3:0:0:0:
0,376,4913,2,0,P|0:321|51:298,1,100,14|0,0:0|0:0,0:0:0:0:
132,375,5215,1,8,0:0:0:0:
132,375,5316,6,0,L|239:380,1,100,2|2,3:2|3:2,0:0:0:0:
368,199,5718,1,10,0:0:0:0:
177,71,5920,1,2,0:0:0:0:
183,120,6020,1,8,0:0:0:0:
190,169,6121,1,0,3:0:0:0:
197,213,6222,1,0,3:0:0:0:
206,257,6322,2,0,L|276:250,1,50,10|8,0:0|0:0,0:0:0:0:
395,109,6524,2,0,L|325:100,1,50,10|0,0:0|3:0,0:0:0:0:
465,242,6725,2,0,L|457:179,1,50,2|0,3:2|3:0,0:0:0:0:
403,365,6926,5,6,3:2:0:0:
378,364,7329,1,2,3:2:0:0:
354,361,7732,1,0,3:0:0:0:
331,353,8135,1,0,3:0:0:0:
233,245,8537,5,0,3:2:0:0:
238,268,8940,1,2,3:2:0:0:
238,292,9343,1,0,3:0:0:0:
231,315,9745,1,2,3:2:0:0:
136,302,9947,2,0,L|143:263,1,29.9999990844727,2|2,0:3|0:3,0:0:0:0:
65,210,10148,5,2,3:2:0:0:
82,193,10551,1,2,3:2:0:0:
103,182,10953,1,0,3:0:0:0:
125,175,11356,1,0,3:0:0:0:
224,78,11759,5,0,3:2:0:0:
239,58,12161,2,0,P|286:64|316:60,1,59.9999981689454,2|2,3:2|3:0,0:0:0:0:
412,166,12564,2,0,P|365:160|335:164,1,59.9999981689454,0|2,3:0|3:0,0:0:0:0:
248,236,12967,1,8,3:2:0:0:
156,365,13369,5,2,3:2:0:0:
151,341,13772,1,2,3:2:0:0:
153,317,14175,1,0,3:0:0:0:
71,215,14577,1,8,3:2:0:0:
207,76,14980,5,2,3:2:0:0:
203,99,15383,1,2,3:2:0:0:
204,122,15786,1,0,3:0:0:0:
304,240,16188,1,8,3:2:0:0:
441,55,16591,5,2,3:2:0:0:
418,47,16994,1,2,3:2:0:0:
294,156,17396,1,2,3:0:0:0:
406,224,17598,1,8,0:0:0:0:
406,224,17698,1,8,0:0:0:0:
406,224,17799,1,8,0:0:0:0:
299,298,18000,1,2,3:2:0:0:
197,108,18202,5,14,3:2:0:0:
160,301,18403,1,0,3:2:0:0:
258,374,18604,5,8,3:2:0:0:
127,192,18806,1,10,0:0:0:0:
127,192,19208,5,0,3:0:0:0:
206,40,19410,2,0,L|209:117,1,60,14|0,3:2|0:0,0:0:0:0:
237,132,19812,6,0,P|290:145|369:107,1,139.999995727539,6|2,3:2|3:2,0:0:0:0:
495,222,20416,2,0,P|444:215|404:230,1,69.9999978637696,2|0,0:0|3:0,0:0:0:0:
348,361,20819,2,0,L|340:281,1,69.9999978637696,2|0,0:0|3:0,0:0:0:0:
165,199,21222,1,2,0:3:0:0:
165,199,21322,1,2,0:3:0:0:
165,199,21423,6,0,P|112:195|80:210,1,69.9999978637696,2|0,3:2|0:0,0:0:0:0:
19,323,21826,1,0,3:2:0:0:
103,384,22027,2,0,L|175:378,1,69.9999978637696,0|0,0:0|3:0,0:0:0:0:
271,223,22430,1,2,0:3:0:0:
175,289,22631,1,2,3:2:0:0:
308,382,22832,1,2,0:3:0:0:
308,382,22933,1,2,0:3:0:0:
308,382,23034,6,0,P|330:320|310:242,1,139.999995727539,2|2,3:2|3:2,0:0:0:0:
249,140,23638,1,2,0:0:0:0:
223,310,23839,1,0,3:2:0:0:
374,185,24041,2,0,P|387:144|377:102,1,69.9999978637696,2|0,0:0|3:0,0:0:0:0:
320,3,24443,1,2,0:3:0:0:
223,156,24645,5,0,3:2:0:0:
151,47,24846,1,2,0:3:0:0:
55,189,25047,2,0,P|47:228|58:279,1,69.9999978637696,2|0,3:2|0:0,0:0:0:0:
178,251,25450,2,0,P|186:290|175:341,1,69.9999978637696,2|0,3:0|0:0,0:0:0:0:
55,189,25853,1,8,3:2:0:0:
221,69,26054,1,2,0:0:0:0:
221,69,26155,1,2,0:0:0:0:
221,69,26255,6,0,P|261:57|309:143,1,139.999995727539,6|2,3:2|3:2,0:0:0:0:
366,258,26859,1,2,0:0:0:0:
259,226,27061,1,0,3:0:0:0:
259,226,27463,1,8,3:2:0:0:
158,201,27665,1,2,0:0:0:0:
33,104,27866,5,2,3:2:0:0:
171,87,28067,1,2,0:0:0:0:
54,203,28269,1,2,3:2:0:0:
123,309,28470,2,0,L|194:314,1,69.9999978637696,2|0,0:0|3:0,0:0:0:0:
192,313,29074,1,8,3:2:0:0:
268,247,29275,1,2,0:0:0:0:
372,132,29477,5,2,3:2:0:0:
498,188,29678,1,2,0:0:0:0:
365,294,29879,1,2,3:2:0:0:
390,108,30081,2,0,L|313:104,1,69.9999978637696,2|0,0:0|3:0,0:0:0:0:
220,33,30483,1,2,0:0:0:0:
137,174,30685,1,12,3:2:0:0:
29,0,30886,1,2,0:0:0:0:
29,0,30987,1,2,0:0:0:0:
29,0,31088,6,0,L|28:76,1,69.9999978637696,2|0,3:2|0:0,0:0:0:0:
79,243,31490,1,8,0:0:0:0:
233,72,31692,1,2,0:0:0:0:
193,79,31792,1,8,0:0:0:0:
156,84,31893,1,8,3:2:0:0:
94,162,32094,1,0,3:0:0:0:
79,243,32296,1,2,3:2:0:0:
116,313,32497,1,0,3:0:0:0:
247,381,32698,5,6,3:2:0:0:
317,312,32900,2,0,L|321:233,2,59.9999981689454,2|0|0,0:0|0:0|3:0,0:0:0:0:
399,216,33504,5,2,0:2:0:0:
418,328,33806,1,2,0:0:0:0:
418,328,33906,1,8,0:0:0:0:
429,241,34108,1,2,0:0:0:0:
401,103,34309,5,2,3:2:0:0:
325,45,34510,2,0,L|246:49,2,59.9999981689454,2|0|0,0:0|0:0|3:0,0:0:0:0:
212,117,35114,5,2,0:2:0:0:
323,138,35416,1,2,0:0:0:0:
323,138,35517,1,8,0:0:0:0:
234,146,35718,1,2,0:0:0:0:
163,40,35920,5,2,3:2:0:0:
107,117,36121,2,0,L|103:196,2,59.9999981689454,2|0|0,0:0|0:0|3:0,0:0:0:0:
24,221,36725,5,2,0:0:0:0:
25,106,37027,1,2,0:0:0:0:
25,106,37128,1,8,0:0:0:0:
0,193,37329,1,2,0:0:0:0:
68,314,37530,6,0,P|98:305|150:301,1,59.9999981689454,2|0,3:2|0:0,0:0:0:0:
239,228,37933,2,0,P|198:222|167:223,1,59.9999981689454,2|0,3:2|3:0,0:0:0:0:
242,384,38336,1,2,0:0:0:0:
326,321,38537,1,0,3:0:0:0:
216,356,38739,1,10,0:0:0:0:
468,280,39141,5,6,3:2:0:0:
402,208,39343,2,0,L|406:142,2,59.9999981689454,2|0|0,0:0|0:0|3:0,0:0:0:0:
325,95,39947,2,0,B|289:102|256:99|261:79|229:73|189:86,1,119.999996337891,2|8,0:0|0:0,0:0:0:0:
132,132,40551,1,2,0:0:0:0:
226,255,40752,5,2,3:2:0:0:
277,177,40953,1,2,0:0:0:0:
134,220,41155,1,2,0:0:0:0:
299,315,41356,1,2,3:2:0:0:
299,315,41759,1,2,3:2:0:0:
334,107,41960,1,10,0:0:0:0:
206,342,42363,6,0,P|153:357|109:355,1,80,4|0,3:2|0:0,0:0:0:0:
44,190,42765,2,0,L|44:280,1,80,2|0,3:2|0:0,0:0:0:0:
294,286,43168,2,0,L|294:206,1,80,2|0,3:2|0:0,0:0:0:0:
118,85,43571,1,2,3:2:0:0:
260,7,43772,2,0,P|309:7|344:18,1,80,2|0,0:0|3:2,0:0:0:0:
436,136,44175,5,2,0:0:0:0:
294,206,44376,1,2,3:2:0:0:
118,85,44577,2,0,P|173:77|266:122,1,160,2|2,0:0|0:0,0:0:0:0:
377,245,45181,1,0,3:2:0:0:
241,334,45383,1,2,0:0:0:0:
436,136,45584,6,0,L|379:139,3,40,14|0|0|0,3:2|3:0|3:0|3:0,0:0:0:0:
216,213,45987,2,0,L|272:217,1,40,2|0,3:2|3:0,0:0:0:0:
363,373,46188,1,2,3:2:0:0:
370,381,46289,1,0,3:2:0:0:
370,381,46390,2,0,L|376:336,1,40,0|0,3:2|3:2,0:0:0:0:
138,187,46591,1,10,0:0:0:0:
124,220,46692,1,8,0:0:0:0:
125,255,46792,5,8,0:0:0:0:
78,221,46893,1,8,0:0:0:0:
56,168,46994,1,8,0:0:0:0:
59,111,47094,1,8,0:0:0:0:
90,63,47195,5,10,0:0:0:0:
90,63,48403,5,2,3:2:0:0:
90,63,48806,6,0,P|156:79|223:75,1,119.999996337891,6|0,3:2|0:0,0:0:0:0:
424,316,49208,2,0,L|297:328,1,119.999996337891,10|0,0:0|0:0,0:0:0:0:
98,344,49510,1,10,0:0:0:0:
133,371,49611,2,0,B|114:309|114:309|134:231,1,119.999996337891,2|0,3:2|3:0,0:0:0:0:
445,39,50014,2,0,P|456:97|437:153,1,119.999996337891,10|0,0:0|0:0,0:0:0:0:
304,327,50416,5,2,3:2:0:0:
304,327,50618,1,0,3:3:0:0:
219,200,50819,1,8,0:0:0:0:
70,341,51020,1,2,0:0:0:0:
123,345,51121,1,10,0:0:0:0:
9,191,51322,1,0,3:0:0:0:
9,191,51423,1,2,3:2:0:0:
209,67,51624,1,10,0:0:0:0:
102,248,51826,1,2,0:0:0:0:
421,372,52027,6,0,L|427:236,1,119.999996337891,2|0,3:2|3:0,0:0:0:0:
162,9,52430,2,0,P|175:88|168:140,1,119.999996337891,10|0,0:0|0:0,0:0:0:0:
153,307,52732,1,10,0:0:0:0:
112,284,52832,2,0,B|173:266|173:266|253:290,1,119.999996337891,2|0,3:2|3:0,0:0:0:0:
435,71,53235,2,0,P|365:86|295:79,1,119.999996337891,10|0,0:0|0:0,0:0:0:0:
63,85,53638,5,2,3:2:0:0:
63,85,53839,1,0,3:0:0:0:
11,225,54041,1,8,0:0:0:0:
220,342,54242,1,0,3:0:0:0:
285,349,54343,1,8,0:0:0:0:
349,359,54443,5,10,0:0:0:0:
386,176,54645,1,2,3:2:0:0:
130,384,54846,5,10,0:2:0:0:
100,173,55047,1,2,0:0:0:0:
248,9,55249,6,0,B|300:-15|359:12|350:51|387:96|474:87,1,239.999992675781,6|8,3:2|0:0,0:0:0:0:
378,249,55853,1,2,0:0:0:0:
375,308,55953,1,8,0:0:0:0:
370,368,56054,1,2,0:0:0:0:
280,202,56255,1,0,3:0:0:0:
489,275,56457,1,8,0:0:0:0:
224,366,56658,1,2,0:0:0:0:
224,366,56759,1,0,3:0:0:0:
224,366,56859,6,0,P|155:368|93:341,1,119.999996337891,2|0,3:2|3:2,0:0:0:0:
0,204,57262,1,8,0:0:0:0:
193,125,57463,1,2,0:0:0:0:
253,128,57564,1,8,0:0:0:0:
312,134,57665,1,2,0:0:0:0:
108,2,57866,1,0,3:0:0:0:
110,228,58067,1,8,0:0:0:0:
304,24,58269,1,0,3:0:0:0:
304,24,58369,1,0,3:0:0:0:
304,24,58470,6,0,P|364:16|449:45,1,119.999996337891,2|0,3:2|3:0,0:0:0:0:
295,242,58873,1,10,0:0:0:0:
195,23,59074,1,0,3:0:0:0:
134,26,59175,1,8,0:0:0:0:
74,32,59275,1,2,0:0:0:0:
21,239,59477,1,0,3:0:0:0:
102,170,59678,1,8,0:0:0:0:
294,147,59879,1,2,0:0:0:0:
225,362,60081,5,2,3:2:0:0:
176,369,60181,1,0,3:0:0:0:
133,347,60282,1,0,3:0:0:0:
101,309,60383,1,0,3:0:0:0:
103,261,60483,5,2,3:2:0:0:
247,33,60685,1,2,3:2:0:0:
247,33,61088,1,6,3:2:0:0:
368,138,61289,1,10,0:0:0:0:
391,173,61390,1,8,0:0:0:0:
398,214,61490,1,8,0:0:0:0:
393,255,61591,1,8,0:0:0:0:
374,292,61692,6,0,L|247:284,1,119.999996337891,6|0,3:2|0:0,0:0:0:0:
31,96,62094,1,10,0:0:0:0:
11,361,62296,1,0,3:2:0:0:
76,368,62396,1,10,0:0:0:0:
227,188,62598,1,0,3:0:0:0:
286,181,62698,1,2,3:2:0:0:
458,379,62900,1,10,0:0:0:0:
505,210,63101,1,2,0:0:0:0:
446,70,63302,6,0,P|425:19|350:10,1,119.999996337891,2|0,3:2|3:0,0:0:0:0:
103,120,63705,1,10,0:0:0:0:
385,321,63906,1,2,3:2:0:0:
392,256,64007,1,10,0:0:0:0:
159,373,64208,1,0,3:0:0:0:
156,326,64309,1,2,3:2:0:0:
3,172,64510,1,10,0:0:0:0:
180,67,64712,1,2,0:0:0:0:
330,65,64913,6,0,P|388:81|460:61,1,119.999996337891,2|0,3:2|3:0,0:0:0:0:
509,312,65316,1,10,0:0:0:0:
159,373,65517,1,0,3:2:0:0:
224,380,65618,1,10,0:0:0:0:
402,178,65819,1,0,3:2:0:0:
355,181,65920,1,2,3:2:0:0:
159,373,66121,1,10,0:0:0:0:
86,156,66322,1,2,0:0:0:0:
354,349,66524,6,0,P|433:365|492:350,1,119.999996337891,2|0,3:2|3:0,0:0:0:0:
326,94,66926,1,10,0:0:0:0:
11,57,67128,2,2,B|-8:-6|66:-34|119:-2|123:73|79:130|29:157,1,239.999992675781,2|2,0:0|3:2,1:1:0:0:
9,328,67732,1,10,0:0:0:0:
192,217,67933,1,2,0:0:0:0:
457,251,68135,6,0,B|421:199|441:133|478:142|515:97|512:21,1,239.999992675781,6|8,3:2|0:2,0:0:0:0:
279,93,68739,1,2,0:0:0:0:
213,101,68839,1,8,0:0:0:0:
147,109,68940,1,2,0:0:0:0:
338,200,69141,1,0,3:0:0:0:
214,11,69343,1,8,0:0:0:0:
153,252,69544,1,2,0:0:0:0:
153,252,69645,1,0,3:0:0:0:
153,252,69745,6,0,P|140:316|156:374,1,119.999996337891,2|0,3:2|3:0,0:0:0:0:
361,289,70148,1,8,0:0:0:0:
146,154,70349,1,2,0:0:0:0:
80,146,70450,1,8,0:0:0:0:
14,138,70551,1,2,0:0:0:0:
170,50,70752,1,0,3:0:0:0:
58,246,70953,1,8,0:0:0:0:
311,194,71155,1,2,0:0:0:0:
311,194,71255,1,0,3:0:0:0:
311,194,71356,6,0,P|375:180|437:199,1,119.999996337891,2|0,3:2|3:0,0:0:0:0:
261,374,71759,1,10,0:0:0:0:
176,129,71960,1,2,0:0:0:0:
183,182,72061,1,10,0:0:0:0:
331,22,72262,1,0,3:0:0:0:
331,22,72363,1,2,3:2:0:0:
238,261,72564,1,12,0:0:0:0:
89,0,72765,1,2,0:0:0:0:
1,279,72967,5,2,3:2:0:0:
48,287,73067,1,0,3:2:0:0:
89,263,73168,1,0,3:2:0:0:
107,219,73269,1,0,3:2:0:0:
95,172,73369,5,2,3:2:0:0:
326,126,73571,1,10,3:2:0:0:
326,126,73973,1,14,3:2:0:0:
308,164,74074,1,8,0:0:0:0:
309,205,74175,1,8,0:0:0:0:
327,242,74275,1,8,0:0:0:0:
345,280,74376,1,8,0:0:0:0:
352,321,74477,1,8,0:0:0:0:
341,364,74577,6,0,P|257:357|154:392,1,179.999994506836,6|2,3:2|3:2,0:0:0:0:
210,107,75383,2,0,P|276:85|250:170,1,179.999994506836,14|2,0:0|0:0,0:0:0:0:
149,247,75987,1,0,3:0:0:0:
149,247,76088,1,0,3:0:0:0:
149,247,76188,6,0,P|151:195|113:149,1,89.9999972534181,2|8,3:2|0:0,0:0:0:0:
60,75,76591,1,2,3:2:0:0:
179,0,76792,2,0,P|235:10|285:1,1,89.9999972534181,2|8,3:2|0:0,0:0:0:0:
348,138,77195,2,0,P|292:128|242:137,1,89.9999972534181,2|0,3:2|0:0,0:0:0:0:
179,248,77598,1,2,3:2:0:0:
147,88,77799,5,14,0:0:0:0:
147,88,78202,5,0,3:2:0:0:
179,248,78403,1,0,3:2:0:0:
256,348,78604,5,8,3:2:0:0:
285,136,78806,1,8,3:2:0:0:
379,23,79007,5,8,3:2:0:0:
421,270,79208,1,10,3:2:0:0:
52,297,79410,6,0,B|108:233|56:149|35:182|-1:117|40:45|40:45|32:101|65:140,1,359.999989013672,6|8,3:2|3:2,0:0:0:0:
56,128,80316,1,8,0:0:0:0:
56,128,80416,5,10,0:0:0:0:
122,118,80517,1,8,0:0:0:0:
180,138,80618,2,0,L|181:192,1,44.999998626709,8|8,0:0|0:0,0:0:0:0:
260,342,80819,1,10,0:0:0:0:
323,357,80920,1,8,0:0:0:0:
381,342,81020,6,0,P|390:292|380:244,1,100,6|0,3:2|0:0,0:0:0:0:
278,102,81423,1,8,0:0:0:0:
146,282,81624,1,2,0:0:0:0:
137,336,81725,1,8,0:0:0:0:
16,194,81926,1,0,3:0:0:0:
16,194,82027,1,0,3:0:0:0:
248,144,82228,2,0,B|292:150|292:150|336:101|399:110,1,150,10|8,0:0|0:0,0:0:0:0:
429,84,82631,5,2,3:2:0:0:
414,271,82832,1,2,3:2:0:0:
312,384,83034,5,10,0:0:0:0:
248,144,83235,1,2,0:0:0:0:
229,92,83336,1,8,0:0:0:0:
210,40,83437,5,2,0:0:0:0:
111,275,83638,1,2,3:2:0:0:
5,23,83839,2,0,L|116:14,1,100,10|0,0:0|0:0,0:0:0:0:
423,120,84242,6,0,B|375:126|375:126|333:96,1,100,2|0,3:2|3:0,0:0:0:0:
111,275,84645,5,12,0:0:0:0:
229,92,84846,1,2,3:2:0:0:
124,136,85047,5,8,0:0:0:0:
314,277,85249,1,0,3:2:0:0:
414,298,85450,5,10,0:0:0:0:
161,380,85651,1,0,3:2:0:0:
5,147,85853,5,10,3:2:0:0:
50,116,85951,1,8,0:0:0:0:
104,105,86049,1,8,0:0:0:0:
157,117,86147,1,8,0:0:0:0:
203,146,86245,5,10,3:2:0:0:
205,126,86343,1,8,0:0:0:0:
207,106,86448,5,10,0:0:0:0:
251,129,86545,1,8,0:0:0:0:
300,139,86642,1,8,3:2:0:0:
348,130,86740,1,8,0:0:0:0:
387,99,86837,5,10,0:0:0:0:
367,96,86935,1,8,0:0:0:0:
346,93,87032,6,0,L|282:104,3,50,2|0|0|0,3:2|3:2|3:2|3:2,3:2:0:0:
255,31,87422,5,14,3:2:0:0:
256,192,87519,12,0,88980,0:0:0:0:
