osu file format v14

[General]
AudioFilename: audio.mp3
AudioLeadIn: 0
PreviewTime: 59927
Countdown: 0
SampleSet: Soft
StackLeniency: 0.7
Mode: 0
LetterboxInBreaks: 0
WidescreenStoryboard: 1

[Editor]
DistanceSpacing: 2.3
BeatDivisor: 4
GridSize: 16
TimelineZoom: 2.1

[Metadata]
Title:disillusion (TV Size)
TitleUnicode:disillusion(TVサイズ)
Artist:Sachi Tainaka
ArtistUnicode:タイナカサチ
Creator:Ora
Version:Mistaken
Source:Fate/stay night
Tags:Kenji Kawai opening Tainaka Sachi ora
BeatmapID:1088033
BeatmapSetID:511881

[Difficulty]
HPDrainRate:6
CircleSize:4.3
OverallDifficulty:7.7
ApproachRate:9
SliderMultiplier:1.7
SliderTickRate:1

[Events]
//Background and Video events
Video,1734,"video.mp4"
0,0,"687474703a2f2f692e696d6775722e636f6d2f41596b6e62684a2e6a7067.jpg",0,0
//Break Periods
//Storyboard Layer 0 (Background)
//Storyboard Layer 1 (Fail)
//Storyboard Layer 2 (Pass)
//Storyboard Layer 3 (Foreground)
//Storyboard Sound Samples

[TimingPoints]
7428,357.142857142857,4,2,1,40,1,0
9392,-117.647058823529,4,2,1,40,0,0
9749,-100,4,2,1,40,0,0
12249,-117.647058823529,4,2,1,40,0,0
12606,-100,4,2,1,40,0,0
15107,-117.647058823529,4,2,1,40,0,0
15464,-100,4,2,1,40,0,0
17964,-117.647058823529,4,2,1,40,0,0
18321,-100,4,2,1,40,0,0
20821,-117.647058823529,4,2,1,40,0,0
21178,-100,4,2,1,40,0,0
23678,-117.647058823529,4,2,1,40,0,0
24035,-100,4,2,1,40,0,0
26535,-117.647058823529,4,2,1,40,0,0
26892,-100,4,2,1,40,0,0
27964,-117.647058823529,4,2,1,40,0,0
28321,-100,4,2,1,40,0,0
28856,-117.647058823529,4,2,1,40,0,0
30999,-100,4,2,1,40,0,0
32249,-117.647058823529,4,2,1,40,0,0
32606,-100,4,2,1,40,0,0
35106,-117.647058823529,4,2,1,40,0,0
35463,-100,4,2,1,40,0,0
36535,-117.647058823529,4,2,1,40,0,0
36892,-100,4,2,1,40,0,0
39391,-117.647058823529,4,2,1,40,0,0
39749,-100,4,2,1,40,0,0
40821,-117.647058823529,4,2,1,40,0,0
41178,-100,4,2,1,40,0,0
43678,-117.647058823529,4,2,1,40,0,0
44035,-100,4,2,1,40,0,0
46535,-117.647058823529,4,2,1,40,0,0
46892,-100,4,2,1,40,0,0
47964,-117.647058823529,4,2,1,40,0,0
48321,-100,4,2,1,40,0,0
49392,-117.647058823529,4,2,1,40,0,0
49749,-100,4,2,1,40,0,0
50821,-117.647058823529,4,2,1,40,0,0
51178,-100,4,2,1,40,0,0
52249,-117.647058823529,4,2,1,40,0,0
52606,-100,4,2,1,40,0,0
53678,-117.647058823529,4,2,1,40,0,0
54035,-100,4,2,1,40,0,0
60285,-90.9090909090909,4,2,1,40,0,1
82785,-90.9090909090909,4,2,1,40,0,0

[HitObjects]
201,245,8320,5,0,0:0:0:0:
308,135,8499,2,0,P|328:179|324:246,1,85
244,85,8856,2,0,P|283:58|323:55,2,85
150,176,9392,2,0,P|100:186|21:132,1,144.500002756119
75,21,9928,6,0,P|99:54|106:96,1,85
10,237,10285,1,0,0:0:0:0:
150,176,10463,1,0,0:0:0:0:
157,329,10642,1,0,0:0:0:0:
87,222,10820,1,0,0:0:0:0:
225,287,10999,1,0,0:0:0:0:
79,330,11178,1,0,0:0:0:0:
150,176,11356,2,0,P|196:173|239:181,1,85,8|0,0:0|0:0,0:0:0:0:
345,285,11713,5,0,0:0:0:0:
460,184,11892,1,0,0:0:0:0:
460,184,11981,1,0,0:0:0:0:
460,184,12070,1,0,0:0:0:0:
317,130,12249,2,0,P|314:73|397:25,1,144.500002756119
472,110,12785,6,0,P|413:108|375:96,1,85
250,34,13142,1,0,0:0:0:0:
270,185,13320,1,0,0:0:0:0:
151,87,13499,1,0,0:0:0:0:
316,130,13678,1,0,0:0:0:0:
186,210,13856,1,0,0:0:0:0:
151,87,14035,1,0,0:0:0:0:
279,197,14213,2,0,P|287:236|273:288,1,85,8|0,0:0|0:0,0:0:0:0:
140,345,14570,5,0,0:0:0:0:
40,228,14749,1,0,0:0:0:0:
40,228,14838,1,0,0:0:0:0:
40,228,14928,1,0,0:0:0:0:
165,140,15106,2,0,B|214:127|214:127|336:145,1,170
458,230,15642,2,0,P|454:272|437:311,1,85
293,259,15999,6,0,P|334:251|377:251,1,85
377,251,16535,1,0,0:0:0:0:
227,215,16714,2,0,P|216:265|232:309,1,85
342,140,17071,2,0,P|353:90|337:46,1,85,8|0,0:0|0:0,0:0:0:0:
195,22,17428,5,0,0:0:0:0:
56,85,17606,1,0,0:0:0:0:
56,85,17696,1,0,0:0:0:0:
56,85,17785,1,0,0:0:0:0:
86,211,17964,6,0,P|126:224|229:213,1,144.500002756119
358,137,18499,1,0,0:0:0:0:
299,249,18677,1,0,0:0:0:0:
284,96,18856,1,0,0:0:0:0:
375,219,19035,1,0,0:0:0:0:
255,175,19213,1,0,0:0:0:0:
353,57,19392,1,0,0:0:0:0:
401,201,19570,6,0,P|402:247|393:301,1,85
204,319,19927,1,8,0:0:0:0:
261,204,20106,1,0,0:0:0:0:
306,350,20285,1,0,0:0:0:0:
196,243,20463,1,0,0:0:0:0:
196,243,20552,1,0,0:0:0:0:
196,243,20642,1,0,0:0:0:0:
298,130,20820,6,0,B|431:120|431:120|477:141,1,170
467,288,21356,1,0,0:0:0:0:
339,299,21535,1,0,0:0:0:0:
415,197,21713,1,0,0:0:0:0:
410,350,21892,1,0,0:0:0:0:
278,243,22070,1,0,0:0:0:0:
415,197,22249,1,0,0:0:0:0:
339,299,22427,1,0,0:0:0:0:
289,153,22606,1,0,0:0:0:0:
148,289,22785,2,0,L|158:377,1,85,8|0,0:0|0:0,0:0:0:0:
64,201,23142,6,0,P|63:155|78:111,1,85
92,88,23410,1,0,0:0:0:0:
92,88,23499,1,0,0:0:0:0:
203,196,23678,2,0,P|147:203|182:132,1,144.500002756119
306,151,24214,2,0,P|316:195|304:243,1,85
262,88,24570,5,0,0:0:0:0:
380,136,24749,1,0,0:0:0:0:
203,196,24927,1,0,0:0:0:0:
138,56,25106,1,0,0:0:0:0:
262,88,25285,2,0,L|348:67,1,85
466,221,25642,2,0,L|384:201,1,85,8|0,0:0|0:0,0:0:0:0:
249,275,25999,5,0,0:0:0:0:
216,126,26178,1,0,0:0:0:0:
216,126,26267,1,0,0:0:0:0:
216,126,26356,1,0,0:0:0:0:
308,220,26535,2,0,P|329:270|280:352,1,144.500002756119
292,193,27071,2,0,P|337:184|377:187,1,85,8|0,0:0|0:0,0:0:0:0:
246,104,27428,5,0,0:0:0:0:
398,111,27607,1,0,0:0:0:0:
398,111,27696,1,0,0:0:0:0:
398,111,27785,1,0,0:0:0:0:
292,46,27964,2,0,P|230:31|170:99,1,144.500002756119
125,270,28499,2,0,L|141:378,1,85,8|0,0:0|0:0,0:0:0:0:
259,307,28856,6,0,P|333:304|402:335,1,144.500002756119
284,217,29392,2,0,P|349:251|393:312,1,144.500002756119
351,152,29928,2,0,P|390:214|398:289,1,144.500002756119,8|8,0:0|0:0,0:0:0:0:
437,131,30463,2,0,P|439:204|409:273,1,144.500002756119
268,320,30999,1,0,0:0:0:0:
220,201,31177,1,0,0:0:0:0:
407,142,31356,1,0,0:0:0:0:
283,233,31535,1,0,0:0:0:0:
200,104,31713,5,0,0:0:0:0:
140,246,31892,1,0,0:0:0:0:
140,246,31981,1,0,0:0:0:0:
140,246,32070,1,0,0:0:0:0:
63,143,32249,2,0,P|122:116|204:105,1,144.500002756119
354,115,32785,1,0,0:0:0:0:
308,234,32963,1,0,0:0:0:0:
282,82,33142,5,0,0:0:0:0:
398,238,33320,2,0,P|350:320|283:324,1,170,8|0,0:0|0:0,0:0:0:0:
251,310,33766,1,0,0:0:0:0:
251,310,33856,1,0,0:0:0:0:
144,201,34034,1,0,0:0:0:0:
198,57,34213,1,0,0:0:0:0:
351,55,34392,2,0,P|385:46|406:33,1,42.5
416,116,34571,6,0,P|451:142|474:194,2,85
277,154,35106,2,0,P|225:152|132:88,1,144.500002756119
305,221,35642,2,0,P|314:265|310:312,1,85,8|0,0:0|0:0,0:0:0:0:
184,218,35999,5,0,0:0:0:0:
104,349,36178,1,0,0:0:0:0:
64,228,36356,1,0,0:0:0:0:
170,304,36535,2,0,B|219:319|219:319|316:303,1,144.500002756119
359,114,37071,1,8,0:0:0:0:
234,202,37249,1,0,0:0:0:0:
386,211,37427,6,0,P|432:188|452:157,2,85
234,202,37963,2,0,P|191:270|230:357,1,170
412,313,38499,6,0,P|369:284|332:282,1,85
219,348,38856,1,0,0:0:0:0:
107,286,39035,1,0,0:0:0:0:
234,202,39213,1,0,0:0:0:0:
107,286,39392,2,0,P|88:223|112:126,1,144.500002756119
272,51,39928,2,0,P|218:63|179:62,1,85,8|0,0:0|0:0,0:0:0:0:
340,81,40285,2,0,P|377:121|396:156,1,85
424,297,40642,1,0,0:0:0:0:
280,348,40820,2,0,B|247:356|220:357|220:357|182:348|142:352|142:352|122:315,1,170
246,228,41356,6,0,P|299:215|363:224,1,85
407,350,41714,6,0,P|420:297|411:232,1,85
414,233,41981,1,0,0:0:0:0:
414,233,42071,1,0,0:0:0:0:
310,121,42249,1,0,0:0:0:0:
160,150,42427,2,0,P|149:95|157:54,1,85
328,153,42784,2,0,P|339:208|331:249,1,85,8|0,0:0|0:0,0:0:0:0:
425,361,43142,6,0,P|477:363|517:351,2,85
301,318,43678,2,0,P|227:314|148:334,1,144.500002756119
306,288,44214,2,0,P|309:239|295:180,1,85,8|0,0:0|0:0,0:0:0:0:
196,72,44570,5,0,0:0:0:0:
56,170,44749,1,0,0:0:0:0:
198,224,44927,1,0,0:0:0:0:
115,74,45106,1,0,0:0:0:0:
262,114,45285,1,0,0:0:0:0:
198,224,45463,1,0,0:0:0:0:
45,100,45642,1,8,0:0:0:0:
190,144,45820,1,0,0:0:0:0:
121,280,45999,6,0,P|79:256|53:220,2,85
250,296,46535,2,0,B|305:288|305:288|407:309,1,144.500002756119
241,276,47071,2,0,P|228:235|226:192,1,85,8|0,0:0|0:0,0:0:0:0:
240,40,47428,5,0,0:0:0:0:
304,178,47606,1,0,0:0:0:0:
159,127,47785,1,0,0:0:0:0:
287,103,47964,2,0,P|333:108|379:195,1,144.500002756119
282,354,48499,2,0,L|192:364,1,85,8|0,0:0|0:0,0:0:0:0:
323,276,48856,6,0,L|413:286,2,85
267,158,49392,2,0,P|242:99|259:10,1,144.500002756119
252,234,49928,2,0,P|209:236|168:228,1,85,8|0,0:0|0:0,0:0:0:0:
63,118,50285,5,0,0:0:0:0:
212,83,50464,1,0,0:0:0:0:
169,229,50642,1,0,0:0:0:0:
243,75,50821,2,0,B|299:62|299:62|413:80,1,144.500002756119
486,242,51356,2,0,P|484:193|497:150,1,85,8|0,0:0|0:0,0:0:0:0:
356,261,51714,6,0,P|372:299|378:341,2,85
225,340,52249,2,0,P|164:325|58:358,1,144.500002756119
193,233,52785,2,0,P|252:246|287:264,1,85,8|0,0:0|0:0,0:0:0:0:
122,233,53142,6,0,P|103:175|101:136,1,85
102,116,53410,1,0,0:0:0:0:
102,116,53499,1,0,0:0:0:0:
208,41,53678,2,0,L|380:33,1,144.500002756119
450,203,54214,2,0,L|333:197,1,85,8|0,0:0|0:0,0:0:0:0:
216,234,54571,6,0,P|206:273|204:326,2,85
310,149,55106,2,0,P|304:110|284:58,2,85
329,301,55642,1,8,0:0:0:0:
212,352,55821,1,0,0:0:0:0:
95,301,55999,5,0,0:0:0:0:
50,181,56178,1,0,0:0:0:0:
145,216,56356,1,0,0:0:0:0:
141,114,56535,1,0,0:0:0:0:
311,194,56713,5,0,0:0:0:0:
145,216,56892,1,0,0:0:0:0:
302,100,57070,1,8,0:0:0:0:
141,114,57249,1,0,0:0:0:0:
234,247,57428,5,0,0:0:0:0:
234,247,57785,2,0,P|287:285|391:245,1,170,12|0,0:0|0:0,0:0:0:0:
381,257,58320,2,0,P|328:219|224:259,1,170,8|0,0:0|0:0,0:0:0:0:
114,341,58856,5,0,0:0:0:0:
111,315,58945,2,0,P|95:258|64:210,1,85
43,169,59214,1,0,0:0:0:0:
81,149,59303,1,0,0:0:0:0:
122,139,59392,1,0,0:0:0:0:
164,140,59481,1,0,0:0:0:0:
205,152,59571,1,0,0:0:0:0:
243,171,59660,1,0,0:0:0:0:
284,182,59749,1,0,0:0:0:0:
326,181,59839,1,0,0:0:0:0:
366,168,59928,5,0,0:0:0:0:
370,151,60017,1,0,0:0:0:0:
373,134,60106,1,0,0:0:0:0:
376,117,60196,1,0,0:0:0:0:
379,100,60285,6,0,L|279:80,1,93.5000028533936,4|0,0:0|0:0,0:0:0:0:
461,50,60641,1,8,0:0:0:0:
434,216,60820,1,0,0:0:0:0:
269,180,60999,2,0,L|178:159,1,93.5000028533936
332,264,61356,2,0,P|284:283|242:283,1,93.5000028533936,8|0,0:0|0:0,0:0:0:0:
79,238,61713,5,0,0:0:0:0:
79,238,61802,1,0,0:0:0:0:
79,238,61891,1,0,0:0:0:0:
187,108,62070,1,8,0:0:0:0:
221,320,62249,1,0,0:0:0:0:
158,194,62427,1,0,0:0:0:0:
287,171,62606,1,0,0:0:0:0:
146,278,62784,1,8,0:0:0:0:
71,106,62963,1,0,0:0:0:0:
158,194,63141,6,0,P|211:192|265:174,1,93.5000028533936
287,171,63409,1,0,0:0:0:0:
287,171,63499,1,8,0:0:0:0:
438,242,63677,1,0,0:0:0:0:
337,106,63856,2,0,P|331:58|339:13,1,93.5000028533936
439,149,64213,2,0,P|445:197|437:242,1,93.5000028533936,8|0,0:0|0:0,0:0:0:0:
298,336,64570,5,0,0:0:0:0:
265,329,64659,1,0,0:0:0:0:
233,329,64748,1,0,0:0:0:0:
201,335,64837,1,0,0:0:0:0:
170,346,64927,2,0,P|115:339|72:313,1,93.5000028533936,8|0,0:0|0:0,0:0:0:0:
41,157,65284,1,0,0:0:0:0:
149,246,65463,1,0,0:0:0:0:
168,107,65642,1,8,0:0:0:0:
42,250,65820,1,0,0:0:0:0:
187,90,65999,6,0,P|240:83|304:96,1,93.5000028533936
314,100,66266,1,0,0:0:0:0:
314,100,66356,1,8,0:0:0:0:
475,54,66534,1,0,0:0:0:0:
469,194,66713,2,0,L|464:308,1,93.5000028533936
279,317,67070,1,8,0:0:0:0:
211,194,67249,1,0,0:0:0:0:
314,100,67427,6,0,L|419:88,1,93.5000028533936
243,49,67784,2,0,L|138:37,1,93.5000028533936,8|0,0:0|0:0,0:0:0:0:
71,187,68141,1,0,0:0:0:0:
23,54,68320,1,0,0:0:0:0:
177,120,68499,1,8,0:0:0:0:
126,280,68677,1,0,0:0:0:0:
240,198,68856,6,0,P|274:128|277:99,1,93.5000028533936
285,77,69124,1,0,0:0:0:0:
285,77,69213,1,8,0:0:0:0:
119,52,69391,2,0,B|97:112|97:112|119:242,1,187.000005706787
164,366,69927,2,0,P|225:364|264:352,1,93.5000028533936,8|0,0:0|0:0,0:0:0:0:
370,273,70284,6,0,P|430:275|469:287,2,93.5000028533936,0|0|8,0:0|0:0|0:0,0:0:0:0:
201,278,70820,1,0,0:0:0:0:
288,133,70999,1,0,0:0:0:0:
281,166,71088,1,0,0:0:0:0:
281,198,71177,1,0,0:0:0:0:
287,230,71266,1,0,0:0:0:0:
298,261,71356,1,0,0:0:0:0:
296,298,71445,1,0,0:0:0:0:
282,332,71534,1,0,0:0:0:0:
255,358,71623,1,0,0:0:0:0:
221,373,71713,6,0,L|119:360,1,93.5000028533936,4|0,0:0|0:0,0:0:0:0:
43,215,72070,1,8,0:0:0:0:
180,194,72249,1,0,0:0:0:0:
27,125,72427,2,0,L|14:32,1,93.5000028533936
192,102,72784,2,0,L|179:194,1,93.5000028533936,8|0,0:0|0:0,0:0:0:0:
120,67,73141,5,0,0:0:0:0:
141,42,73230,1,0,0:0:0:0:
170,28,73319,1,0,0:0:0:0:
203,25,73410,1,0,0:0:0:0:
234,35,73499,2,0,L|329:68,1,93.5000028533936,8|0,0:0|0:0,0:0:0:0:
481,123,73856,1,0,0:0:0:0:
297,155,74034,1,0,0:0:0:0:
416,228,74213,1,8,0:0:0:0:
400,60,74391,1,0,0:0:0:0:
297,155,74570,6,0,P|281:221|286:262,1,93.5000028533936
290,282,74838,1,0,0:0:0:0:
290,282,74927,1,8,0:0:0:0:
115,155,75106,1,0,0:0:0:0:
288,85,75284,1,0,0:0:0:0:
102,55,75463,1,0,0:0:0:0:
233,186,75641,1,8,0:0:0:0:
206,19,75820,1,0,0:0:0:0:
136,176,75999,6,0,L|144:275,1,93.5000028533936
290,352,76356,2,0,L|297:258,1,93.5000028533936,8|0,0:0|0:0,0:0:0:0:
107,157,76713,1,0,0:0:0:0:
286,108,76891,1,0,0:0:0:0:
209,225,77070,1,8,0:0:0:0:
180,58,77249,1,0,0:0:0:0:
348,55,77427,6,0,P|365:106|356:151,1,93.5000028533936
346,179,77695,1,0,0:0:0:0:
346,179,77784,1,8,0:0:0:0:
243,290,77963,2,0,B|188:308|188:308|55:282,1,187.000005706787
36,116,78499,2,0,L|138:135,1,93.5000028533936,8|0,0:0|0:0,0:0:0:0:
219,274,78856,5,0,0:0:0:0:
196,269,78945,1,0,0:0:0:0:
173,265,79034,1,0,0:0:0:0:
150,261,79123,1,0,0:0:0:0:
126,256,79213,2,0,L|24:237,1,93.5000028533936,8|0,0:0|0:0,0:0:0:0:
193,183,79570,1,0,0:0:0:0:
240,343,79749,1,0,0:0:0:0:
331,148,79927,1,8,0:0:0:0:
314,315,80106,1,0,0:0:0:0:
125,163,80284,6,0,P|155:123|202:112,1,93.5000028533936
232,119,80552,1,0,0:0:0:0:
232,119,80642,1,8,0:0:0:0:
380,199,80820,1,0,0:0:0:0:
241,224,80999,1,0,0:0:0:0:
338,87,81177,1,0,0:0:0:0:
396,284,81356,1,8,0:0:0:0:
450,155,81534,1,0,0:0:0:0:
263,129,81713,5,0,0:0:0:0:
221,129,81802,1,0,0:0:0:0:
183,146,81891,1,0,0:0:0:0:
156,178,81980,1,0,0:0:0:0:
145,218,82070,2,0,L|155:314,1,93.5000028533936,8|0,0:0|0:0,0:0:0:0:
47,181,82427,2,0,L|56:87,1,93.5000028533936
220,51,82784,6,0,L|217:28,1,23.3750007133484
248,51,82874,2,0,L|253:29,1,23.3750007133484
270,61,82963,2,0,L|283:42,1,23.3750007133484
285,79,83052,2,0,L|305:63,1,23.3750007133484
298,102,83142,6,0,P|297:152|275:209,1,93.5000028533936,4|0,0:0|0:0,0:0:0:0:
152,352,83499,1,8,0:0:0:0:
31,210,83677,2,0,P|70:174|207:154,1,187.000005706787
361,193,84213,1,8,0:0:0:0:
446,337,84391,6,0,B|401:357|348:336|348:336|297:321|235:347,1,187.000005706787
396,269,84927,2,0,P|423:247|435:229,3,46.7500014266968
287,154,85284,2,0,P|268:140|252:122,3,46.7500014266968
416,100,85641,1,0,0:0:0:0:
419,91,85730,1,0,0:0:0:0:
422,82,85819,1,0,0:0:0:0:
424,73,85910,1,0,0:0:0:0:
423,62,85999,6,0,P|338:40|231:53,1,187.000005706787,0|8,0:0|0:0,0:0:0:0:
84,112,86534,1,0,0:0:0:0:
84,112,86891,1,0,0:0:0:0:
158,273,87070,2,0,P|161:321|151:368,1,93.5000028533936,8|0,0:0|0:0,0:0:0:0:
84,112,87606,5,0,0:0:0:0:
251,230,87784,1,8,0:0:0:0:
74,214,87963,1,0,0:0:0:0:
74,214,88052,1,0,0:0:0:0:
74,214,88141,1,8,0:0:0:0:
260,127,88320,1,0,0:0:0:0:
158,273,88499,1,8,0:0:0:0:
176,68,88677,1,8,0:0:0:0:
