osu file format v14

[General]
AudioFilename: audio.mp3
AudioLeadIn: 0
PreviewTime: 74646
Countdown: 1
SampleSet: Normal
StackLeniency: 0
Mode: 0
LetterboxInBreaks: 0
WidescreenStoryboard: 1

[Editor]
Bookmarks: 50753,164839
DistanceSpacing: 0.6
BeatDivisor: 4
GridSize: 32
TimelineZoom: 1.5

[Metadata]
Title:Boys (Summertime Love)
TitleUnicode:Boys (Summertime Love)
Artist:Sabrina
ArtistUnicode:Sabrina
Creator:- - Makrica - -
Version:Normal AR 5.0
Source:
Tags:Sabrina Boys Boys Boys Summertime Love oldmapping
BeatmapID:1849380
BeatmapSetID:884767

[Difficulty]
HPDrainRate:6
CircleSize:5
OverallDifficulty:7
ApproachRate:5
SliderMultiplier:1.4
SliderTickRate:1

[Events]
//Background and Video events
0,0,"1514141297154.jpg",0,0
//Break Periods
//Storyboard Layer 0 (Background)
//Storyboard Layer 1 (Fail)
//Storyboard Layer 2 (Pass)
//Storyboard Layer 3 (Foreground)
//Storyboard Sound Samples

[TimingPoints]
216,500.375281461096,4,1,0,100,1,0
11224,-66.6666666666667,4,1,0,100,0,0
11724,-50,4,1,0,100,0,0
12725,-100,4,1,0,100,0,0
15227,-66.6666666666667,4,1,0,100,0,0
15727,-50,4,1,0,100,0,0
16728,-100,4,1,0,100,0,0
19230,-66.6666666666667,4,1,0,100,0,0
19730,-50,4,1,0,100,0,0
20731,-100,4,1,0,100,0,0
23233,-66.6666666666667,4,1,0,100,0,0
23733,-50,4,1,0,100,0,0
24734,-100,4,1,0,100,0,0
25735,-100,4,1,0,100,0,0
42747,-100,4,1,0,100,0,0
46750,-100,4,1,0,100,0,0
47251,-66.6666666666667,4,1,0,100,0,0
47751,-50,4,1,0,100,0,0
48252,-100,4,1,0,100,0,0
49252,-50,4,1,0,100,0,0
50753,-100,4,1,0,100,0,0
54756,-100,4,1,0,100,0,0
55257,-66.6666666666667,4,1,0,100,0,0
55757,-50,4,1,0,100,0,0
56258,-100,4,1,0,100,0,0
74771,-100,4,1,0,100,0,1
90033,-100,4,1,0,100,0,0
103293,-66.6666666666667,4,1,0,100,0,0
103793,-50,4,1,0,100,0,0
104294,-100,4,1,0,100,0,0
105294,-50,4,1,0,100,0,0
106795,-100,4,1,0,100,0,0
111299,-66.6666666666667,4,1,0,100,0,0
111799,-50,4,1,0,100,0,0
112300,-100,4,1,0,100,0,0
130813,-100,4,1,0,100,0,1
146075,-100,4,1,0,100,0,0
154832,-100,4,1,0,100,0,0
186855,-100,4,1,0,100,0,0

[HitObjects]
248,195,216,5,0,2:0:0:0:
248,195,716,1,0,2:0:0:0:
248,195,1216,1,0,2:0:0:0:
248,195,1717,1,0,2:0:0:0:
248,195,2217,1,0,2:0:0:0:
384,32,2717,6,0,L|384:120,1,70,0|0,2:0|2:0,2:0:0:0:
128,32,3218,2,0,L|128:120,1,70,0|0,2:0|2:0,2:0:0:0:
384,192,3718,1,0,2:0:0:0:
128,192,3968,1,0,2:0:0:0:
128,192,4093,1,0,2:0:0:0:
128,352,4344,1,0,2:0:0:0:
128,352,4469,1,0,2:0:0:0:
384,352,4719,6,0,L|384:264,1,70,0|0,2:0|2:0,2:0:0:0:
128,352,5219,2,0,L|128:264,1,70,0|0,2:0|2:0,2:0:0:0:
384,192,5720,1,0,2:0:0:0:
128,192,5970,1,0,2:0:0:0:
128,192,6095,1,0,2:0:0:0:
128,32,6345,1,0,2:0:0:0:
128,32,6470,1,0,2:0:0:0:
416,32,6720,6,0,L|328:32,1,70,0|0,2:0|2:0,2:0:0:0:
416,288,7221,2,0,L|328:288,1,70,0|0,2:0|2:0,2:0:0:0:
256,32,7721,1,0,2:0:0:0:
256,288,7971,1,0,2:0:0:0:
256,288,8096,1,0,2:0:0:0:
96,288,8347,1,0,2:0:0:0:
96,288,8472,1,0,2:0:0:0:
96,32,8722,6,0,L|184:32,1,70,0|0,2:0|2:0,2:0:0:0:
96,288,9222,2,0,L|184:288,1,70,0|0,2:0|2:0,2:0:0:0:
256,32,9723,1,0,2:0:0:0:
256,288,9973,1,0,2:0:0:0:
256,288,10098,1,0,2:0:0:0:
416,288,10348,1,0,2:0:0:0:
416,288,10473,1,0,2:0:0:0:
96,96,10723,6,0,L|96:184,1,70,0|0,2:0|2:0,2:0:0:0:
192,96,11224,2,0,L|192:224,1,105.000004005432,0|0,2:0|2:0,2:0:0:0:
288,96,11724,2,0,L|288:256,1,140,0|0,2:0|2:0,2:0:0:0:
96,320,12225,1,0,2:0:0:0:
96,320,12475,1,0,2:0:0:0:
96,128,12725,2,0,L|96:58,1,70,0|0,2:0|2:0,2:0:0:0:
224,128,13225,2,0,L|224:58,1,70,0|0,2:0|2:0,2:0:0:0:
224,256,13726,1,0,2:0:0:0:
352,256,13976,1,0,2:0:0:0:
352,256,14101,1,0,2:0:0:0:
96,256,14351,1,0,2:0:0:0:
96,256,14476,1,0,2:0:0:0:
352,256,14726,6,0,L|352:168,1,70,0|0,2:0|2:0,2:0:0:0:
256,256,15227,2,0,L|256:128,1,105.000004005432,0|0,2:0|2:0,2:0:0:0:
160,256,15727,2,0,L|160:96,1,140,0|0,2:0|2:0,2:0:0:0:
352,32,16228,1,0,2:0:0:0:
352,32,16478,1,0,2:0:0:0:
352,224,16728,2,0,L|352:294,1,70,0|0,2:0|2:0,2:0:0:0:
224,224,17228,2,0,L|224:294,1,70,0|0,2:0|2:0,2:0:0:0:
224,96,17729,1,0,2:0:0:0:
352,96,17979,1,0,2:0:0:0:
352,96,18104,1,0,2:0:0:0:
96,96,18354,1,0,2:0:0:0:
96,96,18479,1,0,2:0:0:0:
352,96,18729,6,0,L|352:184,1,70,0|0,2:0|2:0,2:0:0:0:
256,96,19230,2,0,L|256:224,1,105.000004005432,0|0,2:0|2:0,2:0:0:0:
160,96,19730,2,0,L|160:256,1,140,0|0,2:0|2:0,2:0:0:0:
352,320,20231,1,0,2:0:0:0:
352,320,20481,1,0,2:0:0:0:
352,128,20731,2,0,L|352:58,1,70,0|0,2:0|2:0,2:0:0:0:
224,128,21231,2,0,L|224:58,1,70,0|0,2:0|2:0,2:0:0:0:
224,256,21732,1,0,2:0:0:0:
352,256,21982,1,0,2:0:0:0:
352,256,22107,1,0,2:0:0:0:
96,256,22357,1,0,2:0:0:0:
96,256,22482,1,0,2:0:0:0:
352,256,22732,6,0,L|264:256,1,70,0|0,2:0|2:0,2:0:0:0:
352,160,23233,2,0,L|224:160,1,105.000004005432,0|0,2:0|2:0,2:0:0:0:
352,64,23733,2,0,L|192:64,1,140,0|0,2:0|2:0,2:0:0:0:
128,256,24234,1,0,2:0:0:0:
128,256,24484,1,0,2:0:0:0:
320,256,24734,2,0,L|390:255,1,70,0|0,2:0|2:0,2:0:0:0:
320,128,25234,2,0,L|390:128,1,70,0|0,2:0|2:0,2:0:0:0:
512,128,25735,1,0,2:0:0:0:
448,64,25860,1,0,2:0:0:0:
384,128,25985,5,0,2:0:0:0:
320,128,26110,1,0,2:0:0:0:
256,128,26235,1,0,2:0:0:0:
192,128,26360,1,0,2:0:0:0:
128,128,26485,1,0,2:0:0:0:
64,128,26610,1,0,2:0:0:0:
64,192,26735,2,0,L|64:288,1,70,0|0,2:0|2:0,2:0:0:0:
192,192,27111,2,0,L|191:288,1,70,0|0,2:0|2:0,2:0:0:0:
320,192,27486,2,0,L|320:288,1,70,0|0,2:0|2:0,2:0:0:0:
256,384,27861,5,0,2:0:0:0:
256,321,27986,1,0,2:0:0:0:
256,257,28111,1,0,2:0:0:0:
256,192,28237,1,0,2:0:0:0:
256,129,28362,1,0,2:0:0:0:
256,65,28487,1,0,2:0:0:0:
256,1,28612,1,0,2:0:0:0:
320,1,28737,2,0,L|416:1,1,70,0|0,2:0|2:0,2:0:0:0:
320,129,29112,2,0,L|416:128,1,70,0|0,2:0|2:0,2:0:0:0:
320,257,29487,2,0,L|416:257,1,70,0|0,2:0|2:0,2:0:0:0:
512,192,29863,5,0,2:0:0:0:
449,192,29988,1,0,2:0:0:0:
385,192,30113,1,0,2:0:0:0:
320,192,30238,1,0,2:0:0:0:
257,192,30363,1,0,2:0:0:0:
193,192,30488,1,0,2:0:0:0:
129,192,30613,1,0,2:0:0:0:
129,129,30738,2,0,L|129:33,1,70,0|0,2:0|2:0,2:0:0:0:
257,128,31114,2,0,L|256:32,1,70,0|0,2:0|2:0,2:0:0:0:
385,128,31489,2,0,L|385:32,1,70,0|0,2:0|2:0,2:0:0:0:
320,0,31864,5,0,2:0:0:0:
320,63,31989,1,0,2:0:0:0:
320,127,32114,1,0,2:0:0:0:
320,192,32240,1,0,2:0:0:0:
320,255,32365,1,0,2:0:0:0:
320,319,32490,1,0,2:0:0:0:
128,192,32740,5,0,2:0:0:0:
128,192,32865,1,0,2:0:0:0:
128,192,32990,1,0,2:0:0:0:
384,192,33240,5,0,2:0:0:0:
384,192,33365,1,0,2:0:0:0:
384,192,33490,1,0,2:0:0:0:
96,320,33741,5,0,2:0:0:0:
64,384,33866,5,0,2:0:0:0:
128,384,33991,1,0,2:0:0:0:
192,384,34116,1,0,2:0:0:0:
256,384,34241,1,0,2:0:0:0:
320,384,34366,1,0,2:0:0:0:
384,384,34491,1,0,2:0:0:0:
448,384,34616,1,0,2:0:0:0:
448,320,34741,2,0,L|448:224,1,70,0|0,2:0|2:0,2:0:0:0:
320,320,35117,2,0,L|321:224,1,70,0|0,2:0|2:0,2:0:0:0:
192,320,35492,2,0,L|192:224,1,70,0|0,2:0|2:0,2:0:0:0:
256,384,35867,5,0,2:0:0:0:
256,321,35992,1,0,2:0:0:0:
256,257,36117,1,0,2:0:0:0:
256,192,36243,1,0,2:0:0:0:
256,129,36368,1,0,2:0:0:0:
256,65,36493,1,0,2:0:0:0:
256,1,36618,1,0,2:0:0:0:
192,1,36743,2,0,L|96:1,1,70,0|0,2:0|2:0,2:0:0:0:
192,129,37118,2,0,L|96:128,1,70,0|0,2:0|2:0,2:0:0:0:
192,257,37493,2,0,L|96:257,1,70,0|0,2:0|2:0,2:0:0:0:
0,192,37869,5,0,2:0:0:0:
63,192,37994,1,0,2:0:0:0:
127,192,38119,1,0,2:0:0:0:
192,192,38244,1,0,2:0:0:0:
255,192,38369,1,0,2:0:0:0:
319,192,38494,1,0,2:0:0:0:
383,192,38619,1,0,2:0:0:0:
383,129,38744,2,0,L|383:33,1,70,0|0,2:0|2:0,2:0:0:0:
255,128,39120,2,0,L|256:32,1,70,0|0,2:0|2:0,2:0:0:0:
127,128,39495,2,0,L|127:32,1,70,0|0,2:0|2:0,2:0:0:0:
192,0,39870,5,0,2:0:0:0:
192,63,39995,1,0,2:0:0:0:
192,127,40120,1,0,2:0:0:0:
192,192,40246,1,0,2:0:0:0:
192,255,40371,1,0,2:0:0:0:
192,319,40496,1,0,2:0:0:0:
384,192,40746,5,0,2:0:0:0:
384,192,40871,1,0,2:0:0:0:
384,192,40996,1,0,2:0:0:0:
128,192,41246,5,0,2:0:0:0:
128,192,41371,1,0,2:0:0:0:
128,192,41496,1,0,2:0:0:0:
352,320,41747,5,0,2:0:0:0:
128,320,41997,1,0,2:0:0:0:
128,320,42122,1,0,2:0:0:0:
128,96,42372,1,0,2:0:0:0:
128,96,42497,1,0,2:0:0:0:
256,96,42747,6,0,L|256:192,1,70,0|0,2:0|2:0,2:0:0:0:
137,249,43248,2,0,L|137:153,1,70,0|0,2:0|2:0,2:0:0:0:
256,256,43623,2,0,L|256:384,1,105,0|0,2:0|2:0,2:0:0:0:
96,352,44249,1,0,2:0:0:0:
96,160,44499,1,0,2:0:0:0:
96,160,44749,2,0,L|192:160,1,70,0|0,2:0|2:0,2:0:0:0:
249,41,45249,2,0,L|153:41,1,70,0|0,2:0|2:0,2:0:0:0:
256,160,45625,2,0,L|384:160,1,105,0|0,2:0|2:0,2:0:0:0:
224,288,46250,1,0,2:0:0:0:
224,288,46500,1,0,2:0:0:0:
96,96,46750,6,0,L|96:192,1,70,0|0,2:0|2:0,2:0:0:0:
192,96,47251,2,0,L|192:224,1,105.000004005432,0|0,2:0|2:0,2:0:0:0:
288,96,47751,2,0,L|288:288,1,140,0|0,2:0|2:0,2:0:0:0:
128,288,48252,2,0,L|192:320,2,70,0|0|0,2:0|2:0|2:0,2:0:0:0:
128,64,49002,1,0,2:0:0:0:
352,64,49252,2,0,L|288:192,1,140,0|0,2:0|2:0,2:0:0:0:
96,192,49753,1,0,2:0:0:0:
96,192,50003,1,0,2:0:0:0:
384,192,50253,2,0,L|320:64,1,140,0|0,2:0|2:0,2:0:0:0:
128,64,50753,6,0,L|128:160,1,70,0|0,2:0|2:0,2:0:0:0:
247,217,51254,2,0,L|247:121,1,70,0|0,2:0|2:0,2:0:0:0:
128,224,51629,2,0,L|128:352,1,105,0|0,2:0|2:0,2:0:0:0:
288,320,52255,1,0,2:0:0:0:
288,128,52505,1,0,2:0:0:0:
288,128,52755,2,0,L|192:128,1,70,0|0,2:0|2:0,2:0:0:0:
135,9,53255,2,0,L|231:9,1,70,0|0,2:0|2:0,2:0:0:0:
128,128,53631,2,0,L|0:128,1,105,0|0,2:0|2:0,2:0:0:0:
160,256,54256,1,0,2:0:0:0:
160,256,54506,1,0,2:0:0:0:
288,64,54756,6,0,L|288:160,1,70,0|0,2:0|2:0,2:0:0:0:
192,64,55257,2,0,L|192:192,1,105.000004005432,0|0,2:0|2:0,2:0:0:0:
96,64,55757,2,0,L|96:256,1,140,0|0,2:0|2:0,2:0:0:0:
256,256,56258,2,0,L|192:288,2,70,0|0|0,2:0|2:0|2:0,2:0:0:0:
480,352,57008,1,0,2:0:0:0:
256,192,57258,1,0,2:0:0:0:
32,352,57508,1,0,2:0:0:0:
32,32,57759,1,0,2:0:0:0:
256,192,58009,1,0,2:0:0:0:
480,32,58259,1,0,2:0:0:0:
480,352,58509,1,0,2:0:0:0:
256,192,58759,6,0,L|256:288,1,70,0|0,2:0|2:0,2:0:0:0:
416,224,59260,2,0,L|512:224,2,70,0|0|0,2:0|2:0|2:0,2:0:0:0:
448,64,60010,1,0,2:0:0:0:
256,64,60261,1,0,2:0:0:0:
256,256,60511,1,0,2:0:0:0:
64,64,60761,2,0,L|64:160,1,70,0|0,2:0|2:0,2:0:0:0:
224,288,61261,2,0,L|320:288,2,70,0|0|0,2:0|2:0|2:0,2:0:0:0:
512,160,62012,1,0,2:0:0:0:
512,160,62137,1,0,2:0:0:0:
512,160,62262,1,0,2:0:0:0:
512,32,62512,1,0,2:0:0:0:
512,256,62762,6,0,L|512:352,1,70,0|0,2:0|2:0,2:0:0:0:
224,288,63263,2,0,L|128:288,2,70,0|0|0,2:0|2:0|2:0,2:0:0:0:
384,96,64013,2,0,L|384:0,1,70,0|0,2:0|2:0,2:0:0:0:
160,192,64514,2,0,L|160:288,1,70,0|0,2:0|2:0,2:0:0:0:
448,320,65014,1,0,2:0:0:0:
64,320,65264,1,0,2:0:0:0:
448,192,65514,1,0,2:0:0:0:
64,192,65765,1,0,2:0:0:0:
448,64,66015,1,0,2:0:0:0:
256,192,66265,1,0,2:0:0:0:
256,192,66390,1,0,2:0:0:0:
256,192,66515,1,0,2:0:0:0:
96,0,66765,6,0,L|96:96,1,70,0|0,2:0|2:0,2:0:0:0:
96,352,67266,1,0,2:0:0:0:
384,352,67516,2,0,L|480:352,2,70,0|0|0,2:0|2:0|2:0,2:0:0:0:
96,352,68267,1,0,2:0:0:0:
96,96,68517,1,0,2:0:0:0:
352,96,68767,2,0,L|448:96,1,70,0|0,2:0|2:0,2:0:0:0:
384,288,69267,2,0,L|384:384,2,70,0|0|0,2:0|2:0|2:0,2:0:0:0:
384,32,70018,1,0,2:0:0:0:
384,32,70143,1,0,2:0:0:0:
384,32,70268,1,0,2:0:0:0:
192,32,70518,1,0,2:0:0:0:
192,288,70768,6,0,L|192:384,1,70,0|0,2:0|2:0,2:0:0:0:
416,320,71269,2,0,L|512:320,2,70,0|0|0,2:0|2:0|2:0,2:0:0:0:
192,288,72019,2,0,L|192:192,1,70,0|0,2:0|2:0,2:0:0:0:
320,32,72520,1,0,2:0:0:0:
320,256,72770,2,0,L|416:256,1,70,0|0,2:0|2:0,2:0:0:0:
128,384,73270,1,0,2:0:0:0:
128,128,73520,2,0,L|128:58,2,70,0|0|0,2:0|2:0|2:0,2:0:0:0:
384,96,74271,2,0,L|480:96,1,70,0|0,2:0|2:0,2:0:0:0:
160,96,74771,6,0,L|64:96,1,70,0|0,2:0|2:0,2:0:0:0:
352,224,75272,2,0,L|448:224,1,70,0|0,2:0|2:0,2:0:0:0:
160,352,75772,2,0,L|64:352,1,70,0|0,2:0|2:0,2:0:0:0:
480,320,76273,5,0,2:0:0:0:
64,256,76523,1,0,2:0:0:0:
480,192,76773,1,0,2:0:0:0:
64,128,77023,1,0,2:0:0:0:
480,64,77273,1,0,2:0:0:0:
64,0,77523,1,0,2:0:0:0:
64,0,77649,1,0,2:0:0:0:
64,0,77774,1,0,2:0:0:0:
64,256,78024,1,0,2:0:0:0:
320,256,78274,2,0,L|384:256,2,35,0|0|0,2:0|2:0|2:0,2:0:0:0:
160,288,78774,6,0,L|64:288,1,70,0|0,2:0|2:0,2:0:0:0:
352,160,79275,2,0,L|448:160,1,70,0|0,2:0|2:0,2:0:0:0:
160,32,79775,2,0,L|64:32,1,70,0|0,2:0|2:0,2:0:0:0:
480,64,80276,5,0,2:0:0:0:
64,128,80526,1,0,2:0:0:0:
480,192,80776,1,0,2:0:0:0:
64,256,81026,1,0,2:0:0:0:
480,320,81276,1,0,2:0:0:0:
64,384,81526,1,0,2:0:0:0:
64,384,81652,1,0,2:0:0:0:
64,384,81777,1,0,2:0:0:0:
64,128,82027,1,0,2:0:0:0:
320,128,82277,2,0,L|384:128,2,35,0|0|0,2:0|2:0|2:0,2:0:0:0:
160,96,82777,6,0,L|160:10,1,70,0|0,2:0|2:0,2:0:0:0:
288,288,83278,2,0,L|288:373,1,70,0|0,2:0|2:0,2:0:0:0:
416,96,83778,2,0,L|416:10,1,70,0|0,2:0|2:0,2:0:0:0:
384,384,84279,5,0,2:0:0:0:
320,0,84529,1,0,2:0:0:0:
256,384,84779,1,0,2:0:0:0:
192,0,85029,1,0,2:0:0:0:
128,384,85279,1,0,2:0:0:0:
64,0,85529,1,0,2:0:0:0:
64,0,85655,1,0,2:0:0:0:
64,0,85780,1,0,2:0:0:0:
320,0,86030,1,0,2:0:0:0:
320,256,86280,2,0,L|320:313,2,35,0|0|0,2:0|2:0|2:0,2:0:0:0:
160,96,86780,6,0,L|160:10,1,70,0|0,2:0|2:0,2:0:0:0:
288,288,87281,2,0,L|288:373,1,70,0|0,2:0|2:0,2:0:0:0:
416,96,87781,2,0,L|416:10,1,70,0|0,2:0|2:0,2:0:0:0:
384,384,88282,5,0,2:0:0:0:
320,0,88532,1,0,2:0:0:0:
256,384,88782,1,0,2:0:0:0:
192,0,89032,1,0,2:0:0:0:
128,384,89282,1,0,2:0:0:0:
64,0,89532,1,0,2:0:0:0:
64,0,89658,1,0,2:0:0:0:
64,0,89783,1,0,2:0:0:0:
128,128,90033,5,0,2:0:0:0:
192,128,90158,1,0,2:0:0:0:
256,128,90283,1,0,2:0:0:0:
320,128,90408,1,0,2:0:0:0:
384,128,90533,1,0,2:0:0:0:
448,128,90658,1,0,2:0:0:0:
448,192,90783,2,0,L|448:288,1,70,0|0,2:0|2:0,2:0:0:0:
320,192,91159,2,0,L|321:288,1,70,0|0,2:0|2:0,2:0:0:0:
192,192,91534,2,0,L|192:288,1,70,0|0,2:0|2:0,2:0:0:0:
256,384,91909,5,0,2:0:0:0:
256,321,92034,1,0,2:0:0:0:
256,257,92159,1,0,2:0:0:0:
256,192,92285,1,0,2:0:0:0:
256,129,92410,1,0,2:0:0:0:
256,65,92535,1,0,2:0:0:0:
256,1,92660,1,0,2:0:0:0:
192,1,92785,2,0,L|96:1,1,70,0|0,2:0|2:0,2:0:0:0:
192,129,93160,2,0,L|96:128,1,70,0|0,2:0|2:0,2:0:0:0:
192,257,93535,2,0,L|96:257,1,70,0|0,2:0|2:0,2:0:0:0:
0,192,93911,5,0,2:0:0:0:
63,192,94036,1,0,2:0:0:0:
127,192,94161,1,0,2:0:0:0:
192,192,94286,1,0,2:0:0:0:
255,192,94411,1,0,2:0:0:0:
319,192,94536,1,0,2:0:0:0:
383,192,94661,1,0,2:0:0:0:
383,129,94786,2,0,L|383:33,1,70,0|0,2:0|2:0,2:0:0:0:
255,128,95162,2,0,L|256:32,1,70,0|0,2:0|2:0,2:0:0:0:
127,128,95537,2,0,L|127:32,1,70,0|0,2:0|2:0,2:0:0:0:
192,0,95912,5,0,2:0:0:0:
192,63,96037,1,0,2:0:0:0:
192,127,96162,1,0,2:0:0:0:
192,192,96288,1,0,2:0:0:0:
192,255,96413,1,0,2:0:0:0:
192,319,96538,1,0,2:0:0:0:
384,192,96788,5,0,2:0:0:0:
384,192,96913,1,0,2:0:0:0:
384,192,97038,1,0,2:0:0:0:
128,192,97288,5,0,2:0:0:0:
128,192,97413,1,0,2:0:0:0:
128,192,97538,1,0,2:0:0:0:
160,320,97789,5,0,2:0:0:0:
384,320,98039,1,0,2:0:0:0:
384,320,98164,1,0,2:0:0:0:
384,96,98414,1,0,2:0:0:0:
384,96,98539,1,0,2:0:0:0:
256,96,98789,6,0,L|256:192,1,70,0|0,2:0|2:0,2:0:0:0:
375,249,99290,2,0,L|375:153,1,70,0|0,2:0|2:0,2:0:0:0:
256,256,99665,2,0,L|256:384,1,105,0|0,2:0|2:0,2:0:0:0:
416,352,100291,1,0,2:0:0:0:
416,160,100541,1,0,2:0:0:0:
416,160,100791,2,0,L|320:160,1,70,0|0,2:0|2:0,2:0:0:0:
263,41,101291,2,0,L|359:41,1,70,0|0,2:0|2:0,2:0:0:0:
256,160,101667,2,0,L|128:160,1,105,0|0,2:0|2:0,2:0:0:0:
288,288,102292,1,0,2:0:0:0:
288,288,102542,1,0,2:0:0:0:
416,96,102792,6,0,L|416:192,1,70,0|0,2:0|2:0,2:0:0:0:
320,96,103293,2,0,L|320:224,1,105.000004005432,0|0,2:0|2:0,2:0:0:0:
224,96,103793,2,0,L|224:288,1,140,0|0,2:0|2:0,2:0:0:0:
384,288,104294,2,0,L|320:320,2,70,0|0|0,2:0|2:0|2:0,2:0:0:0:
384,64,105044,1,0,2:0:0:0:
160,64,105294,2,0,L|224:192,1,140,0|0,2:0|2:0,2:0:0:0:
416,192,105795,1,0,2:0:0:0:
416,192,106045,1,0,2:0:0:0:
128,192,106295,2,0,L|192:64,1,140,0|0,2:0|2:0,2:0:0:0:
384,64,106795,6,0,L|384:160,1,70,0|0,2:0|2:0,2:0:0:0:
265,217,107296,2,0,L|265:121,1,70,0|0,2:0|2:0,2:0:0:0:
384,224,107671,2,0,L|384:352,1,105,0|0,2:0|2:0,2:0:0:0:
224,320,108297,1,0,2:0:0:0:
224,128,108547,1,0,2:0:0:0:
224,128,108797,2,0,L|320:128,1,70,0|0,2:0|2:0,2:0:0:0:
377,9,109297,2,0,L|281:9,1,70,0|0,2:0|2:0,2:0:0:0:
384,128,109673,2,0,L|512:128,1,105,0|0,2:0|2:0,2:0:0:0:
352,256,110298,1,0,2:0:0:0:
352,256,110548,1,0,2:0:0:0:
224,64,110798,6,0,L|224:160,1,70,0|0,2:0|2:0,2:0:0:0:
320,64,111299,2,0,L|320:192,1,105.000004005432,0|0,2:0|2:0,2:0:0:0:
416,64,111799,2,0,L|416:256,1,140,0|0,2:0|2:0,2:0:0:0:
256,256,112300,2,0,L|320:288,2,70,0|0|0,2:0|2:0|2:0,2:0:0:0:
32,352,113050,1,0,2:0:0:0:
256,192,113300,1,0,2:0:0:0:
480,352,113551,1,0,2:0:0:0:
480,32,113801,1,0,2:0:0:0:
256,192,114051,1,0,2:0:0:0:
32,32,114301,1,0,2:0:0:0:
32,352,114551,1,0,2:0:0:0:
256,192,114801,6,0,L|256:288,1,70,0|0,2:0|2:0,2:0:0:0:
96,224,115302,2,0,L|0:224,2,70,0|0|0,2:0|2:0|2:0,2:0:0:0:
64,64,116052,1,0,2:0:0:0:
256,64,116303,1,0,2:0:0:0:
256,256,116553,1,0,2:0:0:0:
448,64,116803,2,0,L|448:160,1,70,0|0,2:0|2:0,2:0:0:0:
288,288,117303,2,0,L|192:288,2,70,0|0|0,2:0|2:0|2:0,2:0:0:0:
0,160,118054,1,0,2:0:0:0:
0,160,118179,1,0,2:0:0:0:
0,160,118304,1,0,2:0:0:0:
0,32,118554,1,0,2:0:0:0:
0,256,118804,6,0,L|0:352,1,70,0|0,2:0|2:0,2:0:0:0:
288,288,119305,2,0,L|384:288,2,70,0|0|0,2:0|2:0|2:0,2:0:0:0:
128,96,120055,2,0,L|128:0,1,70,0|0,2:0|2:0,2:0:0:0:
352,192,120556,2,0,L|352:288,1,70,0|0,2:0|2:0,2:0:0:0:
64,320,121056,1,0,2:0:0:0:
448,320,121306,1,0,2:0:0:0:
64,192,121557,1,0,2:0:0:0:
448,192,121807,1,0,2:0:0:0:
64,64,122057,1,0,2:0:0:0:
256,192,122307,1,0,2:0:0:0:
256,192,122432,1,0,2:0:0:0:
256,192,122557,1,0,2:0:0:0:
416,0,122807,6,0,L|416:96,1,70,0|0,2:0|2:0,2:0:0:0:
416,352,123308,1,0,2:0:0:0:
128,352,123558,2,0,L|32:352,2,70,0|0|0,2:0|2:0|2:0,2:0:0:0:
416,352,124309,1,0,2:0:0:0:
416,96,124559,1,0,2:0:0:0:
160,96,124809,2,0,L|64:96,1,70,0|0,2:0|2:0,2:0:0:0:
128,288,125309,2,0,L|128:384,2,70,0|0|0,2:0|2:0|2:0,2:0:0:0:
128,32,126060,1,0,2:0:0:0:
128,32,126185,1,0,2:0:0:0:
128,32,126310,1,0,2:0:0:0:
320,32,126560,1,0,2:0:0:0:
320,288,126810,6,0,L|320:384,1,70,0|0,2:0|2:0,2:0:0:0:
96,320,127311,2,0,L|0:320,2,70,0|0|0,2:0|2:0|2:0,2:0:0:0:
320,288,128061,2,0,L|320:192,1,70,0|0,2:0|2:0,2:0:0:0:
192,32,128562,1,0,2:0:0:0:
192,256,128812,2,0,L|96:256,1,70,0|0,2:0|2:0,2:0:0:0:
384,384,129312,1,0,2:0:0:0:
384,128,129563,2,0,L|384:58,2,70,0|0|0,2:0|2:0|2:0,2:0:0:0:
128,96,130313,2,0,L|32:96,1,70,0|0,2:0|2:0,2:0:0:0:
352,96,130813,6,0,L|448:96,1,70,0|0,2:0|2:0,2:0:0:0:
160,224,131314,2,0,L|64:224,1,70,0|0,2:0|2:0,2:0:0:0:
352,352,131814,2,0,L|448:352,1,70,0|0,2:0|2:0,2:0:0:0:
32,320,132315,5,0,2:0:0:0:
448,256,132565,1,0,2:0:0:0:
32,192,132815,1,0,2:0:0:0:
448,128,133065,1,0,2:0:0:0:
32,64,133315,1,0,2:0:0:0:
448,0,133566,1,0,2:0:0:0:
448,0,133691,1,0,2:0:0:0:
448,0,133816,1,0,2:0:0:0:
448,256,134066,1,0,2:0:0:0:
192,256,134316,2,0,L|128:256,2,35,0|0|0,2:0|2:0|2:0,2:0:0:0:
352,288,134816,6,0,L|448:288,1,70,0|0,2:0|2:0,2:0:0:0:
160,160,135317,2,0,L|64:160,1,70,0|0,2:0|2:0,2:0:0:0:
352,32,135817,2,0,L|448:32,1,70,0|0,2:0|2:0,2:0:0:0:
32,64,136318,5,0,2:0:0:0:
448,128,136568,1,0,2:0:0:0:
32,192,136818,1,0,2:0:0:0:
448,256,137068,1,0,2:0:0:0:
32,320,137318,1,0,2:0:0:0:
448,384,137569,1,0,2:0:0:0:
448,384,137694,1,0,2:0:0:0:
448,384,137819,1,0,2:0:0:0:
448,128,138069,1,0,2:0:0:0:
192,128,138319,2,0,L|128:128,2,35,0|0|0,2:0|2:0|2:0,2:0:0:0:
352,96,138819,6,0,L|352:10,1,70,0|0,2:0|2:0,2:0:0:0:
224,288,139320,2,0,L|224:373,1,70,0|0,2:0|2:0,2:0:0:0:
96,96,139820,2,0,L|96:10,1,70,0|0,2:0|2:0,2:0:0:0:
128,384,140321,5,0,2:0:0:0:
192,0,140571,1,0,2:0:0:0:
256,384,140821,1,0,2:0:0:0:
320,0,141071,1,0,2:0:0:0:
384,384,141321,1,0,2:0:0:0:
448,0,141572,1,0,2:0:0:0:
448,0,141697,1,0,2:0:0:0:
448,0,141822,1,0,2:0:0:0:
192,0,142072,1,0,2:0:0:0:
192,256,142322,2,0,L|192:313,2,35,0|0|0,2:0|2:0|2:0,2:0:0:0:
352,96,142822,6,0,L|352:10,1,70,0|0,2:0|2:0,2:0:0:0:
224,288,143323,2,0,L|224:373,1,70,0|0,2:0|2:0,2:0:0:0:
96,96,143823,2,0,L|96:10,1,70,0|0,2:0|2:0,2:0:0:0:
128,384,144324,5,0,2:0:0:0:
192,0,144574,1,0,2:0:0:0:
256,384,144824,1,0,2:0:0:0:
320,0,145074,1,0,2:0:0:0:
384,384,145324,1,0,2:0:0:0:
448,0,145575,1,0,2:0:0:0:
448,0,145700,1,0,2:0:0:0:
448,0,145825,1,0,2:0:0:0:
384,256,146075,5,0,2:0:0:0:
320,256,146200,1,0,2:0:0:0:
256,256,146325,1,0,2:0:0:0:
192,256,146450,1,0,2:0:0:0:
128,256,146575,1,0,2:0:0:0:
64,256,146700,1,0,2:0:0:0:
64,192,146825,2,0,L|64:96,1,70,0|0,2:0|2:0,2:0:0:0:
192,192,147201,2,0,L|191:96,1,70,0|0,2:0|2:0,2:0:0:0:
320,192,147576,2,0,L|320:96,1,70,0|0,2:0|2:0,2:0:0:0:
256,0,147951,5,0,2:0:0:0:
256,63,148076,1,0,2:0:0:0:
256,127,148201,1,0,2:0:0:0:
256,192,148327,1,0,2:0:0:0:
256,255,148452,1,0,2:0:0:0:
256,319,148577,1,0,2:0:0:0:
256,383,148702,1,0,2:0:0:0:
320,383,148827,2,0,L|416:383,1,70,0|0,2:0|2:0,2:0:0:0:
320,255,149202,2,0,L|416:256,1,70,0|0,2:0|2:0,2:0:0:0:
320,127,149578,2,0,L|416:127,1,70,0|0,2:0|2:0,2:0:0:0:
512,192,149953,5,0,2:0:0:0:
449,192,150078,1,0,2:0:0:0:
385,192,150203,1,0,2:0:0:0:
320,192,150328,1,0,2:0:0:0:
257,192,150453,1,0,2:0:0:0:
193,192,150578,1,0,2:0:0:0:
129,192,150703,1,0,2:0:0:0:
129,255,150828,2,0,L|129:351,1,70,0|0,2:0|2:0,2:0:0:0:
257,256,151204,2,0,L|256:352,1,70,0|0,2:0|2:0,2:0:0:0:
385,256,151579,2,0,L|385:352,1,70,0|0,2:0|2:0,2:0:0:0:
320,384,151954,5,0,2:0:0:0:
320,321,152079,1,0,2:0:0:0:
320,257,152204,1,0,2:0:0:0:
320,192,152330,1,0,2:0:0:0:
320,129,152455,1,0,2:0:0:0:
320,65,152580,1,0,2:0:0:0:
128,192,152830,5,0,2:0:0:0:
128,192,152955,1,0,2:0:0:0:
128,192,153080,1,0,2:0:0:0:
384,192,153330,5,0,2:0:0:0:
384,192,153455,1,0,2:0:0:0:
384,192,153581,1,0,2:0:0:0:
352,64,153831,5,0,2:0:0:0:
128,64,154081,1,0,2:0:0:0:
128,64,154206,1,0,2:0:0:0:
128,288,154456,1,0,2:0:0:0:
128,288,154581,1,0,2:0:0:0:
160,96,154831,6,0,L|64:96,1,70,0|0,2:0|2:0,2:0:0:0:
256,256,155332,6,0,L|256:352,1,70,0|0,2:0|2:0,2:0:0:0:
384,96,155832,2,0,L|448:96,2,35,0|0|0,2:0|2:0|2:0,2:0:0:0:
256,256,156333,6,0,L|256:352,1,70,0|0,2:0|2:0,2:0:0:0:
160,96,156833,2,0,L|96:96,2,35,0|0|0,2:0|2:0|2:0,2:0:0:0:
384,96,157333,2,0,L|480:96,1,70,0|0,2:0|2:0,2:0:0:0:
416,224,157709,2,0,L|416:288,2,35,0|0|0,2:0|2:0|2:0,2:0:0:0:
256,224,158084,2,0,L|192:224,2,35,0|0|0,2:0|2:0|2:0,2:0:0:0:
512,224,158584,5,0,2:0:0:0:
512,224,158834,1,0,2:0:0:0:
352,0,159085,1,0,2:0:0:0:
352,0,159335,1,0,2:0:0:0:
224,224,159585,1,0,2:0:0:0:
224,224,159835,1,0,2:0:0:0:
512,224,160085,1,0,2:0:0:0:
512,224,160336,2,0,L|512:320,1,70,0|0,2:0|2:0,2:0:0:0:
352,256,160836,6,0,L|317:256,2,35,0|0|0,2:0|2:0|2:0,2:0:0:0:
352,64,161211,2,0,L|352:29,2,35,0|0|0,2:0|2:0|2:0,2:0:0:0:
64,64,161837,2,0,L|29:64,2,35,0|0|0,2:0|2:0|2:0,2:0:0:0:
61,256,162212,2,0,L|61:352,1,70,0|0,2:0|2:0,2:0:0:0:
192,256,162587,5,0,2:0:0:0:
192,256,162837,2,0,L|192:352,1,70,0|0,2:0|2:0,2:0:0:0:
384,320,163338,1,0,2:0:0:0:
384,96,163588,1,0,2:0:0:0:
384,96,163838,2,0,L|288:96,1,70,0|0,2:0|2:0,2:0:0:0:
320,320,164339,2,0,L|320:384,2,35,0|0|0,2:0|2:0|2:0,2:0:0:0:
96,320,164839,2,0,L|32:320,2,35,0|0|0,2:0|2:0|2:0,2:0:0:0:
416,320,165339,2,0,L|512:320,1,70,0|0,2:0|2:0,2:0:0:0:
448,128,165840,2,0,L|448:64,2,35,0|0|0,2:0|2:0|2:0,2:0:0:0:
288,128,166215,2,0,L|224:128,2,35,0|0|0,2:0|2:0|2:0,2:0:0:0:
96,288,166590,5,0,2:0:0:0:
96,288,166840,2,0,L|96:384,1,70,0|0,2:0|2:0,2:0:0:0:
320,352,167341,1,0,2:0:0:0:
320,96,167591,1,0,2:0:0:0:
320,96,167841,2,0,L|224:96,1,70,0|0,2:0|2:0,2:0:0:0:
512,96,168342,5,0,2:0:0:0:
416,288,168592,1,0,2:0:0:0:
320,96,168842,1,0,2:0:0:0:
224,288,169092,1,0,2:0:0:0:
128,96,169342,1,0,2:0:0:0:
320,96,169593,2,0,L|384:96,2,35,0|0|0,2:0|2:0|2:0,2:0:0:0:
320,288,170093,2,0,L|320:352,2,35,0|0|0,2:0|2:0|2:0,2:0:0:0:
96,288,170593,1,0,2:0:0:0:
192,32,170843,6,0,L|163:125,1,70,0|0,2:0|2:0,2:0:0:0:
416,160,171344,2,0,L|444:247,1,70,0|0,2:0|2:0,2:0:0:0:
192,288,171844,2,0,L|165:364,1,70,0|0,2:0|2:0,2:0:0:0:
192,96,172345,1,0,2:0:0:0:
192,96,172595,1,0,2:0:0:0:
448,96,172845,2,0,L|512:96,2,35,0|0|0,2:0|2:0|2:0,2:0:0:0:
448,288,173345,2,0,L|448:384,1,70,0|0,2:0|2:0,2:0:0:0:
224,320,173846,2,0,L|160:320,2,35,0|0|0,2:0|2:0|2:0,2:0:0:0:
224,96,174346,2,0,L|224:0,1,70,0|0,2:0|2:0,2:0:0:0:
192,352,174846,6,0,L|163:259,1,70,0|0,2:0|2:0,2:0:0:0:
416,224,175347,2,0,L|444:137,1,70,0|0,2:0|2:0,2:0:0:0:
192,96,175847,2,0,L|165:20,1,70,0|0,2:0|2:0,2:0:0:0:
192,288,176348,1,0,2:0:0:0:
192,288,176598,1,0,2:0:0:0:
448,288,176848,2,0,L|512:288,2,35,0|0|0,2:0|2:0|2:0,2:0:0:0:
448,96,177348,2,0,L|448:0,1,70,0|0,2:0|2:0,2:0:0:0:
224,64,177849,2,0,L|160:64,2,35,0|0|0,2:0|2:0|2:0,2:0:0:0:
224,288,178349,2,0,L|224:384,1,70,0|0,2:0|2:0,2:0:0:0:
320,32,178849,6,0,L|349:125,1,70,0|0,2:0|2:0,2:0:0:0:
96,160,179350,2,0,L|68:247,1,70,0|0,2:0|2:0,2:0:0:0:
320,288,179850,2,0,L|347:364,1,70,0|0,2:0|2:0,2:0:0:0:
320,96,180351,1,0,2:0:0:0:
320,96,180601,1,0,2:0:0:0:
64,96,180851,2,0,L|0:96,2,35,0|0|0,2:0|2:0|2:0,2:0:0:0:
64,288,181351,2,0,L|64:384,1,70,0|0,2:0|2:0,2:0:0:0:
288,320,181852,2,0,L|352:320,2,35,0|0|0,2:0|2:0|2:0,2:0:0:0:
288,96,182352,2,0,L|288:0,1,70,0|0,2:0|2:0,2:0:0:0:
320,352,182852,6,0,L|349:259,1,70,0|0,2:0|2:0,2:0:0:0:
96,224,183353,2,0,L|68:137,1,70,0|0,2:0|2:0,2:0:0:0:
320,96,183853,2,0,L|347:20,1,70,0|0,2:0|2:0,2:0:0:0:
320,288,184354,1,0,2:0:0:0:
320,288,184604,1,0,2:0:0:0:
64,288,184854,2,0,L|0:288,2,35,0|0|0,2:0|2:0|2:0,2:0:0:0:
64,96,185354,2,0,L|64:0,1,70,0|0,2:0|2:0,2:0:0:0:
288,64,185855,2,0,L|352:64,2,35,0|0|0,2:0|2:0|2:0,2:0:0:0:
288,288,186355,2,0,L|288:384,1,70,0|0,2:0|2:0,2:0:0:0:
224,192,186855,6,0,L|224:96,1,70,0|0,2:0|2:0,2:0:0:0:
384,160,187356,2,0,L|480:160,2,70,0|0|0,2:0|2:0|2:0,2:0:0:0:
416,320,188106,1,0,2:0:0:0:
224,320,188357,1,0,2:0:0:0:
224,128,188607,1,0,2:0:0:0:
32,320,188857,2,0,L|32:224,1,70,0|0,2:0|2:0,2:0:0:0:
192,96,189357,2,0,L|288:96,2,70,0|0|0,2:0|2:0|2:0,2:0:0:0:
480,224,190108,1,0,2:0:0:0:
480,224,190233,1,0,2:0:0:0:
480,224,190358,1,0,2:0:0:0:
480,352,190608,1,0,2:0:0:0:
480,128,190858,6,0,L|480:32,1,70,0|0,2:0|2:0,2:0:0:0:
192,96,191359,2,0,L|96:96,2,70,0|0|0,2:0|2:0|2:0,2:0:0:0:
352,288,192109,2,0,L|352:384,1,70,0|0,2:0|2:0,2:0:0:0:
128,192,192610,2,0,L|128:96,1,70,0|0,2:0|2:0,2:0:0:0:
416,64,193110,1,0,2:0:0:0:
32,64,193360,1,0,2:0:0:0:
416,192,193610,1,0,2:0:0:0:
32,192,193861,1,0,2:0:0:0:
416,320,194111,1,0,2:0:0:0:
224,192,194361,1,0,2:0:0:0:
224,192,194486,1,0,2:0:0:0:
224,192,194611,1,0,2:0:0:0:
64,384,194861,6,0,L|64:288,1,70,0|0,2:0|2:0,2:0:0:0:
64,32,195362,1,0,2:0:0:0:
352,32,195612,2,0,L|448:32,2,70,0|0|0,2:0|2:0|2:0,2:0:0:0:
64,32,196363,1,0,2:0:0:0:
64,288,196613,1,0,2:0:0:0:
320,288,196863,2,0,L|416:288,1,70,0|0,2:0|2:0,2:0:0:0:
352,96,197363,2,0,L|352:0,2,70,0|0|0,2:0|2:0|2:0,2:0:0:0:
352,352,198114,1,0,2:0:0:0:
352,352,198239,1,0,2:0:0:0:
352,352,198364,1,0,2:0:0:0:
160,352,198614,1,0,2:0:0:0:
160,96,198864,6,0,L|160:0,1,70,0|0,2:0|2:0,2:0:0:0:
384,64,199365,2,0,L|480:64,2,70,0|0|0,2:0|2:0|2:0,2:0:0:0:
160,96,200115,2,0,L|160:192,1,70,0|0,2:0|2:0,2:0:0:0:
288,352,200616,1,0,2:0:0:0:
288,128,200866,2,0,L|384:128,1,70,0|0,2:0|2:0,2:0:0:0:
96,0,201366,1,0,2:0:0:0:
96,256,201616,2,0,L|96:326,2,70,0|0|0,2:0|2:0|2:0,2:0:0:0:
352,288,202367,2,0,L|448:288,1,70,0|0,2:0|2:0,2:0:0:0:
128,288,202867,6,0,L|32:288,1,70,0|0,2:0|2:0,2:0:0:0:
320,160,203368,2,0,L|416:160,1,70,0|0,2:0|2:0,2:0:0:0:
128,32,203868,2,0,L|32:32,1,70,0|0,2:0|2:0,2:0:0:0:
448,64,204369,5,0,2:0:0:0:
32,128,204619,1,0,2:0:0:0:
448,192,204869,1,0,2:0:0:0:
32,256,205119,1,0,2:0:0:0:
448,320,205369,1,0,2:0:0:0:
32,384,205619,1,0,2:0:0:0:
32,384,205745,1,0,2:0:0:0:
32,384,205870,1,0,2:0:0:0:
32,128,206120,1,0,2:0:0:0:
288,128,206370,2,0,L|352:128,2,35,0|0|0,2:0|2:0|2:0,2:0:0:0:
128,96,206870,6,0,L|32:96,1,70,0|0,2:0|2:0,2:0:0:0:
320,224,207371,2,0,L|416:224,1,70,0|0,2:0|2:0,2:0:0:0:
128,352,207871,2,0,L|32:352,1,70,0|0,2:0|2:0,2:0:0:0:
448,320,208372,5,0,2:0:0:0:
32,256,208622,1,0,2:0:0:0:
448,192,208872,1,0,2:0:0:0:
32,128,209122,1,0,2:0:0:0:
448,64,209372,1,0,2:0:0:0:
32,0,209622,1,0,2:0:0:0:
32,0,209748,1,0,2:0:0:0:
32,0,209873,1,0,2:0:0:0:
32,256,210123,1,0,2:0:0:0:
288,256,210373,2,0,L|352:256,2,35,0|0|0,2:0|2:0|2:0,2:0:0:0:
128,288,210873,6,0,L|128:374,1,70,0|0,2:0|2:0,2:0:0:0:
256,96,211374,2,0,L|256:11,1,70,0|0,2:0|2:0,2:0:0:0:
384,288,211874,2,0,L|384:374,1,70,0|0,2:0|2:0,2:0:0:0:
352,0,212375,5,0,2:0:0:0:
288,384,212625,1,0,2:0:0:0:
224,0,212875,1,0,2:0:0:0:
160,384,213125,1,0,2:0:0:0:
96,0,213375,1,0,2:0:0:0:
32,384,213625,1,0,2:0:0:0:
32,384,213751,1,0,2:0:0:0:
32,384,213876,1,0,2:0:0:0:
288,384,214126,1,0,2:0:0:0:
288,128,214376,2,0,L|288:71,2,35,0|0|0,2:0|2:0|2:0,2:0:0:0:
384,288,214876,6,0,L|384:374,1,70,0|0,2:0|2:0,2:0:0:0:
256,96,215377,2,0,L|256:11,1,70,0|0,2:0|2:0,2:0:0:0:
128,288,215877,2,0,L|128:374,1,70,0|0,2:0|2:0,2:0:0:0:
160,0,216378,5,0,2:0:0:0:
224,384,216628,1,0,2:0:0:0:
288,0,216878,1,0,2:0:0:0:
352,384,217128,1,0,2:0:0:0:
416,0,217378,1,0,2:0:0:0:
480,384,217628,1,0,2:0:0:0:
480,384,217754,1,0,2:0:0:0:
480,384,217879,1,0,2:0:0:0:
256,192,218129,12,0,228387,2:0:0:0:
