osu file format v14

[General]
AudioFilename: audio.mp3
AudioLeadIn: 0
PreviewTime: 27013
Countdown: 0
SampleSet: Soft
StackLeniency: 0.7
Mode: 3
LetterboxInBreaks: 0
SpecialStyle: 0
WidescreenStoryboard: 1

[Editor]
DistanceSpacing: 1.3
BeatDivisor: 4
GridSize: 4
TimelineZoom: 1.8

[Metadata]
Title:Horizon (Remix)
TitleUnicode:Horizon (Remix)
Artist:Sabrepulse
ArtistUnicode:Sabrepulse
Creator:SurfChu85
Version:beyond
Source:
Tags:
BeatmapID:2022015
BeatmapSetID:965952

[Difficulty]
HPDrainRate:8
CircleSize:4
OverallDifficulty:8
ApproachRate:5
SliderMultiplier:1.4
SliderTickRate:1

[Events]
//Background and Video events
0,0,"556529.jpg",0,0
//Break Periods
//Storyboard Layer 0 (Background)
//Storyboard Layer 1 (Fail)
//Storyboard Layer 2 (Pass)
//Storyboard Layer 3 (Foreground)
//Storyboard Sound Samples

[TimingPoints]
13.8427756275829,375,4,2,0,10,1,0

[HitObjects]
64,192,13,128,0,388:0:0:0:0:
192,192,388,128,0,763:0:0:0:0:
320,192,763,128,0,1138:0:0:0:0:
448,192,1138,128,0,1388:0:0:0:0:
320,192,1388,1,0,0:0:0:0:
192,192,1451,1,0,0:0:0:0:
320,192,1513,128,0,1888:0:0:0:0:
192,192,1888,128,0,2263:0:0:0:0:
320,192,2263,128,0,2638:0:0:0:0:
448,192,2638,128,0,3013:0:0:0:0:
64,192,3013,128,0,3388:0:0:0:0:
192,192,3388,128,0,3763:0:0:0:0:
320,192,3763,128,0,4138:0:0:0:0:
448,192,4138,128,0,4388:0:0:0:0:
320,192,4388,1,0,0:0:0:0:
192,192,4451,1,0,0:0:0:0:
64,192,4513,128,0,4888:0:0:0:0:
192,192,4888,128,0,5263:0:0:0:0:
320,192,5263,128,0,5638:0:0:0:0:
448,192,5638,128,0,6013:0:0:0:0:
192,192,6013,128,0,6388:0:0:0:0:
320,192,6388,128,0,6763:0:0:0:0:
64,192,6763,128,0,7138:0:0:0:0:
448,192,7138,128,0,7388:0:0:0:0:
320,192,7388,1,0,0:0:0:0:
192,192,7451,1,0,0:0:0:0:
320,192,7513,128,0,7888:0:0:0:0:
64,192,7888,128,0,8263:0:0:0:0:
192,192,8263,128,0,8638:0:0:0:0:
448,192,8638,128,0,9013:0:0:0:0:
64,192,9013,128,0,9388:0:0:0:0:
192,192,9388,128,0,9763:0:0:0:0:
320,192,9763,128,0,10076:0:0:0:0:
448,192,10076,128,0,10388:0:0:0:0:
320,192,10388,1,0,0:0:0:0:
192,192,10451,1,0,0:0:0:0:
320,192,10513,128,0,10888:0:0:0:0:
64,192,10888,128,0,11263:0:0:0:0:
192,192,11263,128,0,11638:0:0:0:0:
448,192,11638,128,0,12013:0:0:0:0:
192,192,12013,128,0,12388:0:0:0:0:
64,192,12013,128,0,12076:0:0:0:0:
320,192,12201,128,0,12263:0:0:0:0:
448,192,12388,128,0,12763:0:0:0:0:
64,192,12576,1,0,0:0:0:0:
320,192,12763,1,0,0:0:0:0:
192,192,12763,128,0,13138:0:0:0:0:
64,192,13138,128,0,13201:0:0:0:0:
320,192,13138,128,0,13513:0:0:0:0:
448,192,13326,128,0,13388:0:0:0:0:
64,192,13513,1,0,0:0:0:0:
192,192,13513,128,0,13888:0:0:0:0:
320,192,13888,128,0,13951:0:0:0:0:
64,192,13888,128,0,14263:0:0:0:0:
448,192,14076,128,0,14138:0:0:0:0:
320,192,14263,128,0,14638:0:0:0:0:
192,192,14263,1,0,0:0:0:0:
64,192,14545,1,0,0:0:0:0:
448,192,14638,128,0,15013:0:0:0:0:
192,192,14826,1,0,0:0:0:0:
320,192,15013,128,0,15076:0:0:0:0:
64,192,15013,128,0,15388:0:0:0:0:
448,192,15201,128,0,15263:0:0:0:0:
192,192,15388,128,0,15763:0:0:0:0:
448,192,15576,1,0,0:0:0:0:
320,192,15763,1,0,0:0:0:0:
64,192,15763,128,0,16138:0:0:0:0:
320,192,16138,128,0,16513:0:0:0:0:
192,192,16326,1,0,0:0:0:0:
448,192,16513,1,0,0:0:0:0:
64,192,16513,128,0,16888:0:0:0:0:
192,192,16888,128,0,17263:0:0:0:0:
448,192,17263,128,0,17638:0:0:0:0:
320,192,17263,1,0,0:0:0:0:
64,192,17545,1,0,0:0:0:0:
320,192,17638,128,0,17826:0:0:0:0:
192,192,17638,128,0,17826:0:0:0:0:
64,192,17826,1,0,0:0:0:0:
192,192,17920,128,0,18013:0:0:0:0:
320,192,17920,128,0,18013:0:0:0:0:
64,192,18013,1,0,0:0:0:0:
448,192,18013,128,0,18388:0:0:0:0:
192,192,18107,1,0,0:0:0:0:
320,192,18201,1,0,0:0:0:0:
192,192,18295,1,0,0:0:0:0:
64,192,18388,128,0,18763:0:0:0:0:
192,192,18576,1,0,0:0:0:0:
448,192,18763,1,0,0:0:0:0:
320,192,18763,128,0,19138:0:0:0:0:
192,192,19138,1,0,0:0:0:0:
448,192,19138,128,0,19513:0:0:0:0:
64,192,19232,1,0,0:0:0:0:
192,192,19326,1,0,0:0:0:0:
320,192,19420,1,0,0:0:0:0:
192,192,19513,1,0,0:0:0:0:
64,192,19513,128,0,19888:0:0:0:0:
320,192,19888,128,0,20263:0:0:0:0:
192,192,19888,1,0,0:0:0:0:
448,192,19982,1,0,0:0:0:0:
64,192,20076,1,0,0:0:0:0:
192,192,20170,1,0,0:0:0:0:
448,192,20263,1,0,0:0:0:0:
64,192,20263,128,0,20638:0:0:0:0:
320,192,20545,1,0,0:0:0:0:
192,192,20638,128,0,21013:0:0:0:0:
320,192,20732,1,0,0:0:0:0:
448,192,20826,1,0,0:0:0:0:
320,192,20920,128,0,21388:0:0:0:0:
64,192,21013,1,0,0:0:0:0:
448,192,21388,128,0,21763:0:0:0:0:
64,192,21388,1,0,0:0:0:0:
192,192,21576,1,0,0:0:0:0:
64,192,21763,1,0,0:0:0:0:
320,192,21763,128,0,22138:0:0:0:0:
64,192,22045,1,0,0:0:0:0:
448,192,22138,128,0,22513:0:0:0:0:
192,192,22138,1,0,0:0:0:0:
64,192,22232,1,0,0:0:0:0:
192,192,22326,1,0,0:0:0:0:
320,192,22513,1,0,0:0:0:0:
64,192,22701,128,0,22888:0:0:0:0:
192,192,22888,1,0,0:0:0:0:
320,192,22888,128,0,23076:0:0:0:0:
448,192,23076,128,0,23263:0:0:0:0:
64,192,23263,1,0,0:0:0:0:
192,192,23263,128,0,23451:0:0:0:0:
320,192,23545,1,0,0:0:0:0:
448,192,23545,1,0,0:0:0:0:
64,192,23638,128,0,23826:0:0:0:0:
320,192,23826,128,0,24013:0:0:0:0:
192,192,23826,1,0,0:0:0:0:
448,192,24013,128,0,27013:0:0:0:0:
64,192,24763,128,0,26920:0:0:0:0:
320,192,26263,128,0,26920:0:0:0:0:
64,192,27013,1,0,0:0:0:0:
320,192,27013,1,0,0:0:0:0:
192,192,27107,1,0,0:0:0:0:
320,192,27201,1,0,0:0:0:0:
64,192,27295,1,0,0:0:0:0:
192,192,27388,1,0,0:0:0:0:
448,192,27388,1,0,0:0:0:0:
320,192,27482,1,0,0:0:0:0:
448,192,27576,1,0,0:0:0:0:
192,192,27670,1,0,0:0:0:0:
64,192,27763,1,0,0:0:0:0:
320,192,27763,1,0,0:0:0:0:
192,192,27857,1,0,0:0:0:0:
448,192,27951,1,0,0:0:0:0:
320,192,28045,1,0,0:0:0:0:
448,192,28138,1,0,0:0:0:0:
64,192,28138,1,0,0:0:0:0:
192,192,28232,1,0,0:0:0:0:
320,192,28326,1,0,0:0:0:0:
448,192,28420,1,0,0:0:0:0:
192,192,28513,1,0,0:0:0:0:
320,192,28513,1,0,0:0:0:0:
64,192,28607,1,0,0:0:0:0:
192,192,28701,1,0,0:0:0:0:
320,192,28795,1,0,0:0:0:0:
448,192,28888,1,0,0:0:0:0:
192,192,28888,1,0,0:0:0:0:
64,192,28982,1,0,0:0:0:0:
448,192,29076,1,0,0:0:0:0:
192,192,29170,1,0,0:0:0:0:
320,192,29263,1,0,0:0:0:0:
64,192,29263,1,0,0:0:0:0:
192,192,29357,1,0,0:0:0:0:
320,192,29451,1,0,0:0:0:0:
448,192,29545,1,0,0:0:0:0:
320,192,29638,1,0,0:0:0:0:
64,192,29638,1,0,0:0:0:0:
192,192,29732,1,0,0:0:0:0:
448,192,29826,1,0,0:0:0:0:
320,192,29920,1,0,0:0:0:0:
64,192,30013,1,0,0:0:0:0:
192,192,30013,1,0,0:0:0:0:
320,192,30107,1,0,0:0:0:0:
448,192,30201,1,0,0:0:0:0:
192,192,30295,1,0,0:0:0:0:
64,192,30388,1,0,0:0:0:0:
320,192,30388,1,0,0:0:0:0:
192,192,30482,1,0,0:0:0:0:
320,192,30576,1,0,0:0:0:0:
448,192,30670,1,0,0:0:0:0:
64,192,30763,1,0,0:0:0:0:
192,192,30763,1,0,0:0:0:0:
320,192,30857,1,0,0:0:0:0:
448,192,30951,1,0,0:0:0:0:
192,192,31045,1,0,0:0:0:0:
64,192,31138,1,0,0:0:0:0:
448,192,31138,1,0,0:0:0:0:
192,192,31232,1,0,0:0:0:0:
320,192,31326,1,0,0:0:0:0:
192,192,31420,1,0,0:0:0:0:
64,192,31513,1,0,0:0:0:0:
448,192,31513,1,0,0:0:0:0:
320,192,31607,1,0,0:0:0:0:
448,192,31701,1,0,0:0:0:0:
64,192,31795,1,0,0:0:0:0:
192,192,31888,1,0,0:0:0:0:
320,192,31888,1,0,0:0:0:0:
64,192,31982,1,0,0:0:0:0:
192,192,32076,1,0,0:0:0:0:
320,192,32170,1,0,0:0:0:0:
64,192,32263,1,0,0:0:0:0:
192,192,32263,1,0,0:0:0:0:
320,192,32357,1,0,0:0:0:0:
448,192,32451,1,0,0:0:0:0:
320,192,32545,1,0,0:0:0:0:
64,192,32638,1,0,0:0:0:0:
448,192,32638,1,0,0:0:0:0:
192,192,32732,1,0,0:0:0:0:
320,192,32826,1,0,0:0:0:0:
192,192,32920,1,0,0:0:0:0:
64,192,33013,1,0,0:0:0:0:
448,192,33013,1,0,0:0:0:0:
320,192,33107,1,0,0:0:0:0:
192,192,33201,1,0,0:0:0:0:
64,192,33295,1,0,0:0:0:0:
448,192,33388,1,0,0:0:0:0:
192,192,33388,1,0,0:0:0:0:
320,192,33482,1,0,0:0:0:0:
64,192,33576,1,0,0:0:0:0:
320,192,33670,1,0,0:0:0:0:
192,192,33763,1,0,0:0:0:0:
448,192,33763,1,0,0:0:0:0:
320,192,33857,1,0,0:0:0:0:
64,192,33951,1,0,0:0:0:0:
192,192,34045,1,0,0:0:0:0:
320,192,34138,1,0,0:0:0:0:
448,192,34138,1,0,0:0:0:0:
192,192,34232,1,0,0:0:0:0:
64,192,34326,1,0,0:0:0:0:
320,192,34420,1,0,0:0:0:0:
448,192,34513,1,0,0:0:0:0:
192,192,34513,1,0,0:0:0:0:
64,192,34607,1,0,0:0:0:0:
448,192,34701,1,0,0:0:0:0:
192,192,34795,1,0,0:0:0:0:
320,192,34888,1,0,0:0:0:0:
64,192,34888,1,0,0:0:0:0:
448,192,34982,1,0,0:0:0:0:
320,192,35076,1,0,0:0:0:0:
192,192,35170,1,0,0:0:0:0:
64,192,35263,1,0,0:0:0:0:
448,192,35263,1,0,0:0:0:0:
320,192,35357,1,0,0:0:0:0:
192,192,35451,1,0,0:0:0:0:
320,192,35545,1,0,0:0:0:0:
448,192,35638,1,0,0:0:0:0:
64,192,35638,1,0,0:0:0:0:
192,192,35732,1,0,0:0:0:0:
320,192,35826,1,0,0:0:0:0:
448,192,35920,1,0,0:0:0:0:
64,192,36013,1,0,0:0:0:0:
192,192,36013,1,0,0:0:0:0:
320,192,36107,1,0,0:0:0:0:
192,192,36201,1,0,0:0:0:0:
64,192,36295,1,0,0:0:0:0:
448,192,36388,1,0,0:0:0:0:
192,192,36388,1,0,0:0:0:0:
320,192,36482,1,0,0:0:0:0:
64,192,36576,1,0,0:0:0:0:
320,192,36670,1,0,0:0:0:0:
192,192,36763,1,0,0:0:0:0:
448,192,36763,1,0,0:0:0:0:
320,192,36857,1,0,0:0:0:0:
192,192,36951,1,0,0:0:0:0:
320,192,37045,1,0,0:0:0:0:
448,192,37138,1,0,0:0:0:0:
192,192,37232,1,0,0:0:0:0:
64,192,37326,1,0,0:0:0:0:
192,192,37420,1,0,0:0:0:0:
320,192,37513,1,0,0:0:0:0:
448,192,37513,1,0,0:0:0:0:
192,192,37607,1,0,0:0:0:0:
64,192,37701,1,0,0:0:0:0:
320,192,37795,1,0,0:0:0:0:
448,192,37888,1,0,0:0:0:0:
192,192,37888,1,0,0:0:0:0:
320,192,37982,1,0,0:0:0:0:
64,192,38076,1,0,0:0:0:0:
192,192,38170,1,0,0:0:0:0:
320,192,38263,1,0,0:0:0:0:
448,192,38263,1,0,0:0:0:0:
192,192,38357,1,0,0:0:0:0:
64,192,38451,1,0,0:0:0:0:
448,192,38545,1,0,0:0:0:0:
320,192,38638,1,0,0:0:0:0:
192,192,38638,1,0,0:0:0:0:
64,192,38732,1,0,0:0:0:0:
448,192,38826,1,0,0:0:0:0:
320,192,38920,1,0,0:0:0:0:
64,192,39013,1,0,0:0:0:0:
448,192,39013,1,0,0:0:0:0:
192,192,39107,1,0,0:0:0:0:
320,192,39201,1,0,0:0:0:0:
448,192,39201,1,0,0:0:0:0:
192,192,39295,1,0,0:0:0:0:
64,192,39388,1,0,0:0:0:0:
320,192,39388,1,0,0:0:0:0:
192,192,39482,1,0,0:0:0:0:
448,192,39576,1,0,0:0:0:0:
64,192,39576,1,0,0:0:0:0:
320,192,39670,1,0,0:0:0:0:
448,192,39763,1,0,0:0:0:0:
192,192,39763,1,0,0:0:0:0:
320,192,39857,1,0,0:0:0:0:
64,192,39951,1,0,0:0:0:0:
448,192,39951,1,0,0:0:0:0:
320,192,40045,1,0,0:0:0:0:
192,192,40138,1,0,0:0:0:0:
64,192,40138,1,0,0:0:0:0:
320,192,40232,1,0,0:0:0:0:
448,192,40326,1,0,0:0:0:0:
192,192,40326,1,0,0:0:0:0:
320,192,40420,1,0,0:0:0:0:
448,192,40513,1,0,0:0:0:0:
64,192,40513,1,0,0:0:0:0:
192,192,40607,1,0,0:0:0:0:
64,192,40701,1,0,0:0:0:0:
320,192,40701,1,0,0:0:0:0:
192,192,40795,1,0,0:0:0:0:
320,192,40888,1,0,0:0:0:0:
64,192,40888,1,0,0:0:0:0:
448,192,40982,1,0,0:0:0:0:
64,192,41076,1,0,0:0:0:0:
192,192,41076,1,0,0:0:0:0:
320,192,41170,1,0,0:0:0:0:
448,192,41263,1,0,0:0:0:0:
64,192,41263,1,0,0:0:0:0:
320,192,41357,1,0,0:0:0:0:
192,192,41451,1,0,0:0:0:0:
448,192,41451,1,0,0:0:0:0:
64,192,41545,1,0,0:0:0:0:
192,192,41638,1,0,0:0:0:0:
320,192,41638,1,0,0:0:0:0:
64,192,41732,1,0,0:0:0:0:
448,192,41826,1,0,0:0:0:0:
192,192,41826,1,0,0:0:0:0:
320,192,41920,1,0,0:0:0:0:
448,192,42013,1,0,0:0:0:0:
64,192,42013,1,0,0:0:0:0:
192,192,42107,1,0,0:0:0:0:
320,192,42201,1,0,0:0:0:0:
448,192,42201,1,0,0:0:0:0:
192,192,42295,1,0,0:0:0:0:
320,192,42388,1,0,0:0:0:0:
64,192,42388,1,0,0:0:0:0:
192,192,42482,1,0,0:0:0:0:
448,192,42576,1,0,0:0:0:0:
64,192,42576,1,0,0:0:0:0:
320,192,42670,1,0,0:0:0:0:
192,192,42763,1,0,0:0:0:0:
448,192,42763,1,0,0:0:0:0:
320,192,42857,1,0,0:0:0:0:
64,192,42951,1,0,0:0:0:0:
448,192,42951,1,0,0:0:0:0:
320,192,43045,1,0,0:0:0:0:
448,192,43138,1,0,0:0:0:0:
192,192,43138,1,0,0:0:0:0:
64,192,43232,1,0,0:0:0:0:
448,192,43326,1,0,0:0:0:0:
192,192,43326,1,0,0:0:0:0:
320,192,43420,1,0,0:0:0:0:
448,192,43513,1,0,0:0:0:0:
64,192,43513,1,0,0:0:0:0:
320,192,43607,1,0,0:0:0:0:
64,192,43701,1,0,0:0:0:0:
192,192,43701,1,0,0:0:0:0:
320,192,43795,1,0,0:0:0:0:
448,192,43888,1,0,0:0:0:0:
64,192,43888,1,0,0:0:0:0:
192,192,43982,1,0,0:0:0:0:
64,192,44076,1,0,0:0:0:0:
448,192,44076,1,0,0:0:0:0:
320,192,44170,1,0,0:0:0:0:
192,192,44263,1,0,0:0:0:0:
448,192,44263,1,0,0:0:0:0:
64,192,44357,1,0,0:0:0:0:
192,192,44451,1,0,0:0:0:0:
448,192,44451,1,0,0:0:0:0:
320,192,44545,1,0,0:0:0:0:
64,192,44638,1,0,0:0:0:0:
192,192,44638,1,0,0:0:0:0:
320,192,44732,1,0,0:0:0:0:
448,192,44826,1,0,0:0:0:0:
192,192,44826,1,0,0:0:0:0:
320,192,44920,1,0,0:0:0:0:
448,192,45013,1,0,0:0:0:0:
64,192,45013,1,0,0:0:0:0:
192,192,45107,1,0,0:0:0:0:
320,192,45201,1,0,0:0:0:0:
448,192,45201,1,0,0:0:0:0:
64,192,45295,1,0,0:0:0:0:
192,192,45388,1,0,0:0:0:0:
320,192,45388,1,0,0:0:0:0:
448,192,45482,1,0,0:0:0:0:
64,192,45576,1,0,0:0:0:0:
192,192,45576,1,0,0:0:0:0:
320,192,45670,1,0,0:0:0:0:
448,192,45763,1,0,0:0:0:0:
192,192,45763,1,0,0:0:0:0:
64,192,45857,1,0,0:0:0:0:
192,192,45951,1,0,0:0:0:0:
448,192,45951,1,0,0:0:0:0:
320,192,46045,1,0,0:0:0:0:
64,192,46138,1,0,0:0:0:0:
192,192,46138,1,0,0:0:0:0:
448,192,46232,1,0,0:0:0:0:
192,192,46326,1,0,0:0:0:0:
320,192,46326,1,0,0:0:0:0:
448,192,46420,1,0,0:0:0:0:
64,192,46513,1,0,0:0:0:0:
192,192,46513,1,0,0:0:0:0:
448,192,46607,1,0,0:0:0:0:
320,192,46701,1,0,0:0:0:0:
64,192,46701,1,0,0:0:0:0:
192,192,46795,1,0,0:0:0:0:
320,192,46888,1,0,0:0:0:0:
64,192,46888,1,0,0:0:0:0:
448,192,46982,1,0,0:0:0:0:
320,192,47076,1,0,0:0:0:0:
192,192,47076,1,0,0:0:0:0:
448,192,47170,1,0,0:0:0:0:
64,192,47263,1,0,0:0:0:0:
192,192,47263,1,0,0:0:0:0:
448,192,47357,1,0,0:0:0:0:
320,192,47451,1,0,0:0:0:0:
192,192,47451,1,0,0:0:0:0:
64,192,47545,1,0,0:0:0:0:
192,192,47638,1,0,0:0:0:0:
448,192,47638,1,0,0:0:0:0:
320,192,47732,1,0,0:0:0:0:
448,192,47826,1,0,0:0:0:0:
64,192,47826,1,0,0:0:0:0:
320,192,47920,1,0,0:0:0:0:
192,192,48013,1,0,0:0:0:0:
448,192,48013,1,0,0:0:0:0:
320,192,48107,1,0,0:0:0:0:
64,192,48201,1,0,0:0:0:0:
448,192,48201,1,0,0:0:0:0:
192,192,48295,1,0,0:0:0:0:
320,192,48388,1,0,0:0:0:0:
64,192,48388,1,0,0:0:0:0:
448,192,48482,1,0,0:0:0:0:
320,192,48576,1,0,0:0:0:0:
64,192,48576,1,0,0:0:0:0:
192,192,48670,1,0,0:0:0:0:
64,192,48763,1,0,0:0:0:0:
448,192,48763,1,0,0:0:0:0:
192,192,48857,1,0,0:0:0:0:
320,192,48951,1,0,0:0:0:0:
448,192,48951,1,0,0:0:0:0:
64,192,49045,1,0,0:0:0:0:
192,192,49138,1,0,0:0:0:0:
448,192,49138,1,0,0:0:0:0:
320,192,49232,1,0,0:0:0:0:
64,192,49326,1,0,0:0:0:0:
448,192,49326,1,0,0:0:0:0:
320,192,49420,1,0,0:0:0:0:
192,192,49513,1,0,0:0:0:0:
448,192,49513,1,0,0:0:0:0:
320,192,49607,1,0,0:0:0:0:
64,192,49701,1,0,0:0:0:0:
448,192,49701,1,0,0:0:0:0:
192,192,49795,1,0,0:0:0:0:
320,192,49888,1,0,0:0:0:0:
64,192,49888,1,0,0:0:0:0:
448,192,49982,1,0,0:0:0:0:
320,192,50076,1,0,0:0:0:0:
64,192,50076,1,0,0:0:0:0:
448,192,50170,1,0,0:0:0:0:
192,192,50263,1,0,0:0:0:0:
320,192,50263,1,0,0:0:0:0:
64,192,50357,1,0,0:0:0:0:
448,192,50451,1,0,0:0:0:0:
192,192,50451,1,0,0:0:0:0:
320,192,50545,1,0,0:0:0:0:
64,192,50638,1,0,0:0:0:0:
192,192,50732,1,0,0:0:0:0:
448,192,50826,1,0,0:0:0:0:
64,192,51013,1,0,0:0:0:0:
192,192,51013,1,0,0:0:0:0:
448,192,51107,1,0,0:0:0:0:
320,192,51201,1,0,0:0:0:0:
192,192,51295,1,0,0:0:0:0:
320,192,51388,1,0,0:0:0:0:
64,192,51388,1,0,0:0:0:0:
448,192,51388,1,0,0:0:0:0:
192,192,51482,1,0,0:0:0:0:
320,192,51576,1,0,0:0:0:0:
192,192,51670,1,0,0:0:0:0:
64,192,51763,1,0,0:0:0:0:
448,192,51763,1,0,0:0:0:0:
320,192,51857,1,0,0:0:0:0:
192,192,51951,1,0,0:0:0:0:
64,192,52045,1,0,0:0:0:0:
192,192,52138,1,0,0:0:0:0:
320,192,52138,1,0,0:0:0:0:
448,192,52138,1,0,0:0:0:0:
64,192,52232,1,0,0:0:0:0:
192,192,52326,1,0,0:0:0:0:
320,192,52420,1,0,0:0:0:0:
64,192,52513,1,0,0:0:0:0:
448,192,52513,1,0,0:0:0:0:
192,192,52607,1,0,0:0:0:0:
320,192,52701,1,0,0:0:0:0:
192,192,52795,1,0,0:0:0:0:
64,192,52888,1,0,0:0:0:0:
448,192,52888,1,0,0:0:0:0:
320,192,52888,1,0,0:0:0:0:
192,192,52982,1,0,0:0:0:0:
64,192,53076,1,0,0:0:0:0:
320,192,53170,1,0,0:0:0:0:
448,192,53263,1,0,0:0:0:0:
192,192,53263,1,0,0:0:0:0:
64,192,53357,1,0,0:0:0:0:
320,192,53451,1,0,0:0:0:0:
448,192,53545,1,0,0:0:0:0:
64,192,53638,1,0,0:0:0:0:
192,192,53638,1,0,0:0:0:0:
320,192,53638,1,0,0:0:0:0:
448,192,53732,1,0,0:0:0:0:
320,192,53826,1,0,0:0:0:0:
192,192,53920,1,0,0:0:0:0:
64,192,54013,1,0,0:0:0:0:
320,192,54013,1,0,0:0:0:0:
448,192,54107,1,0,0:0:0:0:
192,192,54201,1,0,0:0:0:0:
320,192,54295,1,0,0:0:0:0:
448,192,54388,1,0,0:0:0:0:
64,192,54388,1,0,0:0:0:0:
192,192,54388,1,0,0:0:0:0:
320,192,54482,1,0,0:0:0:0:
64,192,54576,1,0,0:0:0:0:
448,192,54670,1,0,0:0:0:0:
320,192,54763,1,0,0:0:0:0:
192,192,54763,1,0,0:0:0:0:
64,192,54857,1,0,0:0:0:0:
448,192,54951,1,0,0:0:0:0:
320,192,55045,1,0,0:0:0:0:
64,192,55138,1,0,0:0:0:0:
192,192,55138,1,0,0:0:0:0:
448,192,55138,1,0,0:0:0:0:
320,192,55232,1,0,0:0:0:0:
64,192,55326,1,0,0:0:0:0:
192,192,55420,1,0,0:0:0:0:
320,192,55513,1,0,0:0:0:0:
448,192,55513,1,0,0:0:0:0:
192,192,55607,1,0,0:0:0:0:
64,192,55701,1,0,0:0:0:0:
448,192,55795,1,0,0:0:0:0:
320,192,55888,1,0,0:0:0:0:
192,192,55888,1,0,0:0:0:0:
64,192,55888,1,0,0:0:0:0:
448,192,55982,1,0,0:0:0:0:
64,192,56076,1,0,0:0:0:0:
192,192,56170,1,0,0:0:0:0:
320,192,56263,1,0,0:0:0:0:
448,192,56263,1,0,0:0:0:0:
192,192,56357,1,0,0:0:0:0:
64,192,56451,1,0,0:0:0:0:
320,192,56545,1,0,0:0:0:0:
64,192,56638,1,0,0:0:0:0:
448,192,56638,1,0,0:0:0:0:
192,192,56638,1,0,0:0:0:0:
320,192,56732,1,0,0:0:0:0:
192,192,56826,1,0,0:0:0:0:
64,192,56920,1,0,0:0:0:0:
192,192,57013,1,0,0:0:0:0:
448,192,57013,1,0,0:0:0:0:
320,192,57107,1,0,0:0:0:0:
64,192,57201,1,0,0:0:0:0:
192,192,57295,1,0,0:0:0:0:
320,192,57388,1,0,0:0:0:0:
448,192,57388,1,0,0:0:0:0:
64,192,57388,1,0,0:0:0:0:
192,192,57482,1,0,0:0:0:0:
320,192,57576,1,0,0:0:0:0:
448,192,57670,1,0,0:0:0:0:
64,192,57763,1,0,0:0:0:0:
320,192,57763,1,0,0:0:0:0:
192,192,57857,1,0,0:0:0:0:
320,192,57951,1,0,0:0:0:0:
448,192,58045,1,0,0:0:0:0:
64,192,58138,1,0,0:0:0:0:
192,192,58138,1,0,0:0:0:0:
320,192,58138,1,0,0:0:0:0:
448,192,58232,1,0,0:0:0:0:
320,192,58326,1,0,0:0:0:0:
64,192,58420,1,0,0:0:0:0:
192,192,58513,1,0,0:0:0:0:
448,192,58513,1,0,0:0:0:0:
320,192,58607,1,0,0:0:0:0:
448,192,58701,1,0,0:0:0:0:
64,192,58795,1,0,0:0:0:0:
192,192,58888,1,0,0:0:0:0:
320,192,58888,1,0,0:0:0:0:
448,192,58888,1,0,0:0:0:0:
64,192,58982,1,0,0:0:0:0:
320,192,59076,1,0,0:0:0:0:
192,192,59170,1,0,0:0:0:0:
64,192,59263,1,0,0:0:0:0:
448,192,59263,1,0,0:0:0:0:
192,192,59357,1,0,0:0:0:0:
320,192,59451,1,0,0:0:0:0:
448,192,59545,1,0,0:0:0:0:
64,192,59638,1,0,0:0:0:0:
192,192,59638,1,0,0:0:0:0:
320,192,59638,1,0,0:0:0:0:
448,192,59732,1,0,0:0:0:0:
320,192,59826,1,0,0:0:0:0:
192,192,59920,1,0,0:0:0:0:
448,192,60013,1,0,0:0:0:0:
64,192,60013,1,0,0:0:0:0:
320,192,60107,1,0,0:0:0:0:
192,192,60201,1,0,0:0:0:0:
320,192,60295,1,0,0:0:0:0:
64,192,60388,1,0,0:0:0:0:
192,192,60388,1,0,0:0:0:0:
448,192,60388,1,0,0:0:0:0:
320,192,60482,1,0,0:0:0:0:
64,192,60576,1,0,0:0:0:0:
448,192,60670,1,0,0:0:0:0:
320,192,60763,1,0,0:0:0:0:
192,192,60763,1,0,0:0:0:0:
64,192,60857,1,0,0:0:0:0:
448,192,60951,1,0,0:0:0:0:
192,192,61045,1,0,0:0:0:0:
448,192,61138,1,0,0:0:0:0:
64,192,61138,1,0,0:0:0:0:
320,192,61138,1,0,0:0:0:0:
192,192,61232,1,0,0:0:0:0:
64,192,61326,1,0,0:0:0:0:
448,192,61326,1,0,0:0:0:0:
320,192,61420,1,0,0:0:0:0:
192,192,61513,1,0,0:0:0:0:
64,192,61513,1,0,0:0:0:0:
320,192,61607,1,0,0:0:0:0:
448,192,61701,1,0,0:0:0:0:
64,192,61795,1,0,0:0:0:0:
192,192,61888,1,0,0:0:0:0:
320,192,61888,1,0,0:0:0:0:
448,192,61888,1,0,0:0:0:0:
64,192,61982,1,0,0:0:0:0:
448,192,62076,1,0,0:0:0:0:
320,192,62170,1,0,0:0:0:0:
64,192,62263,1,0,0:0:0:0:
192,192,62263,1,0,0:0:0:0:
448,192,62357,1,0,0:0:0:0:
320,192,62451,1,0,0:0:0:0:
192,192,62545,1,0,0:0:0:0:
320,192,62638,1,0,0:0:0:0:
192,192,62732,1,0,0:0:0:0:
448,192,62826,1,0,0:0:0:0:
320,192,62920,1,0,0:0:0:0:
64,192,63013,1,0,0:0:0:0:
448,192,63013,1,0,0:0:0:0:
320,192,63107,1,0,0:0:0:0:
192,192,63201,1,0,0:0:0:0:
320,192,63295,1,0,0:0:0:0:
192,192,63388,1,0,0:0:0:0:
448,192,63388,1,0,0:0:0:0:
64,192,63388,1,0,0:0:0:0:
320,192,63482,1,0,0:0:0:0:
448,192,63576,1,0,0:0:0:0:
192,192,63670,1,0,0:0:0:0:
64,192,63763,1,0,0:0:0:0:
320,192,63763,1,0,0:0:0:0:
448,192,63857,1,0,0:0:0:0:
320,192,63951,1,0,0:0:0:0:
192,192,64045,1,0,0:0:0:0:
448,192,64138,1,0,0:0:0:0:
320,192,64138,1,0,0:0:0:0:
64,192,64138,1,0,0:0:0:0:
192,192,64232,1,0,0:0:0:0:
448,192,64326,1,0,0:0:0:0:
64,192,64420,1,0,0:0:0:0:
448,192,64513,1,0,0:0:0:0:
320,192,64513,1,0,0:0:0:0:
192,192,64607,1,0,0:0:0:0:
320,192,64701,1,0,0:0:0:0:
448,192,64795,1,0,0:0:0:0:
64,192,64888,1,0,0:0:0:0:
320,192,64888,1,0,0:0:0:0:
192,192,64888,1,0,0:0:0:0:
448,192,64982,1,0,0:0:0:0:
320,192,65076,1,0,0:0:0:0:
192,192,65170,1,0,0:0:0:0:
64,192,65263,1,0,0:0:0:0:
320,192,65263,1,0,0:0:0:0:
448,192,65357,1,0,0:0:0:0:
192,192,65451,1,0,0:0:0:0:
448,192,65545,1,0,0:0:0:0:
64,192,65638,1,0,0:0:0:0:
320,192,65638,1,0,0:0:0:0:
192,192,65638,1,0,0:0:0:0:
448,192,65732,1,0,0:0:0:0:
64,192,65826,1,0,0:0:0:0:
192,192,65920,1,0,0:0:0:0:
320,192,66013,1,0,0:0:0:0:
448,192,66013,1,0,0:0:0:0:
64,192,66107,1,0,0:0:0:0:
448,192,66201,1,0,0:0:0:0:
320,192,66295,1,0,0:0:0:0:
64,192,66388,1,0,0:0:0:0:
192,192,66388,1,0,0:0:0:0:
448,192,66388,1,0,0:0:0:0:
320,192,66482,1,0,0:0:0:0:
192,192,66576,1,0,0:0:0:0:
64,192,66670,1,0,0:0:0:0:
320,192,66763,1,0,0:0:0:0:
448,192,66763,1,0,0:0:0:0:
192,192,66857,1,0,0:0:0:0:
64,192,66951,1,0,0:0:0:0:
192,192,67045,1,0,0:0:0:0:
320,192,67138,1,0,0:0:0:0:
64,192,67138,1,0,0:0:0:0:
448,192,67138,1,0,0:0:0:0:
192,192,67232,1,0,0:0:0:0:
448,192,67326,1,0,0:0:0:0:
320,192,67420,1,0,0:0:0:0:
64,192,67513,1,0,0:0:0:0:
192,192,67513,1,0,0:0:0:0:
448,192,67607,1,0,0:0:0:0:
64,192,67701,1,0,0:0:0:0:
192,192,67795,1,0,0:0:0:0:
320,192,67888,1,0,0:0:0:0:
448,192,67888,1,0,0:0:0:0:
64,192,67888,1,0,0:0:0:0:
192,192,67982,1,0,0:0:0:0:
448,192,68076,1,0,0:0:0:0:
192,192,68170,1,0,0:0:0:0:
64,192,68263,1,0,0:0:0:0:
320,192,68263,1,0,0:0:0:0:
192,192,68357,1,0,0:0:0:0:
64,192,68451,1,0,0:0:0:0:
448,192,68451,1,0,0:0:0:0:
320,192,68451,1,0,0:0:0:0:
192,192,68545,1,0,0:0:0:0:
64,192,68638,1,0,0:0:0:0:
320,192,68638,1,0,0:0:0:0:
448,192,68732,1,0,0:0:0:0:
64,192,68826,1,0,0:0:0:0:
192,192,68826,1,0,0:0:0:0:
320,192,68826,1,0,0:0:0:0:
448,192,68920,1,0,0:0:0:0:
64,192,69013,1,0,0:0:0:0:
192,192,69013,1,0,0:0:0:0:
448,192,69107,1,0,0:0:0:0:
320,192,69201,1,0,0:0:0:0:
192,192,69295,1,0,0:0:0:0:
320,192,69388,1,0,0:0:0:0:
64,192,69388,1,0,0:0:0:0:
448,192,69388,1,0,0:0:0:0:
192,192,69482,1,0,0:0:0:0:
320,192,69576,1,0,0:0:0:0:
448,192,69670,1,0,0:0:0:0:
64,192,69763,1,0,0:0:0:0:
192,192,69763,1,0,0:0:0:0:
320,192,69857,1,0,0:0:0:0:
192,192,69951,1,0,0:0:0:0:
320,192,70045,1,0,0:0:0:0:
192,192,70138,1,0,0:0:0:0:
448,192,70138,1,0,0:0:0:0:
64,192,70138,1,0,0:0:0:0:
320,192,70232,1,0,0:0:0:0:
448,192,70326,1,0,0:0:0:0:
64,192,70420,1,0,0:0:0:0:
192,192,70513,1,0,0:0:0:0:
448,192,70513,1,0,0:0:0:0:
320,192,70607,1,0,0:0:0:0:
64,192,70701,1,0,0:0:0:0:
192,192,70795,1,0,0:0:0:0:
320,192,70888,1,0,0:0:0:0:
448,192,70888,1,0,0:0:0:0:
64,192,70888,1,0,0:0:0:0:
192,192,70982,1,0,0:0:0:0:
320,192,71076,1,0,0:0:0:0:
448,192,71170,1,0,0:0:0:0:
64,192,71263,1,0,0:0:0:0:
192,192,71263,1,0,0:0:0:0:
320,192,71357,1,0,0:0:0:0:
448,192,71451,1,0,0:0:0:0:
64,192,71545,1,0,0:0:0:0:
192,192,71638,1,0,0:0:0:0:
320,192,71638,1,0,0:0:0:0:
448,192,71638,1,0,0:0:0:0:
64,192,71732,1,0,0:0:0:0:
192,192,71826,1,0,0:0:0:0:
320,192,71920,1,0,0:0:0:0:
448,192,72013,1,0,0:0:0:0:
64,192,72013,1,0,0:0:0:0:
320,192,72107,1,0,0:0:0:0:
192,192,72201,1,0,0:0:0:0:
320,192,72295,1,0,0:0:0:0:
448,192,72388,1,0,0:0:0:0:
192,192,72388,1,0,0:0:0:0:
64,192,72388,1,0,0:0:0:0:
320,192,72482,1,0,0:0:0:0:
192,192,72576,1,0,0:0:0:0:
64,192,72670,1,0,0:0:0:0:
192,192,72763,1,0,0:0:0:0:
448,192,72763,1,0,0:0:0:0:
320,192,72857,1,0,0:0:0:0:
64,192,72951,1,0,0:0:0:0:
192,192,72951,1,0,0:0:0:0:
448,192,72951,1,0,0:0:0:0:
64,192,73138,1,0,0:0:0:0:
320,192,73138,1,0,0:0:0:0:
448,192,73232,1,0,0:0:0:0:
64,192,73326,1,0,0:0:0:0:
192,192,73326,1,0,0:0:0:0:
320,192,73326,1,0,0:0:0:0:
448,192,73420,1,0,0:0:0:0:
64,192,73513,1,0,0:0:0:0:
320,192,73513,1,0,0:0:0:0:
192,192,73607,1,0,0:0:0:0:
448,192,73701,1,0,0:0:0:0:
192,192,73795,1,0,0:0:0:0:
64,192,73888,1,0,0:0:0:0:
320,192,73888,1,0,0:0:0:0:
448,192,73888,1,0,0:0:0:0:
192,192,73982,1,0,0:0:0:0:
320,192,74076,1,0,0:0:0:0:
448,192,74170,1,0,0:0:0:0:
64,192,74263,1,0,0:0:0:0:
320,192,74263,1,0,0:0:0:0:
192,192,74357,1,0,0:0:0:0:
448,192,74451,1,0,0:0:0:0:
320,192,74545,1,0,0:0:0:0:
64,192,74638,1,0,0:0:0:0:
192,192,74638,1,0,0:0:0:0:
448,192,74638,1,0,0:0:0:0:
320,192,74732,1,0,0:0:0:0:
64,192,74826,1,0,0:0:0:0:
448,192,74826,1,0,0:0:0:0:
192,192,74920,1,0,0:0:0:0:
320,192,75013,1,0,0:0:0:0:
64,192,75013,1,0,0:0:0:0:
448,192,75013,128,0,85513:0:0:0:0:
192,192,82513,1,0,0:0:0:0:
64,192,82607,1,0,0:0:0:0:
320,192,82701,1,0,0:0:0:0:
192,192,82795,1,0,0:0:0:0:
64,192,82888,1,0,0:0:0:0:
192,192,82982,1,0,0:0:0:0:
320,192,83076,1,0,0:0:0:0:
64,192,83170,1,0,0:0:0:0:
192,192,83263,1,0,0:0:0:0:
64,192,83357,1,0,0:0:0:0:
320,192,83451,1,0,0:0:0:0:
192,192,83545,1,0,0:0:0:0:
64,192,83638,1,0,0:0:0:0:
320,192,83732,1,0,0:0:0:0:
192,192,83826,1,0,0:0:0:0:
64,192,83920,1,0,0:0:0:0:
192,192,84013,1,0,0:0:0:0:
64,192,84107,1,0,0:0:0:0:
320,192,84201,1,0,0:0:0:0:
192,192,84295,1,0,0:0:0:0:
64,192,84388,1,0,0:0:0:0:
192,192,84482,1,0,0:0:0:0:
320,192,84576,1,0,0:0:0:0:
64,192,84670,1,0,0:0:0:0:
192,192,84763,1,0,0:0:0:0:
64,192,84857,1,0,0:0:0:0:
320,192,84951,1,0,0:0:0:0:
192,192,85045,1,0,0:0:0:0:
64,192,85138,1,0,0:0:0:0:
320,192,85232,1,0,0:0:0:0:
192,192,85326,1,0,0:0:0:0:
320,192,85420,1,0,0:0:0:0:
64,192,85513,128,0,86638:0:0:0:0:
192,192,85513,1,0,0:0:0:0:
320,192,85607,1,0,0:0:0:0:
448,192,85701,1,0,0:0:0:0:
192,192,85795,1,0,0:0:0:0:
320,192,85888,1,0,0:0:0:0:
448,192,85982,1,0,0:0:0:0:
320,192,86076,1,0,0:0:0:0:
448,192,86170,1,0,0:0:0:0:
192,192,86263,1,0,0:0:0:0:
448,192,86357,1,0,0:0:0:0:
320,192,86451,1,0,0:0:0:0:
448,192,86545,1,0,0:0:0:0:
192,192,86638,1,0,0:0:0:0:
320,192,86732,1,0,0:0:0:0:
448,192,86826,1,0,0:0:0:0:
192,192,87013,1,0,0:0:0:0:
448,192,87013,1,0,0:0:0:0:
320,192,87107,1,0,0:0:0:0:
64,192,87201,128,0,87388:0:0:0:0:
192,192,87201,1,0,0:0:0:0:
448,192,87295,1,0,0:0:0:0:
320,192,87388,1,0,0:0:0:0:
192,192,87482,1,0,0:0:0:0:
64,192,87576,128,0,87763:0:0:0:0:
448,192,87576,1,0,0:0:0:0:
192,192,87670,1,0,0:0:0:0:
320,192,87763,1,0,0:0:0:0:
448,192,87857,1,0,0:0:0:0:
64,192,87951,128,0,88138:0:0:0:0:
192,192,87951,1,0,0:0:0:0:
320,192,88045,1,0,0:0:0:0:
448,192,88138,1,0,0:0:0:0:
192,192,88232,1,0,0:0:0:0:
64,192,88326,128,0,88513:0:0:0:0:
448,192,88326,1,0,0:0:0:0:
320,192,88420,1,0,0:0:0:0:
192,192,88513,1,0,0:0:0:0:
64,192,88701,128,0,88888:0:0:0:0:
448,192,88701,1,0,0:0:0:0:
192,192,88795,1,0,0:0:0:0:
320,192,88888,1,0,0:0:0:0:
448,192,88982,1,0,0:0:0:0:
64,192,89076,128,0,89263:0:0:0:0:
192,192,89076,1,0,0:0:0:0:
448,192,89170,1,0,0:0:0:0:
320,192,89263,1,0,0:0:0:0:
448,192,89357,1,0,0:0:0:0:
320,192,89451,128,0,89638:0:0:0:0:
192,192,89451,1,0,0:0:0:0:
64,192,89545,1,0,0:0:0:0:
192,192,89638,1,0,0:0:0:0:
64,192,89732,1,0,0:0:0:0:
448,192,89826,128,0,90013:0:0:0:0:
320,192,89826,1,0,0:0:0:0:
192,192,89920,1,0,0:0:0:0:
320,192,90013,1,0,0:0:0:0:
192,192,90107,1,0,0:0:0:0:
64,192,90201,128,0,90388:0:0:0:0:
448,192,90201,1,0,0:0:0:0:
320,192,90295,1,0,0:0:0:0:
192,192,90388,1,0,0:0:0:0:
448,192,90482,1,0,0:0:0:0:
64,192,90576,128,0,90763:0:0:0:0:
192,192,90576,1,0,0:0:0:0:
320,192,90670,1,0,0:0:0:0:
448,192,90763,1,0,0:0:0:0:
192,192,90857,1,0,0:0:0:0:
64,192,90951,128,0,91138:0:0:0:0:
448,192,90951,1,0,0:0:0:0:
320,192,91045,1,0,0:0:0:0:
192,192,91138,1,0,0:0:0:0:
448,192,91232,1,0,0:0:0:0:
64,192,91326,128,0,91513:0:0:0:0:
192,192,91326,1,0,0:0:0:0:
448,192,91420,1,0,0:0:0:0:
320,192,91513,1,0,0:0:0:0:
192,192,91607,1,0,0:0:0:0:
64,192,91701,128,0,91888:0:0:0:0:
448,192,91701,1,0,0:0:0:0:
192,192,91795,1,0,0:0:0:0:
320,192,91888,1,0,0:0:0:0:
448,192,91982,1,0,0:0:0:0:
64,192,92076,128,0,92263:0:0:0:0:
320,192,92076,1,0,0:0:0:0:
192,192,92170,1,0,0:0:0:0:
320,192,92263,1,0,0:0:0:0:
192,192,92357,1,0,0:0:0:0:
448,192,92451,128,0,92638:0:0:0:0:
64,192,92451,1,0,0:0:0:0:
320,192,92545,1,0,0:0:0:0:
64,192,92638,1,0,0:0:0:0:
192,192,92732,1,0,0:0:0:0:
448,192,92826,128,0,93013:0:0:0:0:
320,192,92826,1,0,0:0:0:0:
64,192,92920,1,0,0:0:0:0:
320,192,93013,1,0,0:0:0:0:
192,192,93107,1,0,0:0:0:0:
64,192,93201,128,0,93388:0:0:0:0:
448,192,93201,1,0,0:0:0:0:
320,192,93295,1,0,0:0:0:0:
192,192,93388,1,0,0:0:0:0:
448,192,93482,1,0,0:0:0:0:
64,192,93576,128,0,93763:0:0:0:0:
192,192,93576,1,0,0:0:0:0:
320,192,93670,1,0,0:0:0:0:
192,192,93763,1,0,0:0:0:0:
448,192,93857,1,0,0:0:0:0:
64,192,93951,128,0,94138:0:0:0:0:
192,192,93951,1,0,0:0:0:0:
320,192,94045,1,0,0:0:0:0:
192,192,94138,1,0,0:0:0:0:
448,192,94232,1,0,0:0:0:0:
64,192,94326,128,0,94513:0:0:0:0:
320,192,94326,1,0,0:0:0:0:
192,192,94420,1,0,0:0:0:0:
320,192,94513,1,0,0:0:0:0:
448,192,94607,1,0,0:0:0:0:
64,192,94701,128,0,94888:0:0:0:0:
192,192,94701,1,0,0:0:0:0:
448,192,94795,1,0,0:0:0:0:
320,192,94888,1,0,0:0:0:0:
192,192,94982,1,0,0:0:0:0:
64,192,95076,128,0,95263:0:0:0:0:
448,192,95076,1,0,0:0:0:0:
192,192,95170,1,0,0:0:0:0:
320,192,95263,1,0,0:0:0:0:
448,192,95357,1,0,0:0:0:0:
192,192,95451,128,0,95638:0:0:0:0:
64,192,95451,1,0,0:0:0:0:
320,192,95545,1,0,0:0:0:0:
448,192,95638,1,0,0:0:0:0:
64,192,95732,1,0,0:0:0:0:
320,192,95826,128,0,96013:0:0:0:0:
192,192,95826,1,0,0:0:0:0:
448,192,95920,1,0,0:0:0:0:
192,192,96013,1,0,0:0:0:0:
448,192,96107,1,0,0:0:0:0:
64,192,96201,128,0,96388:0:0:0:0:
192,192,96201,1,0,0:0:0:0:
320,192,96295,1,0,0:0:0:0:
448,192,96388,1,0,0:0:0:0:
192,192,96482,1,0,0:0:0:0:
64,192,96576,128,0,96763:0:0:0:0:
448,192,96576,1,0,0:0:0:0:
320,192,96670,1,0,0:0:0:0:
192,192,96763,1,0,0:0:0:0:
448,192,96857,1,0,0:0:0:0:
64,192,96951,128,0,97138:0:0:0:0:
192,192,96951,1,0,0:0:0:0:
320,192,97045,1,0,0:0:0:0:
448,192,97138,1,0,0:0:0:0:
192,192,97232,1,0,0:0:0:0:
64,192,97326,128,0,97513:0:0:0:0:
448,192,97326,1,0,0:0:0:0:
192,192,97420,1,0,0:0:0:0:
320,192,97513,1,0,0:0:0:0:
448,192,97607,1,0,0:0:0:0:
64,192,97701,128,0,97888:0:0:0:0:
192,192,97701,1,0,0:0:0:0:
320,192,97795,1,0,0:0:0:0:
192,192,97888,1,0,0:0:0:0:
320,192,97982,1,0,0:0:0:0:
64,192,98076,128,0,98263:0:0:0:0:
448,192,98076,1,0,0:0:0:0:
320,192,98170,1,0,0:0:0:0:
192,192,98263,1,0,0:0:0:0:
448,192,98357,1,0,0:0:0:0:
320,192,98451,128,0,98638:0:0:0:0:
192,192,98451,1,0,0:0:0:0:
64,192,98545,1,0,0:0:0:0:
448,192,98638,1,0,0:0:0:0:
192,192,98732,1,0,0:0:0:0:
64,192,98826,128,0,99013:0:0:0:0:
320,192,98826,1,0,0:0:0:0:
448,192,98920,1,0,0:0:0:0:
192,192,99013,1,0,0:0:0:0:
320,192,99013,1,0,0:0:0:0:
448,192,99107,1,0,0:0:0:0:
64,192,99201,1,0,0:0:0:0:
192,192,99201,1,0,0:0:0:0:
448,192,99295,1,0,0:0:0:0:
320,192,99388,1,0,0:0:0:0:
64,192,99388,1,0,0:0:0:0:
192,192,99482,1,0,0:0:0:0:
64,192,99576,1,0,0:0:0:0:
448,192,99576,1,0,0:0:0:0:
320,192,99670,1,0,0:0:0:0:
448,192,99763,128,0,99951:0:0:0:0:
64,192,99763,1,0,0:0:0:0:
320,192,99857,128,0,100045:0:0:0:0:
192,192,99951,128,0,100138:0:0:0:0:
64,192,100045,128,0,100138:0:0:0:0:
448,192,100138,128,0,100513:0:0:0:0:
320,192,100232,1,0,0:0:0:0:
64,192,100326,1,0,0:0:0:0:
192,192,100420,1,0,0:0:0:0:
320,192,100513,1,0,0:0:0:0:
64,192,100513,1,0,0:0:0:0:
192,192,100607,1,0,0:0:0:0:
448,192,100701,1,0,0:0:0:0:
320,192,100701,1,0,0:0:0:0:
64,192,100795,1,0,0:0:0:0:
192,192,100888,1,0,0:0:0:0:
448,192,100888,1,0,0:0:0:0:
320,192,100982,1,0,0:0:0:0:
64,192,101076,1,0,0:0:0:0:
192,192,101076,1,0,0:0:0:0:
448,192,101170,1,0,0:0:0:0:
64,192,101263,128,0,101638:0:0:0:0:
192,192,101263,1,0,0:0:0:0:
448,192,101357,1,0,0:0:0:0:
192,192,101451,128,0,101638:0:0:0:0:
320,192,101451,1,0,0:0:0:0:
448,192,101545,1,0,0:0:0:0:
320,192,101638,1,0,0:0:0:0:
448,192,101732,1,0,0:0:0:0:
320,192,101826,128,0,102013:0:0:0:0:
64,192,101826,128,0,102013:0:0:0:0:
192,192,101826,1,0,0:0:0:0:
448,192,101920,1,0,0:0:0:0:
192,192,102013,1,0,0:0:0:0:
448,192,102107,1,0,0:0:0:0:
64,192,102201,1,0,0:0:0:0:
192,192,102201,1,0,0:0:0:0:
320,192,102295,1,0,0:0:0:0:
448,192,102388,1,0,0:0:0:0:
192,192,102388,1,0,0:0:0:0:
320,192,102482,1,0,0:0:0:0:
192,192,102576,1,0,0:0:0:0:
64,192,102576,1,0,0:0:0:0:
320,192,102670,1,0,0:0:0:0:
448,192,102763,1,0,0:0:0:0:
192,192,102763,128,0,102951:0:0:0:0:
320,192,102857,1,0,0:0:0:0:
64,192,102951,128,0,103138:0:0:0:0:
448,192,102951,1,0,0:0:0:0:
192,192,103045,1,0,0:0:0:0:
320,192,103138,1,0,0:0:0:0:
448,192,103138,128,0,103326:0:0:0:0:
192,192,103232,1,0,0:0:0:0:
64,192,103326,1,0,0:0:0:0:
320,192,103326,128,0,103513:0:0:0:0:
192,192,103420,1,0,0:0:0:0:
64,192,103513,1,0,0:0:0:0:
448,192,103513,1,0,0:0:0:0:
192,192,103607,1,0,0:0:0:0:
64,192,103701,1,0,0:0:0:0:
448,192,103701,1,0,0:0:0:0:
320,192,103795,1,0,0:0:0:0:
192,192,103888,1,0,0:0:0:0:
64,192,103888,1,0,0:0:0:0:
448,192,103982,1,0,0:0:0:0:
320,192,104076,1,0,0:0:0:0:
64,192,104076,1,0,0:0:0:0:
192,192,104170,1,0,0:0:0:0:
64,192,104263,1,0,0:0:0:0:
448,192,104263,1,0,0:0:0:0:
320,192,104357,1,0,0:0:0:0:
64,192,104451,1,0,0:0:0:0:
192,192,104451,128,0,104638:0:0:0:0:
448,192,104638,1,0,0:0:0:0:
320,192,104638,1,0,0:0:0:0:
64,192,104732,1,0,0:0:0:0:
192,192,104826,128,0,105013:0:0:0:0:
320,192,104826,1,0,0:0:0:0:
448,192,104920,1,0,0:0:0:0:
64,192,105013,1,0,0:0:0:0:
320,192,105013,1,0,0:0:0:0:
448,192,105107,1,0,0:0:0:0:
64,192,105201,1,0,0:0:0:0:
192,192,105201,1,0,0:0:0:0:
320,192,105295,1,0,0:0:0:0:
448,192,105388,1,0,0:0:0:0:
192,192,105388,1,0,0:0:0:0:
64,192,105482,1,0,0:0:0:0:
192,192,105576,1,0,0:0:0:0:
320,192,105576,1,0,0:0:0:0:
448,192,105670,1,0,0:0:0:0:
64,192,105763,128,0,105951:0:0:0:0:
320,192,105763,1,0,0:0:0:0:
192,192,105857,128,0,106045:0:0:0:0:
320,192,105951,128,0,106138:0:0:0:0:
448,192,106045,128,0,106138:0:0:0:0:
64,192,106138,128,0,106513:0:0:0:0:
192,192,106232,1,0,0:0:0:0:
448,192,106326,1,0,0:0:0:0:
320,192,106420,1,0,0:0:0:0:
192,192,106513,1,0,0:0:0:0:
448,192,106513,1,0,0:0:0:0:
320,192,106607,1,0,0:0:0:0:
64,192,106701,1,0,0:0:0:0:
192,192,106701,1,0,0:0:0:0:
448,192,106795,1,0,0:0:0:0:
320,192,106888,1,0,0:0:0:0:
64,192,106888,1,0,0:0:0:0:
192,192,106982,1,0,0:0:0:0:
320,192,107076,1,0,0:0:0:0:
448,192,107076,1,0,0:0:0:0:
64,192,107170,1,0,0:0:0:0:
192,192,107263,1,0,0:0:0:0:
448,192,107263,128,0,107638:0:0:0:0:
64,192,107357,1,0,0:0:0:0:
320,192,107451,1,0,0:0:0:0:
192,192,107545,1,0,0:0:0:0:
64,192,107638,1,0,0:0:0:0:
320,192,107638,1,0,0:0:0:0:
192,192,107732,1,0,0:0:0:0:
320,192,107826,128,0,108013:0:0:0:0:
448,192,107826,128,0,108013:0:0:0:0:
64,192,107920,1,0,0:0:0:0:
192,192,108013,1,0,0:0:0:0:
64,192,108107,1,0,0:0:0:0:
320,192,108201,1,0,0:0:0:0:
448,192,108201,1,0,0:0:0:0:
192,192,108295,1,0,0:0:0:0:
64,192,108388,1,0,0:0:0:0:
192,192,108482,1,0,0:0:0:0:
448,192,108482,1,0,0:0:0:0:
64,192,108576,1,0,0:0:0:0:
320,192,108670,1,0,0:0:0:0:
192,192,108763,1,0,0:0:0:0:
64,192,108763,128,0,108951:0:0:0:0:
448,192,108857,1,0,0:0:0:0:
320,192,108951,128,0,109138:0:0:0:0:
192,192,108951,1,0,0:0:0:0:
448,192,109045,1,0,0:0:0:0:
192,192,109138,128,0,109326:0:0:0:0:
64,192,109138,1,0,0:0:0:0:
320,192,109232,1,0,0:0:0:0:
448,192,109326,128,0,109513:0:0:0:0:
64,192,109326,1,0,0:0:0:0:
320,192,109420,1,0,0:0:0:0:
64,192,109513,1,0,0:0:0:0:
192,192,109513,1,0,0:0:0:0:
320,192,109607,1,0,0:0:0:0:
448,192,109701,1,0,0:0:0:0:
64,192,109701,1,0,0:0:0:0:
192,192,109795,1,0,0:0:0:0:
320,192,109888,1,0,0:0:0:0:
448,192,109888,1,0,0:0:0:0:
64,192,109982,1,0,0:0:0:0:
192,192,110076,1,0,0:0:0:0:
448,192,110076,1,0,0:0:0:0:
320,192,110170,1,0,0:0:0:0:
64,192,110263,1,0,0:0:0:0:
192,192,110263,1,0,0:0:0:0:
320,192,110357,1,0,0:0:0:0:
448,192,110451,1,0,0:0:0:0:
64,192,110451,128,0,110638:0:0:0:0:
192,192,110545,1,0,0:0:0:0:
320,192,110638,1,0,0:0:0:0:
448,192,110638,1,0,0:0:0:0:
192,192,110732,1,0,0:0:0:0:
320,192,110826,128,0,111013:0:0:0:0:
64,192,110826,1,0,0:0:0:0:
448,192,110920,1,0,0:0:0:0:
192,192,111013,1,0,0:0:0:0:
64,192,111013,1,0,0:0:0:0:
448,192,111201,1,0,0:0:0:0:
448,192,111388,1,0,0:0:0:0:
448,192,111576,1,0,0:0:0:0:
64,192,111763,1,0,0:0:0:0:
448,192,111951,1,0,0:0:0:0:
448,192,112138,1,0,0:0:0:0:
448,192,112326,1,0,0:0:0:0:
64,192,112513,1,0,0:0:0:0:
448,192,112701,1,0,0:0:0:0:
448,192,112888,1,0,0:0:0:0:
448,192,113076,1,0,0:0:0:0:
64,192,113263,1,0,0:0:0:0:
192,192,113263,128,0,114013:0:0:0:0:
448,192,113451,1,0,0:0:0:0:
448,192,113638,1,0,0:0:0:0:
448,192,113826,1,0,0:0:0:0:
64,192,114013,1,0,0:0:0:0:
320,192,114013,1,0,0:0:0:0:
320,192,114201,128,0,114388:0:0:0:0:
64,192,114201,1,0,0:0:0:0:
64,192,114388,128,0,114576:0:0:0:0:
448,192,114388,1,0,0:0:0:0:
448,192,114576,128,0,114763:0:0:0:0:
192,192,114576,1,0,0:0:0:0:
192,192,114763,128,0,114951:0:0:0:0:
320,192,114763,1,0,0:0:0:0:
320,192,114951,128,0,115138:0:0:0:0:
448,192,115138,1,0,0:0:0:0:
64,192,115326,1,0,0:0:0:0:
448,192,115326,128,0,115513:0:0:0:0:
64,192,115513,128,0,115701:0:0:0:0:
320,192,115513,1,0,0:0:0:0:
320,192,115701,128,0,115888:0:0:0:0:
192,192,115701,1,0,0:0:0:0:
192,192,115888,128,0,116076:0:0:0:0:
448,192,116076,1,0,0:0:0:0:
448,192,116263,128,0,116451:0:0:0:0:
320,192,116263,1,0,0:0:0:0:
320,192,116451,128,0,116638:0:0:0:0:
64,192,116451,1,0,0:0:0:0:
64,192,116638,128,0,116826:0:0:0:0:
192,192,116638,1,0,0:0:0:0:
192,192,116826,128,0,117013:0:0:0:0:
448,192,116826,1,0,0:0:0:0:
448,192,117013,128,0,117201:0:0:0:0:
320,192,117013,1,0,0:0:0:0:
320,192,117201,128,0,117388:0:0:0:0:
64,192,117201,1,0,0:0:0:0:
64,192,117388,128,0,117576:0:0:0:0:
192,192,117388,1,0,0:0:0:0:
192,192,117576,128,0,117763:0:0:0:0:
320,192,117576,1,0,0:0:0:0:
320,192,117763,128,0,117951:0:0:0:0:
448,192,117763,1,0,0:0:0:0:
448,192,117951,128,0,118138:0:0:0:0:
64,192,117951,1,0,0:0:0:0:
64,192,118138,128,0,118326:0:0:0:0:
320,192,118138,1,0,0:0:0:0:
320,192,118326,128,0,118513:0:0:0:0:
192,192,118326,1,0,0:0:0:0:
192,192,118513,128,0,118701:0:0:0:0:
448,192,118513,1,0,0:0:0:0:
448,192,118701,128,0,118888:0:0:0:0:
64,192,118701,1,0,0:0:0:0:
64,192,118888,128,0,119076:0:0:0:0:
320,192,118888,1,0,0:0:0:0:
320,192,119076,128,0,119263:0:0:0:0:
192,192,119076,1,0,0:0:0:0:
192,192,119263,128,0,119451:0:0:0:0:
448,192,119263,1,0,0:0:0:0:
448,192,119451,128,0,119638:0:0:0:0:
64,192,119451,1,0,0:0:0:0:
320,192,119545,1,0,0:0:0:0:
64,192,119638,128,0,119826:0:0:0:0:
192,192,119638,1,0,0:0:0:0:
448,192,119732,1,0,0:0:0:0:
320,192,119826,1,0,0:0:0:0:
192,192,119826,128,0,120013:0:0:0:0:
320,192,120013,128,0,120201:0:0:0:0:
448,192,120013,1,0,0:0:0:0:
64,192,120013,1,0,0:0:0:0:
448,192,120201,128,0,120388:0:0:0:0:
64,192,120201,1,0,0:0:0:0:
64,192,120388,128,0,120576:0:0:0:0:
192,192,120388,1,0,0:0:0:0:
192,192,120576,128,0,120763:0:0:0:0:
448,192,120576,1,0,0:0:0:0:
320,192,120576,1,0,0:0:0:0:
448,192,120763,128,0,120951:0:0:0:0:
320,192,120763,1,0,0:0:0:0:
320,192,120951,128,0,121138:0:0:0:0:
64,192,120951,1,0,0:0:0:0:
192,192,120951,1,0,0:0:0:0:
64,192,121138,128,0,121326:0:0:0:0:
448,192,121138,1,0,0:0:0:0:
448,192,121326,128,0,121513:0:0:0:0:
192,192,121326,1,0,0:0:0:0:
320,192,121326,1,0,0:0:0:0:
192,192,121513,128,0,121701:0:0:0:0:
64,192,121513,1,0,0:0:0:0:
320,192,121701,1,0,0:0:0:0:
448,192,121701,1,0,0:0:0:0:
64,192,121701,128,0,121888:0:0:0:0:
448,192,121888,128,0,122076:0:0:0:0:
192,192,121888,1,0,0:0:0:0:
192,192,122076,128,0,122263:0:0:0:0:
320,192,122076,1,0,0:0:0:0:
64,192,122076,1,0,0:0:0:0:
320,192,122263,128,0,122451:0:0:0:0:
448,192,122263,1,0,0:0:0:0:
448,192,122451,128,0,122638:0:0:0:0:
192,192,122451,1,0,0:0:0:0:
64,192,122451,1,0,0:0:0:0:
64,192,122638,128,0,122826:0:0:0:0:
192,192,122638,1,0,0:0:0:0:
192,192,122826,128,0,123013:0:0:0:0:
320,192,122826,1,0,0:0:0:0:
448,192,122826,1,0,0:0:0:0:
64,192,123013,1,0,0:0:0:0:
320,192,123013,128,0,123201:0:0:0:0:
448,192,123013,1,0,0:0:0:0:
64,192,123201,128,0,123388:0:0:0:0:
448,192,123201,1,0,0:0:0:0:
448,192,123388,128,0,123576:0:0:0:0:
192,192,123388,1,0,0:0:0:0:
192,192,123576,128,0,123763:0:0:0:0:
320,192,123576,1,0,0:0:0:0:
320,192,123763,128,0,123951:0:0:0:0:
64,192,123763,1,0,0:0:0:0:
448,192,123763,1,0,0:0:0:0:
64,192,123951,128,0,124138:0:0:0:0:
448,192,123951,1,0,0:0:0:0:
448,192,124138,128,0,124326:0:0:0:0:
192,192,124138,1,0,0:0:0:0:
192,192,124326,128,0,124513:0:0:0:0:
320,192,124326,1,0,0:0:0:0:
320,192,124513,128,0,124701:0:0:0:0:
448,192,124513,1,0,0:0:0:0:
64,192,124513,1,0,0:0:0:0:
448,192,124701,128,0,124888:0:0:0:0:
192,192,124701,1,0,0:0:0:0:
192,192,124888,128,0,125076:0:0:0:0:
64,192,124888,1,0,0:0:0:0:
320,192,125076,1,0,0:0:0:0:
448,192,125076,1,0,0:0:0:0:
64,192,125076,128,0,125263:0:0:0:0:
192,192,125263,128,0,125545:0:0:0:0:
448,192,125263,128,0,125638:0:0:0:0:
320,192,125263,1,0,0:0:0:0:
64,192,125545,1,0,0:0:0:0:
320,192,125638,128,0,126013:0:0:0:0:
192,192,125638,1,0,0:0:0:0:
64,192,125732,1,0,0:0:0:0:
448,192,125826,128,0,126013:0:0:0:0:
192,192,125826,1,0,0:0:0:0:
64,192,126013,1,0,0:0:0:0:
448,192,126107,1,0,0:0:0:0:
192,192,126201,1,0,0:0:0:0:
320,192,126201,1,0,0:0:0:0:
64,192,126295,1,0,0:0:0:0:
448,192,126388,1,0,0:0:0:0:
320,192,126388,1,0,0:0:0:0:
192,192,126482,1,0,0:0:0:0:
64,192,126576,1,0,0:0:0:0:
320,192,126576,1,0,0:0:0:0:
448,192,126576,1,0,0:0:0:0:
192,192,126670,1,0,0:0:0:0:
64,192,126763,1,0,0:0:0:0:
448,192,126763,1,0,0:0:0:0:
320,192,126857,1,0,0:0:0:0:
448,192,126951,1,0,0:0:0:0:
192,192,126951,1,0,0:0:0:0:
320,192,127045,1,0,0:0:0:0:
64,192,127138,1,0,0:0:0:0:
192,192,127138,1,0,0:0:0:0:
448,192,127232,1,0,0:0:0:0:
320,192,127326,1,0,0:0:0:0:
192,192,127326,1,0,0:0:0:0:
64,192,127420,1,0,0:0:0:0:
448,192,127513,1,0,0:0:0:0:
320,192,127513,1,0,0:0:0:0:
192,192,127607,1,0,0:0:0:0:
64,192,127701,1,0,0:0:0:0:
448,192,127701,1,0,0:0:0:0:
320,192,127795,1,0,0:0:0:0:
64,192,127888,1,0,0:0:0:0:
448,192,127888,1,0,0:0:0:0:
192,192,127982,1,0,0:0:0:0:
320,192,128076,1,0,0:0:0:0:
448,192,128076,1,0,0:0:0:0:
64,192,128076,1,0,0:0:0:0:
192,192,128170,1,0,0:0:0:0:
448,192,128263,1,0,0:0:0:0:
64,192,128263,1,0,0:0:0:0:
320,192,128357,1,0,0:0:0:0:
64,192,128451,1,0,0:0:0:0:
192,192,128451,1,0,0:0:0:0:
320,192,128545,1,0,0:0:0:0:
448,192,128638,1,0,0:0:0:0:
64,192,128638,1,0,0:0:0:0:
192,192,128638,1,0,0:0:0:0:
320,192,128732,1,0,0:0:0:0:
448,192,128826,1,0,0:0:0:0:
64,192,128826,1,0,0:0:0:0:
192,192,128920,1,0,0:0:0:0:
64,192,129013,1,0,0:0:0:0:
320,192,129013,1,0,0:0:0:0:
448,192,129107,1,0,0:0:0:0:
320,192,129201,1,0,0:0:0:0:
192,192,129201,1,0,0:0:0:0:
64,192,129295,1,0,0:0:0:0:
320,192,129388,1,0,0:0:0:0:
448,192,129388,1,0,0:0:0:0:
192,192,129482,1,0,0:0:0:0:
64,192,129576,1,0,0:0:0:0:
448,192,129576,1,0,0:0:0:0:
320,192,129576,1,0,0:0:0:0:
192,192,129670,1,0,0:0:0:0:
64,192,129763,1,0,0:0:0:0:
448,192,129763,1,0,0:0:0:0:
192,192,129857,1,0,0:0:0:0:
320,192,129951,1,0,0:0:0:0:
64,192,129951,1,0,0:0:0:0:
448,192,130045,1,0,0:0:0:0:
320,192,130138,1,0,0:0:0:0:
64,192,130138,1,0,0:0:0:0:
192,192,130232,1,0,0:0:0:0:
448,192,130326,1,0,0:0:0:0:
320,192,130326,1,0,0:0:0:0:
192,192,130420,1,0,0:0:0:0:
448,192,130513,1,0,0:0:0:0:
64,192,130513,1,0,0:0:0:0:
192,192,130607,1,0,0:0:0:0:
320,192,130701,1,0,0:0:0:0:
64,192,130701,1,0,0:0:0:0:
448,192,130795,1,0,0:0:0:0:
320,192,130888,1,0,0:0:0:0:
192,192,130888,1,0,0:0:0:0:
448,192,130982,1,0,0:0:0:0:
64,192,131076,1,0,0:0:0:0:
192,192,131076,1,0,0:0:0:0:
320,192,131076,1,0,0:0:0:0:
448,192,131170,1,0,0:0:0:0:
64,192,131263,1,0,0:0:0:0:
320,192,131263,1,0,0:0:0:0:
448,192,131357,1,0,0:0:0:0:
320,192,131451,1,0,0:0:0:0:
192,192,131451,1,0,0:0:0:0:
64,192,131545,1,0,0:0:0:0:
320,192,131638,1,0,0:0:0:0:
448,192,131638,1,0,0:0:0:0:
192,192,131638,1,0,0:0:0:0:
64,192,131732,1,0,0:0:0:0:
448,192,131826,1,0,0:0:0:0:
320,192,131826,1,0,0:0:0:0:
192,192,131920,1,0,0:0:0:0:
64,192,132013,1,0,0:0:0:0:
320,192,132013,1,0,0:0:0:0:
192,192,132107,1,0,0:0:0:0:
320,192,132201,1,0,0:0:0:0:
448,192,132201,1,0,0:0:0:0:
64,192,132295,1,0,0:0:0:0:
192,192,132388,1,0,0:0:0:0:
448,192,132388,1,0,0:0:0:0:
64,192,132482,1,0,0:0:0:0:
448,192,132576,1,0,0:0:0:0:
192,192,132576,1,0,0:0:0:0:
320,192,132576,1,0,0:0:0:0:
64,192,132670,1,0,0:0:0:0:
448,192,132763,1,0,0:0:0:0:
192,192,132763,1,0,0:0:0:0:
320,192,132857,1,0,0:0:0:0:
192,192,132951,1,0,0:0:0:0:
64,192,132951,1,0,0:0:0:0:
320,192,133045,1,0,0:0:0:0:
448,192,133138,1,0,0:0:0:0:
64,192,133138,1,0,0:0:0:0:
192,192,133232,1,0,0:0:0:0:
320,192,133326,1,0,0:0:0:0:
448,192,133326,1,0,0:0:0:0:
64,192,133420,1,0,0:0:0:0:
192,192,133513,1,0,0:0:0:0:
448,192,133513,1,0,0:0:0:0:
64,192,133607,1,0,0:0:0:0:
192,192,133701,1,0,0:0:0:0:
320,192,133701,1,0,0:0:0:0:
448,192,133795,1,0,0:0:0:0:
64,192,133888,1,0,0:0:0:0:
192,192,133888,1,0,0:0:0:0:
320,192,133982,1,0,0:0:0:0:
448,192,134076,1,0,0:0:0:0:
192,192,134076,1,0,0:0:0:0:
64,192,134076,1,0,0:0:0:0:
320,192,134170,1,0,0:0:0:0:
192,192,134263,1,0,0:0:0:0:
448,192,134263,1,0,0:0:0:0:
320,192,134357,1,0,0:0:0:0:
192,192,134451,1,0,0:0:0:0:
448,192,134451,1,0,0:0:0:0:
64,192,134545,1,0,0:0:0:0:
192,192,134638,1,0,0:0:0:0:
320,192,134638,1,0,0:0:0:0:
448,192,134638,1,0,0:0:0:0:
64,192,134732,1,0,0:0:0:0:
320,192,134826,1,0,0:0:0:0:
192,192,134826,1,0,0:0:0:0:
448,192,134920,1,0,0:0:0:0:
64,192,135013,1,0,0:0:0:0:
320,192,135013,1,0,0:0:0:0:
192,192,135107,1,0,0:0:0:0:
448,192,135201,1,0,0:0:0:0:
320,192,135201,1,0,0:0:0:0:
64,192,135295,1,0,0:0:0:0:
192,192,135388,1,0,0:0:0:0:
448,192,135388,1,0,0:0:0:0:
320,192,135482,1,0,0:0:0:0:
192,192,135576,1,0,0:0:0:0:
64,192,135576,1,0,0:0:0:0:
448,192,135576,1,0,0:0:0:0:
320,192,135670,1,0,0:0:0:0:
192,192,135763,1,0,0:0:0:0:
448,192,135763,1,0,0:0:0:0:
320,192,135857,1,0,0:0:0:0:
64,192,135951,1,0,0:0:0:0:
192,192,135951,1,0,0:0:0:0:
320,192,136045,1,0,0:0:0:0:
192,192,136138,1,0,0:0:0:0:
64,192,136232,1,0,0:0:0:0:
320,192,136232,1,0,0:0:0:0:
448,192,136232,1,0,0:0:0:0:
192,192,136326,1,0,0:0:0:0:
448,192,136420,1,0,0:0:0:0:
320,192,136513,1,0,0:0:0:0:
64,192,136513,1,0,0:0:0:0:
192,192,136607,1,0,0:0:0:0:
320,192,136701,1,0,0:0:0:0:
448,192,136701,1,0,0:0:0:0:
64,192,136795,1,0,0:0:0:0:
192,192,136888,1,0,0:0:0:0:
320,192,136888,1,0,0:0:0:0:
448,192,136982,1,0,0:0:0:0:
64,192,137076,1,0,0:0:0:0:
192,192,137076,1,0,0:0:0:0:
320,192,137076,1,0,0:0:0:0:
448,192,137170,1,0,0:0:0:0:
64,192,137263,1,0,0:0:0:0:
320,192,137263,1,0,0:0:0:0:
192,192,137357,1,0,0:0:0:0:
448,192,137451,1,0,0:0:0:0:
320,192,137451,1,0,0:0:0:0:
192,192,137545,1,0,0:0:0:0:
448,192,137638,1,0,0:0:0:0:
64,192,137638,1,0,0:0:0:0:
320,192,137638,1,0,0:0:0:0:
192,192,137732,1,0,0:0:0:0:
448,192,137826,1,0,0:0:0:0:
320,192,137826,1,0,0:0:0:0:
192,192,137920,1,0,0:0:0:0:
64,192,138013,128,0,138107:0:0:0:0:
64,192,138201,128,0,138388:0:0:0:0:
192,192,138388,128,0,138482:0:0:0:0:
192,192,138576,128,0,138763:0:0:0:0:
320,192,138763,128,0,138857:0:0:0:0:
64,192,138857,1,0,0:0:0:0:
320,192,138951,128,0,139138:0:0:0:0:
448,192,139138,128,0,139232:0:0:0:0:
192,192,139232,128,0,139326:0:0:0:0:
448,192,139326,128,0,139420:0:0:0:0:
192,192,139420,128,0,139513:0:0:0:0:
64,192,139513,1,0,0:0:0:0:
320,192,139607,1,0,0:0:0:0:
192,192,139701,1,0,0:0:0:0:
448,192,139701,128,0,139888:0:0:0:0:
64,192,139795,1,0,0:0:0:0:
320,192,139888,1,0,0:0:0:0:
192,192,139888,128,0,140076:0:0:0:0:
448,192,139982,1,0,0:0:0:0:
64,192,140076,128,0,140263:0:0:0:0:
320,192,140076,1,0,0:0:0:0:
192,192,140170,1,0,0:0:0:0:
448,192,140263,1,0,0:0:0:0:
320,192,140263,128,0,140451:0:0:0:0:
192,192,140357,1,0,0:0:0:0:
64,192,140451,1,0,0:0:0:0:
448,192,140451,128,0,140638:0:0:0:0:
192,192,140545,1,0,0:0:0:0:
64,192,140638,1,0,0:0:0:0:
192,192,140732,1,0,0:0:0:0:
448,192,140826,1,0,0:0:0:0:
320,192,140826,128,0,141013:0:0:0:0:
64,192,140920,1,0,0:0:0:0:
192,192,141013,1,0,0:0:0:0:
320,192,141107,1,0,0:0:0:0:
448,192,141201,1,0,0:0:0:0:
192,192,141201,128,0,141388:0:0:0:0:
320,192,141295,1,0,0:0:0:0:
64,192,141388,1,0,0:0:0:0:
448,192,141388,128,0,141576:0:0:0:0:
320,192,141482,1,0,0:0:0:0:
64,192,141576,128,0,141763:0:0:0:0:
192,192,141576,1,0,0:0:0:0:
320,192,141670,1,0,0:0:0:0:
448,192,141763,1,0,0:0:0:0:
192,192,141857,1,0,0:0:0:0:
320,192,141951,1,0,0:0:0:0:
448,192,141951,128,0,142138:0:0:0:0:
192,192,142045,1,0,0:0:0:0:
64,192,142138,1,0,0:0:0:0:
192,192,142232,1,0,0:0:0:0:
448,192,142326,1,0,0:0:0:0:
320,192,142326,128,0,142513:0:0:0:0:
64,192,142420,1,0,0:0:0:0:
192,192,142513,1,0,0:0:0:0:
448,192,142513,1,0,0:0:0:0:
64,192,142607,1,0,0:0:0:0:
192,192,142701,128,0,142888:0:0:0:0:
448,192,142701,1,0,0:0:0:0:
320,192,142795,1,0,0:0:0:0:
64,192,142888,128,0,143076:0:0:0:0:
448,192,142888,1,0,0:0:0:0:
192,192,142982,1,0,0:0:0:0:
448,192,143076,1,0,0:0:0:0:
320,192,143076,128,0,143263:0:0:0:0:
192,192,143170,1,0,0:0:0:0:
64,192,143263,1,0,0:0:0:0:
192,192,143357,1,0,0:0:0:0:
448,192,143451,128,0,143638:0:0:0:0:
320,192,143451,1,0,0:0:0:0:
192,192,143545,1,0,0:0:0:0:
64,192,143638,128,0,143826:0:0:0:0:
320,192,143638,1,0,0:0:0:0:
192,192,143732,1,0,0:0:0:0:
448,192,143826,128,0,144013:0:0:0:0:
320,192,143826,1,0,0:0:0:0:
192,192,143920,1,0,0:0:0:0:
64,192,144013,1,0,0:0:0:0:
192,192,144107,1,0,0:0:0:0:
64,192,144201,128,0,144388:0:0:0:0:
320,192,144201,1,0,0:0:0:0:
448,192,144295,1,0,0:0:0:0:
320,192,144388,1,0,0:0:0:0:
448,192,144482,1,0,0:0:0:0:
192,192,144576,128,0,144763:0:0:0:0:
64,192,144576,1,0,0:0:0:0:
448,192,144670,1,0,0:0:0:0:
320,192,144763,128,0,144951:0:0:0:0:
64,192,144763,1,0,0:0:0:0:
192,192,144857,1,0,0:0:0:0:
448,192,144951,128,0,145138:0:0:0:0:
64,192,144951,1,0,0:0:0:0:
320,192,145045,1,0,0:0:0:0:
64,192,145138,1,0,0:0:0:0:
192,192,145138,128,0,145326:0:0:0:0:
320,192,145232,1,0,0:0:0:0:
64,192,145326,128,0,145513:0:0:0:0:
448,192,145326,1,0,0:0:0:0:
192,192,145420,1,0,0:0:0:0:
320,192,145513,1,0,0:0:0:0:
448,192,145607,1,0,0:0:0:0:
192,192,145701,128,0,145888:0:0:0:0:
64,192,145701,1,0,0:0:0:0:
320,192,145795,1,0,0:0:0:0:
448,192,145888,1,0,0:0:0:0:
64,192,145888,128,0,146076:0:0:0:0:
192,192,145982,1,0,0:0:0:0:
320,192,146076,1,0,0:0:0:0:
448,192,146076,128,0,146263:0:0:0:0:
192,192,146170,1,0,0:0:0:0:
320,192,146263,1,0,0:0:0:0:
192,192,146357,1,0,0:0:0:0:
64,192,146451,1,0,0:0:0:0:
320,192,146451,128,0,146638:0:0:0:0:
192,192,146545,1,0,0:0:0:0:
448,192,146638,1,0,0:0:0:0:
64,192,146732,1,0,0:0:0:0:
192,192,146826,1,0,0:0:0:0:
448,192,146826,128,0,147013:0:0:0:0:
320,192,146920,1,0,0:0:0:0:
64,192,147013,1,0,0:0:0:0:
192,192,147013,128,0,147201:0:0:0:0:
320,192,147107,1,0,0:0:0:0:
448,192,147201,128,0,147388:0:0:0:0:
64,192,147201,128,0,147388:0:0:0:0:
320,192,147295,1,0,0:0:0:0:
192,192,147388,1,0,0:0:0:0:
448,192,147482,1,0,0:0:0:0:
64,192,147576,128,0,147763:0:0:0:0:
320,192,147576,128,0,147763:0:0:0:0:
192,192,147576,1,0,0:0:0:0:
448,192,147670,1,0,0:0:0:0:
192,192,147763,1,0,0:0:0:0:
448,192,147857,1,0,0:0:0:0:
64,192,147951,128,0,148138:0:0:0:0:
192,192,147951,128,0,148138:0:0:0:0:
320,192,147951,1,0,0:0:0:0:
448,192,148045,1,0,0:0:0:0:
320,192,148138,1,0,0:0:0:0:
64,192,148232,1,0,0:0:0:0:
192,192,148326,128,0,148513:0:0:0:0:
320,192,148326,1,0,0:0:0:0:
448,192,148420,1,0,0:0:0:0:
320,192,148513,1,0,0:0:0:0:
64,192,148513,1,0,0:0:0:0:
448,192,148607,1,0,0:0:0:0:
64,192,148701,1,0,0:0:0:0:
192,192,148795,1,0,0:0:0:0:
320,192,148888,1,0,0:0:0:0:
448,192,148888,1,0,0:0:0:0:
64,192,148888,1,0,0:0:0:0:
192,192,148982,1,0,0:0:0:0:
448,192,149076,1,0,0:0:0:0:
64,192,149076,1,0,0:0:0:0:
320,192,149170,1,0,0:0:0:0:
64,192,149263,1,0,0:0:0:0:
320,192,149357,1,0,0:0:0:0:
448,192,149451,1,0,0:0:0:0:
64,192,149451,1,0,0:0:0:0:
192,192,149451,1,0,0:0:0:0:
320,192,149545,1,0,0:0:0:0:
64,192,149638,1,0,0:0:0:0:
192,192,149638,1,0,0:0:0:0:
320,192,149732,1,0,0:0:0:0:
448,192,149826,1,0,0:0:0:0:
64,192,149920,1,0,0:0:0:0:
192,192,150013,1,0,0:0:0:0:
320,192,150013,1,0,0:0:0:0:
448,192,150013,1,0,0:0:0:0:
64,192,150107,1,0,0:0:0:0:
192,192,150201,1,0,0:0:0:0:
448,192,150201,1,0,0:0:0:0:
320,192,150295,1,0,0:0:0:0:
64,192,150388,1,0,0:0:0:0:
192,192,150482,1,0,0:0:0:0:
320,192,150576,1,0,0:0:0:0:
448,192,150576,1,0,0:0:0:0:
64,192,150576,1,0,0:0:0:0:
192,192,150670,1,0,0:0:0:0:
64,192,150763,128,0,150857:0:0:0:0:
448,192,150763,1,0,0:0:0:0:
192,192,150857,128,0,150951:0:0:0:0:
320,192,150951,128,0,151138:0:0:0:0:
448,192,151138,128,0,151232:0:0:0:0:
192,192,151138,1,0,0:0:0:0:
64,192,151232,128,0,151513:0:0:0:0:
192,192,151326,128,0,151513:0:0:0:0:
320,192,151420,128,0,151513:0:0:0:0:
448,192,151513,1,0,0:0:0:0:
320,192,151607,1,0,0:0:0:0:
64,192,151701,1,0,0:0:0:0:
192,192,151701,1,0,0:0:0:0:
320,192,151795,1,0,0:0:0:0:
64,192,151888,1,0,0:0:0:0:
192,192,151888,1,0,0:0:0:0:
448,192,151888,1,0,0:0:0:0:
320,192,151982,1,0,0:0:0:0:
448,192,152076,1,0,0:0:0:0:
64,192,152076,1,0,0:0:0:0:
192,192,152170,1,0,0:0:0:0:
320,192,152263,1,0,0:0:0:0:
448,192,152263,1,0,0:0:0:0:
192,192,152357,1,0,0:0:0:0:
64,192,152451,1,0,0:0:0:0:
448,192,152451,1,0,0:0:0:0:
192,192,152545,1,0,0:0:0:0:
64,192,152638,1,0,0:0:0:0:
320,192,152638,1,0,0:0:0:0:
448,192,152638,1,0,0:0:0:0:
192,192,152732,1,0,0:0:0:0:
320,192,152826,1,0,0:0:0:0:
448,192,152826,1,0,0:0:0:0:
64,192,152920,1,0,0:0:0:0:
192,192,153013,1,0,0:0:0:0:
448,192,153013,1,0,0:0:0:0:
320,192,153107,1,0,0:0:0:0:
64,192,153201,1,0,0:0:0:0:
192,192,153201,1,0,0:0:0:0:
448,192,153295,1,0,0:0:0:0:
320,192,153388,1,0,0:0:0:0:
192,192,153388,1,0,0:0:0:0:
64,192,153388,1,0,0:0:0:0:
448,192,153482,1,0,0:0:0:0:
192,192,153576,1,0,0:0:0:0:
320,192,153576,1,0,0:0:0:0:
64,192,153670,1,0,0:0:0:0:
192,192,153763,1,0,0:0:0:0:
448,192,153763,1,0,0:0:0:0:
64,192,153857,1,0,0:0:0:0:
192,192,153951,1,0,0:0:0:0:
320,192,153951,1,0,0:0:0:0:
64,192,154045,1,0,0:0:0:0:
192,192,154138,1,0,0:0:0:0:
320,192,154138,1,0,0:0:0:0:
448,192,154138,1,0,0:0:0:0:
64,192,154232,1,0,0:0:0:0:
448,192,154326,1,0,0:0:0:0:
192,192,154326,1,0,0:0:0:0:
320,192,154420,1,0,0:0:0:0:
64,192,154513,1,0,0:0:0:0:
448,192,154513,1,0,0:0:0:0:
320,192,154607,1,0,0:0:0:0:
64,192,154701,1,0,0:0:0:0:
192,192,154701,1,0,0:0:0:0:
320,192,154795,1,0,0:0:0:0:
448,192,154888,1,0,0:0:0:0:
64,192,154888,1,0,0:0:0:0:
192,192,154888,1,0,0:0:0:0:
320,192,154982,1,0,0:0:0:0:
192,192,155076,1,0,0:0:0:0:
64,192,155076,1,0,0:0:0:0:
448,192,155170,1,0,0:0:0:0:
320,192,155263,1,0,0:0:0:0:
192,192,155263,1,0,0:0:0:0:
64,192,155357,1,0,0:0:0:0:
192,192,155451,1,0,0:0:0:0:
448,192,155451,1,0,0:0:0:0:
64,192,155545,1,0,0:0:0:0:
192,192,155638,1,0,0:0:0:0:
320,192,155638,1,0,0:0:0:0:
448,192,155638,1,0,0:0:0:0:
64,192,155732,1,0,0:0:0:0:
448,192,155826,1,0,0:0:0:0:
192,192,155826,1,0,0:0:0:0:
320,192,155920,1,0,0:0:0:0:
64,192,156013,1,0,0:0:0:0:
192,192,156013,1,0,0:0:0:0:
448,192,156107,1,0,0:0:0:0:
320,192,156201,1,0,0:0:0:0:
64,192,156201,1,0,0:0:0:0:
192,192,156295,1,0,0:0:0:0:
320,192,156388,1,0,0:0:0:0:
448,192,156388,1,0,0:0:0:0:
64,192,156388,1,0,0:0:0:0:
192,192,156482,1,0,0:0:0:0:
64,192,156576,1,0,0:0:0:0:
448,192,156576,1,0,0:0:0:0:
320,192,156670,1,0,0:0:0:0:
64,192,156763,1,0,0:0:0:0:
192,192,156763,1,0,0:0:0:0:
448,192,156857,1,0,0:0:0:0:
320,192,156951,1,0,0:0:0:0:
64,192,156951,1,0,0:0:0:0:
192,192,157045,1,0,0:0:0:0:
320,192,157138,1,0,0:0:0:0:
448,192,157138,1,0,0:0:0:0:
64,192,157138,1,0,0:0:0:0:
192,192,157232,1,0,0:0:0:0:
448,192,157326,1,0,0:0:0:0:
64,192,157326,1,0,0:0:0:0:
320,192,157420,1,0,0:0:0:0:
64,192,157513,1,0,0:0:0:0:
192,192,157513,1,0,0:0:0:0:
320,192,157607,1,0,0:0:0:0:
448,192,157701,1,0,0:0:0:0:
192,192,157701,1,0,0:0:0:0:
320,192,157795,1,0,0:0:0:0:
192,192,157888,1,0,0:0:0:0:
448,192,157888,1,0,0:0:0:0:
64,192,157888,1,0,0:0:0:0:
320,192,157982,1,0,0:0:0:0:
192,192,158076,1,0,0:0:0:0:
448,192,158076,1,0,0:0:0:0:
64,192,158170,1,0,0:0:0:0:
192,192,158263,1,0,0:0:0:0:
320,192,158263,1,0,0:0:0:0:
448,192,158357,1,0,0:0:0:0:
192,192,158451,1,0,0:0:0:0:
64,192,158451,1,0,0:0:0:0:
448,192,158545,1,0,0:0:0:0:
192,192,158638,1,0,0:0:0:0:
64,192,158638,1,0,0:0:0:0:
320,192,158638,1,0,0:0:0:0:
448,192,158732,1,0,0:0:0:0:
320,192,158826,1,0,0:0:0:0:
192,192,158826,1,0,0:0:0:0:
64,192,158920,1,0,0:0:0:0:
448,192,159013,1,0,0:0:0:0:
192,192,159013,1,0,0:0:0:0:
320,192,159107,1,0,0:0:0:0:
64,192,159201,1,0,0:0:0:0:
448,192,159201,1,0,0:0:0:0:
192,192,159295,1,0,0:0:0:0:
448,192,159388,1,0,0:0:0:0:
320,192,159388,1,0,0:0:0:0:
192,192,159482,1,0,0:0:0:0:
64,192,159576,1,0,0:0:0:0:
448,192,159576,1,0,0:0:0:0:
320,192,159670,1,0,0:0:0:0:
192,192,159763,1,0,0:0:0:0:
448,192,159763,1,0,0:0:0:0:
64,192,159857,1,0,0:0:0:0:
192,192,159951,1,0,0:0:0:0:
448,192,159951,1,0,0:0:0:0:
320,192,160045,1,0,0:0:0:0:
64,192,160138,1,0,0:0:0:0:
192,192,160138,1,0,0:0:0:0:
448,192,160138,1,0,0:0:0:0:
320,192,160232,1,0,0:0:0:0:
64,192,160326,1,0,0:0:0:0:
192,192,160420,1,0,0:0:0:0:
64,192,160513,1,0,0:0:0:0:
448,192,160513,1,0,0:0:0:0:
320,192,160607,1,0,0:0:0:0:
192,192,160701,1,0,0:0:0:0:
64,192,160701,1,0,0:0:0:0:
448,192,160795,1,0,0:0:0:0:
320,192,160888,1,0,0:0:0:0:
192,192,160888,1,0,0:0:0:0:
64,192,160888,1,0,0:0:0:0:
448,192,160982,1,0,0:0:0:0:
320,192,161076,1,0,0:0:0:0:
192,192,161076,1,0,0:0:0:0:
64,192,161170,1,0,0:0:0:0:
192,192,161263,1,0,0:0:0:0:
448,192,161263,1,0,0:0:0:0:
320,192,161357,1,0,0:0:0:0:
64,192,161451,1,0,0:0:0:0:
192,192,161451,1,0,0:0:0:0:
448,192,161545,1,0,0:0:0:0:
320,192,161638,1,0,0:0:0:0:
64,192,161638,1,0,0:0:0:0:
192,192,161638,1,0,0:0:0:0:
448,192,161732,1,0,0:0:0:0:
192,192,161826,1,0,0:0:0:0:
64,192,161826,1,0,0:0:0:0:
320,192,161920,1,0,0:0:0:0:
448,192,162013,1,0,0:0:0:0:
64,192,162013,1,0,0:0:0:0:
320,192,162107,1,0,0:0:0:0:
192,192,162201,1,0,0:0:0:0:
64,192,162201,1,0,0:0:0:0:
320,192,162295,1,0,0:0:0:0:
448,192,162388,1,0,0:0:0:0:
64,192,162388,1,0,0:0:0:0:
192,192,162388,1,0,0:0:0:0:
320,192,162482,1,0,0:0:0:0:
192,192,162576,1,0,0:0:0:0:
64,192,162576,1,0,0:0:0:0:
320,192,162670,1,0,0:0:0:0:
448,192,162763,1,0,0:0:0:0:
64,192,162763,1,0,0:0:0:0:
192,192,162857,1,0,0:0:0:0:
320,192,162951,1,0,0:0:0:0:
448,192,162951,1,0,0:0:0:0:
64,192,163045,1,0,0:0:0:0:
192,192,163138,1,0,0:0:0:0:
320,192,163138,1,0,0:0:0:0:
448,192,163138,1,0,0:0:0:0:
64,192,163232,1,0,0:0:0:0:
192,192,163326,1,0,0:0:0:0:
448,192,163326,1,0,0:0:0:0:
320,192,163420,1,0,0:0:0:0:
64,192,163513,1,0,0:0:0:0:
192,192,163513,1,0,0:0:0:0:
448,192,163513,1,0,0:0:0:0:
320,192,163607,1,0,0:0:0:0:
64,192,163701,1,0,0:0:0:0:
448,192,163701,1,0,0:0:0:0:
192,192,163795,1,0,0:0:0:0:
320,192,163888,1,0,0:0:0:0:
448,192,163888,1,0,0:0:0:0:
64,192,163888,1,0,0:0:0:0:
192,192,163982,1,0,0:0:0:0:
64,192,164076,1,0,0:0:0:0:
320,192,164076,1,0,0:0:0:0:
192,192,164170,1,0,0:0:0:0:
448,192,164263,1,0,0:0:0:0:
320,192,164263,1,0,0:0:0:0:
192,192,164357,1,0,0:0:0:0:
64,192,164451,1,0,0:0:0:0:
448,192,164451,1,0,0:0:0:0:
192,192,164545,1,0,0:0:0:0:
320,192,164638,1,0,0:0:0:0:
64,192,164638,1,0,0:0:0:0:
448,192,164638,1,0,0:0:0:0:
192,192,164732,1,0,0:0:0:0:
320,192,164826,1,0,0:0:0:0:
448,192,164826,1,0,0:0:0:0:
64,192,164920,1,0,0:0:0:0:
448,192,165013,1,0,0:0:0:0:
192,192,165013,1,0,0:0:0:0:
320,192,165107,1,0,0:0:0:0:
64,192,165201,1,0,0:0:0:0:
192,192,165201,1,0,0:0:0:0:
448,192,165295,1,0,0:0:0:0:
320,192,165388,1,0,0:0:0:0:
64,192,165388,1,0,0:0:0:0:
192,192,165388,1,0,0:0:0:0:
448,192,165482,1,0,0:0:0:0:
320,192,165576,1,0,0:0:0:0:
64,192,165576,1,0,0:0:0:0:
192,192,165670,1,0,0:0:0:0:
64,192,165763,1,0,0:0:0:0:
448,192,165763,1,0,0:0:0:0:
320,192,165857,1,0,0:0:0:0:
192,192,165951,1,0,0:0:0:0:
448,192,165951,1,0,0:0:0:0:
64,192,166045,1,0,0:0:0:0:
192,192,166138,1,0,0:0:0:0:
320,192,166138,1,0,0:0:0:0:
448,192,166138,1,0,0:0:0:0:
64,192,166232,1,0,0:0:0:0:
320,192,166326,1,0,0:0:0:0:
448,192,166326,1,0,0:0:0:0:
192,192,166420,1,0,0:0:0:0:
64,192,166513,1,0,0:0:0:0:
448,192,166513,1,0,0:0:0:0:
320,192,166607,1,0,0:0:0:0:
192,192,166701,1,0,0:0:0:0:
448,192,166701,1,0,0:0:0:0:
320,192,166795,1,0,0:0:0:0:
448,192,166888,1,0,0:0:0:0:
64,192,166888,1,0,0:0:0:0:
192,192,166888,1,0,0:0:0:0:
320,192,166982,1,0,0:0:0:0:
64,192,167076,1,0,0:0:0:0:
448,192,167076,1,0,0:0:0:0:
192,192,167170,1,0,0:0:0:0:
320,192,167263,1,0,0:0:0:0:
64,192,167263,1,0,0:0:0:0:
448,192,167357,1,0,0:0:0:0:
64,192,167451,1,0,0:0:0:0:
192,192,167451,1,0,0:0:0:0:
448,192,167545,1,0,0:0:0:0:
320,192,167638,1,0,0:0:0:0:
192,192,167638,1,0,0:0:0:0:
64,192,167638,1,0,0:0:0:0:
448,192,167732,1,0,0:0:0:0:
192,192,167826,1,0,0:0:0:0:
64,192,167826,1,0,0:0:0:0:
448,192,167920,1,0,0:0:0:0:
320,192,168013,1,0,0:0:0:0:
192,192,168013,1,0,0:0:0:0:
64,192,168107,1,0,0:0:0:0:
192,192,168201,1,0,0:0:0:0:
448,192,168201,1,0,0:0:0:0:
320,192,168295,1,0,0:0:0:0:
448,192,168388,1,0,0:0:0:0:
64,192,168388,1,0,0:0:0:0:
192,192,168388,1,0,0:0:0:0:
320,192,168482,1,0,0:0:0:0:
192,192,168576,1,0,0:0:0:0:
64,192,168576,1,0,0:0:0:0:
448,192,168670,1,0,0:0:0:0:
320,192,168763,1,0,0:0:0:0:
64,192,168763,1,0,0:0:0:0:
192,192,168857,1,0,0:0:0:0:
320,192,168951,1,0,0:0:0:0:
448,192,168951,1,0,0:0:0:0:
64,192,169045,1,0,0:0:0:0:
192,192,169138,1,0,0:0:0:0:
320,192,169138,1,0,0:0:0:0:
448,192,169138,1,0,0:0:0:0:
64,192,169232,1,0,0:0:0:0:
448,192,169326,1,0,0:0:0:0:
192,192,169326,1,0,0:0:0:0:
320,192,169420,1,0,0:0:0:0:
64,192,169513,1,0,0:0:0:0:
192,192,169513,1,0,0:0:0:0:
320,192,169607,1,0,0:0:0:0:
448,192,169701,1,0,0:0:0:0:
64,192,169701,1,0,0:0:0:0:
192,192,169795,1,0,0:0:0:0:
64,192,169888,1,0,0:0:0:0:
320,192,169888,1,0,0:0:0:0:
448,192,169888,1,0,0:0:0:0:
192,192,169982,1,0,0:0:0:0:
64,192,170076,1,0,0:0:0:0:
448,192,170076,1,0,0:0:0:0:
192,192,170170,1,0,0:0:0:0:
320,192,170263,1,0,0:0:0:0:
64,192,170263,1,0,0:0:0:0:
448,192,170357,1,0,0:0:0:0:
64,192,170451,1,0,0:0:0:0:
192,192,170451,1,0,0:0:0:0:
320,192,170545,1,0,0:0:0:0:
448,192,170638,1,0,0:0:0:0:
64,192,170638,1,0,0:0:0:0:
192,192,170638,1,0,0:0:0:0:
320,192,170732,1,0,0:0:0:0:
192,192,170826,1,0,0:0:0:0:
64,192,170826,1,0,0:0:0:0:
320,192,170920,1,0,0:0:0:0:
448,192,171013,1,0,0:0:0:0:
192,192,171013,1,0,0:0:0:0:
64,192,171107,1,0,0:0:0:0:
192,192,171201,1,0,0:0:0:0:
320,192,171201,1,0,0:0:0:0:
448,192,171295,1,0,0:0:0:0:
64,192,171388,1,0,0:0:0:0:
192,192,171388,1,0,0:0:0:0:
320,192,171388,1,0,0:0:0:0:
448,192,171482,1,0,0:0:0:0:
320,192,171576,1,0,0:0:0:0:
64,192,171576,1,0,0:0:0:0:
192,192,171670,1,0,0:0:0:0:
320,192,171763,1,0,0:0:0:0:
448,192,171763,1,0,0:0:0:0:
64,192,171857,1,0,0:0:0:0:
192,192,171951,1,0,0:0:0:0:
320,192,171951,1,0,0:0:0:0:
448,192,172045,1,0,0:0:0:0:
64,192,172138,1,0,0:0:0:0:
192,192,172138,1,0,0:0:0:0:
320,192,172138,1,0,0:0:0:0:
448,192,172232,1,0,0:0:0:0:
64,192,172326,1,0,0:0:0:0:
192,192,172326,1,0,0:0:0:0:
320,192,172420,1,0,0:0:0:0:
448,192,172513,1,0,0:0:0:0:
64,192,172513,1,0,0:0:0:0:
320,192,172607,1,0,0:0:0:0:
192,192,172701,1,0,0:0:0:0:
64,192,172701,1,0,0:0:0:0:
320,192,172795,1,0,0:0:0:0:
448,192,172888,1,0,0:0:0:0:
192,192,172888,1,0,0:0:0:0:
64,192,172888,1,0,0:0:0:0:
320,192,172982,1,0,0:0:0:0:
64,192,173076,1,0,0:0:0:0:
192,192,173076,1,0,0:0:0:0:
320,192,173170,1,0,0:0:0:0:
448,192,173263,1,0,0:0:0:0:
192,192,173263,1,0,0:0:0:0:
320,192,173357,1,0,0:0:0:0:
192,192,173451,1,0,0:0:0:0:
64,192,173451,1,0,0:0:0:0:
448,192,173545,1,0,0:0:0:0:
320,192,173638,1,0,0:0:0:0:
192,192,173638,1,0,0:0:0:0:
64,192,173638,1,0,0:0:0:0:
448,192,173732,1,0,0:0:0:0:
320,192,173826,1,0,0:0:0:0:
192,192,173826,1,0,0:0:0:0:
448,192,173920,1,0,0:0:0:0:
64,192,174013,1,0,0:0:0:0:
320,192,174013,1,0,0:0:0:0:
448,192,174107,1,0,0:0:0:0:
320,192,174201,1,0,0:0:0:0:
64,192,174201,1,0,0:0:0:0:
192,192,174295,1,0,0:0:0:0:
448,192,174388,1,0,0:0:0:0:
320,192,174388,1,0,0:0:0:0:
64,192,174388,1,0,0:0:0:0:
192,192,174482,1,0,0:0:0:0:
64,192,174576,1,0,0:0:0:0:
448,192,174576,1,0,0:0:0:0:
320,192,174670,1,0,0:0:0:0:
192,192,174763,1,0,0:0:0:0:
64,192,174763,1,0,0:0:0:0:
448,192,174857,1,0,0:0:0:0:
320,192,174951,1,0,0:0:0:0:
192,192,174951,1,0,0:0:0:0:
64,192,175045,1,0,0:0:0:0:
192,192,175138,1,0,0:0:0:0:
320,192,175138,1,0,0:0:0:0:
448,192,175138,1,0,0:0:0:0:
64,192,175232,1,0,0:0:0:0:
448,192,175326,1,0,0:0:0:0:
192,192,175326,1,0,0:0:0:0:
320,192,175420,1,0,0:0:0:0:
64,192,175513,1,0,0:0:0:0:
192,192,175513,1,0,0:0:0:0:
448,192,175513,1,0,0:0:0:0:
64,192,175701,1,0,0:0:0:0:
192,192,175701,1,0,0:0:0:0:
448,192,175701,1,0,0:0:0:0:
64,192,175888,128,0,176263:0:0:0:0:
192,192,176076,1,0,0:0:0:0:
320,192,176076,1,0,0:0:0:0:
448,192,176076,1,0,0:0:0:0:
448,192,176263,128,0,176638:0:0:0:0:
192,192,176263,1,0,0:0:0:0:
320,192,176263,1,0,0:0:0:0:
192,192,176451,1,0,0:0:0:0:
64,192,176545,1,0,0:0:0:0:
320,192,176638,1,0,0:0:0:0:
192,192,176638,1,0,0:0:0:0:
64,192,176826,1,0,0:0:0:0:
64,192,177013,1,0,0:0:0:0:
192,192,177013,1,0,0:0:0:0:
320,192,177013,1,0,0:0:0:0:
448,192,177013,1,0,0:0:0:0:
