osu file format v14

[General]
AudioFilename: audio.mp3
AudioLeadIn: 0
PreviewTime: -1
Countdown: 1
SampleSet: Normal
StackLeniency: 0.7
Mode: 0
LetterboxInBreaks: 0
WidescreenStoryboard: 0

[Editor]
DistanceSpacing: 1
BeatDivisor: 8
GridSize: 16
TimelineZoom: 1

[Metadata]
Title:Close To Me
TitleUnicode:Close To Me
Artist:Sabrepulse
ArtistUnicode:Sabrepulse
Creator:Kevinmag1
Version:Normal Difficulty
Source:
Tags:
BeatmapID:1745857
BeatmapSetID:833459

[Difficulty]
HPDrainRate:6
CircleSize:4
OverallDifficulty:5
ApproachRate:8.5
SliderMultiplier:1.4
SliderTickRate:1

[Events]
//Background and Video events
0,0,"just_shapes_and_beats_by_upsilion-dcdtp1a.png",0,0
//Break Periods
2,26041,27042
2,47151,56824
2,91666,96281
//Storyboard Layer 0 (Background)
//Storyboard Layer 1 (Fail)
//Storyboard Layer 2 (Pass)
//Storyboard Layer 3 (Foreground)
//Storyboard Sound Samples

[TimingPoints]
70176.9794588183,483.871787439616,4,1,0,100,1,0

[Colours]
Combo1 : 0,0,255
Combo2 : 255,0,0
Combo3 : 255,255,0
Combo4 : 255,147,0

[HitObjects]
242,257,0,5,0,0:0:0:0:
143,171,3221,5,0,0:0:0:0:
470,83,4430,1,0,0:0:0:0:
237,144,5344,1,0,0:0:0:0:
441,196,6063,1,0,0:0:0:0:
238,190,6789,1,0,0:0:0:0:
403,190,7394,1,0,0:0:0:0:
258,190,7938,1,0,0:0:0:0:
107,190,8422,1,0,0:0:0:0:
236,121,8906,1,0,0:0:0:0:
124,205,9387,5,0,0:0:0:0:
248,181,9813,1,0,0:0:0:0:
344,222,10244,1,0,0:0:0:0:
226,192,10660,1,0,0:0:0:0:
354,148,11084,1,0,0:0:0:0:
250,128,11507,1,0,0:0:0:0:
147,108,11870,1,0,0:0:0:0:
194,201,12233,1,0,0:0:0:0:
290,159,12596,1,0,0:0:0:0:
193,199,12898,1,0,0:0:0:0:
182,147,15513,6,0,L|253:163,2,70
182,147,16164,1,0,0:0:0:0:
187,151,16709,1,0,0:0:0:0:
249,189,17193,1,0,0:0:0:0:
310,232,17676,2,0,L|385:199,1,70
346,248,19370,2,0,L|87:130,1,280
310,185,20580,1,0,0:0:0:0:
95,113,21063,1,0,0:0:0:0:
136,173,21547,2,0,L|199:219,1,70
167,127,23241,2,0,L|335:229,1,192.5
276,192,24451,1,0,0:0:0:0:
173,164,24934,1,0,0:0:0:0:
272,175,25418,1,0,0:0:0:0:
352,180,25660,2,0,L|395:130,1,52.5
84,132,27717,6,0,L|335:268,1,280
317,259,29047,2,0,L|188:181,1,140
172,173,30015,2,0,L|293:253,1,140
243,113,31709,1,0,0:0:0:0:
197,176,32193,1,0,0:0:0:0:
275,109,32676,1,0,0:0:0:0:
153,103,33221,1,0,0:0:0:0:
213,122,35580,2,0,L|314:199,1,122.5
171,169,36547,2,0,P|243:68|346:207,1,350
256,184,38241,5,0,0:0:0:0:
176,165,39451,5,0,0:0:0:0:
333,210,39934,1,0,0:0:0:0:
161,267,40418,1,0,0:0:0:0:
208,135,41023,5,0,0:0:0:0:
151,188,42112,2,0,L|95:54,2,140
215,113,43322,1,0,0:0:0:0:
260,230,43805,1,0,0:0:0:0:
122,174,44289,1,0,0:0:0:0:
175,232,44531,2,0,P|307:243|315:239,1,140
196,178,45499,1,0,0:0:0:0:
118,85,45983,1,0,0:0:0:0:
57,177,46467,1,0,0:0:0:0:
178,225,46951,1,0,0:0:0:0:
256,192,58024,12,0,61411,0:0:0:0:
134,221,61951,6,0,L|259:308,1,140
307,254,62555,2,0,L|366:206,1,70
398,142,62918,2,0,L|274:60,1,140
151,207,63886,1,0,0:0:0:0:
243,137,64370,1,0,0:0:0:0:
327,242,64854,1,0,0:0:0:0:
146,227,65338,1,0,0:0:0:0:
152,101,65822,2,0,P|267:197|267:197,1,140
152,101,66426,1,0,0:0:0:0:
148,226,66789,2,0,L|253:132,1,140
197,157,67757,1,0,0:0:0:0:
261,196,68241,1,0,0:0:0:0:
320,165,68427,2,0,L|312:56,1,105
244,33,68967,1,0,0:0:0:0:
200,103,69209,2,0,L|268:237,1,140
235,201,70178,1,0,0:0:0:0:
347,137,70297,2,0,L|296:109,1,52.5
350,202,70660,1,0,0:0:0:0:
283,241,70902,2,0,L|242:241,1,35
119,203,71144,1,0,0:0:0:0:
275,39,71628,1,0,0:0:0:0:
256,192,72112,1,0,0:0:0:0:
256,192,72596,1,0,0:0:0:0:
323,193,73080,1,0,0:0:0:0:
289,135,73564,1,0,0:0:0:0:
238,179,74047,2,0,L|111:256,2,140
269,189,75499,1,0,0:0:0:0:
120,192,75983,6,0,L|271:190,1,140
117,114,76709,1,0,0:0:0:0:
192,91,76951,2,0,P|191:236|191:240,1,140
126,115,77918,2,0,L|247:203,1,140
183,60,78644,1,0,0:0:0:0:
238,111,78886,2,0,P|128:215|128:215,1,140
381,194,79854,1,0,0:0:0:0:
61,85,80338,1,0,0:0:0:0:
353,247,80822,1,0,0:0:0:0:
224,93,81306,2,0,L|225:237,1,140
292,273,81910,2,0,B|238:308|209:308|210:308,1,87.5
285,220,82757,1,0,0:0:0:0:
238,283,83241,5,0,0:0:0:0:
238,283,83725,2,0,L|240:130,1,140
240,140,84693,1,0,0:0:0:0:
240,140,84874,2,0,L|312:196,1,87.5
195,202,85660,1,0,0:0:0:0:
240,140,86144,1,0,0:0:0:0:
175,134,86628,1,0,0:0:0:0:
303,132,87112,1,0,0:0:0:0:
258,353,87596,1,0,0:0:0:0:
32,28,88080,1,0,0:0:0:0:
426,31,88564,1,0,0:0:0:0:
253,51,89047,2,0,L|253:195,1,140
250,334,90015,2,0,L|254:184,1,140
1,191,90983,2,0,P|155:192|155:192,1,140
218,195,97031,5,0,0:0:0:0:
284,236,97273,1,0,0:0:0:0:
349,280,97515,2,0,L|173:147,1,210
342,269,98967,1,0,0:0:0:0:
286,215,99209,1,0,0:0:0:0:
237,162,99451,2,0,L|398:320,1,210
344,268,100418,1,0,0:0:0:0:
299,211,100660,2,0,L|203:100,1,140
274,131,101386,2,0,P|196:167|196:175,1,105
246,195,102838,1,0,0:0:0:0:
254,192,102898,1,0,0:0:0:0:
237,206,103080,1,0,0:0:0:0:
256,192,103261,12,0,103806,0:0:0:0:
121,189,104531,5,0,0:0:0:0:
207,192,105015,1,0,0:0:0:0:
295,198,105499,1,0,0:0:0:0:
376,206,105983,1,0,0:0:0:0:
332,170,106467,1,0,0:0:0:0:
307,156,106709,1,0,0:0:0:0:
270,147,106951,1,0,0:0:0:0:
237,138,107193,1,0,0:0:0:0:
219,132,107435,1,0,0:0:0:0:
192,121,107556,1,0,0:0:0:0:
174,113,107677,1,0,0:0:0:0:
160,107,107798,1,0,0:0:0:0:
139,99,107918,1,0,0:0:0:0:
159,193,108402,6,0,L|300:192,1,140
232,128,109370,1,0,0:0:0:0:
165,146,109854,2,0,L|62:247,1,140
211,331,110822,5,0,0:0:0:0:
14,28,111306,1,0,0:0:0:0:
491,25,111789,1,0,0:0:0:0:
256,47,112273,2,0,L|256:187,1,140
196,212,112878,1,0,0:0:0:0:
147,77,113120,1,0,0:0:0:0:
111,197,113725,2,0,L|220:283,1,122.5
261,261,114451,5,0,0:0:0:0:
326,213,114572,1,0,0:0:0:0:
356,145,114693,2,0,L|218:77,1,140
210,235,115660,1,0,0:0:0:0:
228,266,115902,1,0,0:0:0:0:
258,290,116144,1,0,0:0:0:0:
202,126,116628,2,0,L|261:177,1,70
143,209,117354,2,0,L|207:251,1,70
175,140,118080,2,0,L|111:226,1,105
300,290,118564,5,0,0:0:0:0:
14,26,119048,1,0,0:0:0:0:
307,287,119531,1,0,0:0:0:0:
260,234,120015,2,0,L|181:223,1,70
138,178,120499,1,0,0:0:0:0:
193,96,120681,2,0,L|261:83,1,70
343,123,121225,1,0,0:0:0:0:
396,176,121467,2,0,P|385:296|369:311,1,140
307,310,122193,1,0,0:0:0:0:
238,282,122435,1,0,0:0:0:0:
185,232,122677,2,0,P|155:177|159:157,1,70
161,103,123100,1,0,0:0:0:0:
161,103,123402,2,0,P|285:68|295:74,1,140
166,197,124370,1,0,0:0:0:0:
273,293,124612,2,0,P|342:263|351:261,1,70
387,261,125096,1,0,0:0:0:0:
367,186,125338,2,0,P|302:74|296:69,1,140
244,231,126306,1,0,0:0:0:0:
382,120,126548,2,0,L|319:65,1,70
221,56,127031,2,0,L|142:78,1,70
102,273,127757,6,0,P|206:349|210:349,1,140
272,332,128362,1,0,0:0:0:0:
329,287,128483,2,0,P|370:245|373:231,1,70
366,167,128967,1,0,0:0:0:0:
316,109,129209,2,0,B|170:171|180:280|118:110,1,280
206,185,130419,2,0,L|205:113,1,70
209,262,130902,1,0,0:0:0:0:
280,264,131144,2,0,P|397:224|400:218,1,140
416,172,131870,5,0,0:0:0:0:
369,103,132112,1,0,0:0:0:0:
218,89,132354,1,0,0:0:0:0:
218,164,132596,1,0,0:0:0:0:
218,241,132838,1,0,0:0:0:0:
235,318,133080,2,0,L|390:330,1,140
331,285,133806,5,0,0:0:0:0:
158,139,134048,1,0,0:0:0:0:
435,294,134289,1,0,0:0:0:0:
158,299,134531,1,0,0:0:0:0:
347,49,134773,1,0,0:0:0:0:
256,307,135015,1,0,0:0:0:0:
264,44,135257,1,0,0:0:0:0:
252,166,135499,5,0,0:0:0:0:
226,172,135620,1,0,0:0:0:0:
230,193,135741,1,0,0:0:0:0:
249,201,135862,1,0,0:0:0:0:
272,189,135983,1,0,0:0:0:0:
262,156,136104,1,0,0:0:0:0:
228,163,136225,1,0,0:0:0:0:
228,183,136346,1,0,0:0:0:0:
250,200,136467,1,0,0:0:0:0:
273,170,136588,1,0,0:0:0:0:
239,152,136709,1,0,0:0:0:0:
229,187,136830,1,0,0:0:0:0:
246,178,136951,1,0,0:0:0:0:
164,91,137435,5,0,0:0:0:0:
351,238,137677,1,0,0:0:0:0:
131,263,138160,1,0,0:0:0:0:
258,192,138644,1,0,0:0:0:0:
