osu file format v14

[General]
AudioFilename: audio.mp3
AudioLeadIn: 0
PreviewTime: 39254
Countdown: 0
SampleSet: Normal
StackLeniency: 0.7
Mode: 1
LetterboxInBreaks: 0
WidescreenStoryboard: 1

[Editor]
Bookmarks: 19980,24954
DistanceSpacing: 0.3
BeatDivisor: 4
GridSize: 32
TimelineZoom: 2.8

[Metadata]
Title:No Love Lost
TitleUnicode:No Love Lost
Artist:Sable Hills
ArtistUnicode:Sable Hills
Creator:ikin5050
Version:Muzukashii
Source:osu!
Tags:featured artist fa embers metal metalcore rock melodic EMBR-1001 english tokyo
BeatmapID:2656058
BeatmapSetID:1278498

[Difficulty]
HPDrainRate:6
CircleSize:5
OverallDifficulty:4
ApproachRate:5
SliderMultiplier:1.4
SliderTickRate:1

[Events]
//Background and Video events
0,0,"death has a form.jpg",0,0
//Break Periods
//Storyboard Layer 0 (Background)
//Storyboard Layer 1 (Fail)
//Storyboard Layer 2 (Pass)
//Storyboard Layer 3 (Foreground)
//Storyboard Layer 4 (Overlay)
//Storyboard Sound Samples

[TimingPoints]
84,310.880829015544,4,1,0,100,1,0
161,-100,4,1,0,75,0,0
4980,-100,4,1,0,100,0,0
5135,-100,4,1,0,75,0,0
9954,-100,4,1,0,100,0,0
15161,-100,4,1,0,85,0,0
39721,-100,4,1,0,100,0,1
58529,-100,4,1,0,50,0,0
59695,-100,4,1,0,85,0,0
99410,-100,4,1,0,100,0,1
119462,-100,4,1,0,75,0,0
134229,-100,4,1,0,100,0,0
134539,-100,4,1,0,50,0,0
138037,-100,4,1,0,85,0,0
138348,-100,4,1,0,50,0,0
138503,-100,4,1,0,85,0,0
138659,-100,4,1,0,50,0,0
138814,-100,4,1,0,85,0,0
139514,-100,4,1,0,50,0,0
143011,-100,4,1,0,85,0,0
143166,-100,4,1,0,50,0,0
143477,-100,4,1,0,85,0,0
143633,-100,4,1,0,50,0,0
143944,-100,4,1,0,85,0,0
153736,-100,4,1,0,50,0,0
155446,-100,4,1,0,100,0,0
165511,-100,4,1,0,70,0,0
166288,-100,4,1,0,70,0,0
166988,-100,4,1,0,100,0,0
167998,-100,4,1,0,70,0,0
168231,-100,4,1,0,100,0,0
168775,-100,4,1,0,70,0,0
169008,-100,4,1,0,100,0,0
170485,-100,4,1,0,70,0,0
170718,-100,4,1,0,100,0,0
171262,-100,4,1,0,70,0,0
171962,-100,4,1,0,100,0,0
172972,-100,4,1,0,70,0,0
173205,-100,4,1,0,100,0,0
173749,-100,4,1,0,70,0,0
173982,-100,4,1,0,100,0,0
175459,-100,4,1,0,70,0,0
175692,-100,4,1,0,100,0,0
176236,-100,4,1,0,70,0,0
176470,-100,4,1,0,100,0,0
177946,-100,4,1,0,70,0,0
178179,-100,4,1,0,100,0,0
178723,-100,4,1,0,70,0,0
178957,-100,4,1,0,100,0,0
180433,-100,4,1,0,70,0,0
180666,-100,4,1,0,100,0,0
181677,-100,4,1,0,70,0,0
181910,-100,4,1,0,100,0,0
182920,-100,4,1,0,70,0,0
183153,-100,4,1,0,100,0,0
185524,-100,4,1,0,50,0,0
189410,-100,4,1,0,75,0,0
190265,-100,4,1,0,100,0,0
193762,-100,4,1,0,75,0,0
195239,-100,4,1,0,100,0,0
200524,-100,4,1,0,85,0,0
206664,-100,4,1,0,75,0,0
208374,-100,4,1,0,65,0,0
210239,-100,4,1,0,45,0,0
215213,-100,4,1,0,15,0,0

[HitObjects]
256,192,84,5,4,0:0:0:0:
256,192,4280,1,0,0:0:0:0:
256,192,4436,1,8,0:0:0:0:
256,192,4591,1,0,0:0:0:0:
256,192,4902,1,0,0:0:0:0:
256,192,5058,1,12,0:0:0:0:
256,192,8633,1,8,0:0:0:0:
256,192,8944,1,0,0:0:0:0:
256,192,9254,1,8,0:0:0:0:
256,192,9565,1,0,0:0:0:0:
256,192,9876,1,0,0:0:0:0:
256,192,10032,1,12,0:0:0:0:
256,192,10653,1,0,0:0:0:0:
256,192,11897,1,0,0:0:0:0:
256,192,13140,1,0,0:0:0:0:
256,192,14384,1,0,0:0:0:0:
256,192,15006,1,12,0:0:0:0:
256,192,15317,1,0,0:0:0:0:
256,192,15472,1,8,0:0:0:0:
256,192,15628,1,0,0:0:0:0:
256,192,15783,1,0,0:0:0:0:
256,192,15938,1,12,0:0:0:0:
256,192,16249,1,0,0:0:0:0:
256,192,16405,1,8,0:0:0:0:
256,192,16560,1,0,0:0:0:0:
256,192,16716,1,0,0:0:0:0:
256,192,16871,1,12,0:0:0:0:
256,192,17027,1,0,0:0:0:0:
256,192,17182,1,0,0:0:0:0:
256,192,17337,1,0,0:0:0:0:
256,192,17493,1,12,0:0:0:0:
256,192,17804,1,0,0:0:0:0:
256,192,18115,1,8,0:0:0:0:
256,192,18270,1,0,0:0:0:0:
256,192,18425,1,8,0:0:0:0:
256,192,18736,1,8,0:0:0:0:
256,192,18892,1,8,0:0:0:0:
256,192,19047,1,0,0:0:0:0:
256,192,19203,1,8,0:0:0:0:
256,192,19358,1,0,0:0:0:0:
256,192,19514,1,8,0:0:0:0:
256,192,19980,1,0,0:0:0:0:
256,192,20135,1,0,0:0:0:0:
256,192,20291,1,8,0:0:0:0:
256,192,20602,1,8,0:0:0:0:
256,192,20913,1,8,0:0:0:0:
256,192,21068,1,8,0:0:0:0:
256,192,21379,1,8,0:0:0:0:
256,192,21534,1,0,0:0:0:0:
256,192,21690,1,8,0:0:0:0:
256,192,21845,1,0,0:0:0:0:
256,192,22001,1,8,0:0:0:0:
256,192,22156,1,8,0:0:0:0:
256,192,22311,1,8,0:0:0:0:
256,192,22778,1,8,0:0:0:0:
256,192,22933,1,0,0:0:0:0:
256,192,23089,1,8,0:0:0:0:
256,192,23400,1,8,0:0:0:0:
256,192,23555,1,8,0:0:0:0:
256,192,23866,1,8,0:0:0:0:
256,192,24021,1,0,0:0:0:0:
256,192,24177,1,8,0:0:0:0:
256,192,24332,1,8,0:0:0:0:
256,192,24488,1,0,0:0:0:0:
256,192,24643,1,8,0:0:0:0:
256,192,25109,1,0,0:0:0:0:
256,192,25265,1,8,0:0:0:0:
256,192,25420,1,0,0:0:0:0:
256,192,25576,1,8,0:0:0:0:
256,192,25887,1,8,0:0:0:0:
256,192,26042,1,8,0:0:0:0:
256,192,26353,1,8,0:0:0:0:
256,192,26508,1,0,0:0:0:0:
256,192,26664,1,8,0:0:0:0:
256,192,26819,1,0,0:0:0:0:
256,192,26975,1,8,0:0:0:0:
256,192,27286,1,8,0:0:0:0:
256,192,27752,1,8,0:0:0:0:
256,192,27907,1,8,0:0:0:0:
256,192,28063,1,0,0:0:0:0:
256,192,28374,1,8,0:0:0:0:
256,192,28529,1,8,0:0:0:0:
256,192,28685,1,0,0:0:0:0:
256,192,28840,1,8,0:0:0:0:
256,192,28995,1,8,0:0:0:0:
256,192,29151,1,8,0:0:0:0:
256,192,29306,1,0,0:0:0:0:
256,192,29462,1,12,0:0:0:0:
256,192,29617,1,12,0:0:0:0:
256,192,29928,1,0,0:0:0:0:
256,192,30083,1,0,0:0:0:0:
256,192,30239,1,12,0:0:0:0:
256,192,30550,1,12,0:0:0:0:
256,192,30705,1,0,0:0:0:0:
256,192,30861,1,0,0:0:0:0:
256,192,31016,1,12,0:0:0:0:
256,192,31172,1,0,0:0:0:0:
256,192,31327,1,12,0:0:0:0:
256,192,31638,1,8,0:0:0:0:
256,192,31793,1,0,0:0:0:0:
256,192,32104,1,0,0:0:0:0:
256,192,32260,1,8,0:0:0:0:
256,192,32726,1,8,0:0:0:0:
256,192,32881,1,0,0:0:0:0:
256,192,33037,1,8,0:0:0:0:
256,192,33348,1,8,0:0:0:0:
256,192,33503,1,8,0:0:0:0:
256,192,33814,1,8,0:0:0:0:
256,192,33970,1,0,0:0:0:0:
256,192,34125,1,8,0:0:0:0:
256,192,34280,1,8,0:0:0:0:
256,192,34591,1,8,0:0:0:0:
256,192,35058,1,0,0:0:0:0:
256,192,35213,1,8,0:0:0:0:
256,192,35368,1,0,0:0:0:0:
256,192,35524,1,8,0:0:0:0:
256,192,35835,1,8,0:0:0:0:
256,192,35990,1,8,0:0:0:0:
256,192,36301,1,8,0:0:0:0:
256,192,36457,1,0,0:0:0:0:
256,192,36612,1,8,0:0:0:0:
256,192,36767,1,0,0:0:0:0:
256,192,36923,1,8,0:0:0:0:
256,192,37234,1,8,0:0:0:0:
256,192,37700,1,8,0:0:0:0:
256,192,37856,1,8,0:0:0:0:
256,192,38011,1,0,0:0:0:0:
256,192,38322,1,8,0:0:0:0:
256,192,38477,1,8,0:0:0:0:
256,192,38633,1,0,0:0:0:0:
256,192,38788,1,8,0:0:0:0:
256,192,38944,1,0,0:0:0:0:
256,192,39099,1,12,0:0:0:0:
256,192,39254,1,0,0:0:0:0:
256,192,39410,1,0,0:0:0:0:
256,192,39565,1,0,0:0:0:0:
256,192,39721,1,12,0:0:0:0:
256,192,40032,1,0,0:0:0:0:
256,192,40187,1,8,0:0:0:0:
256,192,40498,1,8,0:0:0:0:
256,192,40653,1,0,0:0:0:0:
256,192,40809,1,8,0:0:0:0:
256,192,40964,1,4,0:0:0:0:
256,192,41275,1,0,0:0:0:0:
256,192,41431,1,8,0:0:0:0:
256,192,41742,1,0,0:0:0:0:
256,192,41897,1,0,0:0:0:0:
256,192,42052,1,0,0:0:0:0:
256,192,42208,1,12,0:0:0:0:
256,192,42519,1,0,0:0:0:0:
256,192,42674,1,8,0:0:0:0:
256,192,43296,1,0,0:0:0:0:
256,192,43607,1,8,0:0:0:0:
256,192,43918,1,0,0:0:0:0:
256,192,44229,1,8,0:0:0:0:
256,192,44539,1,0,0:0:0:0:
256,192,44695,1,12,0:0:0:0:
256,192,45006,1,0,0:0:0:0:
256,192,45161,1,8,0:0:0:0:
256,192,45472,1,8,0:0:0:0:
256,192,45628,1,0,0:0:0:0:
256,192,45783,1,0,0:0:0:0:
256,192,45938,1,12,0:0:0:0:
256,192,46249,1,0,0:0:0:0:
256,192,46405,1,8,0:0:0:0:
256,192,46716,1,0,0:0:0:0:
256,192,46871,1,8,0:0:0:0:
256,192,47027,1,0,0:0:0:0:
256,192,47182,1,12,0:0:0:0:
256,192,47493,1,8,0:0:0:0:
256,192,47648,1,0,0:0:0:0:
256,192,48270,1,0,0:0:0:0:
256,192,48581,1,8,0:0:0:0:
256,192,48892,1,8,0:0:0:0:
256,192,49047,1,0,0:0:0:0:
256,192,49203,1,8,0:0:0:0:
256,192,49358,1,8,0:0:0:0:
256,192,49514,1,8,0:0:0:0:
256,192,49669,1,4,0:0:0:0:
256,192,49980,1,0,0:0:0:0:
256,192,50135,1,8,0:0:0:0:
256,192,50446,1,8,0:0:0:0:
256,192,50757,1,8,0:0:0:0:
256,192,50913,1,0,0:0:0:0:
256,192,51223,1,0,0:0:0:0:
256,192,51534,1,8,0:0:0:0:
256,192,51690,1,8,0:0:0:0:
256,192,51845,1,0,0:0:0:0:
256,192,52156,1,4,0:0:0:0:
256,192,52622,1,8,0:0:0:0:
256,192,52933,1,0,0:0:0:0:
256,192,53089,1,8,0:0:0:0:
256,192,53244,1,0,0:0:0:0:
256,192,53400,1,8,0:0:0:0:
256,192,53555,1,8,0:0:0:0:
256,192,53710,1,0,0:0:0:0:
256,192,54021,1,8,0:0:0:0:
256,192,54332,1,8,0:0:0:0:
256,192,54643,1,4,0:0:0:0:
256,192,54954,1,0,0:0:0:0:
256,192,55109,1,8,0:0:0:0:
256,192,55265,1,8,0:0:0:0:
256,192,55420,1,0,0:0:0:0:
256,192,55576,1,0,0:0:0:0:
256,192,55731,1,8,0:0:0:0:
256,192,55887,1,4,0:0:0:0:
256,192,56197,1,0,0:0:0:0:
256,192,56353,1,8,0:0:0:0:
256,192,56508,1,8,0:0:0:0:
256,192,56664,1,0,0:0:0:0:
256,192,56819,1,0,0:0:0:0:
256,192,56975,1,8,0:0:0:0:
256,192,57130,1,4,0:0:0:0:
256,192,57441,1,0,0:0:0:0:
256,192,57752,1,4,0:0:0:0:
256,192,57907,1,4,0:0:0:0:
256,192,58063,1,12,0:0:0:0:
256,192,58218,1,12,0:0:0:0:
256,192,58374,1,12,0:0:0:0:
256,192,59773,1,4,0:0:0:0:
256,192,60394,1,12,0:0:0:0:
256,192,61016,1,12,0:0:0:0:
256,192,61638,1,12,0:0:0:0:
256,192,62104,1,0,0:0:0:0:
256,192,62260,1,12,0:0:0:0:
256,192,62415,1,0,0:0:0:0:
256,192,62571,1,0,0:0:0:0:
256,192,62726,1,0,0:0:0:0:
256,192,62881,1,12,0:0:0:0:
256,192,63037,1,0,0:0:0:0:
256,192,63192,1,0,0:0:0:0:
256,192,63348,1,0,0:0:0:0:
256,192,63814,1,8,0:0:0:0:
256,192,64125,1,8,0:0:0:0:
256,192,64280,1,0,0:0:0:0:
256,192,64436,1,0,0:0:0:0:
256,192,64591,1,8,0:0:0:0:
256,192,64747,1,4,0:0:0:0:
256,192,65058,1,8,0:0:0:0:
256,192,65368,1,12,0:0:0:0:
256,192,65679,1,0,0:0:0:0:
256,192,65990,1,12,0:0:0:0:
256,192,66301,1,8,0:0:0:0:
256,192,66457,1,0,0:0:0:0:
256,192,66612,1,12,0:0:0:0:
256,192,66767,1,8,0:0:0:0:
256,192,66923,1,0,0:0:0:0:
256,192,67078,1,0,0:0:0:0:
256,192,67234,1,12,0:0:0:0:
256,192,67545,1,0,0:0:0:0:
256,192,67856,1,12,0:0:0:0:
256,192,68166,1,0,0:0:0:0:
256,192,68322,1,0,0:0:0:0:
256,192,68477,1,12,0:0:0:0:
256,192,68633,1,8,0:0:0:0:
256,192,68944,1,0,0:0:0:0:
256,192,69099,1,8,0:0:0:0:
256,192,69254,1,8,0:0:0:0:
256,192,69410,1,8,0:0:0:0:
160,128,69565,2,0,L|224:96,3,70
256,192,70343,1,12,0:0:0:0:
256,192,70498,1,0,0:0:0:0:
256,192,70653,1,0,0:0:0:0:
256,192,70809,1,0,0:0:0:0:
256,192,70964,1,8,0:0:0:0:
256,192,71120,1,0,0:0:0:0:
256,192,71431,1,0,0:0:0:0:
256,192,71586,1,8,0:0:0:0:
256,192,71742,1,0,0:0:0:0:
256,192,72052,1,0,0:0:0:0:
256,192,72208,1,12,0:0:0:0:
256,192,72363,1,0,0:0:0:0:
256,192,72519,1,0,0:0:0:0:
256,192,72674,1,0,0:0:0:0:
256,192,72830,1,12,0:0:0:0:
256,192,72985,1,0,0:0:0:0:
256,192,73140,1,0,0:0:0:0:
256,192,73296,1,0,0:0:0:0:
256,192,73451,1,12,0:0:0:0:
256,192,74073,1,8,0:0:0:0:
256,192,74229,1,8,0:0:0:0:
256,192,74384,1,0,0:0:0:0:
256,192,74539,1,0,0:0:0:0:
256,192,74695,1,12,0:0:0:0:
256,192,74850,1,0,0:0:0:0:
256,192,75161,1,0,0:0:0:0:
256,192,75317,1,12,0:0:0:0:
256,192,75472,1,0,0:0:0:0:
256,192,75783,1,0,0:0:0:0:
256,192,75938,1,12,0:0:0:0:
256,192,76094,1,0,0:0:0:0:
256,192,76249,1,0,0:0:0:0:
256,192,76405,1,0,0:0:0:0:
256,192,76560,1,12,0:0:0:0:
256,192,76716,1,8,0:0:0:0:
256,192,76871,1,0,0:0:0:0:
256,192,77182,1,12,0:0:0:0:
256,192,77337,1,0,0:0:0:0:
256,192,77493,1,12,0:0:0:0:
256,192,77648,1,0,0:0:0:0:
256,192,77804,1,12,0:0:0:0:
256,192,77959,1,0,0:0:0:0:
256,192,78115,1,12,0:0:0:0:
256,192,78270,1,0,0:0:0:0:
256,192,78425,1,8,0:0:0:0:
256,192,78581,1,0,0:0:0:0:
256,192,78659,1,0,0:0:0:0:
256,192,78736,1,0,0:0:0:0:
256,192,78892,1,0,0:0:0:0:
256,192,79047,1,8,0:0:0:0:
256,192,79203,1,0,0:0:0:0:
256,192,79358,1,8,0:0:0:0:
256,192,79824,1,0,0:0:0:0:
256,192,79980,1,8,0:0:0:0:
256,192,80135,1,0,0:0:0:0:
256,192,80291,1,8,0:0:0:0:
256,192,80602,1,8,0:0:0:0:
256,192,80757,1,8,0:0:0:0:
256,192,81068,1,8,0:0:0:0:
256,192,81223,1,0,0:0:0:0:
256,192,81379,1,8,0:0:0:0:
256,192,81534,1,0,0:0:0:0:
256,192,81690,1,8,0:0:0:0:
256,192,81845,1,8,0:0:0:0:
256,192,82001,1,0,0:0:0:0:
256,192,82467,1,8,0:0:0:0:
256,192,82622,1,0,0:0:0:0:
256,192,82778,1,8,0:0:0:0:
256,192,83089,1,8,0:0:0:0:
256,192,83244,1,8,0:0:0:0:
256,192,83555,1,8,0:0:0:0:
256,192,83710,1,0,0:0:0:0:
256,192,83866,1,8,0:0:0:0:
256,192,84021,1,8,0:0:0:0:
256,192,84332,1,12,0:0:0:0:
256,192,84799,1,0,0:0:0:0:
256,192,84954,1,8,0:0:0:0:
256,192,85109,1,0,0:0:0:0:
256,192,85265,1,8,0:0:0:0:
256,192,85576,1,8,0:0:0:0:
256,192,85731,1,8,0:0:0:0:
256,192,86042,1,8,0:0:0:0:
256,192,86197,1,0,0:0:0:0:
256,192,86353,1,8,0:0:0:0:
256,192,86664,1,8,0:0:0:0:
256,192,86975,1,8,0:0:0:0:
256,192,87130,1,0,0:0:0:0:
256,192,87441,1,8,0:0:0:0:
256,192,87596,1,8,0:0:0:0:
256,192,87752,1,0,0:0:0:0:
256,192,88063,1,8,0:0:0:0:
256,192,88218,1,8,0:0:0:0:
256,192,88374,1,0,0:0:0:0:
256,192,88685,1,8,0:0:0:0:
256,192,89306,1,0,0:0:0:0:
256,192,89617,1,8,0:0:0:0:
256,192,89773,1,0,0:0:0:0:
256,192,89928,1,8,0:0:0:0:
256,192,90083,1,0,0:0:0:0:
256,192,90239,1,8,0:0:0:0:
256,192,90394,1,0,0:0:0:0:
256,192,90550,1,8,0:0:0:0:
256,192,90705,1,8,0:0:0:0:
256,192,90861,1,0,0:0:0:0:
256,192,91016,1,8,0:0:0:0:
256,192,91172,1,0,0:0:0:0:
256,192,91327,1,8,0:0:0:0:
256,192,91482,1,0,0:0:0:0:
256,192,91638,1,8,0:0:0:0:
256,192,92104,1,8,0:0:0:0:
256,192,92260,1,0,0:0:0:0:
256,192,92415,1,8,0:0:0:0:
256,192,92571,1,0,0:0:0:0:
256,192,92726,1,8,0:0:0:0:
256,192,92881,1,0,0:0:0:0:
256,192,93037,1,8,0:0:0:0:
256,192,93192,1,8,0:0:0:0:
256,192,93348,1,0,0:0:0:0:
256,192,93503,1,8,0:0:0:0:
256,192,93659,1,0,0:0:0:0:
256,192,93814,1,8,0:0:0:0:
256,192,93970,1,0,0:0:0:0:
256,192,94125,1,8,0:0:0:0:
256,192,94591,1,0,0:0:0:0:
256,192,94902,1,8,0:0:0:0:
256,192,95213,1,0,0:0:0:0:
256,192,95524,1,8,0:0:0:0:
256,192,95679,1,0,0:0:0:0:
256,192,95835,1,8,0:0:0:0:
256,192,95990,1,0,0:0:0:0:
256,192,96146,1,8,0:0:0:0:
256,192,96457,1,8,0:0:0:0:
256,192,96612,1,0,0:0:0:0:
256,192,96767,1,8,0:0:0:0:
256,192,96923,1,8,0:0:0:0:
256,192,97078,1,0,0:0:0:0:
256,192,97389,1,8,0:0:0:0:
256,192,97545,1,8,0:0:0:0:
256,192,97700,1,0,0:0:0:0:
256,192,98011,1,8,0:0:0:0:
256,192,98166,1,8,0:0:0:0:
256,192,98322,1,0,0:0:0:0:
256,192,98633,1,12,0:0:0:0:
256,192,99099,1,8,0:0:0:0:
256,192,99177,1,8,0:0:0:0:
256,192,99254,1,8,0:0:0:0:
256,192,99410,1,12,0:0:0:0:
256,192,99721,1,0,0:0:0:0:
256,192,99876,1,8,0:0:0:0:
256,192,100187,1,8,0:0:0:0:
256,192,100343,1,0,0:0:0:0:
256,192,100498,1,8,0:0:0:0:
256,192,100653,1,4,0:0:0:0:
256,192,100964,1,0,0:0:0:0:
256,192,101120,1,8,0:0:0:0:
256,192,101431,1,0,0:0:0:0:
256,192,101586,1,0,0:0:0:0:
256,192,101742,1,0,0:0:0:0:
256,192,101897,1,12,0:0:0:0:
256,192,102208,1,0,0:0:0:0:
256,192,102363,1,8,0:0:0:0:
256,192,102985,1,0,0:0:0:0:
256,192,103296,1,8,0:0:0:0:
256,192,103607,1,0,0:0:0:0:
256,192,103918,1,8,0:0:0:0:
256,192,104229,1,0,0:0:0:0:
256,192,104384,1,12,0:0:0:0:
256,192,104695,1,0,0:0:0:0:
256,192,104850,1,8,0:0:0:0:
256,192,105161,1,8,0:0:0:0:
256,192,105317,1,0,0:0:0:0:
256,192,105472,1,0,0:0:0:0:
256,192,105628,1,12,0:0:0:0:
256,192,105938,1,0,0:0:0:0:
256,192,106094,1,8,0:0:0:0:
256,192,106405,1,0,0:0:0:0:
256,192,106560,1,8,0:0:0:0:
256,192,106716,1,0,0:0:0:0:
256,192,106871,1,12,0:0:0:0:
256,192,107182,1,8,0:0:0:0:
256,192,107337,1,0,0:0:0:0:
256,192,107959,1,0,0:0:0:0:
256,192,108270,1,8,0:0:0:0:
256,192,108581,1,8,0:0:0:0:
256,192,108736,1,0,0:0:0:0:
256,192,108892,1,8,0:0:0:0:
256,192,109047,1,8,0:0:0:0:
256,192,109203,1,8,0:0:0:0:
256,192,109358,1,4,0:0:0:0:
256,192,109669,1,0,0:0:0:0:
256,192,109824,1,8,0:0:0:0:
256,192,110135,1,8,0:0:0:0:
256,192,110446,1,8,0:0:0:0:
256,192,110602,1,0,0:0:0:0:
256,192,110913,1,0,0:0:0:0:
256,192,111223,1,8,0:0:0:0:
256,192,111379,1,8,0:0:0:0:
256,192,111534,1,0,0:0:0:0:
256,192,111845,1,4,0:0:0:0:
256,192,112156,1,0,0:0:0:0:
256,192,112311,1,8,0:0:0:0:
256,192,112622,1,0,0:0:0:0:
256,192,112778,1,8,0:0:0:0:
256,192,112933,1,0,0:0:0:0:
256,192,113089,1,0,0:0:0:0:
256,192,113244,1,8,0:0:0:0:
256,192,113400,1,0,0:0:0:0:
256,192,113710,1,8,0:0:0:0:
256,192,114021,1,8,0:0:0:0:
256,192,114332,1,4,0:0:0:0:
256,192,114643,1,0,0:0:0:0:
256,192,114799,1,8,0:0:0:0:
256,192,114954,1,8,0:0:0:0:
256,192,115109,1,0,0:0:0:0:
256,192,115265,1,0,0:0:0:0:
256,192,115420,1,8,0:0:0:0:
256,192,115576,1,4,0:0:0:0:
256,192,115887,1,0,0:0:0:0:
256,192,116042,1,8,0:0:0:0:
256,192,116197,1,8,0:0:0:0:
256,192,116353,1,0,0:0:0:0:
256,192,116508,1,0,0:0:0:0:
256,192,116664,1,8,0:0:0:0:
256,192,116819,1,4,0:0:0:0:
256,192,117130,1,0,0:0:0:0:
256,192,117286,1,12,0:0:0:0:
256,192,117441,1,0,0:0:0:0:
256,192,117596,1,12,0:0:0:0:
256,192,117752,1,0,0:0:0:0:
256,192,117907,1,12,0:0:0:0:
256,192,118063,1,0,0:0:0:0:
256,192,118218,1,12,0:0:0:0:
256,192,118451,1,0,0:0:0:0:
256,192,118529,1,8,0:0:0:0:
256,192,118685,1,0,0:0:0:0:
256,192,118840,1,8,0:0:0:0:
256,192,118995,1,8,0:0:0:0:
256,192,119151,1,0,0:0:0:0:
256,192,119306,1,0,0:0:0:0:
256,192,119462,1,12,0:0:0:0:
256,192,120239,1,0,0:0:0:0:
256,192,120394,1,8,0:0:0:0:
256,192,120550,1,8,0:0:0:0:
256,192,120705,1,0,0:0:0:0:
256,192,121016,1,8,0:0:0:0:
256,192,121172,1,0,0:0:0:0:
256,192,121482,1,0,0:0:0:0:
256,192,121638,1,8,0:0:0:0:
256,192,122260,1,0,0:0:0:0:
256,192,122571,1,8,0:0:0:0:
256,192,122881,1,8,0:0:0:0:
256,192,123037,1,8,0:0:0:0:
256,192,123192,1,0,0:0:0:0:
256,192,123503,1,8,0:0:0:0:
256,192,123659,1,8,0:0:0:0:
256,192,123814,1,0,0:0:0:0:
256,192,123892,1,0,0:0:0:0:
256,192,123970,1,0,0:0:0:0:
256,192,124125,1,8,0:0:0:0:
256,192,124436,1,8,0:0:0:0:
256,192,124591,1,0,0:0:0:0:
256,192,124747,1,0,0:0:0:0:
256,192,124902,1,0,0:0:0:0:
256,192,125058,1,8,0:0:0:0:
256,192,125213,1,0,0:0:0:0:
256,192,125368,1,0,0:0:0:0:
256,192,125524,1,0,0:0:0:0:
256,192,125990,1,8,0:0:0:0:
256,192,126146,1,0,0:0:0:0:
256,192,126301,1,8,0:0:0:0:
256,192,126457,1,0,0:0:0:0:
256,192,126612,1,0,0:0:0:0:
256,192,126767,1,0,0:0:0:0:
256,192,126923,1,8,0:0:0:0:
256,192,127389,1,0,0:0:0:0:
256,192,127545,1,8,0:0:0:0:
256,192,127700,1,8,0:0:0:0:
256,192,127856,1,0,0:0:0:0:
256,192,128011,1,8,0:0:0:0:
256,192,128166,1,0,0:0:0:0:
256,192,128322,1,0,0:0:0:0:
256,192,128477,1,8,0:0:0:0:
256,192,128633,1,8,0:0:0:0:
256,192,128788,1,0,0:0:0:0:
256,192,128944,1,8,0:0:0:0:
256,192,129099,1,8,0:0:0:0:
256,192,129254,1,8,0:0:0:0:
256,192,129410,1,4,0:0:0:0:
256,192,130187,1,0,0:0:0:0:
256,192,130343,1,8,0:0:0:0:
256,192,130498,1,0,0:0:0:0:
256,192,130653,1,0,0:0:0:0:
256,192,130964,1,8,0:0:0:0:
256,192,131120,1,0,0:0:0:0:
256,192,131431,1,0,0:0:0:0:
256,192,131586,1,8,0:0:0:0:
256,192,131897,1,8,0:0:0:0:
256,192,132208,1,0,0:0:0:0:
256,192,132519,1,8,0:0:0:0:
256,192,132596,1,8,0:0:0:0:
256,192,132674,1,8,0:0:0:0:
256,192,132830,1,0,0:0:0:0:
256,192,132985,1,0,0:0:0:0:
256,192,133140,1,0,0:0:0:0:
256,192,133296,1,8,0:0:0:0:
256,192,133374,1,8,0:0:0:0:
256,192,133451,1,8,0:0:0:0:
256,192,133607,1,0,0:0:0:0:
256,192,133762,1,8,0:0:0:0:
256,192,134384,1,12,0:0:0:0:
256,192,135006,1,0,0:0:0:0:
256,192,135628,1,0,0:0:0:0:
256,192,136249,1,0,0:0:0:0:
256,192,136716,1,8,0:0:0:0:
256,192,136871,1,8,0:0:0:0:
256,192,137493,1,0,0:0:0:0:
256,192,137648,1,8,0:0:0:0:
256,192,137804,1,0,0:0:0:0:
256,192,137959,1,0,0:0:0:0:
256,192,138115,1,12,0:0:0:0:
256,192,138425,1,0,0:0:0:0:
256,192,138581,1,12,0:0:0:0:
256,192,138736,1,0,0:0:0:0:
256,192,139047,1,12,0:0:0:0:
256,192,139358,1,12,0:0:0:0:
256,192,139980,1,0,0:0:0:0:
256,192,140602,1,0,0:0:0:0:
256,192,141223,1,0,0:0:0:0:
256,192,141845,1,0,0:0:0:0:
256,192,142001,1,12,0:0:0:0:
256,192,142156,1,0,0:0:0:0:
256,192,142467,1,0,0:0:0:0:
256,192,142778,1,0,0:0:0:0:
256,192,142933,1,0,0:0:0:0:
256,192,143089,1,12,0:0:0:0:
256,192,143244,1,0,0:0:0:0:
256,192,143400,1,0,0:0:0:0:
256,192,143555,1,12,0:0:0:0:
256,192,143710,1,0,0:0:0:0:
256,192,143866,1,0,0:0:0:0:
256,192,144021,1,12,0:0:0:0:
256,192,144332,1,0,0:0:0:0:
256,192,144954,1,0,0:0:0:0:
256,192,145265,1,0,0:0:0:0:
256,192,145576,1,0,0:0:0:0:
256,192,145731,1,8,0:0:0:0:
256,192,146042,1,0,0:0:0:0:
256,192,146197,1,8,0:0:0:0:
256,192,146508,1,8,0:0:0:0:
256,192,146664,1,0,0:0:0:0:
256,192,146819,1,8,0:0:0:0:
256,192,147130,1,0,0:0:0:0:
256,192,147286,1,8,0:0:0:0:
256,192,147441,1,0,0:0:0:0:
256,192,147752,1,12,0:0:0:0:
256,192,147907,1,8,0:0:0:0:
256,192,148063,1,0,0:0:0:0:
256,192,148218,1,12,0:0:0:0:
256,192,148374,1,0,0:0:0:0:
256,192,148529,1,0,0:0:0:0:
256,192,148685,1,12,0:0:0:0:
256,192,148840,1,0,0:0:0:0:
256,192,148995,1,12,0:0:0:0:
256,192,149151,1,8,0:0:0:0:
256,192,149617,1,8,0:0:0:0:
256,192,149928,1,8,0:0:0:0:
256,192,150083,1,8,0:0:0:0:
256,192,150239,1,0,0:0:0:0:
256,192,150550,1,8,0:0:0:0:
256,192,150861,1,8,0:0:0:0:
256,192,151172,1,8,0:0:0:0:
256,192,151327,1,8,0:0:0:0:
256,192,151482,1,0,0:0:0:0:
256,192,151793,1,0,0:0:0:0:
256,192,152104,1,0,0:0:0:0:
256,192,152260,1,0,0:0:0:0:
256,192,152415,1,8,0:0:0:0:
256,192,152571,1,8,0:0:0:0:
256,192,152726,1,0,0:0:0:0:
256,192,152881,1,0,0:0:0:0:
256,192,153037,1,8,0:0:0:0:
256,192,153192,1,0,0:0:0:0:
256,192,153348,1,8,0:0:0:0:
256,192,153503,1,0,0:0:0:0:
256,192,153581,1,0,0:0:0:0:
256,192,153659,1,8,0:0:0:0:
256,192,155524,1,12,0:0:0:0:
256,192,155835,1,0,0:0:0:0:
256,192,155990,1,0,0:0:0:0:
256,192,156146,1,8,0:0:0:0:
256,192,156301,1,0,0:0:0:0:
256,192,156457,1,8,0:0:0:0:
256,192,156612,1,0,0:0:0:0:
256,192,156767,1,8,0:0:0:0:
256,192,157078,1,0,0:0:0:0:
256,192,157234,1,0,0:0:0:0:
256,192,157389,1,8,0:0:0:0:
256,192,157545,1,8,0:0:0:0:
256,192,157700,1,0,0:0:0:0:
256,192,158011,1,8,0:0:0:0:
256,192,158244,1,0,0:0:0:0:
256,192,158477,1,0,0:0:0:0:
256,192,158633,1,8,0:0:0:0:
256,192,158788,1,0,0:0:0:0:
256,192,158944,1,8,0:0:0:0:
256,192,159099,1,0,0:0:0:0:
256,192,159254,1,0,0:0:0:0:
256,192,159410,1,8,0:0:0:0:
256,192,159876,1,8,0:0:0:0:
256,192,160032,1,0,0:0:0:0:
256,192,160187,1,8,0:0:0:0:
256,192,160343,1,0,0:0:0:0:
256,192,160498,1,12,0:0:0:0:
256,192,160809,1,8,0:0:0:0:
256,192,160964,1,0,0:0:0:0:
256,192,161120,1,8,0:0:0:0:
256,192,161431,1,8,0:0:0:0:
256,192,161586,1,0,0:0:0:0:
256,192,161742,1,8,0:0:0:0:
256,192,161897,1,8,0:0:0:0:
256,192,162052,1,0,0:0:0:0:
256,192,162208,1,0,0:0:0:0:
256,192,162363,1,8,0:0:0:0:
256,192,162519,1,8,0:0:0:0:
256,192,162674,1,0,0:0:0:0:
256,192,162985,1,8,0:0:0:0:
256,192,163218,1,0,0:0:0:0:
256,192,163451,1,0,0:0:0:0:
256,192,163607,1,8,0:0:0:0:
256,192,163762,1,0,0:0:0:0:
256,192,163918,1,8,0:0:0:0:
256,192,164073,1,0,0:0:0:0:
256,192,164229,1,0,0:0:0:0:
256,192,164384,1,8,0:0:0:0:
256,192,164539,1,8,0:0:0:0:
256,192,164695,1,0,0:0:0:0:
256,192,164850,1,8,0:0:0:0:
256,192,165006,1,0,0:0:0:0:
256,192,165161,1,0,0:0:0:0:
256,192,165317,1,0,0:0:0:0:
256,192,165472,1,12,0:0:0:0:
256,192,165783,1,0,0:0:0:0:
256,192,165938,1,0,0:0:0:0:
256,192,166094,1,8,0:0:0:0:
256,192,166249,1,8,0:0:0:0:
256,192,167027,1,0,0:0:0:0:
256,192,167182,1,0,0:0:0:0:
256,192,167337,1,8,0:0:0:0:
256,192,167493,1,8,0:0:0:0:
256,192,167648,1,0,0:0:0:0:
256,192,167804,1,8,0:0:0:0:
256,192,167959,1,0,0:0:0:0:
256,192,168270,1,0,0:0:0:0:
256,192,168425,1,0,0:0:0:0:
256,192,168581,1,8,0:0:0:0:
256,192,169047,1,0,0:0:0:0:
256,192,169203,1,12,0:0:0:0:
256,192,169358,1,0,0:0:0:0:
256,192,169514,1,0,0:0:0:0:
256,192,169669,1,0,0:0:0:0:
256,192,169824,1,12,0:0:0:0:
256,192,169980,1,0,0:0:0:0:
256,192,170135,1,0,0:0:0:0:
256,192,170291,1,0,0:0:0:0:
256,192,170446,1,12,0:0:0:0:
256,192,170757,1,0,0:0:0:0:
256,192,170913,1,0,0:0:0:0:
256,192,171068,1,8,0:0:0:0:
256,192,171223,1,8,0:0:0:0:
256,192,171690,1,8,0:0:0:0:
256,192,172001,1,0,0:0:0:0:
256,192,172156,1,0,0:0:0:0:
256,192,172311,1,8,0:0:0:0:
256,192,172467,1,8,0:0:0:0:
256,192,172622,1,0,0:0:0:0:
256,192,172778,1,8,0:0:0:0:
256,192,172933,1,0,0:0:0:0:
256,192,173244,1,0,0:0:0:0:
256,192,173400,1,0,0:0:0:0:
256,192,173555,1,8,0:0:0:0:
256,192,174021,1,0,0:0:0:0:
256,192,174177,1,12,0:0:0:0:
256,192,174332,1,8,0:0:0:0:
256,192,174488,1,0,0:0:0:0:
256,192,174643,1,0,0:0:0:0:
256,192,174799,1,12,0:0:0:0:
256,192,174954,1,0,0:0:0:0:
256,192,175109,1,0,0:0:0:0:
256,192,175265,1,8,0:0:0:0:
256,192,175731,1,0,0:0:0:0:
256,192,175887,1,0,0:0:0:0:
256,192,176042,1,8,0:0:0:0:
256,192,176197,1,0,0:0:0:0:
256,192,176664,1,8,0:0:0:0:
256,192,176975,1,0,0:0:0:0:
256,192,177130,1,0,0:0:0:0:
256,192,177286,1,8,0:0:0:0:
256,192,177441,1,8,0:0:0:0:
256,192,177596,1,0,0:0:0:0:
256,192,177752,1,8,0:0:0:0:
256,192,177907,1,8,0:0:0:0:
256,192,178218,1,0,0:0:0:0:
256,192,178374,1,0,0:0:0:0:
256,192,178529,1,8,0:0:0:0:
256,192,178685,1,0,0:0:0:0:
256,192,178995,1,0,0:0:0:0:
256,192,179151,1,12,0:0:0:0:
256,192,179306,1,8,0:0:0:0:
256,192,179462,1,0,0:0:0:0:
256,192,179617,1,0,0:0:0:0:
256,192,179773,1,12,0:0:0:0:
256,192,179928,1,0,0:0:0:0:
256,192,180083,1,0,0:0:0:0:
256,192,180239,1,0,0:0:0:0:
256,192,180394,1,12,0:0:0:0:
256,192,180705,1,0,0:0:0:0:
256,192,180861,1,0,0:0:0:0:
256,192,181016,1,8,0:0:0:0:
256,192,181172,1,0,0:0:0:0:
256,192,181638,1,8,0:0:0:0:
256,192,181949,1,8,0:0:0:0:
256,192,182104,1,0,0:0:0:0:
256,192,182260,1,8,0:0:0:0:
256,192,182415,1,0,0:0:0:0:
256,192,182571,1,8,0:0:0:0:
256,192,182726,1,0,0:0:0:0:
256,192,182881,1,0,0:0:0:0:
256,192,183192,1,0,0:0:0:0:
256,192,183348,1,0,0:0:0:0:
256,192,183503,1,8,0:0:0:0:
256,192,183659,1,0,0:0:0:0:
256,192,183970,1,0,0:0:0:0:
256,192,184125,1,12,0:0:0:0:
256,192,184280,1,0,0:0:0:0:
256,192,184436,1,0,0:0:0:0:
256,192,184591,1,0,0:0:0:0:
256,192,184747,1,12,0:0:0:0:
256,192,184902,1,0,0:0:0:0:
256,192,185058,1,0,0:0:0:0:
256,192,185213,1,0,0:0:0:0:
256,192,185368,1,12,0:0:0:0:
256,192,189565,1,0,0:0:0:0:
256,192,189721,1,8,0:0:0:0:
256,192,189876,1,0,0:0:0:0:
256,192,190187,1,0,0:0:0:0:
256,192,190343,1,12,0:0:0:0:
256,192,193918,1,8,0:0:0:0:
256,192,194073,1,8,0:0:0:0:
256,192,194229,1,0,0:0:0:0:
256,192,194539,1,8,0:0:0:0:
256,192,194850,1,0,0:0:0:0:
256,192,195006,1,8,0:0:0:0:
256,192,195161,1,8,0:0:0:0:
256,192,195317,1,4,0:0:0:0:
256,192,195938,1,0,0:0:0:0:
256,192,197182,1,0,0:0:0:0:
256,192,198425,1,0,0:0:0:0:
256,192,199669,1,0,0:0:0:0:
256,192,200291,1,12,0:0:0:0:
256,192,200602,1,0,0:0:0:0:
256,192,200757,1,8,0:0:0:0:
256,192,200913,1,0,0:0:0:0:
256,192,201068,1,0,0:0:0:0:
256,192,201223,1,12,0:0:0:0:
256,192,201379,1,0,0:0:0:0:
256,192,201534,1,0,0:0:0:0:
256,192,201690,1,8,0:0:0:0:
256,192,201845,1,0,0:0:0:0:
256,192,202001,1,0,0:0:0:0:
256,192,202156,1,12,0:0:0:0:
256,192,202311,1,0,0:0:0:0:
256,192,202467,1,0,0:0:0:0:
256,192,202778,1,12,0:0:0:0:
256,192,203089,1,0,0:0:0:0:
256,192,203244,1,0,0:0:0:0:
256,192,203400,1,8,0:0:0:0:
256,192,203555,1,0,0:0:0:0:
256,192,203710,1,8,0:0:0:0:
256,192,203866,1,0,0:0:0:0:
256,192,204021,1,12,0:0:0:0:
256,192,204177,1,8,0:0:0:0:
256,192,204332,1,0,0:0:0:0:
256,192,204488,1,12,0:0:0:0:
256,192,204643,1,0,0:0:0:0:
256,192,204799,1,12,0:0:0:0:
256,192,205109,1,0,0:0:0:0:
256,192,205265,1,12,0:0:0:0:
256,192,205420,1,8,0:0:0:0:
256,192,205576,1,0,0:0:0:0:
256,192,205887,1,8,0:0:0:0:
256,192,206042,1,0,0:0:0:0:
256,192,206197,1,8,0:0:0:0:
256,192,206353,1,0,0:0:0:0:
256,192,207130,1,8,0:0:0:0:
256,192,207286,1,0,0:0:0:0:
256,192,207596,1,8,0:0:0:0:
256,192,207752,1,8,0:0:0:0:
256,192,207907,1,0,0:0:0:0:
256,192,208063,1,0,0:0:0:0:
256,192,208685,1,8,0:0:0:0:
256,192,208840,1,0,0:0:0:0:
256,192,208995,1,8,0:0:0:0:
256,192,209151,1,8,0:0:0:0:
256,192,209462,1,8,0:0:0:0:
256,192,209773,1,8,0:0:0:0:
256,192,209928,1,0,0:0:0:0:
256,192,210083,1,8,0:0:0:0:
256,192,210394,1,8,0:0:0:0:
256,192,210550,1,0,0:0:0:0:
256,192,210861,1,8,0:0:0:0:
256,192,211016,1,0,0:0:0:0:
256,192,211172,1,8,0:0:0:0:
256,192,211327,1,0,0:0:0:0:
256,192,211793,1,0,0:0:0:0:
256,192,212104,1,8,0:0:0:0:
256,192,212260,1,0,0:0:0:0:
256,192,212571,1,8,0:0:0:0:
256,192,212726,1,8,0:0:0:0:
256,192,212881,1,0,0:0:0:0:
256,192,213037,1,0,0:0:0:0:
256,192,213659,1,8,0:0:0:0:
256,192,213814,1,0,0:0:0:0:
256,192,213970,1,8,0:0:0:0:
256,192,214125,1,8,0:0:0:0:
256,192,214436,1,8,0:0:0:0:
256,192,214747,1,8,0:0:0:0:
256,192,214902,1,0,0:0:0:0:
256,192,215058,1,8,0:0:0:0:
