osu file format v14

[General]
AudioFilename: audio.mp3
AudioLeadIn: 0
PreviewTime: 63074
Countdown: 0
SampleSet: Normal
StackLeniency: 0.7
Mode: 1
LetterboxInBreaks: 0
WidescreenStoryboard: 1

[Editor]
Bookmarks: 34048,38204,54827,63139,71451,79763,83918
DistanceSpacing: 0.6
BeatDivisor: 4
GridSize: 32
TimelineZoom: 1.6

[Metadata]
Title:Juggernaut
TitleUnicode:Juggernaut
Artist:Sable Hills
ArtistUnicode:Sable Hills
Creator:Raiden
Version:Muzukashii
Source:
Tags:hardcore punk melodic metalcore english embers
BeatmapID:2587819
BeatmapSetID:1244973

[Difficulty]
HPDrainRate:6
CircleSize:2
OverallDifficulty:5
ApproachRate:10
SliderMultiplier:1.4
SliderTickRate:1

[Events]
//Background and Video events
0,0,"mtg_gloom_sower_by_chriscold_de18u32-fullview.jpg",0,35
//Break Periods
//Storyboard Layer 0 (Background)
//Storyboard Layer 1 (Fail)
//Storyboard Layer 2 (Pass)
//Storyboard Layer 3 (Foreground)
//Storyboard Layer 4 (Overlay)
//Storyboard Sound Samples

[TimingPoints]
848,259.74025974026,4,1,0,100,1,0
8835,-83.3333333333333,4,1,0,100,0,0
8964,-100,4,1,0,100,0,0
87081,392.156862745098,4,1,0,100,1,0
87081,-66.2251655629139,4,1,0,100,0,0
87277,-66.6666666666667,4,1,0,100,0,0
87669,-70.7070564228169,4,1,0,100,0,0
88061,-75.2688414845725,4,1,0,100,0,0
88257,-77.7777950617322,4,1,0,100,0,0
88355,-79.0960273229317,4,1,0,100,0,0
88453,-80.459779363193,4,1,0,100,0,0
88551,-81.8713163024621,4,1,0,100,0,0
88649,-83.3333333333333,4,1,0,100,0,0
124728,392.156862745098,4,1,0,100,1,8
125331,600,3,1,0,100,1,0
125331,-83.3333333333333,3,1,0,100,0,0
128931,600,3,1,0,100,1,8
128931,-83.3333333333333,3,1,0,100,0,0
129531,600,3,1,0,100,1,0
129531,-83.3333333333333,3,1,0,100,0,0
135681,-83.3333333333333,3,1,0,70,0,0
136281,-83.3333333333333,3,1,0,70,0,0
136581,-83.3333333333333,3,1,0,100,0,0
145731,-83.3333333333333,3,1,0,90,0,0
146331,-83.3333333333333,3,1,0,80,0,0
146931,-83.3333333333333,3,1,0,70,0,0
147531,-83.3333333333333,3,1,0,70,0,0
148131,-83.3333333333333,3,1,0,60,0,0
148731,-83.3333333333333,3,1,0,50,0,0
149331,-83.3333333333333,3,1,0,40,0,0

[HitObjects]
256,192,1886,5,8,0:0:0:0:
256,192,1951,5,8,0:0:0:0:
256,192,2016,5,8,0:0:0:0:
256,192,2146,5,0,0:0:0:0:
256,192,2276,5,8,0:0:0:0:
256,192,2406,5,0,0:0:0:0:
256,192,2471,5,0,0:0:0:0:
256,192,2536,5,0,0:0:0:0:
256,192,2666,5,8,0:0:0:0:
256,192,2925,5,12,0:0:0:0:
256,192,3835,5,0,0:0:0:0:
256,192,3964,5,12,0:0:0:0:
256,192,4094,5,0,0:0:0:0:
256,192,4224,5,0,0:0:0:0:
256,192,4354,5,12,0:0:0:0:
256,192,4614,5,8,0:0:0:0:
256,192,4873,5,8,0:0:0:0:
256,192,5003,5,4,0:0:0:0:
256,192,6822,5,8,0:0:0:0:
256,192,6886,5,8,0:0:0:0:
256,192,6951,5,8,0:0:0:0:
256,192,7081,5,4,0:0:0:0:
256,192,8899,5,12,0:0:0:0:
256,192,9159,5,0,0:0:0:0:
256,192,9289,5,8,0:0:0:0:
256,192,9419,5,0,0:0:0:0:
256,192,9549,5,8,0:0:0:0:
256,192,9809,5,8,0:0:0:0:
256,192,9938,5,8,0:0:0:0:
256,192,10068,5,0,0:0:0:0:
256,192,10198,5,8,0:0:0:0:
256,192,10458,5,8,0:0:0:0:
256,192,10588,5,8,0:0:0:0:
256,192,10718,5,0,0:0:0:0:
256,192,11237,5,8,0:0:0:0:
256,192,11367,5,8,0:0:0:0:
256,192,11497,5,0,0:0:0:0:
256,192,11627,5,8,0:0:0:0:
256,192,11886,5,8,0:0:0:0:
256,192,12016,5,0,0:0:0:0:
256,192,12146,5,8,0:0:0:0:
256,192,12276,5,12,0:0:0:0:
256,192,12406,5,12,0:0:0:0:
256,192,12666,5,12,0:0:0:0:
256,192,12925,5,12,0:0:0:0:
256,192,13315,5,8,0:0:0:0:
256,192,13445,5,8,0:0:0:0:
256,192,13575,5,0,0:0:0:0:
256,192,13705,5,8,0:0:0:0:
256,192,13964,5,8,0:0:0:0:
256,192,14094,5,0,0:0:0:0:
256,192,14354,5,8,0:0:0:0:
256,192,14484,5,8,0:0:0:0:
256,192,14614,5,0,0:0:0:0:
256,192,14744,5,8,0:0:0:0:
256,192,14873,5,0,0:0:0:0:
256,192,15003,5,8,0:0:0:0:
256,192,15393,5,0,0:0:0:0:
256,192,15523,5,8,0:0:0:0:
256,192,15653,5,0,0:0:0:0:
256,192,15718,5,0,0:0:0:0:
256,192,15783,5,0,0:0:0:0:
256,192,15912,5,8,0:0:0:0:
256,192,16172,5,0,0:0:0:0:
256,192,16302,5,8,0:0:0:0:
256,192,16562,5,0,0:0:0:0:
256,192,16692,5,8,0:0:0:0:
256,192,16822,5,8,0:0:0:0:
256,192,17081,5,0,0:0:0:0:
256,192,17211,5,8,0:0:0:0:
256,192,17471,5,0,0:0:0:0:
256,192,17601,5,8,0:0:0:0:
256,192,17666,5,8,0:0:0:0:
256,192,17731,5,8,0:0:0:0:
256,192,17860,5,0,0:0:0:0:
256,192,17990,5,8,0:0:0:0:
256,192,18120,5,0,0:0:0:0:
256,192,18250,5,8,0:0:0:0:
256,192,18380,5,0,0:0:0:0:
256,192,18510,5,8,0:0:0:0:
256,192,18770,5,0,0:0:0:0:
256,192,18899,5,8,0:0:0:0:
256,192,19159,5,0,0:0:0:0:
256,192,19289,5,8,0:0:0:0:
256,192,19549,5,0,0:0:0:0:
256,192,19679,5,0,0:0:0:0:
256,192,19809,5,8,0:0:0:0:
256,192,19938,5,0,0:0:0:0:
256,192,20068,5,8,0:0:0:0:
256,192,20328,5,0,0:0:0:0:
256,192,20588,5,8,0:0:0:0:
256,192,20848,5,0,0:0:0:0:
256,192,20977,5,8,0:0:0:0:
256,192,21367,5,8,0:0:0:0:
256,192,21497,5,0,0:0:0:0:
256,192,21627,5,8,0:0:0:0:
256,192,21757,5,8,0:0:0:0:
256,192,21886,5,0,0:0:0:0:
256,192,22016,5,8,0:0:0:0:
256,192,22276,5,8,0:0:0:0:
256,192,22536,5,0,0:0:0:0:
256,192,22666,5,8,0:0:0:0:
256,192,22796,5,8,0:0:0:0:
256,192,22925,5,0,0:0:0:0:
256,192,23055,5,8,0:0:0:0:
256,192,23315,5,8,0:0:0:0:
256,192,23445,5,0,0:0:0:0:
256,192,23705,5,0,0:0:0:0:
256,192,23835,5,8,0:0:0:0:
256,192,23964,5,0,0:0:0:0:
256,192,24029,5,0,0:0:0:0:
256,192,24094,5,0,0:0:0:0:
256,192,24224,5,8,0:0:0:0:
256,192,24484,5,0,0:0:0:0:
256,192,24614,5,8,0:0:0:0:
256,192,24873,5,0,0:0:0:0:
256,192,25003,5,8,0:0:0:0:
256,192,25133,5,0,0:0:0:0:
256,192,25263,5,8,0:0:0:0:
256,192,25523,5,0,0:0:0:0:
256,192,25783,5,0,0:0:0:0:
256,192,25912,5,0,0:0:0:0:
256,192,26042,5,8,0:0:0:0:
256,192,26302,5,0,0:0:0:0:
256,192,26432,5,8,0:0:0:0:
256,192,26822,5,8,0:0:0:0:
256,192,26951,5,8,0:0:0:0:
256,192,27081,5,0,0:0:0:0:
256,192,27211,5,8,0:0:0:0:
256,192,27471,5,0,0:0:0:0:
256,192,27601,5,8,0:0:0:0:
256,192,27731,5,8,0:0:0:0:
256,192,27860,5,0,0:0:0:0:
256,192,28120,5,8,0:0:0:0:
256,192,28380,5,0,0:0:0:0:
256,192,28640,5,8,0:0:0:0:
256,192,28770,5,0,0:0:0:0:
256,192,28899,5,12,0:0:0:0:
256,192,29029,5,8,0:0:0:0:
256,192,29289,5,12,0:0:0:0:
256,192,29419,5,0,0:0:0:0:
256,192,29549,5,8,0:0:0:0:
256,192,29614,5,8,0:0:0:0:
256,192,29679,5,8,0:0:0:0:
256,192,29809,5,8,0:0:0:0:
256,192,29938,5,0,0:0:0:0:
256,192,30198,5,0,0:0:0:0:
256,192,30328,5,8,0:0:0:0:
256,192,30458,5,0,0:0:0:0:
256,192,30588,5,8,0:0:0:0:
256,192,30718,5,0,0:0:0:0:
256,192,30977,5,0,0:0:0:0:
256,192,31107,5,8,0:0:0:0:
256,192,31237,5,8,0:0:0:0:
256,192,31367,5,8,0:0:0:0:
256,192,31497,1,8,0:0:0:0:
256,192,31627,5,4,0:0:0:0:
256,192,31886,5,12,0:0:0:0:
256,192,32276,5,0,0:0:0:0:
224,192,32406,1,8,0:0:0:0:
224,192,32536,1,0,0:0:0:0:
224,192,32666,1,8,0:0:0:0:
256,192,32796,5,0,0:0:0:0:
256,192,33055,5,0,0:0:0:0:
256,192,33185,1,0,0:0:0:0:
256,192,33315,5,8,0:0:0:0:
256,192,33445,5,0,0:0:0:0:
256,192,33575,5,8,0:0:0:0:
256,192,33705,5,8,0:0:0:0:
256,192,33835,5,0,0:0:0:0:
256,192,34094,5,0,0:0:0:0:
256,192,34224,5,0,0:0:0:0:
256,192,34354,5,8,0:0:0:0:
256,192,34614,5,0,0:0:0:0:
256,192,34744,5,8,0:0:0:0:
256,192,35133,5,8,0:0:0:0:
256,192,35263,5,8,0:0:0:0:
256,192,35393,5,0,0:0:0:0:
256,192,35523,5,8,0:0:0:0:
256,192,35783,5,0,0:0:0:0:
256,192,35912,5,8,0:0:0:0:
256,192,36042,5,8,0:0:0:0:
256,192,36172,5,0,0:0:0:0:
256,192,36237,5,0,0:0:0:0:
256,192,36302,5,0,0:0:0:0:
256,192,36432,5,8,0:0:0:0:
256,192,36692,5,8,0:0:0:0:
256,192,36822,5,8,0:0:0:0:
256,192,36951,5,0,0:0:0:0:
256,192,37081,5,0,0:0:0:0:
256,192,37211,5,12,0:0:0:0:
256,192,37601,5,12,0:0:0:0:
256,192,37990,5,12,0:0:0:0:
256,192,38250,5,4,0:0:0:0:
256,192,38510,5,0,0:0:0:0:
256,192,38640,5,0,0:0:0:0:
256,192,38770,5,12,0:0:0:0:
256,192,39029,5,0,0:0:0:0:
256,192,39159,5,0,0:0:0:0:
256,192,39549,5,0,0:0:0:0:
256,192,39809,5,8,0:0:0:0:
256,192,40068,5,0,0:0:0:0:
256,192,40198,5,0,0:0:0:0:
256,192,40458,5,0,0:0:0:0:
256,192,40588,5,0,0:0:0:0:
256,192,40848,5,8,0:0:0:0:
256,192,41237,5,8,0:0:0:0:
256,192,41367,5,0,0:0:0:0:
256,192,41627,5,8,0:0:0:0:
256,192,41757,5,0,0:0:0:0:
256,192,41886,5,8,0:0:0:0:
256,192,42016,5,8,0:0:0:0:
256,192,42146,5,0,0:0:0:0:
256,192,42276,5,8,0:0:0:0:
256,192,42666,5,0,0:0:0:0:
256,192,42925,5,8,0:0:0:0:
256,192,43185,5,0,0:0:0:0:
256,192,43315,5,0,0:0:0:0:
256,192,43705,5,0,0:0:0:0:
256,192,43964,5,8,0:0:0:0:
256,192,44094,5,0,0:0:0:0:
256,192,44354,5,8,0:0:0:0:
256,192,44484,5,0,0:0:0:0:
256,192,44744,5,8,0:0:0:0:
256,192,44873,5,8,0:0:0:0:
256,192,45003,5,8,0:0:0:0:
256,192,45133,5,0,0:0:0:0:
256,192,45263,5,8,0:0:0:0:
256,192,45393,5,8,0:0:0:0:
256,192,45523,5,0,0:0:0:0:
256,192,45783,5,8,0:0:0:0:
256,192,45912,5,0,0:0:0:0:
256,192,46042,5,8,0:0:0:0:
256,192,46172,5,0,0:0:0:0:
256,192,46302,5,8,0:0:0:0:
256,192,46432,5,8,0:0:0:0:
256,192,46562,5,0,0:0:0:0:
256,192,46822,5,0,0:0:0:0:
256,192,46951,5,0,0:0:0:0:
256,192,47081,5,12,0:0:0:0:
256,192,47341,5,0,0:0:0:0:
256,192,47471,5,0,0:0:0:0:
256,192,47860,5,0,0:0:0:0:
256,192,48120,5,8,0:0:0:0:
256,192,48380,5,0,0:0:0:0:
256,192,48510,5,0,0:0:0:0:
256,192,48770,5,0,0:0:0:0:
256,192,48899,5,0,0:0:0:0:
256,192,49159,5,8,0:0:0:0:
256,192,49289,5,0,0:0:0:0:
256,192,49549,5,8,0:0:0:0:
256,192,49679,5,0,0:0:0:0:
256,192,49938,5,8,0:0:0:0:
256,192,50068,5,0,0:0:0:0:
256,192,50198,5,8,0:0:0:0:
256,192,50328,5,8,0:0:0:0:
256,192,50458,5,0,0:0:0:0:
256,192,50588,5,8,0:0:0:0:
256,192,50718,5,0,0:0:0:0:
256,192,50977,5,12,0:0:0:0:
256,192,51107,5,0,0:0:0:0:
256,192,51237,5,8,0:0:0:0:
256,192,51302,5,8,0:0:0:0:
256,192,51367,5,8,0:0:0:0:
256,192,51497,5,8,0:0:0:0:
256,192,51627,5,4,0:0:0:0:
256,192,52016,5,4,0:0:0:0:
256,192,52276,5,12,0:0:0:0:
256,192,52406,5,0,0:0:0:0:
256,192,52666,5,8,0:0:0:0:
256,192,52796,5,0,0:0:0:0:
256,192,53055,5,8,0:0:0:0:
256,192,53185,5,8,0:0:0:0:
256,192,53315,5,8,0:0:0:0:
256,192,53445,5,0,0:0:0:0:
256,192,53575,5,8,0:0:0:0:
256,192,53705,5,8,0:0:0:0:
256,192,53835,5,0,0:0:0:0:
256,192,54094,5,8,0:0:0:0:
256,192,54224,5,8,0:0:0:0:
256,192,54354,5,0,0:0:0:0:
256,192,54484,5,0,0:0:0:0:
256,192,54614,5,8,0:0:0:0:
256,192,54744,5,8,0:0:0:0:
256,192,54873,5,0,0:0:0:0:
256,192,55912,5,8,0:0:0:0:
256,192,55977,5,8,0:0:0:0:
256,192,56042,5,8,0:0:0:0:
256,192,56172,5,0,0:0:0:0:
256,192,56302,5,8,0:0:0:0:
256,192,56432,5,0,0:0:0:0:
256,192,56497,5,0,0:0:0:0:
256,192,56562,5,0,0:0:0:0:
256,192,56692,5,8,0:0:0:0:
256,192,56951,5,8,0:0:0:0:
256,192,57081,5,8,0:0:0:0:
256,192,57211,5,0,0:0:0:0:
256,192,57341,5,8,0:0:0:0:
256,192,57601,5,8,0:0:0:0:
256,192,57731,5,0,0:0:0:0:
256,192,57860,5,8,0:0:0:0:
256,192,57990,5,12,0:0:0:0:
256,192,58120,5,12,0:0:0:0:
256,192,58380,5,12,0:0:0:0:
256,192,58640,5,12,0:0:0:0:
256,192,59029,5,8,0:0:0:0:
256,192,59159,5,8,0:0:0:0:
256,192,59289,5,0,0:0:0:0:
256,192,59419,5,8,0:0:0:0:
256,192,59679,5,8,0:0:0:0:
256,192,59938,5,8,0:0:0:0:
256,192,60198,5,8,0:0:0:0:
256,192,60328,5,0,0:0:0:0:
256,192,60458,5,8,0:0:0:0:
256,192,60588,5,0,0:0:0:0:
256,192,60718,5,8,0:0:0:0:
256,192,61107,5,0,0:0:0:0:
256,192,61237,5,8,0:0:0:0:
256,192,61367,5,0,0:0:0:0:
256,192,61432,5,0,0:0:0:0:
256,192,61497,5,0,0:0:0:0:
256,192,61627,5,8,0:0:0:0:
256,192,61886,5,0,0:0:0:0:
256,192,62016,5,8,0:0:0:0:
256,192,62276,5,0,0:0:0:0:
256,192,62406,5,8,0:0:0:0:
256,192,62536,5,8,0:0:0:0:
256,192,62796,5,0,0:0:0:0:
256,192,62925,5,8,0:0:0:0:
256,192,63185,5,4,0:0:0:0:
256,192,63315,5,8,0:0:0:0:
256,192,63445,5,0,0:0:0:0:
256,192,63575,5,8,0:0:0:0:
256,192,63705,5,0,0:0:0:0:
256,192,63835,5,8,0:0:0:0:
256,192,63964,5,8,0:0:0:0:
256,192,64029,5,8,0:0:0:0:
256,192,64094,5,8,0:0:0:0:
256,192,64224,5,8,0:0:0:0:
256,192,64484,5,0,0:0:0:0:
256,192,64614,5,8,0:0:0:0:
256,192,65003,5,8,0:0:0:0:
256,192,65133,5,0,0:0:0:0:
256,192,65263,5,8,0:0:0:0:
256,192,65393,5,8,0:0:0:0:
256,192,65523,5,0,0:0:0:0:
256,192,65653,5,8,0:0:0:0:
256,192,65783,5,0,0:0:0:0:
256,192,65912,5,8,0:0:0:0:
256,192,65977,5,8,0:0:0:0:
256,192,66042,5,8,0:0:0:0:
256,192,66172,5,0,0:0:0:0:
256,192,66302,5,8,0:0:0:0:
256,192,66562,5,0,0:0:0:0:
256,192,66692,5,8,0:0:0:0:
256,192,67081,5,8,0:0:0:0:
256,192,67341,5,0,0:0:0:0:
256,192,67471,5,8,0:0:0:0:
256,192,67601,5,0,0:0:0:0:
256,192,67731,5,8,0:0:0:0:
256,192,67990,5,8,0:0:0:0:
256,192,68250,5,0,0:0:0:0:
256,192,68380,5,8,0:0:0:0:
256,192,68510,5,8,0:0:0:0:
256,192,68640,5,0,0:0:0:0:
256,192,68770,5,8,0:0:0:0:
256,192,69029,5,8,0:0:0:0:
256,192,69419,5,0,0:0:0:0:
256,192,69549,5,8,0:0:0:0:
256,192,69679,5,0,0:0:0:0:
256,192,69809,5,0,0:0:0:0:
256,192,69938,5,8,0:0:0:0:
256,192,70198,5,0,0:0:0:0:
256,192,70328,5,8,0:0:0:0:
256,192,70718,5,8,0:0:0:0:
256,192,70848,5,0,0:0:0:0:
256,192,70977,5,8,0:0:0:0:
256,192,71237,5,0,0:0:0:0:
256,192,71497,5,0,0:0:0:0:
256,192,71627,5,0,0:0:0:0:
256,192,71757,5,8,0:0:0:0:
256,192,72016,5,0,0:0:0:0:
256,192,72146,5,8,0:0:0:0:
256,192,72536,5,8,0:0:0:0:
256,192,72666,5,0,0:0:0:0:
256,192,72796,5,0,0:0:0:0:
256,192,72925,5,8,0:0:0:0:
256,192,73055,5,0,0:0:0:0:
256,192,73315,5,8,0:0:0:0:
256,192,73445,5,8,0:0:0:0:
256,192,73575,5,0,0:0:0:0:
256,192,73835,5,8,0:0:0:0:
256,192,74094,5,8,0:0:0:0:
256,192,74354,5,8,0:0:0:0:
256,192,74484,5,0,0:0:0:0:
256,192,74614,5,8,0:0:0:0:
256,192,74744,5,8,0:0:0:0:
256,192,75003,5,8,0:0:0:0:
256,192,75263,5,8,0:0:0:0:
256,192,75523,5,8,0:0:0:0:
256,192,75653,5,0,0:0:0:0:
256,192,75912,5,0,0:0:0:0:
256,192,76042,5,8,0:0:0:0:
256,192,76172,5,0,0:0:0:0:
256,192,76302,5,8,0:0:0:0:
256,192,76432,5,0,0:0:0:0:
256,192,76692,5,0,0:0:0:0:
256,192,76822,5,8,0:0:0:0:
256,192,76951,5,8,0:0:0:0:
256,192,77081,5,8,0:0:0:0:
256,192,77211,1,8,0:0:0:0:
256,192,77341,5,4,0:0:0:0:
256,192,77601,5,12,0:0:0:0:
256,192,77990,5,0,0:0:0:0:
224,192,78120,1,8,0:0:0:0:
224,192,78250,1,0,0:0:0:0:
224,192,78380,1,8,0:0:0:0:
256,192,78510,5,0,0:0:0:0:
256,192,78770,5,0,0:0:0:0:
256,192,78899,1,0,0:0:0:0:
256,192,79029,5,8,0:0:0:0:
256,192,79159,5,0,0:0:0:0:
256,192,79289,5,8,0:0:0:0:
256,192,79419,5,8,0:0:0:0:
256,192,79549,5,0,0:0:0:0:
256,192,79809,5,0,0:0:0:0:
256,192,79938,5,0,0:0:0:0:
256,192,80068,5,8,0:0:0:0:
256,192,80328,5,0,0:0:0:0:
256,192,80458,5,8,0:0:0:0:
256,192,80848,5,8,0:0:0:0:
256,192,80977,5,8,0:0:0:0:
256,192,81107,5,0,0:0:0:0:
256,192,81237,5,8,0:0:0:0:
256,192,81497,5,0,0:0:0:0:
256,192,81627,5,8,0:0:0:0:
256,192,81757,5,8,0:0:0:0:
256,192,81886,5,0,0:0:0:0:
256,192,81951,5,0,0:0:0:0:
256,192,82016,5,0,0:0:0:0:
256,192,82146,5,8,0:0:0:0:
256,192,82406,5,8,0:0:0:0:
256,192,82536,5,8,0:0:0:0:
256,192,82666,1,0,0:0:0:0:
256,192,82796,5,0,0:0:0:0:
256,192,82925,5,8,0:0:0:0:
256,192,83315,5,8,0:0:0:0:
256,192,83705,5,8,0:0:0:0:
256,192,83964,5,4,0:0:0:0:
256,192,84224,5,8,0:0:0:0:
256,192,84354,5,0,0:0:0:0:
256,192,84484,5,8,0:0:0:0:
256,192,84614,5,8,0:0:0:0:
256,192,84873,5,0,0:0:0:0:
256,192,85003,5,8,0:0:0:0:
256,192,85133,5,0,0:0:0:0:
256,192,85263,5,8,0:0:0:0:
256,192,85393,5,8,0:0:0:0:
256,192,85783,5,8,0:0:0:0:
256,192,85912,5,8,0:0:0:0:
256,192,86042,5,0,0:0:0:0:
256,192,86302,5,8,0:0:0:0:
256,192,86432,5,8,0:0:0:0:
256,192,86562,5,0,0:0:0:0:
256,192,86692,5,0,0:0:0:0:
256,192,86822,5,8,0:0:0:0:
256,192,86886,5,8,0:0:0:0:
256,192,86951,5,8,0:0:0:0:
256,192,87081,5,0,0:0:0:0:
256,192,87277,5,0,0:0:0:0:
256,192,87669,5,0,0:0:0:0:
256,192,88061,5,0,0:0:0:0:
256,192,88257,5,8,0:0:0:0:
256,192,88355,5,8,0:0:0:0:
256,192,88453,5,8,0:0:0:0:
256,192,88649,5,4,0:0:0:0:
256,192,91002,5,4,0:0:0:0:
256,192,91198,5,8,0:0:0:0:
256,192,91296,5,8,0:0:0:0:
256,192,91394,5,8,0:0:0:0:
256,192,91590,5,4,0:0:0:0:
256,192,91982,5,4,0:0:0:0:
256,192,93355,5,0,0:0:0:0:
256,192,93453,5,0,0:0:0:0:
256,192,93551,5,8,0:0:0:0:
256,192,93747,5,8,0:0:0:0:
256,192,93943,5,0,0:0:0:0:
256,192,94041,5,0,0:0:0:0:
256,192,94139,5,8,0:0:0:0:
256,192,94433,5,4,0:0:0:0:
256,192,94728,5,12,0:0:0:0:
256,192,94924,5,4,0:0:0:0:
256,192,95708,5,8,0:0:0:0:
256,192,97277,5,8,0:0:0:0:
256,192,97669,5,8,0:0:0:0:
256,192,97865,5,4,0:0:0:0:
256,192,98257,5,0,0:0:0:0:
256,192,98453,5,8,0:0:0:0:
256,192,98551,5,8,0:0:0:0:
256,192,98649,5,0,0:0:0:0:
256,192,98845,5,8,0:0:0:0:
256,192,99041,5,0,0:0:0:0:
256,192,99139,5,0,0:0:0:0:
256,192,99237,5,8,0:0:0:0:
256,192,99433,5,8,0:0:0:0:
256,192,99630,5,0,0:0:0:0:
256,192,100218,5,0,0:0:0:0:
256,192,100414,5,12,0:0:0:0:
256,192,100708,5,12,0:0:0:0:
256,192,101002,5,12,0:0:0:0:
256,192,102767,5,4,0:0:0:0:
256,192,103061,5,0,0:0:0:0:
256,192,103355,5,0,0:0:0:0:
256,192,103551,5,8,0:0:0:0:
256,192,103649,1,0,0:0:0:0:
256,192,103943,5,0,0:0:0:0:
256,192,104237,5,0,0:0:0:0:
256,192,104531,5,0,0:0:0:0:
256,192,104826,5,0,0:0:0:0:
256,192,105120,5,8,0:0:0:0:
256,192,105512,5,0,0:0:0:0:
256,192,105708,5,0,0:0:0:0:
256,192,106100,5,0,0:0:0:0:
256,192,106394,5,0,0:0:0:0:
256,192,106688,5,8,0:0:0:0:
256,192,106982,5,0,0:0:0:0:
256,192,107277,5,0,0:0:0:0:
256,192,107473,5,0,0:0:0:0:
256,192,107571,5,0,0:0:0:0:
256,192,107669,5,0,0:0:0:0:
256,192,107865,5,0,0:0:0:0:
256,192,108061,5,0,0:0:0:0:
256,192,108159,5,0,0:0:0:0:
256,192,108257,5,8,0:0:0:0:
256,192,108551,5,0,0:0:0:0:
256,192,108845,5,8,0:0:0:0:
256,192,109041,5,0,0:0:0:0:
256,192,109335,5,0,0:0:0:0:
256,192,109630,5,0,0:0:0:0:
256,192,109826,5,8,0:0:0:0:
256,192,109924,5,0,0:0:0:0:
256,192,110218,5,0,0:0:0:0:
256,192,110512,5,8,0:0:0:0:
256,192,110806,5,0,0:0:0:0:
256,192,111100,5,0,0:0:0:0:
256,192,111296,5,0,0:0:0:0:
256,192,111394,5,8,0:0:0:0:
256,192,111982,5,0,0:0:0:0:
256,192,112375,5,0,0:0:0:0:
256,192,112669,5,8,0:0:0:0:
256,192,112865,5,0,0:0:0:0:
256,192,112963,5,8,0:0:0:0:
256,192,113257,5,0,0:0:0:0:
256,192,113551,5,8,0:0:0:0:
256,192,113747,5,0,0:0:0:0:
256,192,113845,5,0,0:0:0:0:
256,192,113943,5,8,0:0:0:0:
256,192,114139,5,8,0:0:0:0:
256,192,114335,5,0,0:0:0:0:
256,192,114433,5,0,0:0:0:0:
256,192,114531,5,8,0:0:0:0:
256,192,114826,5,8,0:0:0:0:
256,192,115120,1,0,0:0:0:0:
256,192,115316,5,8,0:0:0:0:
256,192,115512,5,0,0:0:0:0:
256,192,115610,5,0,0:0:0:0:
256,192,115708,5,8,0:0:0:0:
256,192,115904,5,0,0:0:0:0:
256,192,116100,5,8,0:0:0:0:
256,192,116492,5,8,0:0:0:0:
256,192,116688,5,0,0:0:0:0:
256,192,116786,5,0,0:0:0:0:
256,192,116884,5,8,0:0:0:0:
256,192,117081,5,0,0:0:0:0:
256,192,117277,5,8,0:0:0:0:
256,192,117473,5,0,0:0:0:0:
256,192,117669,5,8,0:0:0:0:
256,192,118257,5,8,0:0:0:0:
256,192,118453,5,8,0:0:0:0:
256,192,118649,5,0,0:0:0:0:
256,192,118747,5,0,0:0:0:0:
256,192,118845,5,8,0:0:0:0:
256,192,119041,5,0,0:0:0:0:
256,192,119237,5,8,0:0:0:0:
256,192,119531,5,8,0:0:0:0:
256,192,119630,5,8,0:0:0:0:
256,192,119826,5,0,0:0:0:0:
256,192,120022,5,8,0:0:0:0:
256,192,120218,5,0,0:0:0:0:
256,192,120316,5,0,0:0:0:0:
256,192,120414,5,8,0:0:0:0:
256,192,120610,5,8,0:0:0:0:
256,192,120806,5,8,0:0:0:0:
256,192,121002,5,8,0:0:0:0:
256,192,121100,5,8,0:0:0:0:
256,192,121198,5,8,0:0:0:0:
256,192,121590,5,8,0:0:0:0:
256,192,121884,5,0,0:0:0:0:
256,192,122179,5,8,0:0:0:0:
256,192,122375,5,8,0:0:0:0:
256,192,122473,5,0,0:0:0:0:
256,192,122767,5,8,0:0:0:0:
256,192,123061,5,0,0:0:0:0:
256,192,123355,5,8,0:0:0:0:
256,192,123649,5,0,0:0:0:0:
256,192,123845,5,0,0:0:0:0:
256,192,123943,5,8,0:0:0:0:
256,192,124335,5,8,0:0:0:0:
256,192,124531,5,12,0:0:0:0:
256,192,125331,5,4,0:0:0:0:
256,192,125931,5,0,0:0:0:0:
256,192,126231,5,0,0:0:0:0:
256,192,126531,5,12,0:0:0:0:
256,192,126831,1,0,0:0:0:0:
256,192,127131,5,0,0:0:0:0:
256,192,127581,5,0,0:0:0:0:
256,192,128031,5,0,0:0:0:0:
256,192,128331,5,0,0:0:0:0:
256,192,128531,5,8,0:0:0:0:
256,192,128731,5,8,0:0:0:0:
256,192,128931,5,8,0:0:0:0:
256,192,129231,5,8,0:0:0:0:
256,192,129531,5,4,0:0:0:0:
256,192,130431,5,0,0:0:0:0:
256,192,130731,5,12,0:0:0:0:
256,192,131031,5,0,0:0:0:0:
256,192,131331,5,4,0:0:0:0:
256,192,132231,5,0,0:0:0:0:
256,192,132531,5,12,0:0:0:0:
256,192,133131,5,4,0:0:0:0:
256,192,134031,5,0,0:0:0:0:
256,192,134331,5,12,0:0:0:0:
256,192,134631,5,8,0:0:0:0:
256,192,134931,5,4,0:0:0:0:
256,192,135831,5,8,0:0:0:0:
256,192,135981,5,8,0:0:0:0:
256,192,136131,5,0,0:0:0:0:
256,192,136431,5,0,0:0:0:0:
256,192,136731,5,4,0:0:0:0:
256,192,137631,5,0,0:0:0:0:
256,192,137931,5,12,0:0:0:0:
256,192,138231,5,0,0:0:0:0:
256,192,138531,5,4,0:0:0:0:
256,192,139431,5,0,0:0:0:0:
256,192,139731,5,12,0:0:0:0:
256,192,140331,5,4,0:0:0:0:
256,192,140931,5,8,0:0:0:0:
256,192,141231,5,8,0:0:0:0:
256,192,141531,5,12,0:0:0:0:
256,192,141831,5,0,0:0:0:0:
256,192,142131,5,4,0:0:0:0:
256,192,143031,5,12,0:0:0:0:
256,192,143631,5,0,0:0:0:0:
256,192,143931,5,4,0:0:0:0:
256,192,144231,12,0,152931,0:0:0:0:
