osu file format v14

[General]
AudioFilename: audio.mp3
AudioLeadIn: 0
PreviewTime: 63074
Countdown: 0
SampleSet: Normal
StackLeniency: 0.7
Mode: 1
LetterboxInBreaks: 0
WidescreenStoryboard: 1

[Editor]
Bookmarks: 34048,38204,46526,54827,63139,71451,79763,83918
DistanceSpacing: 0.1
BeatDivisor: 4
GridSize: 32
TimelineZoom: 2.000001

[Metadata]
Title:Juggernaut
TitleUnicode:Juggernaut
Artist:Sable Hills
ArtistUnicode:Sable Hills
Creator:Raiden
Version:Kantan
Source:
Tags:hardcore punk melodic metalcore english embers
BeatmapID:2587818
BeatmapSetID:1244973

[Difficulty]
HPDrainRate:8
CircleSize:2
OverallDifficulty:3
ApproachRate:10
SliderMultiplier:1.2
SliderTickRate:1

[Events]
//Background and Video events
0,0,"mtg_gloom_sower_by_chriscold_de18u32-fullview.jpg",0,35
//Break Periods
//Storyboard Layer 0 (Background)
//Storyboard Layer 1 (Fail)
//Storyboard Layer 2 (Pass)
//Storyboard Layer 3 (Foreground)
//Storyboard Layer 4 (Overlay)
//Storyboard Sound Samples

[TimingPoints]
848,259.74025974026,4,1,0,100,1,0
8835,-100,4,1,0,100,0,0
8964,-100,4,1,0,100,0,0
87081,392.156862745098,4,1,0,100,1,0
87081,-66.2251655629139,4,1,0,100,0,0
87277,-66.6666666666667,4,1,0,100,0,0
87669,-70.7070564228169,4,1,0,100,0,0
88061,-75.2688414845725,4,1,0,100,0,0
88257,-77.7777950617322,4,1,0,100,0,0
88355,-79.0960273229317,4,1,0,100,0,0
88453,-80.459779363193,4,1,0,100,0,0
88551,-81.8713163024621,4,1,0,100,0,0
88649,-83.3333333333333,4,1,0,100,0,0
124728,392.156862745098,4,1,0,100,1,8
125331,600,3,1,0,100,1,0
125331,-83.3333333333333,3,1,0,100,0,0
128931,600,3,1,0,100,1,8
128931,-83.3333333333333,3,1,0,100,0,0
129531,600,3,1,0,100,1,0
129531,-83.3333333333333,3,1,0,100,0,0
135681,-83.3333333333333,3,1,0,70,0,0
136281,-83.3333333333333,3,1,0,70,0,0
136581,-83.3333333333333,3,1,0,100,0,0
145731,-83.3333333333333,3,1,0,90,0,0
146331,-83.3333333333333,3,1,0,80,0,0
146931,-83.3333333333333,3,1,0,70,0,0
147531,-83.3333333333333,3,1,0,70,0,0
148131,-83.3333333333333,3,1,0,60,0,0
148731,-83.3333333333333,3,1,0,50,0,0
149331,-83.3333333333333,3,1,0,40,0,0

[HitObjects]
256,192,1886,5,8,0:0:0:0:
256,192,2276,5,8,0:0:0:0:
256,192,2666,5,0,0:0:0:0:
256,192,2925,5,12,0:0:0:0:
256,192,3964,5,12,0:0:0:0:
256,192,4354,5,12,0:0:0:0:
256,192,4744,5,8,0:0:0:0:
256,192,5003,5,4,0:0:0:0:
256,192,6822,5,8,0:0:0:0:
256,192,7081,5,4,0:0:0:0:
256,192,8899,5,12,0:0:0:0:
256,192,9159,5,0,0:0:0:0:
256,192,9549,5,8,0:0:0:0:
256,192,10198,5,0,0:0:0:0:
256,192,10588,5,8,0:0:0:0:
256,192,11237,5,0,0:0:0:0:
256,192,11627,5,8,0:0:0:0:
256,192,12276,5,12,0:0:0:0:
256,192,12666,5,12,0:0:0:0:
256,192,13315,5,8,0:0:0:0:
256,192,13964,5,0,0:0:0:0:
256,192,14354,5,8,0:0:0:0:
256,192,14744,5,0,0:0:0:0:
256,192,15393,5,0,0:0:0:0:
256,192,15653,5,8,0:0:0:0:
256,192,15912,5,8,0:0:0:0:
256,192,16822,5,8,0:0:0:0:
256,192,17471,5,0,0:0:0:0:
256,192,17731,5,8,0:0:0:0:
256,192,17990,5,0,0:0:0:0:
256,192,18510,5,8,0:0:0:0:
256,192,18899,5,8,0:0:0:0:
256,192,19549,5,0,0:0:0:0:
256,192,19809,5,8,0:0:0:0:
256,192,20068,5,8,0:0:0:0:
256,192,20588,5,0,0:0:0:0:
256,192,20977,5,8,0:0:0:0:
256,192,21627,5,8,0:0:0:0:
256,192,22016,5,8,0:0:0:0:
256,192,22666,5,0,0:0:0:0:
256,192,23055,5,8,0:0:0:0:
256,192,23705,5,0,0:0:0:0:
256,192,23964,5,8,0:0:0:0:
256,192,24224,5,0,0:0:0:0:
256,192,25263,5,8,0:0:0:0:
256,192,25523,5,0,0:0:0:0:
256,192,25783,5,0,0:0:0:0:
256,192,26432,5,8,0:0:0:0:
256,192,26822,5,8,0:0:0:0:
256,192,27211,5,8,0:0:0:0:
256,192,27860,5,0,0:0:0:0:
256,192,28380,5,0,0:0:0:0:
256,192,28899,5,12,0:0:0:0:
256,192,29809,5,8,0:0:0:0:
256,192,30458,5,8,0:0:0:0:
256,192,30977,5,0,0:0:0:0:
256,192,31886,5,12,0:0:0:0:
224,192,32536,5,8,0:0:0:0:
256,192,33055,5,0,0:0:0:0:
256,192,33315,5,8,0:0:0:0:
256,192,33575,5,8,0:0:0:0:
256,192,34094,5,0,0:0:0:0:
256,192,34354,5,8,0:0:0:0:
256,192,34744,5,0,0:0:0:0:
256,192,35133,5,8,0:0:0:0:
256,192,35912,5,8,0:0:0:0:
256,192,36172,5,0,0:0:0:0:
256,192,36692,5,0,0:0:0:0:
256,192,37211,5,12,0:0:0:0:
256,192,37601,5,12,0:0:0:0:
256,192,37990,5,12,0:0:0:0:
256,192,38250,5,4,0:0:0:0:
256,192,38770,5,12,0:0:0:0:
256,192,39159,5,0,0:0:0:0:
256,192,39809,5,8,0:0:0:0:
256,192,40328,5,8,0:0:0:0:
256,192,41107,5,0,0:0:0:0:
256,192,41367,5,8,0:0:0:0:
256,192,41886,5,8,0:0:0:0:
256,192,42146,5,0,0:0:0:0:
256,192,42666,1,0,0:0:0:0:
256,192,42925,5,8,0:0:0:0:
256,192,43705,5,0,0:0:0:0:
256,192,43964,5,8,0:0:0:0:
256,192,44484,5,0,0:0:0:0:
256,192,44744,5,8,0:0:0:0:
256,192,45003,5,8,0:0:0:0:
256,192,45523,5,0,0:0:0:0:
256,192,46042,5,8,0:0:0:0:
256,192,46562,5,0,0:0:0:0:
256,192,47081,5,12,0:0:0:0:
256,192,47471,5,0,0:0:0:0:
256,192,48120,5,8,0:0:0:0:
256,192,48640,5,8,0:0:0:0:
256,192,49419,5,0,0:0:0:0:
256,192,49679,5,8,0:0:0:0:
256,192,50198,5,8,0:0:0:0:
256,192,50458,5,0,0:0:0:0:
256,192,50718,5,0,0:0:0:0:
256,192,51237,5,8,0:0:0:0:
256,192,51627,5,4,0:0:0:0:
256,192,52016,5,4,0:0:0:0:
256,192,52276,5,12,0:0:0:0:
256,192,52796,5,0,0:0:0:0:
256,192,53055,5,8,0:0:0:0:
256,192,53315,5,8,0:0:0:0:
256,192,53835,5,0,0:0:0:0:
256,192,54354,5,8,0:0:0:0:
256,192,54873,5,0,0:0:0:0:
256,192,55912,5,8,0:0:0:0:
256,192,56302,5,8,0:0:0:0:
256,192,56692,5,8,0:0:0:0:
256,192,56951,5,0,0:0:0:0:
256,192,57341,5,8,0:0:0:0:
256,192,57990,5,12,0:0:0:0:
256,192,58380,5,12,0:0:0:0:
256,192,59029,5,8,0:0:0:0:
256,192,59679,5,0,0:0:0:0:
256,192,60068,5,8,0:0:0:0:
256,192,60458,5,0,0:0:0:0:
256,192,61107,5,0,0:0:0:0:
256,192,61367,5,8,0:0:0:0:
256,192,61627,5,8,0:0:0:0:
256,192,62406,5,8,0:0:0:0:
256,192,63185,5,4,0:0:0:0:
256,192,63445,5,8,0:0:0:0:
256,192,63705,5,0,0:0:0:0:
256,192,64224,5,8,0:0:0:0:
256,192,64614,5,8,0:0:0:0:
256,192,65263,5,0,0:0:0:0:
256,192,65523,5,8,0:0:0:0:
256,192,65783,5,8,0:0:0:0:
256,192,66302,5,0,0:0:0:0:
256,192,66692,5,8,0:0:0:0:
256,192,67341,5,8,0:0:0:0:
256,192,67731,5,8,0:0:0:0:
256,192,68380,5,0,0:0:0:0:
256,192,68770,5,8,0:0:0:0:
256,192,69419,5,0,0:0:0:0:
256,192,69679,5,8,0:0:0:0:
256,192,69938,5,0,0:0:0:0:
256,192,70977,5,8,0:0:0:0:
256,192,71237,5,0,0:0:0:0:
256,192,71497,5,0,0:0:0:0:
256,192,72146,5,8,0:0:0:0:
256,192,72536,5,8,0:0:0:0:
256,192,72925,5,8,0:0:0:0:
256,192,73575,5,0,0:0:0:0:
256,192,74094,5,0,0:0:0:0:
256,192,74614,5,8,0:0:0:0:
256,192,75523,5,8,0:0:0:0:
256,192,76172,5,8,0:0:0:0:
256,192,76692,5,0,0:0:0:0:
256,192,77601,5,12,0:0:0:0:
224,192,78250,5,8,0:0:0:0:
256,192,78770,5,0,0:0:0:0:
256,192,79029,5,8,0:0:0:0:
256,192,79289,5,8,0:0:0:0:
256,192,79809,5,0,0:0:0:0:
256,192,80068,5,8,0:0:0:0:
256,192,80458,5,0,0:0:0:0:
256,192,80848,5,8,0:0:0:0:
256,192,81627,5,8,0:0:0:0:
256,192,81886,5,0,0:0:0:0:
256,192,82406,5,0,0:0:0:0:
256,192,82925,5,8,0:0:0:0:
256,192,83315,5,8,0:0:0:0:
256,192,83705,5,8,0:0:0:0:
256,192,83964,5,4,0:0:0:0:
256,192,84484,5,8,0:0:0:0:
256,192,85003,5,8,0:0:0:0:
256,192,85263,5,8,0:0:0:0:
256,192,85523,5,0,0:0:0:0:
256,192,86042,5,0,0:0:0:0:
256,192,86562,5,8,0:0:0:0:
256,192,87081,5,8,0:0:0:0:
256,192,87669,5,0,0:0:0:0:
256,192,88257,5,8,0:0:0:0:
256,192,88649,5,4,0:0:0:0:
256,192,91002,5,4,0:0:0:0:
256,192,91590,5,4,0:0:0:0:
256,192,91982,5,4,0:0:0:0:
256,192,93355,5,0,0:0:0:0:
256,192,93747,5,8,0:0:0:0:
256,192,94139,5,8,0:0:0:0:
256,192,94924,5,4,0:0:0:0:
256,192,95708,5,8,0:0:0:0:
256,192,97277,5,8,0:0:0:0:
256,192,97865,5,4,0:0:0:0:
256,192,98453,5,8,0:0:0:0:
256,192,98845,5,8,0:0:0:0:
256,192,99237,5,8,0:0:0:0:
256,192,99630,5,0,0:0:0:0:
256,192,100414,5,12,0:0:0:0:
256,192,100708,5,12,0:0:0:0:
256,192,101002,5,12,0:0:0:0:
256,192,102767,5,4,0:0:0:0:
256,192,103551,5,8,0:0:0:0:
256,192,103943,5,0,0:0:0:0:
256,192,104531,5,0,0:0:0:0:
256,192,105120,5,8,0:0:0:0:
256,192,105512,5,0,0:0:0:0:
256,192,106100,5,0,0:0:0:0:
256,192,106688,5,8,0:0:0:0:
256,192,107473,5,0,0:0:0:0:
256,192,107865,5,8,0:0:0:0:
256,192,108257,5,8,0:0:0:0:
256,192,109041,5,0,0:0:0:0:
256,192,109826,5,8,0:0:0:0:
256,192,110218,5,0,0:0:0:0:
256,192,110806,5,0,0:0:0:0:
256,192,111394,5,8,0:0:0:0:
256,192,112375,5,0,0:0:0:0:
256,192,112963,5,8,0:0:0:0:
256,192,113551,5,0,0:0:0:0:
256,192,114139,5,8,0:0:0:0:
256,192,114531,5,8,0:0:0:0:
256,192,115316,5,8,0:0:0:0:
256,192,115708,5,8,0:0:0:0:
256,192,116100,5,8,0:0:0:0:
256,192,116492,5,0,0:0:0:0:
256,192,116884,5,8,0:0:0:0:
256,192,117669,5,8,0:0:0:0:
256,192,118453,5,8,0:0:0:0:
256,192,118845,5,0,0:0:0:0:
256,192,119237,5,8,0:0:0:0:
256,192,120022,5,8,0:0:0:0:
256,192,120414,5,8,0:0:0:0:
256,192,120806,5,8,0:0:0:0:
256,192,121590,5,0,0:0:0:0:
256,192,122179,5,8,0:0:0:0:
256,192,122767,5,8,0:0:0:0:
256,192,123355,5,8,0:0:0:0:
256,192,123943,5,8,0:0:0:0:
256,192,124531,5,12,0:0:0:0:
256,192,125331,5,4,0:0:0:0:
256,192,125931,5,0,0:0:0:0:
256,192,126531,5,12,0:0:0:0:
256,192,127131,5,0,0:0:0:0:
256,192,127581,5,0,0:0:0:0:
256,192,128031,5,0,0:0:0:0:
256,192,128331,5,8,0:0:0:0:
256,192,128931,5,8,0:0:0:0:
256,192,129231,5,8,0:0:0:0:
256,192,129531,5,4,0:0:0:0:
256,192,130431,5,0,0:0:0:0:
256,192,130731,5,12,0:0:0:0:
256,192,131331,5,4,0:0:0:0:
256,192,132231,5,0,0:0:0:0:
256,192,132531,5,12,0:0:0:0:
256,192,133131,5,4,0:0:0:0:
256,192,134031,5,0,0:0:0:0:
256,192,134331,5,12,0:0:0:0:
256,192,134931,5,4,0:0:0:0:
256,192,135831,5,12,0:0:0:0:
256,192,136731,5,4,0:0:0:0:
256,192,137631,5,0,0:0:0:0:
256,192,137931,5,12,0:0:0:0:
256,192,138531,5,4,0:0:0:0:
256,192,139431,5,0,0:0:0:0:
256,192,139731,5,12,0:0:0:0:
256,192,140331,5,4,0:0:0:0:
256,192,140931,5,8,0:0:0:0:
256,192,141231,5,8,0:0:0:0:
256,192,141531,5,12,0:0:0:0:
256,192,142131,5,4,0:0:0:0:
256,192,143031,5,12,0:0:0:0:
256,192,143631,5,0,0:0:0:0:
256,192,143931,5,4,0:0:0:0:
256,192,144231,12,0,152931,0:0:0:0:
