osu file format v14

[General]
AudioFilename: The Future of Warefare.mp3
AudioLeadIn: 0
PreviewTime: 45725
Countdown: 0
SampleSet: Soft
StackLeniency: 0.7
Mode: 3
LetterboxInBreaks: 0
SpecialStyle: 0
WidescreenStoryboard: 0

[Editor]
DistanceSpacing: 0.8
BeatDivisor: 4
GridSize: 32
TimelineZoom: 2.1

[Metadata]
Title:The Future of Warfare
TitleUnicode:The Future of Warfare
Artist:Sabaton
ArtistUnicode:Sabaton
Creator:storn42
Version:Mechanized Warfare
Source:
Tags:power heavy metal the great war WWI World War One rock english nuclear blast Joakim Brodén broden
BeatmapID:2278484
BeatmapSetID:1089835

[Difficulty]
HPDrainRate:8
CircleSize:4
OverallDifficulty:9
ApproachRate:5
SliderMultiplier:1.4
SliderTickRate:1

[Events]
//Background and Video events
0,0,"FWFBG.jpg",0,0
//Break Periods
//Storyboard Layer 0 (Background)
//Storyboard Layer 1 (Fail)
//Storyboard Layer 2 (Pass)
//Storyboard Layer 3 (Foreground)
//Storyboard Layer 4 (Overlay)
//Storyboard Sound Samples

[TimingPoints]
980,508.474576,4,2,1,60,1,0
45725,-100,4,2,2,60,0,0
61996,-100,4,2,1,60,0,1
78268,-100,4,2,1,60,0,0
102674,-100,4,2,2,60,0,0
118946,-100,4,2,1,60,0,1
135217,-100,4,2,1,70,0,0
139793,508.474576,4,2,1,70,1,0
142843,-100,4,2,1,60,0,0
144369,508.474576,4,2,1,60,1,0
168775,-100,4,2,1,60,0,1
193182,-100,4,2,2,60,0,0

[HitObjects]
64,192,9115,5,2,0:0:0:0:
192,192,9115,1,4,0:0:0:0:
448,192,9115,1,0,0:0:0:0:
320,192,9242,1,2,0:0:0:0:
448,192,9242,1,4,0:0:0:0:
64,192,9369,1,2,0:0:0:0:
320,192,9369,1,4,0:0:0:0:
64,192,9496,1,2,0:0:0:0:
192,192,9496,1,4,0:0:0:0:
192,192,9624,1,8,0:0:0:0:
320,192,9624,1,4,0:0:0:0:
448,192,9624,1,0,0:0:0:0:
64,192,9878,1,2,0:0:0:0:
192,192,9878,1,4,0:0:0:0:
64,192,10005,1,8,0:0:0:0:
320,192,10005,1,4,0:0:0:0:
448,192,10005,1,0,0:0:0:0:
64,192,10259,1,8,0:0:0:0:
320,192,10259,1,4,0:0:0:0:
448,192,10259,1,0,0:0:0:0:
64,192,13183,1,2,0:0:0:0:
320,192,13183,1,4,0:0:0:0:
192,192,13310,1,2,0:0:0:0:
320,192,13310,1,4,0:0:0:0:
192,192,13437,1,2,0:0:0:0:
448,192,13437,1,4,0:0:0:0:
64,192,13564,1,2,0:0:0:0:
192,192,13691,1,8,0:0:0:0:
320,192,13691,1,4,0:0:0:0:
448,192,13691,1,0,0:0:0:0:
192,192,13946,1,2,0:0:0:0:
320,192,13946,1,4,0:0:0:0:
64,192,14073,1,8,0:0:0:0:
320,192,14073,1,4,0:0:0:0:
448,192,14073,1,0,0:0:0:0:
64,192,15217,1,2,0:0:0:0:
448,192,15217,1,4,0:0:0:0:
64,192,15344,1,2,0:0:0:0:
320,192,15344,1,4,0:0:0:0:
192,192,15471,1,2,0:0:0:0:
448,192,15471,1,4,0:0:0:0:
192,192,15598,1,2,0:0:0:0:
320,192,15598,1,4,0:0:0:0:
64,192,15725,1,8,0:0:0:0:
192,192,15725,1,4,0:0:0:0:
448,192,15725,1,0,0:0:0:0:
64,192,15979,1,2,0:0:0:0:
192,192,15979,1,4,0:0:0:0:
192,192,16107,1,8,0:0:0:0:
320,192,16107,1,4,0:0:0:0:
448,192,16107,1,0,0:0:0:0:
192,192,16361,1,8,0:0:0:0:
320,192,16361,1,4,0:0:0:0:
448,192,16361,1,0,0:0:0:0:
64,192,19285,1,2,0:0:0:0:
192,192,19285,1,4,0:0:0:0:
64,192,19412,1,2,0:0:0:0:
320,192,19412,1,4,0:0:0:0:
320,192,19539,1,4,0:0:0:0:
448,192,19539,1,2,0:0:0:0:
64,192,19666,1,2,0:0:0:0:
448,192,19666,1,4,0:0:0:0:
64,192,19793,1,4,0:0:0:0:
192,192,19793,1,8,0:0:0:0:
320,192,19793,1,0,0:0:0:0:
320,192,20047,1,4,0:0:0:0:
448,192,20047,1,2,0:0:0:0:
64,192,20174,1,4,0:0:0:0:
192,192,20174,1,8,0:0:0:0:
448,192,20174,1,0,0:0:0:0:
64,192,20429,1,8,0:0:0:0:
192,192,20429,1,0,0:0:0:0:
64,192,20556,1,8,0:0:0:0:
192,192,20556,1,0,0:0:0:0:
320,192,20619,1,0,0:0:0:60:LR_Tom Hit 2.wav
448,192,20683,1,0,0:0:0:60:LR_Tom Hit 3.wav
192,192,20746,1,0,0:0:0:60:LR_Tom Hit 3.wav
448,192,20810,1,2,0:0:0:0:
320,192,20874,1,2,0:0:0:0:
64,192,20937,1,2,0:0:0:0:
192,192,21064,1,8,0:0:0:0:
448,192,21064,1,0,0:0:0:0:
192,192,21191,1,8,0:0:0:0:
448,192,21191,1,0,0:0:0:0:
64,192,21318,1,2,0:0:0:0:
448,192,21446,1,0,0:0:0:0:
64,192,21573,1,2,0:0:0:0:
64,192,21827,1,8,0:0:0:0:
320,192,21827,1,0,0:0:0:0:
192,192,21954,1,0,0:0:0:0:
448,192,22081,1,0,0:0:0:0:
64,192,22335,1,2,0:0:0:0:
448,192,22463,1,0,0:0:0:0:
64,192,22590,1,2,0:0:0:0:
64,192,22717,1,8,0:0:0:0:
192,192,22717,1,0,0:0:0:0:
320,192,22971,1,0,0:0:0:60:LR_Snare Drum .wav
64,192,23098,1,8,0:0:0:0:
448,192,23098,1,0,0:0:0:0:
64,192,23225,1,8,0:0:0:0:
448,192,23225,1,0,0:0:0:0:
192,192,23352,1,2,0:0:0:0:
320,192,23479,1,0,0:0:0:0:
192,192,23607,1,2,0:0:0:0:
192,192,23861,1,8,0:0:0:0:
320,192,23861,1,0,0:0:0:0:
64,192,23988,1,0,0:0:0:0:
448,192,24115,1,0,0:0:0:0:
192,192,24369,1,2,0:0:0:0:
320,192,24496,1,0,0:0:0:0:
192,192,24624,1,2,0:0:0:0:
192,192,24751,1,8,0:0:0:0:
448,192,24751,1,0,0:0:0:0:
64,192,25005,1,0,0:0:0:60:LR_Snare Drum .wav
320,192,25132,1,8,0:0:0:0:
448,192,25132,1,0,0:0:0:0:
320,192,25259,1,8,0:0:0:0:
448,192,25259,1,0,0:0:0:0:
64,192,25386,1,2,0:0:0:0:
448,192,25513,1,0,0:0:0:0:
64,192,25641,1,2,0:0:0:0:
64,192,25895,1,8,0:0:0:0:
448,192,25895,1,0,0:0:0:0:
192,192,26022,1,0,0:0:0:0:
320,192,26149,1,0,0:0:0:0:
448,192,26403,1,2,0:0:0:0:
192,192,26530,1,0,0:0:0:0:
448,192,26657,1,2,0:0:0:0:
64,192,26785,1,8,0:0:0:0:
448,192,26785,1,0,0:0:0:0:
320,192,27039,1,2,0:0:0:60:LR_Snare Drum .wav
64,192,27166,1,8,0:0:0:0:
192,192,27166,1,0,0:0:0:0:
448,192,27420,1,2,0:0:0:0:
320,192,27547,1,0,0:0:0:0:
448,192,27674,1,2,0:0:0:0:
192,192,27929,1,8,0:0:0:0:
448,192,27929,1,0,0:0:0:0:
64,192,28056,1,0,0:0:0:0:
320,192,28183,1,0,0:0:0:0:
448,192,28437,128,2,28564:0:0:0:0:
320,192,28564,128,0,28691:0:0:0:60:LR_Snare Drum .wav
192,192,28691,128,2,28818:0:0:0:0:
64,192,28818,128,8,29454:0:0:0:0:
448,192,28818,1,0,0:0:0:0:
320,192,29200,1,8,0:0:0:0:
448,192,29200,1,0,0:0:0:0:
320,192,29327,1,8,0:0:0:0:
448,192,29327,1,0,0:0:0:0:
192,192,29454,1,2,0:0:0:0:
192,192,29581,1,0,0:0:0:50:LR_Drum Kick Wet Fast.wav
192,192,29708,1,2,0:0:0:0:
64,192,29963,1,8,0:0:0:0:
448,192,29963,1,0,0:0:0:0:
448,192,30090,1,0,0:0:0:50:LR_Drum Kick Wet Fast.wav
448,192,30217,1,0,0:0:0:50:LR_Drum Kick Wet Fast.wav
64,192,30471,1,2,0:0:0:0:
320,192,30598,1,0,0:0:0:50:LR_Drum Kick Wet Fast.wav
192,192,30725,1,2,0:0:0:0:
64,192,30852,1,8,0:0:0:0:
320,192,30852,1,0,0:0:0:0:
448,192,30852,1,0,0:0:0:0:
64,192,31107,1,0,0:0:0:60:LR_Snare Drum .wav
64,192,31234,1,8,0:0:0:0:
448,192,31234,1,0,0:0:0:0:
64,192,31361,1,8,0:0:0:0:
448,192,31361,1,0,0:0:0:0:
320,192,31488,1,2,0:0:0:0:
320,192,31615,1,0,0:0:0:50:LR_Drum Kick Wet Fast.wav
320,192,31742,1,2,0:0:0:0:
64,192,31996,1,8,0:0:0:0:
192,192,31996,1,0,0:0:0:0:
64,192,32124,1,0,0:0:0:50:LR_Drum Kick Wet Fast.wav
64,192,32251,1,0,0:0:0:50:LR_Drum Kick Wet Fast.wav
192,192,32505,1,2,0:0:0:0:
448,192,32632,1,0,0:0:0:50:LR_Drum Kick Wet Fast.wav
320,192,32759,1,2,0:0:0:0:
64,192,32886,1,8,0:0:0:0:
192,192,32886,1,0,0:0:0:0:
448,192,32886,1,0,0:0:0:0:
192,192,33141,1,0,0:0:0:60:LR_Snare Drum .wav
320,192,33268,1,8,0:0:0:0:
448,192,33268,1,0,0:0:0:0:
320,192,33395,1,8,0:0:0:0:
448,192,33395,1,0,0:0:0:0:
64,192,33522,1,2,0:0:0:0:
64,192,33649,1,0,0:0:0:50:LR_Drum Kick Wet Fast.wav
64,192,33776,1,2,0:0:0:0:
192,192,34030,1,8,0:0:0:0:
448,192,34030,1,0,0:0:0:0:
192,192,34157,1,0,0:0:0:50:LR_Drum Kick Wet Fast.wav
192,192,34285,1,0,0:0:0:50:LR_Drum Kick Wet Fast.wav
320,192,34539,1,2,0:0:0:0:
64,192,34666,1,0,0:0:0:50:LR_Drum Kick Wet Fast.wav
448,192,34793,1,2,0:0:0:0:
64,192,34920,1,8,0:0:0:0:
192,192,34920,1,0,0:0:0:0:
320,192,34920,1,0,0:0:0:0:
192,192,35174,1,0,0:0:0:60:LR_Snare Drum .wav
192,192,35302,1,8,0:0:0:0:
320,192,35302,1,0,0:0:0:0:
192,192,35429,1,8,0:0:0:0:
320,192,35429,1,0,0:0:0:0:
448,192,35556,1,2,0:0:0:0:
448,192,35683,1,0,0:0:0:50:LR_Drum Kick Wet Fast.wav
448,192,35810,1,2,0:0:0:0:
192,192,36064,1,8,0:0:0:0:
320,192,36064,1,0,0:0:0:0:
192,192,36191,1,0,0:0:0:50:LR_Drum Kick Wet Fast.wav
192,192,36318,1,0,0:0:0:50:LR_Drum Kick Wet Fast.wav
64,192,36573,1,2,0:0:0:0:
448,192,36700,1,0,0:0:0:50:LR_Drum Kick Wet Fast.wav
192,192,36827,1,2,0:0:0:0:
64,192,36954,1,8,0:0:0:0:
320,192,36954,1,0,0:0:0:0:
448,192,36954,1,0,0:0:0:0:
192,192,37208,1,0,0:0:0:60:LR_Snare Drum .wav
64,192,37335,1,8,0:0:0:0:
448,192,37335,1,0,0:0:0:0:
64,192,37463,1,8,0:0:0:0:
448,192,37463,1,0,0:0:0:0:
320,192,37590,1,2,0:0:0:0:
320,192,37717,1,0,0:0:0:50:LR_Drum Kick Wet Fast.wav
320,192,37844,1,2,0:0:0:0:
64,192,38098,1,8,0:0:0:0:
448,192,38098,1,0,0:0:0:0:
64,192,38225,1,0,0:0:0:50:LR_Drum Kick Wet Fast.wav
64,192,38352,1,0,0:0:0:50:LR_Drum Kick Wet Fast.wav
448,192,38607,1,2,0:0:0:0:
64,192,38734,1,0,0:0:0:50:LR_Drum Kick Wet Fast.wav
320,192,38861,1,2,0:0:0:0:
64,192,38988,1,8,0:0:0:0:
192,192,38988,1,0,0:0:0:0:
448,192,38988,1,0,0:0:0:0:
192,192,39242,1,0,0:0:0:60:LR_Snare Drum .wav
192,192,39369,1,8,0:0:0:0:
320,192,39369,1,0,0:0:0:0:
192,192,39496,1,8,0:0:0:0:
320,192,39496,1,0,0:0:0:0:
448,192,39624,1,2,0:0:0:0:
448,192,39751,1,0,0:0:0:50:LR_Drum Kick Wet Fast.wav
448,192,39878,1,2,0:0:0:0:
64,192,40132,1,8,0:0:0:0:
320,192,40132,1,0,0:0:0:0:
320,192,40259,1,0,0:0:0:50:LR_Drum Kick Wet Fast.wav
320,192,40386,1,0,0:0:0:50:LR_Drum Kick Wet Fast.wav
64,192,40641,1,2,0:0:0:0:
448,192,40768,1,0,0:0:0:50:LR_Drum Kick Wet Fast.wav
192,192,40895,1,2,0:0:0:0:
64,192,41022,1,8,0:0:0:0:
320,192,41022,1,0,0:0:0:0:
448,192,41022,1,0,0:0:0:0:
192,192,41276,1,0,0:0:0:60:LR_Snare Drum .wav
64,192,41403,1,8,0:0:0:0:
448,192,41403,1,0,0:0:0:0:
64,192,41530,1,8,0:0:0:0:
448,192,41530,1,0,0:0:0:0:
320,192,41657,1,2,0:0:0:0:
320,192,41785,1,0,0:0:0:50:LR_Drum Kick Wet Fast.wav
320,192,41912,1,2,0:0:0:0:
64,192,42166,1,8,0:0:0:0:
448,192,42166,1,0,0:0:0:0:
64,192,42293,1,0,0:0:0:50:LR_Drum Kick Wet Fast.wav
64,192,42420,1,0,0:0:0:50:LR_Drum Kick Wet Fast.wav
320,192,42674,1,2,0:0:0:0:
64,192,42802,1,0,0:0:0:50:LR_Drum Kick Wet Fast.wav
448,192,42929,1,2,0:0:0:0:
64,192,43056,1,8,0:0:0:0:
192,192,43056,1,0,0:0:0:0:
320,192,43056,1,0,0:0:0:0:
64,192,43310,1,0,0:0:0:60:LR_Snare Drum .wav
64,192,43437,1,8,0:0:0:0:
448,192,43437,1,0,0:0:0:0:
64,192,43564,1,8,0:0:0:0:
448,192,43564,1,0,0:0:0:0:
320,192,43691,1,2,0:0:0:0:
320,192,43818,1,0,0:0:0:50:LR_Drum Kick Wet Fast.wav
320,192,43946,1,2,0:0:0:0:
64,192,44200,1,8,0:0:0:0:
192,192,44200,1,0,0:0:0:0:
64,192,44327,1,0,0:0:0:50:LR_Drum Kick Wet Fast.wav
64,192,44454,1,0,0:0:0:50:LR_Drum Kick Wet Fast.wav
320,192,44708,1,2,0:0:0:0:
448,192,44835,1,0,0:0:0:50:LR_Drum Kick Wet Fast.wav
192,192,44963,1,2,0:0:0:0:
64,192,45090,1,8,0:0:0:0:
320,192,45090,1,0,0:0:0:0:
448,192,45090,1,0,0:0:0:0:
320,192,45344,1,0,0:0:0:60:LR_Snare Drum .wav
64,192,45471,1,8,0:0:0:0:
192,192,45471,1,0,0:0:0:0:
64,192,45598,1,8,0:0:0:0:
192,192,45598,1,0,0:0:0:0:
320,192,45725,1,2,0:0:0:0:
448,192,45725,128,0,46488:0:0:0:0:
64,192,46488,128,2,46615:0:0:0:0:
192,192,46488,1,0,0:0:0:0:
320,192,46615,128,0,46742:0:0:0:0:
64,192,46742,1,8,0:0:0:0:
192,192,46742,128,0,46996:0:0:0:0:
448,192,46742,1,0,0:0:0:0:
64,192,46996,128,0,47124:0:0:0:0:
448,192,47124,128,0,47251:0:0:0:0:
192,192,47251,1,2,0:0:0:0:
320,192,47251,128,0,47505:0:0:0:0:
64,192,47505,128,0,47632:0:0:0:0:
320,192,47632,128,0,47759:0:0:0:0:
192,192,47759,1,2,0:0:0:0:
448,192,47759,128,0,48776:0:0:0:0:
320,192,48522,1,2,0:0:0:0:
64,192,48776,1,8,0:0:0:0:
192,192,48776,1,0,0:0:0:60:LR_Drum Kick Wet Fast.wav
320,192,48776,1,0,0:0:0:60:LR_Snare Drum .wav
320,192,49157,1,6,0:0:0:0:
448,192,49157,1,0,0:0:0:60:LR_Drum Kick Wet Fast.wav
192,192,49496,1,6,0:0:0:0:
320,192,49496,1,0,0:0:0:60:LR_Drum Kick Wet Fast.wav
64,192,49793,1,6,0:0:0:0:
320,192,49793,128,0,50556:0:0:0:60:LR_Drum Kick Wet Fast.wav
64,192,50556,1,2,0:0:0:0:
192,192,50556,128,0,50683:0:0:0:0:
448,192,50683,128,0,50810:0:0:0:0:
64,192,50810,1,8,0:0:0:0:
192,192,50810,1,0,0:0:0:0:
320,192,50810,128,0,51064:0:0:0:0:
192,192,51064,128,0,51191:0:0:0:0:
448,192,51191,128,0,51318:0:0:0:0:
64,192,51318,128,2,51573:0:0:0:0:
320,192,51318,1,0,0:0:0:0:
192,192,51573,128,0,51700:0:0:0:0:
320,192,51700,128,0,51827:0:0:0:0:
64,192,51827,128,2,52844:0:0:0:0:
448,192,51827,1,0,0:0:0:0:
448,192,52590,1,2,0:0:0:0:
192,192,52844,1,8,0:0:0:0:
320,192,52844,1,0,0:0:0:60:LR_Drum Kick Wet Fast.wav
448,192,52844,1,0,0:0:0:60:LR_Snare Drum .wav
64,192,53225,1,6,0:0:0:0:
320,192,53225,1,0,0:0:0:60:LR_Drum Kick Wet Fast.wav
320,192,53564,1,0,0:0:0:60:LR_Drum Kick Wet Fast.wav
192,192,53564,1,6,0:0:0:0:
192,192,53861,1,6,0:0:0:0:
448,192,53861,128,0,54624:0:0:0:60:LR_Drum Kick Wet Fast.wav
64,192,54624,128,2,54751:0:0:0:0:
192,192,54624,1,0,0:0:0:0:
320,192,54751,128,0,54878:0:0:0:0:
64,192,54878,1,8,0:0:0:0:
192,192,54878,128,0,55132:0:0:0:0:
448,192,54878,1,0,0:0:0:0:
64,192,55132,128,0,55259:0:0:0:0:
448,192,55259,128,0,55386:0:0:0:0:
192,192,55386,1,2,0:0:0:0:
320,192,55386,128,0,55641:0:0:0:0:
64,192,55641,128,0,55768:0:0:0:0:
320,192,55768,128,0,55895:0:0:0:0:
192,192,55895,1,2,0:0:0:0:
448,192,55895,128,0,56912:0:0:0:0:
64,192,56657,1,2,0:0:0:0:
64,192,56912,1,8,0:0:0:0:
192,192,56912,1,0,0:0:0:60:LR_Drum Kick Wet Fast.wav
320,192,56912,1,0,0:0:0:60:LR_Snare Drum .wav
320,192,57293,1,6,0:0:0:0:
448,192,57293,1,0,0:0:0:60:LR_Drum Kick Wet Fast.wav
192,192,57674,1,6,0:0:0:0:
320,192,57674,1,0,0:0:0:60:LR_Drum Kick Wet Fast.wav
64,192,57929,128,6,58818:0:0:0:0:
320,192,57929,1,0,0:0:0:60:LR_Drum Kick Wet Fast.wav
192,192,58437,1,8,0:0:0:0:
448,192,58437,1,0,0:0:0:0:
64,192,58946,128,2,59454:0:0:0:0:
448,192,58946,1,4,0:0:0:0:
192,192,59454,1,8,0:0:0:0:
320,192,59454,128,4,59963:0:0:0:0:
448,192,59454,1,0,0:0:0:0:
64,192,59708,1,8,0:0:0:0:
192,192,59708,1,0,0:0:0:0:
64,192,59835,1,8,0:0:0:0:
192,192,59835,1,0,0:0:0:0:
64,192,59963,1,2,0:0:0:0:
192,192,59963,1,4,0:0:0:0:
448,192,59963,1,0,0:0:0:0:
64,192,60344,1,2,0:0:0:0:
192,192,60344,1,4,0:0:0:0:
320,192,60344,1,0,0:0:0:0:
64,192,60725,1,2,0:0:0:0:
320,192,60725,1,4,0:0:0:0:
448,192,60725,1,0,0:0:0:0:
192,192,60979,1,2,0:0:0:0:
320,192,60979,1,4,0:0:0:0:
448,192,60979,1,0,0:0:0:0:
64,192,61234,1,2,0:0:0:0:
320,192,61297,1,2,0:0:0:0:
192,192,61361,1,2,0:0:0:0:
64,192,61488,1,8,0:0:0:0:
320,192,61488,1,0,0:0:0:0:
448,192,61615,1,2,0:0:0:0:
64,192,61742,1,8,0:0:0:0:
192,192,61742,1,0,0:0:0:0:
64,192,61869,1,8,0:0:0:0:
192,192,61869,1,0,0:0:0:0:
320,192,61996,1,4,0:0:0:0:
448,192,61996,1,2,0:0:0:0:
192,192,62124,1,4,0:0:0:0:
448,192,62124,1,2,0:0:0:0:
192,192,62251,1,4,0:0:0:0:
320,192,62251,1,2,0:0:0:0:
64,192,62378,1,4,0:0:0:0:
320,192,62378,1,2,0:0:0:0:
64,192,62505,1,4,0:0:0:0:
192,192,62505,1,8,0:0:0:0:
448,192,62505,1,0,0:0:0:0:
320,192,62759,1,4,0:0:0:0:
448,192,62759,1,2,0:0:0:0:
64,192,62886,1,4,0:0:0:0:
192,192,62886,1,8,0:0:0:0:
320,192,62886,1,0,0:0:0:0:
64,192,63141,1,4,0:0:0:0:
192,192,63141,1,8,0:0:0:0:
320,192,63141,1,0,0:0:0:0:
448,192,63395,1,2,0:0:0:0:
64,192,63522,1,8,0:0:0:0:
320,192,63522,1,0,0:0:0:0:
192,192,63649,1,2,0:0:0:0:
320,192,63776,1,2,0:0:0:0:
448,192,63903,1,2,0:0:0:0:
64,192,64030,1,2,0:0:0:0:
192,192,64030,1,4,0:0:0:0:
192,192,64157,1,2,0:0:0:0:
448,192,64157,1,4,0:0:0:0:
320,192,64285,1,2,0:0:0:0:
448,192,64285,1,4,0:0:0:0:
64,192,64412,1,2,0:0:0:0:
192,192,64539,1,4,0:0:0:0:
320,192,64539,1,8,0:0:0:0:
448,192,64539,1,0,0:0:0:0:
64,192,64793,1,4,0:0:0:0:
192,192,64793,1,2,0:0:0:0:
64,192,64920,1,4,0:0:0:0:
320,192,64920,1,8,0:0:0:0:
448,192,64920,1,0,0:0:0:0:
320,192,65174,1,8,0:0:0:0:
448,192,65174,1,0,0:0:0:0:
64,192,65429,1,2,0:0:0:0:
192,192,65556,1,8,0:0:0:0:
448,192,65556,1,0,0:0:0:0:
320,192,65683,1,2,0:0:0:0:
64,192,65810,1,2,0:0:0:0:
448,192,65937,1,2,0:0:0:0:
192,192,66064,1,4,0:0:0:0:
320,192,66064,1,2,0:0:0:0:
64,192,66191,1,4,0:0:0:0:
192,192,66191,1,2,0:0:0:0:
192,192,66318,1,4,0:0:0:0:
448,192,66318,1,2,0:0:0:0:
320,192,66446,1,4,0:0:0:0:
448,192,66446,1,2,0:0:0:0:
64,192,66573,1,4,0:0:0:0:
192,192,66573,1,8,0:0:0:0:
448,192,66573,1,0,0:0:0:0:
64,192,66827,1,4,0:0:0:0:
320,192,66827,1,2,0:0:0:0:
192,192,66954,1,4,0:0:0:0:
320,192,66954,1,8,0:0:0:0:
448,192,66954,1,0,0:0:0:0:
192,192,67208,1,4,0:0:0:0:
320,192,67208,1,8,0:0:0:0:
448,192,67208,1,0,0:0:0:0:
64,192,67463,1,2,0:0:0:0:
192,192,67590,1,8,0:0:0:0:
448,192,67590,1,0,0:0:0:0:
320,192,67717,1,2,0:0:0:0:
192,192,67844,1,2,0:0:0:0:
64,192,67971,1,2,0:0:0:0:
320,192,68098,1,2,0:0:0:0:
448,192,68098,1,4,0:0:0:0:
192,192,68225,1,2,0:0:0:0:
320,192,68225,1,4,0:0:0:0:
64,192,68352,1,2,0:0:0:0:
192,192,68352,1,4,0:0:0:0:
64,192,68479,1,2,0:0:0:0:
448,192,68479,1,4,0:0:0:0:
192,192,68607,1,4,0:0:0:0:
320,192,68607,1,8,0:0:0:0:
448,192,68607,1,0,0:0:0:0:
64,192,68861,1,4,0:0:0:0:
192,192,68861,1,2,0:0:0:0:
64,192,68988,1,4,0:0:0:0:
320,192,68988,1,8,0:0:0:0:
448,192,68988,1,0,0:0:0:0:
64,192,69242,1,8,0:0:0:0:
448,192,69242,1,0,0:0:0:0:
64,192,69496,1,2,0:0:0:0:
192,192,69624,1,8,0:0:0:0:
448,192,69624,1,0,0:0:0:0:
320,192,69751,1,2,0:0:0:0:
192,192,69878,1,8,0:0:0:0:
448,192,69878,1,0,0:0:0:0:
192,192,70005,1,8,0:0:0:0:
448,192,70005,1,0,0:0:0:0:
64,192,70132,1,4,0:0:0:0:
320,192,70132,1,2,0:0:0:0:
64,192,70259,1,4,0:0:0:0:
192,192,70259,1,2,0:0:0:0:
64,192,70386,1,4,0:0:0:0:
320,192,70386,1,2,0:0:0:0:
320,192,70513,1,4,0:0:0:0:
448,192,70513,1,2,0:0:0:0:
64,192,70641,1,4,0:0:0:0:
192,192,70641,1,8,0:0:0:0:
448,192,70641,1,0,0:0:0:0:
320,192,70895,1,4,0:0:0:0:
448,192,70895,1,2,0:0:0:0:
64,192,71022,1,4,0:0:0:0:
192,192,71022,1,8,0:0:0:0:
320,192,71022,1,0,0:0:0:0:
64,192,71276,1,4,0:0:0:0:
192,192,71276,1,8,0:0:0:0:
320,192,71276,1,0,0:0:0:0:
448,192,71530,1,2,0:0:0:0:
64,192,71657,1,8,0:0:0:0:
320,192,71657,1,0,0:0:0:0:
192,192,71785,1,2,0:0:0:0:
320,192,71912,1,2,0:0:0:0:
448,192,72039,1,2,0:0:0:0:
64,192,72166,1,2,0:0:0:0:
192,192,72166,1,4,0:0:0:0:
192,192,72293,1,2,0:0:0:0:
320,192,72293,1,4,0:0:0:0:
192,192,72420,1,2,0:0:0:0:
448,192,72420,1,4,0:0:0:0:
320,192,72547,1,2,0:0:0:0:
64,192,72674,1,4,0:0:0:0:
192,192,72674,1,8,0:0:0:0:
448,192,72674,1,0,0:0:0:0:
320,192,72929,1,4,0:0:0:0:
448,192,72929,1,2,0:0:0:0:
64,192,73056,1,4,0:0:0:0:
192,192,73056,1,8,0:0:0:0:
320,192,73056,1,0,0:0:0:0:
64,192,73310,1,8,0:0:0:0:
192,192,73310,1,0,0:0:0:0:
320,192,73564,1,2,0:0:0:0:
64,192,73691,1,8,0:0:0:0:
448,192,73691,1,0,0:0:0:0:
192,192,73818,1,2,0:0:0:0:
320,192,73946,1,2,0:0:0:0:
448,192,74073,1,2,0:0:0:0:
64,192,74200,1,4,0:0:0:0:
320,192,74200,1,2,0:0:0:0:
192,192,74327,1,4,0:0:0:0:
320,192,74327,1,2,0:0:0:0:
64,192,74454,1,4,0:0:0:0:
192,192,74454,1,2,0:0:0:0:
64,192,74581,1,4,0:0:0:0:
448,192,74581,1,2,0:0:0:0:
192,192,74708,1,4,0:0:0:0:
320,192,74708,1,8,0:0:0:0:
448,192,74708,1,0,0:0:0:0:
64,192,74963,1,4,0:0:0:0:
320,192,74963,1,2,0:0:0:0:
64,192,75090,1,4,0:0:0:0:
192,192,75090,1,8,0:0:0:0:
448,192,75090,1,0,0:0:0:0:
64,192,75344,1,4,0:0:0:0:
192,192,75344,1,8,0:0:0:0:
448,192,75344,1,0,0:0:0:0:
320,192,75598,1,2,0:0:0:0:
64,192,75725,1,8,0:0:0:0:
192,192,75725,1,0,0:0:0:0:
448,192,75852,1,2,0:0:0:0:
320,192,75979,1,2,0:0:0:0:
192,192,76107,1,2,0:0:0:0:
64,192,76234,1,2,0:0:0:0:
448,192,76234,1,4,0:0:0:0:
320,192,76361,1,2,0:0:0:0:
448,192,76361,1,4,0:0:0:0:
192,192,76488,1,2,0:0:0:0:
320,192,76488,1,4,0:0:0:0:
64,192,76615,1,2,0:0:0:0:
192,192,76615,1,4,0:0:0:0:
64,192,76742,1,4,0:0:0:0:
320,192,76742,1,8,0:0:0:0:
448,192,76742,1,0,0:0:0:0:
64,192,76996,1,4,0:0:0:0:
192,192,76996,1,2,0:0:0:0:
192,192,77124,1,4,0:0:0:0:
320,192,77124,1,8,0:0:0:0:
448,192,77124,1,0,0:0:0:0:
320,192,77378,1,8,0:0:0:0:
448,192,77378,1,0,0:0:0:0:
64,192,77632,1,2,0:0:0:0:
192,192,77759,1,8,0:0:0:0:
448,192,77759,1,0,0:0:0:0:
320,192,77886,1,2,0:0:0:0:
192,192,78013,1,8,0:0:0:0:
448,192,78013,1,0,0:0:0:0:
192,192,78141,1,8,0:0:0:0:
448,192,78141,1,0,0:0:0:0:
320,192,78268,1,2,0:0:0:0:
64,192,78395,1,0,0:0:0:0:
320,192,78522,1,2,0:0:0:0:
64,192,78776,1,8,0:0:0:0:
192,192,78776,1,0,0:0:0:0:
320,192,78903,1,0,0:0:0:0:
448,192,79030,1,0,0:0:0:0:
64,192,79157,1,8,0:0:0:0:
320,192,79285,1,2,0:0:0:0:
192,192,79412,1,0,0:0:0:0:
320,192,79539,1,2,0:0:0:0:
64,192,79666,1,8,0:0:0:0:
320,192,79666,1,0,0:0:0:0:
448,192,79920,1,0,0:0:0:60:LR_Snare Drum .wav
64,192,80047,1,8,0:0:0:0:
192,192,80047,1,0,0:0:0:0:
64,192,80174,1,8,0:0:0:0:
192,192,80174,1,0,0:0:0:0:
320,192,80302,1,2,0:0:0:0:
448,192,80429,1,0,0:0:0:0:
320,192,80556,1,2,0:0:0:0:
64,192,80810,1,8,0:0:0:0:
320,192,80810,1,0,0:0:0:0:
448,192,80937,1,0,0:0:0:0:
192,192,81064,1,0,0:0:0:0:
64,192,81318,1,2,0:0:0:0:
320,192,81446,1,0,0:0:0:0:
64,192,81573,1,2,0:0:0:0:
64,192,81700,1,8,0:0:0:0:
448,192,81700,1,0,0:0:0:0:
64,192,81954,1,0,0:0:0:40:LR_Snare Drum .wav
192,192,82081,1,8,0:0:0:0:
320,192,82081,1,0,0:0:0:0:
192,192,82208,1,8,0:0:0:0:
320,192,82208,1,0,0:0:0:0:
448,192,82335,1,2,0:0:0:0:
64,192,82463,1,0,0:0:0:0:
448,192,82590,1,2,0:0:0:0:
192,192,82844,1,8,0:0:0:0:
448,192,82844,1,0,0:0:0:0:
320,192,82971,1,0,0:0:0:0:
64,192,83098,1,0,0:0:0:0:
192,192,83352,1,2,0:0:0:0:
320,192,83479,1,0,0:0:0:0:
192,192,83607,1,2,0:0:0:0:
192,192,83734,1,8,0:0:0:0:
448,192,83734,1,0,0:0:0:0:
320,192,83988,1,0,0:0:0:40:LR_Snare Drum .wav
64,192,84115,1,8,0:0:0:0:
192,192,84115,1,0,0:0:0:0:
64,192,84242,1,8,0:0:0:0:
192,192,84242,1,0,0:0:0:0:
448,192,84369,1,2,0:0:0:0:
64,192,84496,1,0,0:0:0:0:
448,192,84624,1,2,0:0:0:0:
192,192,84878,1,8,0:0:0:0:
448,192,84878,1,0,0:0:0:0:
192,192,85132,1,8,0:0:0:0:
448,192,85132,1,0,0:0:0:0:
448,192,85386,128,2,85513:0:0:0:0:
320,192,85513,128,2,85641:0:0:0:0:
192,192,85641,128,2,85768:0:0:0:0:
64,192,85768,128,8,86403:0:0:0:0:
448,192,85768,1,0,0:0:0:0:
320,192,86022,1,0,0:0:0:0:
192,192,86149,1,8,0:0:0:0:
448,192,86149,1,0,0:0:0:0:
192,192,86276,1,8,0:0:0:0:
448,192,86276,1,0,0:0:0:0:
320,192,86403,1,2,0:0:0:0:
320,192,86530,1,2,0:0:0:0:
320,192,86657,1,2,0:0:0:0:
64,192,86912,1,8,0:0:0:0:
448,192,86912,1,0,0:0:0:0:
64,192,87039,1,2,0:0:0:0:
64,192,87166,1,2,0:0:0:0:
192,192,87420,1,2,0:0:0:0:
320,192,87547,1,2,0:0:0:0:
64,192,87674,1,2,0:0:0:0:
192,192,87802,1,8,0:0:0:0:
320,192,87802,1,0,0:0:0:0:
448,192,88056,1,2,0:0:0:0:
448,192,88183,1,2,0:0:0:0:
448,192,88310,1,2,0:0:0:0:
448,192,88437,1,2,0:0:0:0:
448,192,88564,1,2,0:0:0:0:
448,192,88691,1,2,0:0:0:0:
64,192,88946,1,8,0:0:0:0:
320,192,88946,1,0,0:0:0:0:
320,192,89073,1,2,0:0:0:0:
320,192,89200,1,2,0:0:0:0:
64,192,89454,1,2,0:0:0:0:
320,192,89581,1,2,0:0:0:0:
192,192,89708,1,2,0:0:0:0:
64,192,89835,1,8,0:0:0:0:
320,192,89835,1,0,0:0:0:0:
448,192,89835,1,0,0:0:0:0:
192,192,90090,1,8,0:0:0:0:
320,192,90090,1,0,0:0:0:0:
192,192,90217,1,8,0:0:0:0:
320,192,90217,1,0,0:0:0:0:
192,192,90344,1,8,0:0:0:0:
320,192,90344,1,0,0:0:0:0:
448,192,90471,1,2,0:0:0:0:
448,192,90598,1,2,0:0:0:0:
448,192,90725,1,2,0:0:0:0:
64,192,90979,1,8,0:0:0:0:
192,192,90979,1,0,0:0:0:0:
64,192,91107,1,2,0:0:0:0:
64,192,91234,1,2,0:0:0:0:
448,192,91488,1,2,0:0:0:0:
192,192,91615,1,2,0:0:0:0:
320,192,91742,1,2,0:0:0:0:
64,192,91869,1,8,0:0:0:0:
192,192,91869,1,0,0:0:0:0:
320,192,92124,1,2,0:0:0:0:
320,192,92251,1,2,0:0:0:0:
320,192,92378,1,2,0:0:0:0:
448,192,92505,1,2,0:0:0:0:
448,192,92632,1,2,0:0:0:0:
448,192,92759,1,2,0:0:0:0:
192,192,93013,1,8,0:0:0:0:
320,192,93013,1,0,0:0:0:0:
192,192,93141,1,2,0:0:0:0:
192,192,93268,1,2,0:0:0:0:
64,192,93522,1,2,0:0:0:0:
448,192,93649,1,2,0:0:0:0:
192,192,93776,1,2,0:0:0:0:
64,192,93903,1,8,0:0:0:0:
320,192,93903,1,0,0:0:0:0:
448,192,93903,1,0,0:0:0:0:
64,192,94157,1,0,0:0:0:60:LR_Snare Drum .wav
192,192,94285,1,8,0:0:0:0:
448,192,94285,1,0,0:0:0:0:
192,192,94412,1,8,0:0:0:0:
448,192,94412,1,0,0:0:0:0:
320,192,94539,1,2,0:0:0:0:
320,192,94666,1,2,0:0:0:0:
320,192,94793,1,2,0:0:0:0:
192,192,95047,1,8,0:0:0:0:
448,192,95047,1,0,0:0:0:0:
192,192,95174,1,2,0:0:0:0:
192,192,95302,1,2,0:0:0:0:
320,192,95556,1,2,0:0:0:0:
64,192,95683,1,2,0:0:0:0:
448,192,95810,1,2,0:0:0:0:
64,192,95937,1,8,0:0:0:0:
192,192,95937,1,0,0:0:0:0:
320,192,96191,1,2,0:0:0:0:
320,192,96318,1,2,0:0:0:0:
320,192,96446,1,2,0:0:0:0:
320,192,96573,1,2,0:0:0:0:
320,192,96700,1,2,0:0:0:0:
320,192,96827,1,2,0:0:0:0:
192,192,97081,1,8,0:0:0:0:
448,192,97081,1,0,0:0:0:0:
192,192,97208,1,2,0:0:0:0:
192,192,97335,1,2,0:0:0:0:
320,192,97590,1,2,0:0:0:0:
448,192,97717,1,2,0:0:0:0:
192,192,97844,1,2,0:0:0:0:
64,192,97971,1,8,0:0:0:0:
320,192,97971,1,0,0:0:0:0:
448,192,97971,1,0,0:0:0:0:
64,192,98352,1,8,0:0:0:0:
192,192,98352,1,0,0:0:0:0:
64,192,98479,1,8,0:0:0:0:
192,192,98479,1,0,0:0:0:0:
448,192,98607,1,2,0:0:0:0:
448,192,98734,1,2,0:0:0:0:
448,192,98861,1,2,0:0:0:0:
64,192,99115,1,8,0:0:0:0:
320,192,99115,1,0,0:0:0:0:
320,192,99242,1,2,0:0:0:0:
320,192,99369,1,2,0:0:0:0:
64,192,99624,1,2,0:0:0:0:
448,192,99751,1,2,0:0:0:0:
320,192,99878,1,2,0:0:0:0:
64,192,100005,1,8,0:0:0:0:
192,192,100005,1,0,0:0:0:0:
448,192,100005,1,0,0:0:0:0:
320,192,100259,1,0,0:0:0:60:LR_Snare Drum .wav
64,192,100386,1,8,0:0:0:0:
320,192,100386,1,0,0:0:0:0:
64,192,100513,1,8,0:0:0:0:
320,192,100513,1,0,0:0:0:0:
448,192,100641,1,2,0:0:0:0:
448,192,100768,1,2,0:0:0:0:
448,192,100895,1,2,0:0:0:0:
64,192,101149,1,2,0:0:0:0:
64,192,101276,1,2,0:0:0:0:
64,192,101403,1,2,0:0:0:0:
64,192,101657,1,8,0:0:0:0:
448,192,101657,1,0,0:0:0:0:
192,192,101785,1,2,0:0:0:0:
320,192,101912,1,2,0:0:0:0:
64,192,102039,1,8,0:0:0:0:
192,192,102039,1,0,0:0:0:0:
448,192,102039,1,0,0:0:0:0:
320,192,102293,1,8,0:0:0:0:
448,192,102293,1,0,0:0:0:0:
320,192,102420,1,8,0:0:0:0:
448,192,102420,1,0,0:0:0:0:
320,192,102547,1,8,0:0:0:0:
448,192,102547,1,0,0:0:0:0:
64,192,102674,1,2,0:0:0:0:
192,192,102674,128,0,103437:0:0:0:0:
64,192,103437,128,2,103564:0:0:0:0:
448,192,103437,1,0,0:0:0:0:
320,192,103564,128,0,103691:0:0:0:0:
64,192,103691,1,8,0:0:0:0:
192,192,103691,128,0,103946:0:0:0:0:
448,192,103691,1,0,0:0:0:0:
64,192,103946,128,0,104073:0:0:0:0:
448,192,104073,128,0,104200:0:0:0:0:
192,192,104200,1,2,0:0:0:0:
320,192,104200,128,0,104454:0:0:0:0:
64,192,104454,128,0,104581:0:0:0:0:
320,192,104581,128,0,104708:0:0:0:0:
192,192,104708,1,2,0:0:0:0:
448,192,104708,128,0,105725:0:0:0:0:
64,192,105471,1,2,0:0:0:0:
64,192,105725,1,8,0:0:0:0:
192,192,105725,1,4,0:0:0:0:
320,192,105725,1,0,0:0:0:60:LR_Drum Kick Wet Fast.wav
192,192,106107,1,6,0:0:0:0:
448,192,106107,1,0,0:0:0:60:LR_Drum Kick Wet Fast.wav
192,192,106446,1,6,0:0:0:0:
320,192,106446,1,0,0:0:0:60:LR_Drum Kick Wet Fast.wav
64,192,106742,128,6,107505:0:0:0:0:
192,192,106742,1,0,0:0:0:60:LR_Drum Kick Wet Fast.wav
192,192,107505,1,2,0:0:0:0:
320,192,107505,128,0,107632:0:0:0:0:
448,192,107632,128,0,107759:0:0:0:0:
64,192,107759,1,8,0:0:0:0:
192,192,107759,128,0,108013:0:0:0:0:
320,192,107759,1,0,0:0:0:0:
320,192,108013,128,0,108141:0:0:0:0:
448,192,108141,128,0,108268:0:0:0:0:
64,192,108268,128,2,108522:0:0:0:0:
192,192,108268,1,0,0:0:0:0:
192,192,108522,128,0,108649:0:0:0:0:
320,192,108649,128,0,108776:0:0:0:0:
64,192,108776,128,2,109793:0:0:0:0:
448,192,108776,1,0,0:0:0:0:
448,192,109539,1,2,0:0:0:0:
192,192,109793,1,8,0:0:0:0:
320,192,109793,1,0,0:0:0:60:LR_Drum Kick Wet Fast.wav
448,192,109793,1,0,0:0:0:60:LR_Snare Drum .wav
64,192,110174,1,6,0:0:0:0:
320,192,110174,1,0,0:0:0:60:LR_Drum Kick Wet Fast.wav
192,192,110556,1,6,0:0:0:0:
320,192,110556,1,0,0:0:0:60:LR_Drum Kick Wet Fast.wav
320,192,110810,1,6,0:0:0:0:
448,192,110810,128,0,111573:0:0:0:60:LR_Drum Kick Wet Fast.wav
64,192,111573,128,2,111700:0:0:0:0:
192,192,111573,1,0,0:0:0:0:
320,192,111700,128,0,111827:0:0:0:0:
64,192,111827,1,8,0:0:0:0:
192,192,111827,128,0,112081:0:0:0:0:
448,192,111827,1,0,0:0:0:0:
64,192,112081,128,0,112208:0:0:0:0:
448,192,112208,128,0,112335:0:0:0:0:
192,192,112335,1,2,0:0:0:0:
320,192,112335,128,0,112590:0:0:0:0:
64,192,112590,128,0,112717:0:0:0:0:
320,192,112717,128,0,112844:0:0:0:0:
192,192,112844,1,2,0:0:0:0:
448,192,112844,128,0,113861:0:0:0:0:
192,192,113607,1,2,0:0:0:0:
64,192,113861,1,8,0:0:0:40:
192,192,113861,1,0,0:0:0:60:LR_Drum Kick Wet Fast.wav
320,192,113861,1,0,0:0:0:60:LR_Snare Drum .wav
192,192,114242,1,6,0:0:0:0:
448,192,114242,1,0,0:0:0:60:LR_Drum Kick Wet Fast.wav
192,192,114560,1,6,0:0:0:0:
320,192,114560,1,0,0:0:0:60:LR_Drum Kick Wet Fast.wav
64,192,114878,1,6,0:0:0:0:
448,192,114878,128,0,115768:0:0:0:60:LR_Drum Kick Wet Fast.wav
64,192,115386,1,8,0:0:0:0:
192,192,115386,1,0,0:0:0:0:
320,192,115895,1,4,0:0:0:0:
448,192,115895,128,2,116403:0:0:0:0:
64,192,116403,1,4,0:0:0:0:
192,192,116403,1,8,0:0:0:0:
320,192,116403,128,0,116912:0:0:0:0:
64,192,116657,1,8,0:0:0:0:
192,192,116657,1,0,0:0:0:0:
64,192,116785,1,8,0:0:0:0:
192,192,116785,1,0,0:0:0:0:
64,192,116912,1,4,0:0:0:0:
192,192,116912,1,2,0:0:0:0:
448,192,116912,1,0,0:0:0:0:
64,192,117293,1,4,0:0:0:0:
192,192,117293,1,2,0:0:0:0:
320,192,117293,1,0,0:0:0:0:
192,192,117674,1,4,0:0:0:0:
320,192,117674,1,2,0:0:0:0:
448,192,117674,1,0,0:0:0:0:
64,192,117929,1,4,0:0:0:0:
320,192,117929,1,2,0:0:0:0:
448,192,117929,1,0,0:0:0:0:
64,192,118183,1,2,0:0:0:0:
192,192,118246,1,2,0:0:0:0:
320,192,118310,1,2,0:0:0:0:
64,192,118437,1,8,0:0:0:0:
448,192,118437,1,0,0:0:0:0:
320,192,118564,1,2,0:0:0:0:
192,192,118691,1,8,0:0:0:0:
448,192,118691,1,0,0:0:0:0:
192,192,118818,1,8,0:0:0:0:
448,192,118818,1,0,0:0:0:0:
64,192,118946,1,4,0:0:0:0:
320,192,118946,1,2,0:0:0:0:
192,192,119073,1,4,0:0:0:0:
320,192,119073,1,2,0:0:0:0:
64,192,119200,1,4,0:0:0:0:
192,192,119200,1,2,0:0:0:0:
64,192,119327,1,4,0:0:0:0:
448,192,119327,1,2,0:0:0:0:
64,192,119454,1,4,0:0:0:0:
320,192,119454,1,8,0:0:0:0:
448,192,119454,1,0,0:0:0:0:
192,192,119708,1,4,0:0:0:0:
320,192,119708,1,2,0:0:0:0:
64,192,119835,1,4,0:0:0:0:
192,192,119835,1,8,0:0:0:0:
448,192,119835,1,0,0:0:0:0:
64,192,120090,1,4,0:0:0:0:
192,192,120090,1,8,0:0:0:0:
448,192,120090,1,0,0:0:0:0:
320,192,120344,1,2,0:0:0:0:
64,192,120471,1,8,0:0:0:0:
448,192,120471,1,0,0:0:0:0:
192,192,120598,1,2,0:0:0:0:
320,192,120725,1,2,0:0:0:0:
448,192,120852,1,2,0:0:0:0:
64,192,120979,1,2,0:0:0:0:
192,192,120979,1,4,0:0:0:0:
192,192,121107,1,2,0:0:0:0:
448,192,121107,1,4,0:0:0:0:
320,192,121234,1,2,0:0:0:0:
448,192,121234,1,4,0:0:0:0:
64,192,121361,1,2,0:0:0:0:
192,192,121488,1,4,0:0:0:0:
320,192,121488,1,8,0:0:0:0:
448,192,121488,1,0,0:0:0:0:
64,192,121742,1,4,0:0:0:0:
192,192,121742,1,2,0:0:0:0:
64,192,121869,1,4,0:0:0:0:
320,192,121869,1,8,0:0:0:0:
448,192,121869,1,0,0:0:0:0:
320,192,122124,1,8,0:0:0:0:
448,192,122124,1,0,0:0:0:0:
64,192,122378,1,2,0:0:0:0:
192,192,122505,1,8,0:0:0:0:
448,192,122505,1,0,0:0:0:0:
320,192,122632,1,2,0:0:0:0:
64,192,122759,1,2,0:0:0:0:
448,192,122886,1,2,0:0:0:0:
64,192,123013,1,4,0:0:0:0:
320,192,123013,1,2,0:0:0:0:
192,192,123141,1,4,0:0:0:0:
320,192,123141,1,2,0:0:0:0:
320,192,123268,1,4,0:0:0:0:
448,192,123268,1,2,0:0:0:0:
64,192,123395,1,4,0:0:0:0:
448,192,123395,1,2,0:0:0:0:
64,192,123522,1,4,0:0:0:0:
192,192,123522,1,8,0:0:0:0:
320,192,123522,1,0,0:0:0:0:
64,192,123776,1,4,0:0:0:0:
448,192,123776,1,2,0:0:0:0:
192,192,123903,1,4,0:0:0:0:
320,192,123903,1,8,0:0:0:0:
448,192,123903,1,0,0:0:0:0:
192,192,124157,1,4,0:0:0:0:
320,192,124157,1,8,0:0:0:0:
448,192,124157,1,0,0:0:0:0:
64,192,124412,1,2,0:0:0:0:
192,192,124539,1,8,0:0:0:0:
448,192,124539,1,0,0:0:0:0:
320,192,124666,1,2,0:0:0:0:
192,192,124793,1,2,0:0:0:0:
448,192,124920,1,2,0:0:0:0:
64,192,125047,1,2,0:0:0:0:
320,192,125047,1,4,0:0:0:0:
64,192,125174,1,2,0:0:0:0:
192,192,125174,1,4,0:0:0:0:
192,192,125302,1,2,0:0:0:0:
448,192,125302,1,4,0:0:0:0:
320,192,125429,1,2,0:0:0:0:
448,192,125429,1,4,0:0:0:0:
64,192,125556,1,4,0:0:0:0:
192,192,125556,1,8,0:0:0:0:
448,192,125556,1,0,0:0:0:0:
192,192,125810,1,4,0:0:0:0:
320,192,125810,1,2,0:0:0:0:
64,192,125937,1,4,0:0:0:0:
320,192,125937,1,8,0:0:0:0:
448,192,125937,1,0,0:0:0:0:
64,192,126191,1,8,0:0:0:0:
320,192,126191,1,0,0:0:0:0:
192,192,126446,1,2,0:0:0:0:
64,192,126573,1,8,0:0:0:0:
448,192,126573,1,0,0:0:0:0:
320,192,126700,1,2,0:0:0:0:
192,192,126763,1,2,0:0:0:0:
64,192,126827,1,8,0:0:0:0:
448,192,126827,1,0,0:0:0:0:
64,192,126954,1,8,0:0:0:0:
448,192,126954,1,0,0:0:0:0:
192,192,127081,1,4,0:0:0:0:
320,192,127081,1,2,0:0:0:0:
320,192,127208,1,4,0:0:0:0:
448,192,127208,1,2,0:0:0:0:
64,192,127335,1,4,0:0:0:0:
448,192,127335,1,2,0:0:0:0:
64,192,127463,1,4,0:0:0:0:
192,192,127463,1,2,0:0:0:0:
64,192,127590,1,4,0:0:0:0:
320,192,127590,1,8,0:0:0:0:
448,192,127590,1,0,0:0:0:0:
192,192,127844,1,4,0:0:0:0:
448,192,127844,1,2,0:0:0:0:
64,192,127971,1,4,0:0:0:0:
192,192,127971,1,8,0:0:0:0:
320,192,127971,1,0,0:0:0:0:
64,192,128225,1,4,0:0:0:0:
192,192,128225,1,8,0:0:0:0:
320,192,128225,1,0,0:0:0:0:
448,192,128479,1,2,0:0:0:0:
64,192,128607,1,8,0:0:0:0:
320,192,128607,1,0,0:0:0:0:
192,192,128734,1,2,0:0:0:0:
448,192,128861,1,2,0:0:0:0:
64,192,128988,1,2,0:0:0:0:
192,192,129115,1,2,0:0:0:0:
320,192,129115,1,4,0:0:0:0:
320,192,129242,1,2,0:0:0:0:
448,192,129242,1,4,0:0:0:0:
64,192,129369,1,2,0:0:0:0:
448,192,129369,1,4,0:0:0:0:
320,192,129496,1,2,0:0:0:0:
64,192,129624,1,4,0:0:0:0:
192,192,129624,1,8,0:0:0:0:
448,192,129624,1,0,0:0:0:0:
192,192,129878,1,4,0:0:0:0:
320,192,129878,1,2,0:0:0:0:
64,192,130005,1,4,0:0:0:0:
320,192,130005,1,8,0:0:0:0:
448,192,130005,1,0,0:0:0:0:
64,192,130259,1,8,0:0:0:0:
448,192,130259,1,0,0:0:0:0:
320,192,130513,1,2,0:0:0:0:
64,192,130641,1,8,0:0:0:0:
192,192,130641,1,0,0:0:0:0:
448,192,130768,1,2,0:0:0:0:
64,192,130895,1,2,0:0:0:0:
192,192,131022,1,2,0:0:0:0:
320,192,131149,1,4,0:0:0:0:
448,192,131149,1,2,0:0:0:0:
64,192,131276,1,4,0:0:0:0:
448,192,131276,1,2,0:0:0:0:
64,192,131403,1,4,0:0:0:0:
192,192,131403,1,2,0:0:0:0:
192,192,131530,1,4,0:0:0:0:
448,192,131530,1,2,0:0:0:0:
64,192,131657,1,4,0:0:0:0:
320,192,131657,1,8,0:0:0:0:
448,192,131657,1,0,0:0:0:0:
192,192,131912,1,4,0:0:0:0:
320,192,131912,1,2,0:0:0:0:
64,192,132039,1,4,0:0:0:0:
192,192,132039,1,8,0:0:0:0:
448,192,132039,1,0,0:0:0:0:
64,192,132293,1,4,0:0:0:0:
192,192,132293,1,8,0:0:0:0:
448,192,132293,1,0,0:0:0:0:
64,192,132547,1,2,0:0:0:0:
192,192,132674,1,8,0:0:0:0:
448,192,132674,1,0,0:0:0:0:
320,192,132802,1,2,0:0:0:0:
64,192,132929,1,2,0:0:0:0:
448,192,133056,1,2,0:0:0:0:
192,192,133183,1,2,0:0:0:0:
320,192,133183,1,4,0:0:0:0:
64,192,133310,1,2,0:0:0:0:
192,192,133310,1,4,0:0:0:0:
192,192,133437,1,2,0:0:0:0:
448,192,133437,1,4,0:0:0:0:
320,192,133564,1,2,0:0:0:0:
448,192,133564,1,4,0:0:0:0:
64,192,133691,1,4,0:0:0:0:
192,192,133691,1,8,0:0:0:0:
320,192,133691,1,0,0:0:0:0:
64,192,133946,1,4,0:0:0:0:
448,192,133946,1,2,0:0:0:0:
192,192,134073,1,4,0:0:0:0:
320,192,134073,1,8,0:0:0:0:
448,192,134073,1,0,0:0:0:0:
192,192,134327,1,8,0:0:0:0:
448,192,134327,1,0,0:0:0:0:
64,192,134581,1,2,0:0:0:0:
192,192,134708,1,8,0:0:0:0:
320,192,134708,1,0,0:0:0:0:
448,192,134835,1,2,0:0:0:0:
64,192,134963,1,8,0:0:0:0:
192,192,134963,1,0,0:0:0:0:
64,192,135090,1,8,0:0:0:0:
192,192,135090,1,0,0:0:0:0:
64,192,135217,1,2,0:0:0:0:
320,192,135217,1,8,0:0:0:0:
448,192,135217,1,0,0:0:0:0:
64,192,135344,1,2,0:0:0:0:
320,192,135344,1,8,0:0:0:0:
448,192,135344,1,0,0:0:0:0:
64,192,135471,1,2,0:0:0:0:
320,192,135471,1,8,0:0:0:0:
448,192,135471,1,0,0:0:0:0:
192,192,135725,1,8,0:0:0:0:
320,192,135725,1,2,0:0:0:0:
448,192,135725,1,0,0:0:0:0:
192,192,135852,1,8,0:0:0:0:
320,192,135852,1,2,0:0:0:0:
448,192,135852,1,0,0:0:0:0:
192,192,135979,1,8,0:0:0:0:
320,192,135979,1,2,0:0:0:0:
448,192,135979,1,0,0:0:0:0:
64,192,136234,1,2,0:0:0:0:
192,192,136234,1,8,0:0:0:0:
320,192,136234,1,0,0:0:0:0:
192,192,136361,1,8,0:0:0:0:
320,192,136361,1,2,0:0:0:0:
448,192,136361,1,0,0:0:0:0:
64,192,136488,1,2,0:0:0:0:
320,192,136488,1,8,0:0:0:0:
448,192,136488,1,0,0:0:0:0:
64,192,136615,1,2,0:0:0:0:
192,192,136615,1,8,0:0:0:0:
448,192,136615,1,0,0:0:0:0:
64,192,136869,1,8,0:0:0:0:
320,192,136869,1,2,0:0:0:0:
448,192,136869,1,0,0:0:0:0:
64,192,136996,1,2,0:0:0:0:
320,192,136996,1,8,0:0:0:0:
448,192,136996,1,0,0:0:0:0:
64,192,137124,1,2,0:0:0:0:
320,192,137124,1,8,0:0:0:0:
448,192,137124,1,0,0:0:0:0:
64,192,137251,1,8,0:0:0:0:
320,192,137251,1,2,0:0:0:0:
448,192,137251,1,0,0:0:0:0:
64,192,137378,1,2,0:0:0:0:
320,192,137378,1,8,0:0:0:0:
448,192,137378,1,0,0:0:0:0:
64,192,137505,1,8,0:0:0:0:
320,192,137505,1,2,0:0:0:0:
448,192,137505,1,0,0:0:0:0:
64,192,137759,1,8,0:0:0:0:
192,192,137759,1,2,0:0:0:0:
448,192,137759,1,0,0:0:0:0:
64,192,137886,1,2,0:0:0:0:
192,192,137886,1,8,0:0:0:0:
448,192,137886,1,0,0:0:0:0:
64,192,138013,1,8,0:0:0:0:
192,192,138013,1,2,0:0:0:0:
448,192,138013,1,0,0:0:0:0:
192,192,138268,1,2,0:0:0:0:
320,192,138268,1,8,0:0:0:0:
448,192,138268,1,0,0:0:0:0:
64,192,138395,1,8,0:0:0:0:
320,192,138395,1,2,0:0:0:0:
448,192,138395,1,0,0:0:0:0:
64,192,138522,1,8,0:0:0:0:
192,192,138522,1,2,0:0:0:0:
448,192,138522,1,0,0:0:0:0:
64,192,138649,1,8,0:0:0:0:
192,192,138649,1,2,0:0:0:0:
320,192,138649,1,0,0:0:0:0:
448,192,138649,1,0,0:0:0:0:
64,192,139793,1,2,0:0:0:0:
192,192,139793,1,8,0:0:0:0:
448,192,139793,1,0,0:0:0:0:
64,192,139920,1,8,0:0:0:0:
192,192,139920,1,2,0:0:0:0:
448,192,139920,1,0,0:0:0:0:
64,192,140047,1,2,0:0:0:0:
192,192,140047,1,8,0:0:0:0:
448,192,140047,1,0,0:0:0:0:
448,192,140174,1,8,0:0:0:0:
64,192,140301,1,8,0:0:0:0:
192,192,140301,1,2,0:0:0:0:
320,192,140301,1,0,0:0:0:0:
64,192,140428,1,2,0:0:0:0:
192,192,140428,1,8,0:0:0:0:
320,192,140428,1,0,0:0:0:0:
64,192,140555,1,8,0:0:0:0:
192,192,140555,1,2,0:0:0:0:
320,192,140555,1,0,0:0:0:0:
64,192,140809,1,2,0:0:0:0:
320,192,140809,1,8,0:0:0:0:
448,192,140809,1,0,0:0:0:0:
64,192,140937,1,8,0:0:0:0:
192,192,140937,1,2,0:0:0:0:
448,192,140937,1,0,0:0:0:0:
192,192,141064,1,8,0:0:0:0:
320,192,141064,1,2,0:0:0:0:
448,192,141064,1,0,0:0:0:0:
64,192,141191,1,8,0:0:0:0:
192,192,141191,1,2,0:0:0:0:
320,192,141191,1,0,0:0:0:0:
320,192,141318,1,8,0:0:0:0:
64,192,141445,1,2,0:0:0:0:
192,192,141445,1,8,0:0:0:0:
448,192,141445,1,0,0:0:0:0:
64,192,141572,1,8,0:0:0:0:
192,192,141572,1,2,0:0:0:0:
448,192,141572,1,0,0:0:0:0:
64,192,141699,1,2,0:0:0:0:
192,192,141699,1,8,0:0:0:0:
448,192,141699,1,0,0:0:0:0:
64,192,141826,1,8,0:0:0:0:
192,192,141826,1,2,0:0:0:0:
448,192,141826,1,0,0:0:0:0:
64,192,141954,1,2,0:0:0:0:
192,192,141954,1,8,0:0:0:0:
448,192,141954,1,0,0:0:0:0:
64,192,142081,1,8,0:0:0:0:
192,192,142081,1,2,0:0:0:0:
448,192,142081,1,0,0:0:0:0:
64,192,142335,1,8,0:0:0:0:
320,192,142335,1,2,0:0:0:0:
448,192,142335,1,0,0:0:0:0:
64,192,142462,1,2,0:0:0:0:
320,192,142462,1,8,0:0:0:0:
448,192,142462,1,0,0:0:0:0:
64,192,142589,1,8,0:0:0:0:
320,192,142589,1,2,0:0:0:0:
448,192,142589,1,0,0:0:0:0:
64,192,142716,1,8,0:0:0:0:
192,192,142843,1,8,0:0:0:0:
320,192,142843,1,2,0:0:0:0:
448,192,142843,1,0,0:0:0:0:
64,192,142970,1,8,0:0:0:0:
320,192,142970,1,2,0:0:0:0:
448,192,142970,1,0,0:0:0:0:
192,192,143098,1,2,0:0:0:0:
448,192,143098,1,0,0:0:0:0:
64,192,143225,1,8,0:0:0:0:
192,192,143225,1,0,0:0:0:0:
320,192,143225,1,0,0:0:0:0:
448,192,143352,1,2,0:0:0:0:
64,192,143479,1,8,0:0:0:0:
320,192,143479,1,0,0:0:0:0:
192,192,143606,1,2,0:0:0:0:
448,192,143733,1,2,0:0:0:0:
64,192,143860,1,2,0:0:0:0:
320,192,143987,1,8,0:0:0:0:
448,192,143987,1,0,0:0:0:0:
320,192,144115,1,8,0:0:0:0:
448,192,144115,1,0,0:0:0:0:
320,192,144242,1,8,0:0:0:0:
448,192,144242,1,0,0:0:0:0:
192,192,144369,1,2,0:0:0:0:
64,192,144496,1,2,0:0:0:0:
448,192,144623,1,2,0:0:0:0:
192,192,144750,1,2,0:0:0:0:
320,192,144877,1,8,0:0:0:0:
448,192,144877,1,0,0:0:0:0:
64,192,145004,1,2,0:0:0:0:
192,192,145131,1,2,0:0:0:0:
320,192,145216,1,2,0:0:0:0:
64,192,145258,1,8,0:0:0:0:
448,192,145258,1,0,0:0:0:0:
192,192,145301,1,2,0:0:0:0:
320,192,145385,1,2,0:0:0:0:
64,192,145513,1,8,0:0:0:0:
448,192,145513,1,0,0:0:0:0:
192,192,145640,1,2,0:0:0:0:
320,192,145767,1,2,0:0:0:0:
192,192,145894,1,8,0:0:0:0:
448,192,145894,1,0,0:0:0:0:
64,192,146021,1,2,0:0:0:0:
320,192,146148,1,2,0:0:0:0:
64,192,146212,1,2,0:0:0:0:
192,192,146275,1,2,0:0:0:0:
448,192,146339,1,2,0:0:0:0:
64,192,146402,1,2,0:0:0:0:
192,192,146402,1,0,0:0:0:0:
320,192,146530,1,2,0:0:0:0:
64,192,146657,1,2,0:0:0:0:
192,192,146784,1,2,0:0:0:0:
320,192,146911,1,8,0:0:0:0:
448,192,146911,1,0,0:0:0:0:
64,192,147038,1,2,0:0:0:0:
320,192,147102,1,2,0:0:0:0:
192,192,147165,1,2,0:0:0:0:
448,192,147229,1,2,0:0:0:0:
64,192,147292,1,8,0:0:0:0:
192,192,147292,1,0,0:0:0:0:
448,192,147419,1,2,0:0:0:0:
64,192,147546,1,8,0:0:0:0:
192,192,147546,1,0,0:0:0:0:
448,192,147674,1,2,0:0:0:0:
192,192,147801,1,2,0:0:0:0:
320,192,147928,1,0,0:0:0:0:
64,192,147928,1,8,0:0:0:0:
448,192,148055,1,2,0:0:0:0:
192,192,148182,1,2,0:0:0:0:
320,192,148267,1,2,0:0:0:0:
64,192,148352,1,2,0:0:0:0:
192,192,148436,1,2,0:0:0:0:
448,192,148436,1,0,0:0:0:0:
320,192,148563,1,2,0:0:0:0:
64,192,148691,1,2,0:0:0:0:
192,192,148818,1,2,0:0:0:0:
320,192,148945,1,8,0:0:0:0:
448,192,148945,1,0,0:0:0:0:
192,192,149072,1,2,0:0:0:0:
64,192,149199,1,2,0:0:0:0:
320,192,149284,1,2,0:0:0:0:
192,192,149326,1,8,0:0:0:0:
448,192,149326,1,0,0:0:0:0:
64,192,149368,1,2,0:0:0:0:
320,192,149453,1,2,0:0:0:0:
192,192,149580,1,8,0:0:0:0:
448,192,149580,1,0,0:0:0:0:
64,192,149707,1,2,0:0:0:0:
320,192,149835,1,2,0:0:0:0:
192,192,149962,1,0,0:0:0:0:
64,192,149962,1,8,0:0:0:0:
448,192,150089,1,2,0:0:0:0:
320,192,150165,1,2,0:0:0:0:
64,192,150241,1,2,0:0:0:0:
448,192,150318,1,2,0:0:0:0:
192,192,150394,1,2,0:0:0:0:
64,192,150470,1,2,0:0:0:0:
448,192,150470,1,0,0:0:0:0:
320,192,150597,1,2,0:0:0:0:
192,192,150724,1,2,0:0:0:0:
64,192,150852,1,2,0:0:0:0:
320,192,150979,1,8,0:0:0:0:
448,192,150979,1,0,0:0:0:0:
192,192,151106,1,2,0:0:0:0:
448,192,151233,1,2,0:0:0:0:
64,192,151318,1,2,0:0:0:0:
320,192,151360,1,0,0:0:0:0:
192,192,151360,1,8,0:0:0:0:
448,192,151402,1,2,0:0:0:0:
64,192,151487,1,2,0:0:0:0:
192,192,151614,1,8,0:0:0:0:
320,192,151614,1,0,0:0:0:0:
448,192,151741,1,2,0:0:0:0:
192,192,151868,1,2,0:0:0:0:
64,192,151996,1,8,0:0:0:0:
448,192,151996,1,0,0:0:0:0:
320,192,152123,1,2,0:0:0:0:
64,192,152250,1,8,0:0:0:0:
192,192,152250,1,0,0:0:0:0:
64,192,152377,1,8,0:0:0:0:
192,192,152377,1,0,0:0:0:0:
192,192,152504,1,2,0:0:0:0:
448,192,152504,1,0,0:0:0:0:
320,192,152631,1,2,0:0:0:0:
64,192,152758,1,2,0:0:0:0:
192,192,152885,1,2,0:0:0:0:
320,192,153013,1,8,0:0:0:0:
448,192,153013,1,0,0:0:0:0:
64,192,153140,1,2,0:0:0:0:
448,192,153267,1,2,0:0:0:0:
192,192,153330,1,2,0:0:0:0:
320,192,153394,1,0,0:0:0:0:
64,192,153394,1,8,0:0:0:0:
192,192,153521,1,2,0:0:0:0:
320,192,153648,1,0,0:0:0:0:
64,192,153648,1,8,0:0:0:0:
448,192,153775,1,2,0:0:0:0:
192,192,153902,1,2,0:0:0:0:
320,192,154030,1,8,0:0:0:0:
448,192,154030,1,0,0:0:0:0:
192,192,154157,1,2,0:0:0:0:
448,192,154284,1,2,0:0:0:0:
320,192,154368,1,2,0:0:0:0:
64,192,154453,1,2,0:0:0:0:
192,192,154538,1,2,0:0:0:0:
320,192,154538,1,0,0:0:0:0:
448,192,154665,1,2,0:0:0:0:
64,192,154792,1,2,0:0:0:0:
192,192,154919,1,2,0:0:0:0:
320,192,155046,1,8,0:0:0:0:
448,192,155046,1,0,0:0:0:0:
192,192,155174,1,2,0:0:0:0:
64,192,155301,1,2,0:0:0:0:
448,192,155385,1,2,0:0:0:0:
192,192,155428,1,8,0:0:0:0:
320,192,155428,1,0,0:0:0:0:
64,192,155470,1,2,0:0:0:0:
448,192,155555,1,2,0:0:0:0:
192,192,155682,1,8,0:0:0:0:
320,192,155682,1,0,0:0:0:0:
64,192,155809,1,2,0:0:0:0:
448,192,155936,1,2,0:0:0:0:
64,192,156063,1,8,0:0:0:0:
320,192,156063,1,0,0:0:0:0:
192,192,156191,1,2,0:0:0:0:
448,192,156318,1,2,0:0:0:0:
192,192,156402,1,2,0:0:0:0:
320,192,156487,1,2,0:0:0:0:
64,192,156572,1,2,0:0:0:0:
448,192,156572,1,0,0:0:0:0:
192,192,156699,1,2,0:0:0:0:
448,192,156826,1,2,0:0:0:0:
320,192,156953,1,2,0:0:0:0:
64,192,157080,1,8,0:0:0:0:
192,192,157080,1,0,0:0:0:0:
448,192,157207,1,2,0:0:0:0:
320,192,157335,1,2,0:0:0:0:
192,192,157419,1,2,0:0:0:0:
64,192,157462,1,8,0:0:0:0:
448,192,157462,1,0,0:0:0:0:
320,192,157504,1,2,0:0:0:0:
192,192,157589,1,2,0:0:0:0:
64,192,157716,1,8,0:0:0:0:
448,192,157716,1,0,0:0:0:0:
192,192,157843,1,2,0:0:0:0:
320,192,157970,1,2,0:0:0:0:
192,192,158097,1,8,0:0:0:0:
448,192,158097,1,0,0:0:0:0:
64,192,158224,1,2,0:0:0:0:
320,192,158352,1,2,0:0:0:0:
192,192,158436,1,2,0:0:0:0:
448,192,158521,1,2,0:0:0:0:
64,192,158606,1,2,0:0:0:0:
320,192,158606,1,0,0:0:0:0:
192,192,158733,1,2,0:0:0:0:
448,192,158860,1,2,0:0:0:0:
64,192,158987,1,2,0:0:0:0:
320,192,159114,1,8,0:0:0:0:
448,192,159114,1,0,0:0:0:0:
192,192,159241,1,2,0:0:0:0:
448,192,159368,1,2,0:0:0:0:
192,192,159453,1,2,0:0:0:0:
64,192,159496,1,8,0:0:0:0:
320,192,159496,1,0,0:0:0:0:
448,192,159538,1,2,0:0:0:0:
192,192,159623,1,2,0:0:0:0:
64,192,159750,1,8,0:0:0:0:
320,192,159750,1,0,0:0:0:0:
448,192,159877,1,2,0:0:0:0:
64,192,160004,1,2,0:0:0:0:
192,192,160131,1,8,0:0:0:0:
320,192,160131,1,0,0:0:0:0:
448,192,160258,1,2,0:0:0:0:
64,192,160385,1,8,0:0:0:0:
320,192,160385,1,0,0:0:0:0:
64,192,160513,1,8,0:0:0:0:
320,192,160513,1,0,0:0:0:0:
448,192,160640,1,2,0:0:0:0:
192,192,160767,1,2,0:0:0:0:
320,192,160894,1,2,0:0:0:0:
192,192,161021,1,2,0:0:0:0:
320,192,161148,1,0,0:0:0:0:
64,192,161148,1,8,0:0:0:0:
448,192,161275,1,2,0:0:0:0:
320,192,161339,1,2,0:0:0:0:
192,192,161402,1,2,0:0:0:0:
448,192,161466,1,2,0:0:0:0:
64,192,161530,1,8,0:0:0:0:
192,192,161530,1,0,0:0:0:0:
320,192,161657,1,2,0:0:0:0:
64,192,161784,1,8,0:0:0:0:
192,192,161784,1,0,0:0:0:0:
448,192,161911,1,2,0:0:0:0:
320,192,161974,1,0,0:0:0:0:
64,192,162038,1,2,0:0:0:0:
192,192,162165,1,8,0:0:0:0:
320,192,162165,1,0,0:0:0:0:
448,192,162292,1,2,0:0:0:0:
192,192,162419,1,2,0:0:0:0:
320,192,162504,1,2,0:0:0:0:
192,192,162589,1,2,0:0:0:0:
448,192,162674,1,0,0:0:0:0:
64,192,162674,1,2,0:0:0:0:
320,192,162801,1,2,0:0:0:0:
64,192,162928,1,2,0:0:0:0:
192,192,163055,1,2,0:0:0:0:
320,192,163182,1,8,0:0:0:0:
448,192,163182,1,0,0:0:0:0:
64,192,163309,1,2,0:0:0:0:
320,192,163436,1,2,0:0:0:0:
192,192,163521,1,2,0:0:0:0:
64,192,163563,1,8,0:0:0:0:
448,192,163563,1,0,0:0:0:0:
320,192,163606,1,2,0:0:0:0:
192,192,163691,1,2,0:0:0:0:
448,192,163818,1,0,0:0:0:0:
64,192,163818,1,8,0:0:0:0:
192,192,163945,1,2,0:0:0:0:
320,192,164072,1,2,0:0:0:0:
64,192,164199,1,8,0:0:0:0:
448,192,164199,1,0,0:0:0:0:
192,192,164263,1,0,0:0:0:0:
320,192,164326,1,2,0:0:0:0:
64,192,164453,1,2,0:0:0:0:
320,192,164538,1,2,0:0:0:0:
192,192,164623,1,2,0:0:0:0:
320,192,164707,1,2,0:0:0:0:
448,192,164707,1,0,0:0:0:0:
64,192,164835,1,2,0:0:0:0:
448,192,164962,1,2,0:0:0:0:
192,192,165089,1,2,0:0:0:0:
320,192,165216,1,0,0:0:0:0:
64,192,165216,1,8,0:0:0:0:
448,192,165343,1,2,0:0:0:0:
192,192,165407,1,2,0:0:0:0:
64,192,165470,1,2,0:0:0:0:
320,192,165555,1,2,0:0:0:0:
192,192,165597,1,8,0:0:0:0:
448,192,165597,1,0,0:0:0:0:
64,192,165640,1,2,0:0:0:0:
320,192,165724,1,2,0:0:0:0:
192,192,165852,1,8,0:0:0:0:
448,192,165852,1,0,0:0:0:0:
64,192,165979,1,2,0:0:0:0:
192,192,166106,1,2,0:0:0:0:
320,192,166233,1,8,0:0:0:0:
448,192,166233,1,0,0:0:0:0:
192,192,166360,1,2,0:0:0:0:
64,192,166487,1,2,0:0:0:0:
320,192,166572,1,2,0:0:0:0:
64,192,166657,1,2,0:0:0:0:
192,192,166741,1,2,0:0:0:0:
448,192,166741,1,0,0:0:0:0:
320,192,166868,1,2,0:0:0:0:
64,192,166996,1,2,0:0:0:0:
448,192,167123,1,2,0:0:0:0:
64,192,167250,1,8,0:0:0:0:
192,192,167250,1,0,0:0:0:0:
320,192,167377,1,2,0:0:0:0:
448,192,167504,1,2,0:0:0:0:
64,192,167589,1,2,0:0:0:0:
192,192,167631,1,8,0:0:0:0:
320,192,167631,1,0,0:0:0:0:
448,192,167674,1,2,0:0:0:0:
64,192,167758,1,2,0:0:0:0:
192,192,167885,1,8,0:0:0:0:
320,192,167885,1,0,0:0:0:0:
448,192,168013,1,2,0:0:0:0:
64,192,168140,1,2,0:0:0:0:
192,192,168267,1,8,0:0:0:0:
320,192,168267,1,0,0:0:0:0:
448,192,168394,1,2,0:0:0:0:
64,192,168521,1,2,0:0:0:0:
320,192,168648,1,2,0:0:0:0:
192,192,168775,1,2,0:0:0:0:
448,192,168775,1,4,0:0:0:0:
192,192,168902,1,4,0:0:0:0:
320,192,168902,1,2,0:0:0:0:
64,192,169030,1,4,0:0:0:0:
320,192,169030,1,2,0:0:0:0:
64,192,169157,1,2,0:0:0:0:
192,192,169157,1,4,0:0:0:0:
64,192,169284,1,4,0:0:0:0:
320,192,169284,1,8,0:0:0:0:
448,192,169284,1,0,0:0:0:0:
192,192,169538,1,4,0:0:0:0:
448,192,169538,1,2,0:0:0:0:
64,192,169665,1,8,0:0:0:0:
192,192,169665,1,4,0:0:0:0:
320,192,169665,1,0,0:0:0:0:
64,192,169919,1,8,0:0:0:0:
192,192,169919,1,4,0:0:0:0:
320,192,169919,1,0,0:0:0:0:
448,192,170046,1,0,0:0:0:60:LR_Tom Hit 2.wav
64,192,170110,1,0,0:0:0:60:LR_Tom Hit.wav
192,192,170174,1,0,0:0:0:60:LR_Tom Hit 3.wav
320,192,170237,1,0,0:0:0:60:LR_Tom Hit 3.wav
64,192,170301,1,8,0:0:0:0:
448,192,170301,1,0,0:0:0:0:
64,192,170428,1,8,0:0:0:0:
448,192,170428,1,0,0:0:0:0:
64,192,170555,1,8,0:0:0:0:
448,192,170555,1,0,0:0:0:0:
64,192,170682,1,8,0:0:0:0:
448,192,170682,1,0,0:0:0:0:
192,192,170809,1,2,0:0:0:0:
320,192,170809,1,4,0:0:0:0:
320,192,170936,1,2,0:0:0:0:
448,192,170936,1,4,0:0:0:0:
192,192,171063,1,2,0:0:0:0:
448,192,171063,1,4,0:0:0:0:
64,192,171191,1,2,0:0:0:0:
192,192,171318,1,8,0:0:0:0:
320,192,171318,1,4,0:0:0:0:
448,192,171318,1,0,0:0:0:0:
64,192,171572,1,4,0:0:0:0:
192,192,171572,1,2,0:0:0:0:
192,192,171699,1,4,0:0:0:0:
320,192,171699,1,2,0:0:0:0:
448,192,171699,1,0,0:0:0:0:
192,192,171953,1,8,0:0:0:0:
448,192,171953,1,0,0:0:0:0:
448,192,172080,1,0,0:0:0:0:
192,192,172080,1,8,0:0:0:0:
448,192,172207,1,0,0:0:0:0:
192,192,172207,1,8,0:0:0:0:
192,192,172335,1,8,0:0:0:0:
448,192,172335,1,0,0:0:0:0:
192,192,172462,1,8,0:0:0:0:
448,192,172462,1,0,0:0:0:0:
192,192,172589,1,8,0:0:0:0:
448,192,172589,1,0,0:0:0:0:
192,192,172716,1,8,0:0:0:0:
448,192,172716,1,0,0:0:0:0:
64,192,172843,1,2,0:0:0:0:
320,192,172843,1,4,0:0:0:0:
64,192,172970,1,2,0:0:0:0:
192,192,172970,1,4,0:0:0:0:
192,192,173097,1,2,0:0:0:0:
448,192,173097,1,4,0:0:0:0:
320,192,173224,1,2,0:0:0:0:
448,192,173224,1,4,0:0:0:0:
64,192,173352,1,8,0:0:0:0:
192,192,173352,1,4,0:0:0:0:
320,192,173352,1,0,0:0:0:0:
192,192,173606,1,2,0:0:0:0:
448,192,173606,1,4,0:0:0:0:
64,192,173733,1,8,0:0:0:0:
320,192,173733,1,4,0:0:0:0:
448,192,173733,1,0,0:0:0:0:
64,192,173987,1,8,0:0:0:0:
320,192,173987,1,4,0:0:0:0:
448,192,173987,1,0,0:0:0:0:
192,192,174114,1,8,0:0:0:0:
448,192,174178,1,0,0:0:0:60:LR_Snare Drum .wav
320,192,174241,1,0,0:0:0:60:LR_Snare Drum .wav
192,192,174305,1,0,0:0:0:60:LR_Snare Drum .wav
64,192,174368,1,8,0:0:0:0:
448,192,174368,1,0,0:0:0:0:
64,192,174496,1,8,0:0:0:0:
448,192,174496,1,0,0:0:0:0:
64,192,174623,1,8,0:0:0:0:
448,192,174623,1,0,0:0:0:0:
64,192,174750,1,8,0:0:0:0:
448,192,174750,1,0,0:0:0:0:
192,192,174877,1,2,0:0:0:0:
320,192,174877,1,4,0:0:0:0:
448,192,174877,1,0,0:0:0:0:
64,192,175004,1,4,0:0:0:0:
192,192,175004,1,0,0:0:0:0:
192,192,175131,1,4,0:0:0:0:
448,192,175131,1,0,0:0:0:0:
64,192,175258,1,4,0:0:0:0:
320,192,175258,1,8,0:0:0:0:
448,192,175258,1,0,0:0:0:0:
64,192,175385,1,8,0:0:0:0:
192,192,175385,1,4,0:0:0:0:
320,192,175385,1,0,0:0:0:0:
192,192,175640,1,8,0:0:0:0:
320,192,175640,1,4,0:0:0:0:
448,192,175640,1,0,0:0:0:0:
64,192,175767,1,8,0:0:0:0:
192,192,175767,1,4,0:0:0:0:
448,192,175767,1,0,0:0:0:0:
320,192,175894,1,0,0:0:0:0:
192,192,175957,1,8,0:0:0:0:
64,192,176021,1,8,0:0:0:0:
192,192,176148,1,8,0:0:0:0:
448,192,176148,1,0,0:0:0:0:
64,192,176275,1,0,0:0:0:60:LR_Tom Hit.wav
192,192,176339,1,0,0:0:0:60:LR_Tom Hit.wav
320,192,176402,1,0,0:0:0:60:LR_Tom Hit.wav
448,192,176530,1,0,0:0:0:60:LR_Tom Hit 2.wav
320,192,176657,1,0,0:0:0:60:LR_Tom Hit 3.wav
192,192,176784,1,0,0:0:0:60:LR_Tom Hit 3.wav
64,192,176911,1,2,0:0:0:0:
448,192,176911,1,4,0:0:0:0:
64,192,177038,1,2,0:0:0:0:
320,192,177038,1,4,0:0:0:0:
192,192,177165,1,2,0:0:0:0:
320,192,177165,1,4,0:0:0:0:
320,192,177292,1,2,0:0:0:0:
448,192,177292,1,4,0:0:0:0:
64,192,177419,1,8,0:0:0:0:
192,192,177419,1,4,0:0:0:0:
448,192,177419,1,0,0:0:0:0:
64,192,177674,1,2,0:0:0:0:
320,192,177674,1,4,0:0:0:0:
192,192,177801,1,8,0:0:0:0:
320,192,177801,1,4,0:0:0:0:
448,192,177801,1,0,0:0:0:0:
192,192,178055,1,8,0:0:0:0:
320,192,178055,1,4,0:0:0:0:
448,192,178055,1,0,0:0:0:0:
64,192,178309,1,2,0:0:0:0:
192,192,178436,1,8,0:0:0:0:
448,192,178436,1,0,0:0:0:0:
320,192,178563,1,2,0:0:0:0:
64,192,178691,1,2,0:0:0:0:
192,192,178818,1,2,0:0:0:0:
448,192,178945,1,4,0:0:0:0:
320,192,178945,1,2,0:0:0:0:
64,192,179072,1,2,0:0:0:0:
320,192,179072,1,4,0:0:0:0:
64,192,179199,1,2,0:0:0:0:
192,192,179199,1,4,0:0:0:0:
448,192,179326,1,2,0:0:0:0:
64,192,179453,1,8,0:0:0:0:
192,192,179453,1,4,0:0:0:0:
320,192,179453,1,0,0:0:0:0:
64,192,179707,1,2,0:0:0:0:
448,192,179707,1,4,0:0:0:0:
192,192,179835,1,8,0:0:0:0:
320,192,179835,1,4,0:0:0:0:
448,192,179835,1,0,0:0:0:0:
192,192,180089,1,8,0:0:0:0:
448,192,180089,1,0,0:0:0:0:
320,192,180343,1,2,0:0:0:0:
64,192,180470,1,8,0:0:0:0:
192,192,180470,1,0,0:0:0:0:
448,192,180597,1,2,0:0:0:0:
64,192,180724,1,2,0:0:0:0:
192,192,180852,1,2,0:0:0:0:
320,192,180979,1,2,0:0:0:0:
448,192,180979,1,4,0:0:0:0:
64,192,181106,1,2,0:0:0:0:
320,192,181106,1,4,0:0:0:0:
192,192,181233,1,4,0:0:0:0:
64,192,181233,1,2,0:0:0:0:
64,192,181360,1,2,0:0:0:0:
448,192,181360,1,4,0:0:0:0:
192,192,181487,1,8,0:0:0:0:
320,192,181487,1,4,0:0:0:0:
448,192,181487,1,0,0:0:0:0:
64,192,181741,1,2,0:0:0:0:
192,192,181741,1,4,0:0:0:0:
64,192,181868,1,8,0:0:0:0:
320,192,181868,1,4,0:0:0:0:
448,192,181868,1,0,0:0:0:0:
64,192,182123,1,8,0:0:0:0:
320,192,182123,1,4,0:0:0:0:
448,192,182123,1,0,0:0:0:0:
192,192,182377,1,2,0:0:0:0:
64,192,182504,1,8,0:0:0:0:
448,192,182504,1,0,0:0:0:0:
320,192,182631,1,2,0:0:0:0:
192,192,182758,1,2,0:0:0:0:
448,192,182885,1,2,0:0:0:0:
64,192,183013,1,2,0:0:0:0:
320,192,183013,1,4,0:0:0:0:
192,192,183140,1,2,0:0:0:0:
320,192,183140,1,4,0:0:0:0:
64,192,183267,1,2,0:0:0:0:
192,192,183267,1,4,0:0:0:0:
64,192,183394,1,2,0:0:0:0:
448,192,183394,1,4,0:0:0:0:
192,192,183521,1,8,0:0:0:0:
320,192,183521,1,4,0:0:0:0:
448,192,183521,1,0,0:0:0:0:
64,192,183775,1,2,0:0:0:0:
448,192,183775,1,4,0:0:0:0:
64,192,183902,1,8,0:0:0:0:
192,192,183902,1,4,0:0:0:0:
320,192,183902,1,0,0:0:0:0:
64,192,184157,1,8,0:0:0:0:
192,192,184157,1,0,0:0:0:0:
320,192,184411,1,2,0:0:0:0:
64,192,184538,1,8,0:0:0:0:
448,192,184538,1,0,0:0:0:0:
320,192,184665,1,2,0:0:0:0:
192,192,184729,1,2,0:0:0:0:
64,192,184792,1,8,0:0:0:0:
448,192,184792,1,0,0:0:0:0:
64,192,184919,1,8,0:0:0:0:
448,192,184919,1,0,0:0:0:0:
192,192,185046,1,8,0:0:0:0:
320,192,185046,1,4,0:0:0:0:
448,192,185046,1,0,0:0:0:0:
64,192,185174,1,2,0:0:0:0:
192,192,185174,1,4,0:0:0:0:
64,192,185301,1,2,0:0:0:0:
320,192,185301,1,4,0:0:0:0:
192,192,185428,1,2,0:0:0:0:
320,192,185428,1,4,0:0:0:0:
64,192,185555,1,8,0:0:0:0:
192,192,185555,1,4,0:0:0:0:
448,192,185555,1,0,0:0:0:0:
320,192,185682,1,2,0:0:0:0:
64,192,185809,1,2,0:0:0:0:
192,192,185809,1,4,0:0:0:0:
192,192,185936,1,8,0:0:0:0:
320,192,185936,1,4,0:0:0:0:
448,192,185936,1,0,0:0:0:0:
64,192,186063,1,2,0:0:0:0:
192,192,186191,1,8,0:0:0:0:
320,192,186191,1,4,0:0:0:0:
448,192,186191,1,0,0:0:0:0:
64,192,186318,1,2,0:0:0:0:
64,192,186445,1,2,0:0:0:0:
64,192,186572,1,8,0:0:0:0:
320,192,186572,1,0,0:0:0:0:
64,192,186699,1,2,0:0:0:0:
64,192,186826,1,2,0:0:0:0:
64,192,186953,1,2,0:0:0:0:
192,192,187080,1,8,0:0:0:0:
320,192,187080,1,4,0:0:0:0:
448,192,187080,1,0,0:0:0:0:
64,192,187207,1,2,0:0:0:0:
320,192,187207,1,4,0:0:0:0:
192,192,187335,1,2,0:0:0:0:
320,192,187335,1,4,0:0:0:0:
64,192,187462,1,2,0:0:0:0:
192,192,187589,1,8,0:0:0:0:
320,192,187589,1,4,0:0:0:0:
448,192,187589,1,0,0:0:0:0:
448,192,187716,1,2,0:0:0:0:
64,192,187843,1,2,0:0:0:0:
192,192,187843,1,4,0:0:0:0:
64,192,187970,1,8,0:0:0:0:
320,192,187970,1,4,0:0:0:0:
448,192,187970,1,0,0:0:0:0:
192,192,188097,1,2,0:0:0:0:
320,192,188224,1,0,0:0:0:0:
64,192,188224,1,8,0:0:0:0:
448,192,188352,1,2,0:0:0:0:
448,192,188479,1,2,0:0:0:0:
64,192,188606,1,8,0:0:0:0:
448,192,188606,1,0,0:0:0:0:
448,192,188733,1,2,0:0:0:0:
448,192,188860,1,2,0:0:0:0:
448,192,188987,1,2,0:0:0:0:
64,192,189114,1,8,0:0:0:0:
192,192,189114,1,4,0:0:0:0:
320,192,189114,1,0,0:0:0:0:
192,192,189241,1,2,0:0:0:0:
448,192,189241,1,4,0:0:0:0:
192,192,189368,1,2,0:0:0:0:
320,192,189368,1,4,0:0:0:0:
64,192,189496,1,2,0:0:0:0:
320,192,189496,1,4,0:0:0:0:
64,192,189623,1,8,0:0:0:0:
192,192,189623,1,4,0:0:0:0:
448,192,189623,1,0,0:0:0:0:
320,192,189750,1,2,0:0:0:0:
192,192,189877,1,2,0:0:0:0:
448,192,189877,1,4,0:0:0:0:
64,192,190004,1,8,0:0:0:0:
320,192,190004,1,4,0:0:0:0:
448,192,190004,1,0,0:0:0:0:
192,192,190131,1,2,0:0:0:0:
64,192,190258,1,8,0:0:0:0:
320,192,190258,1,4,0:0:0:0:
448,192,190258,1,0,0:0:0:0:
192,192,190385,1,2,0:0:0:0:
192,192,190513,1,2,0:0:0:0:
192,192,190640,1,8,0:0:0:0:
448,192,190640,1,0,0:0:0:0:
192,192,190767,1,2,0:0:0:0:
192,192,190894,1,2,0:0:0:0:
192,192,191021,1,2,0:0:0:0:
64,192,191148,1,8,0:0:0:0:
320,192,191148,1,4,0:0:0:0:
448,192,191148,1,0,0:0:0:0:
192,192,191275,1,2,0:0:0:0:
320,192,191275,1,4,0:0:0:0:
320,192,191402,1,2,0:0:0:0:
448,192,191402,1,4,0:0:0:0:
64,192,191530,1,2,0:0:0:0:
448,192,191530,1,4,0:0:0:0:
64,192,191657,1,8,0:0:0:0:
192,192,191657,1,4,0:0:0:0:
320,192,191657,1,0,0:0:0:0:
448,192,191784,1,2,0:0:0:0:
64,192,191911,1,2,0:0:0:0:
192,192,191911,1,4,0:0:0:0:
64,192,192038,1,8,0:0:0:0:
192,192,192038,1,4,0:0:0:0:
320,192,192038,1,0,0:0:0:0:
448,192,192165,1,2,0:0:0:0:
64,192,192292,1,8,0:0:0:0:
192,192,192292,1,0,0:0:0:0:
320,192,192419,1,2,0:0:0:0:
320,192,192546,1,2,0:0:0:0:
192,192,192674,1,8,0:0:0:0:
320,192,192674,1,0,0:0:0:0:
320,192,192801,1,2,0:0:0:0:
320,192,192928,1,2,0:0:0:0:
320,192,193055,1,2,0:0:0:0:
64,192,193182,128,2,201318:0:0:0:0:
448,192,193182,128,4,194199:0:0:0:0:
192,192,194199,128,0,195216:0:0:0:0:
448,192,195216,128,0,196233:0:0:0:0:
320,192,196233,128,0,197123:0:0:0:0:
320,192,197250,128,0,198267:0:0:0:0:
192,192,198267,128,0,199284:0:0:0:0:
448,192,199284,128,0,200301:0:0:0:0:
320,192,200301,128,0,201318:0:0:0:0:
