osu file format v14

[General]
AudioFilename: audio.mp3
AudioLeadIn: 0
PreviewTime: 113393
Countdown: 0
SampleSet: None
StackLeniency: 0.7
Mode: 0
LetterboxInBreaks: 0
WidescreenStoryboard: 0

[Editor]
Bookmarks: 90651
DistanceSpacing: 1.3
BeatDivisor: 4
GridSize: 4
TimelineZoom: 1

[Metadata]
Title:The Final Solution
TitleUnicode:The Final Solution
Artist:Sabaton
ArtistUnicode:Sabaton
Creator:Kantzm8
Version:Auschwitz
Source:
Tags:
BeatmapID:1174962
BeatmapSetID:555093

[Difficulty]
HPDrainRate:5
CircleSize:4.3
OverallDifficulty:9
ApproachRate:9.4
SliderMultiplier:1.4
SliderTickRate:1

[Events]
//Background and Video events
0,0,"aus1jpeg.jpg",0,0
//Break Periods
2,31334,90111
//Storyboard Layer 0 (Background)
//Storyboard Layer 1 (Fail)
//Storyboard Layer 2 (Pass)
//Storyboard Layer 3 (Foreground)
//Storyboard Sound Samples

[TimingPoints]
329,645.161290322581,4,2,0,100,1,0
3554,-100,4,2,0,5,0,0
3877,-100,4,2,0,25,0,0
23554,-83.3333333333333,4,2,0,45,0,0
28716,-71.4285714285714,4,2,0,45,0,0

[HitObjects]
256,192,974,12,0,3554,0:0:0:0:
160,100,3877,6,0,L|200:100,1,35
240,100,4199,2,0,P|248:140|232:188,1,70
172,228,4845,2,0,P|164:268|180:316,1,70
228,364,5490,6,0,P|304:360|328:288,1,140
336,220,6458,2,0,L|336:152,1,35
340,140,6780,2,0,B|296:136|296:136|264:128|264:128|216:128,2,105
432,148,8070,6,0,P|428:72|384:52,1,105
372,36,8716,2,0,P|320:24|252:36,1,105
232,56,9361,2,0,P|180:68|112:56,1,105
84,56,10006,2,0,L|84:132,1,70
84,172,10490,6,0,B|128:144|165:168|188:192|244:168,1,140
244,140,11296,2,0,L|320:140,1,70
404,136,11941,2,0,P|416:188|404:256,1,105
396,284,12587,2,0,P|356:292|308:276,1,70
240,264,13070,6,0,P|156:260|248:220,1,245
324,216,14522,2,0,P|336:164|324:96,1,105
312,72,15167,2,0,P|260:60|192:72,1,105
164,72,15812,6,0,B|164:116|164:116|128:200|128:200|128:276,1,210
128,368,17103,2,0,P|180:380|248:368,2,105
48,324,18393,6,0,P|36:272|48:204,1,105
72,188,19038,2,0,P|124:176|192:188,1,105
216,200,19683,2,0,P|268:212|336:200,1,105
360,188,20329,2,0,L|360:92,1,70
356,72,20812,6,0,B|300:52|280:74|252:88|208:64,1,140
192,32,21619,2,0,L|112:32,1,70
32,28,22264,2,0,P|20:80|32:148,1,105
36,176,22909,2,0,L|112:176,1,70
352,252,23554,6,0,L|240:252,1,83.9999974365235
224,220,24038,1,0,0:0:0:0:
420,96,24199,1,0,0:0:0:0:
224,136,24845,2,0,L|224:248,1,83.9999974365235
192,264,25329,1,0,0:0:0:0:
56,60,25490,1,0,0:0:0:0:
72,60,25812,1,0,0:0:0:0:
224,136,26135,6,0,L|312:136,1,83.9999974365235
364,140,26619,1,0,0:0:0:0:
168,76,26780,1,0,0:0:0:0:
176,296,27425,2,0,L|176:192,1,83.9999974365235
156,160,27909,1,0,0:0:0:0:
288,344,28070,1,0,0:0:0:0:
272,344,28393,1,0,0:0:0:0:
420,204,28716,6,0,L|368:204,1,48.9999985046387
336,104,29038,2,0,L|284:104,1,48.9999985046387
312,260,29361,2,0,L|260:260,1,48.9999985046387
236,88,29683,2,0,L|184:88,1,48.9999985046387
312,309,30006,2,0,L|312:257,1,48.9999985046387
404,172,30328,2,0,L|404:120,1,48.9999985046387
236,137,30651,2,0,L|236:85,1,48.9999985046387
72,204,30973,2,0,L|72:152,1,48.9999985046387
219,173,90651,5,0,0:0:0:0:
281,116,90813,1,0,0:0:0:0:
287,247,90974,1,0,0:0:0:0:
179,101,91135,1,0,0:0:0:0:
365,68,91296,1,0,0:0:0:0:
210,230,91458,1,0,0:0:0:0:
289,33,91619,1,0,0:0:0:0:
374,189,91780,1,0,0:0:0:0:
450,61,91942,5,0,0:0:0:0:
291,137,92103,1,0,0:0:0:0:
467,180,92264,1,0,0:0:0:0:
365,68,92425,1,0,0:0:0:0:
295,221,92587,1,0,0:0:0:0:
465,105,92748,1,0,0:0:0:0:
459,283,92909,1,0,0:0:0:0:
365,68,93071,1,0,0:0:0:0:
362,305,93232,5,0,0:0:0:0:
274,122,93393,1,0,0:0:0:0:
462,197,93555,1,0,0:0:0:0:
311,39,93716,1,0,0:0:0:0:
290,225,93877,1,0,0:0:0:0:
441,40,94038,1,0,0:0:0:0:
222,43,94200,1,0,0:0:0:0:
380,180,94361,1,0,0:0:0:0:
134,54,94522,5,0,0:0:0:0:
216,243,94684,1,0,0:0:0:0:
311,39,94845,1,0,0:0:0:0:
107,127,95006,1,0,0:0:0:0:
326,121,95167,1,0,0:0:0:0:
133,217,95329,1,0,0:0:0:0:
230,34,95490,1,0,0:0:0:0:
292,229,95651,1,0,0:0:0:0:
408,46,95813,5,0,0:0:0:0:
219,170,95974,1,0,0:0:0:0:
447,219,96135,1,0,0:0:0:0:
320,51,96296,1,0,0:0:0:0:
292,229,96458,1,0,0:0:0:0:
456,130,96619,1,0,0:0:0:0:
219,170,96780,1,0,0:0:0:0:
419,45,96942,1,0,0:0:0:0:
395,245,97103,5,0,0:0:0:0:
320,51,97264,1,0,0:0:0:0:
292,229,97425,1,0,0:0:0:0:
456,130,97587,1,0,0:0:0:0:
451,340,97748,1,0,0:0:0:0:
333,156,97909,1,0,0:0:0:0:
350,353,98071,1,0,0:0:0:0:
225,175,98232,1,0,0:0:0:0:
57,320,98393,5,0,0:0:0:0:
295,253,98555,1,0,0:0:0:0:
176,107,98716,1,0,0:0:0:0:
179,348,98877,1,0,0:0:0:0:
334,157,99038,1,0,0:0:0:0:
82,137,99200,1,0,0:0:0:0:
267,345,99361,1,0,0:0:0:0:
96,227,99522,1,0,0:0:0:0:
298,69,99684,5,0,0:0:0:0:
175,275,99845,1,0,0:0:0:0:
334,157,100006,1,0,0:0:0:0:
225,30,100167,1,0,0:0:0:0:
300,261,100329,1,0,0:0:0:0:
393,45,100490,1,0,0:0:0:0:
121,108,100651,1,0,0:0:0:0:
398,224,100813,1,0,0:0:0:0:
225,30,100974,5,0,0:0:0:0:
450,140,101135,1,0,0:0:0:0:
196,161,101296,1,0,0:0:0:0:
393,45,101458,1,0,0:0:0:0:
266,239,101619,1,0,0:0:0:0:
314,38,101780,1,0,0:0:0:0:
460,244,101942,1,0,0:0:0:0:
250,98,102103,1,0,0:0:0:0:
484,80,102264,5,0,0:0:0:0:
381,308,102425,1,0,0:0:0:0:
178,141,102587,1,0,0:0:0:0:
446,171,102748,1,0,0:0:0:0:
166,37,102909,1,0,0:0:0:0:
271,302,103071,1,0,0:0:0:0:
334,47,103232,1,0,0:0:0:0:
448,284,103393,1,0,0:0:0:0:
90,105,103555,5,0,0:0:0:0:
381,164,103716,1,0,0:0:0:0:
166,37,103877,1,0,0:0:0:0:
310,264,104038,1,0,0:0:0:0:
435,40,104200,1,0,0:0:0:0:
112,186,104361,1,0,0:0:0:0:
381,164,104522,1,0,0:0:0:0:
284,43,104684,1,0,0:0:0:0:
143,303,104845,5,0,0:0:0:0:
156,39,105006,1,0,0:0:0:0:
324,252,105167,1,0,0:0:0:0:
458,33,105329,1,0,0:0:0:0:
166,132,105490,1,0,0:0:0:0:
468,158,105651,1,0,0:0:0:0:
267,41,105813,1,0,0:0:0:0:
434,268,105974,1,0,0:0:0:0:
76,54,106135,5,0,0:0:0:0:
409,64,106296,1,0,0:0:0:0:
79,161,106458,1,0,0:0:0:0:
446,152,106619,1,0,0:0:0:0:
78,335,106780,1,0,0:0:0:0:
339,65,106942,1,0,0:0:0:0:
427,333,107103,1,0,0:0:0:0:
165,60,107264,1,0,0:0:0:0:
236,347,107425,5,0,0:0:0:0:
430,64,107587,1,0,0:0:0:0:
42,175,107748,1,0,0:0:0:0:
344,33,107909,1,0,0:0:0:0:
133,333,108071,1,0,0:0:0:0:
251,42,108232,1,0,0:0:0:0:
310,343,108393,1,0,0:0:0:0:
131,58,108555,1,0,0:0:0:0:
408,324,108716,5,0,0:0:0:0:
54,136,108877,1,0,0:0:0:0:
462,44,109038,1,0,0:0:0:0:
15,179,109200,1,0,0:0:0:0:
493,135,109361,1,0,0:0:0:0:
38,19,109522,1,0,0:0:0:0:
509,258,109684,1,0,0:0:0:0:
31,115,109845,1,0,0:0:0:0:
497,362,110006,5,0,0:0:0:0:
121,17,110167,1,0,0:0:0:0:
406,358,110329,1,0,0:0:0:0:
38,19,110490,1,0,0:0:0:0:
483,218,110651,1,0,0:0:0:0:
19,67,110813,1,0,0:0:0:0:
468,29,110974,1,0,0:0:0:0:
20,363,111135,1,0,0:0:0:0:
468,29,111296,5,0,0:0:0:0:
