osu file format v14

[General]
AudioFilename: audio.mp3
AudioLeadIn: 0
PreviewTime: 173507
Countdown: 0
SampleSet: Soft
StackLeniency: 0.3
Mode: 0
LetterboxInBreaks: 0
EpilepsyWarning: 1
WidescreenStoryboard: 1

[Editor]
Bookmarks: 7450,12342,31914,51479,71070,93076,112655,132234,151797,173812,193392,198270,208072,217844,227637,234980,257007,269207,291248,308358,310678
DistanceSpacing: 0.3
BeatDivisor: 4
GridSize: 32
TimelineZoom: 3.019999

[Metadata]
Title:Panzerkampf
TitleUnicode:Panzerkampf
Artist:Sabaton
ArtistUnicode:Sabaton
Creator:piroshki
Version:Theater of War
Source:
Tags:english heavy neo classic metal art of war marathon pantydev
BeatmapID:3220124
BeatmapSetID:1577028

[Difficulty]
HPDrainRate:5
CircleSize:4.5
OverallDifficulty:9
ApproachRate:9.5
SliderMultiplier:1.4
SliderTickRate:0.5

[Events]
//Background and Video events
0,0,"bg.jpg",0,0
//Break Periods
//Storyboard Layer 0 (Background)
//Storyboard Layer 1 (Fail)
//Storyboard Layer 2 (Pass)
//Storyboard Layer 3 (Foreground)
//Storyboard Layer 4 (Overlay)
//Storyboard Sound Samples

[TimingPoints]
7450,305.810397553517,4,2,1,40,1,0
7450,-166.666666666667,4,2,1,40,0,0
8673,-125,4,2,1,40,0,0
9743,-125,4,2,1,5,0,0
9896,-125,4,2,1,40,0,0
10355,-125,4,2,1,5,0,0
10508,-125,4,2,1,40,0,0
10661,-125,4,2,1,5,0,0
10813,-125,4,2,1,40,0,0
11884,-125,4,2,1,5,0,0
12037,-125,4,2,1,40,0,0
12190,-125,4,2,1,5,0,0
12342,-90.9090909090909,4,2,2,55,0,0
12419,-90.9090909090909,4,2,1,50,0,0
13413,-90.9090909090909,4,2,1,5,0,0
13566,-90.9090909090909,4,2,1,50,0,0
13948,-90.9090909090909,4,2,1,5,0,0
14024,-90.9090909090909,4,2,1,50,0,0
15553,-90.9090909090909,4,2,1,5,0,0
15706,-90.9090909090909,4,2,1,50,0,0
16700,-90.9090909090909,4,2,1,5,0,0
16777,-90.9090909090909,4,2,1,50,0,0
18841,-90.9090909090909,4,2,1,5,0,0
18917,-90.9090909090909,4,2,1,50,0,0
20982,-90.9090909090909,4,2,1,5,0,0
21058,-90.9090909090909,4,2,1,50,0,0
21593,-90.9090909090909,4,2,1,5,0,0
21670,-90.9090909090909,4,2,1,50,0,0
22128,-71.4285714285714,4,2,2,55,0,0
22205,-71.4285714285714,4,2,1,50,0,0
24269,-111.111111111111,4,2,1,50,0,0
24498,-111.111111111111,4,2,1,5,0,0
24575,-71.4285714285714,4,2,1,50,0,0
25569,-90.9090909090909,4,2,1,5,0,0
25645,-71.4285714285714,4,2,1,50,0,0
25875,-90.9090909090909,4,2,1,5,0,0
25951,-90.9090909090909,4,2,1,50,0,0
26410,-71.4285714285714,4,2,1,50,0,0
30768,-90.9090909090909,4,2,1,5,0,0
30844,-90.9090909090909,4,2,1,50,0,0
31303,-166.666666666667,4,2,1,50,0,0
31914,-90.9090909090909,4,2,1,40,0,0
34590,-90.9090909090909,4,2,1,5,0,0
34667,-90.9090909090909,4,2,1,40,0,0
35508,-90.9090909090909,4,2,1,5,0,0
35584,-90.9090909090909,4,2,1,40,0,0
36501,-125,4,2,1,40,0,0
36731,-125,4,2,1,5,0,0
36807,-90.9090909090909,4,2,1,40,0,0
37648,-90.9090909090909,4,2,1,5,0,0
37725,-90.9090909090909,4,2,1,40,0,0
39177,-90.9090909090909,4,2,1,5,0,0
39254,-90.9090909090909,4,2,1,40,0,0
39483,-90.9090909090909,4,2,1,5,0,0
39560,-90.9090909090909,4,2,1,40,0,0
40171,-125,4,2,1,40,0,0
40401,-125,4,2,1,5,0,0
40477,-90.9090909090909,4,2,1,40,0,0
41089,-76.9230769230769,4,2,1,40,0,0
41165,-76.9230769230769,4,2,1,5,0,0
41242,-58.8235294117647,4,2,1,40,0,0
41624,-58.8235294117647,4,2,1,5,0,0
41700,-76.9230769230769,4,2,1,40,0,0
42541,-76.9230769230769,4,2,1,5,0,0
42618,-76.9230769230769,4,2,1,40,0,0
43688,-76.9230769230769,4,2,1,5,0,0
43841,-76.9230769230769,4,2,1,40,0,0
44070,-76.9230769230769,4,2,1,5,0,0
44147,299.7002997003,4,2,1,40,1,0
44147,-76.9230769230769,4,2,1,40,0,0
45267,-76.9230769230769,4,2,1,5,0,0
45345,310.55900621118,4,2,1,5,1,0
45345,-76.9230769230769,4,2,1,40,0,0
46587,305.810397553517,4,2,1,40,1,0
46587,-76.9230769230769,4,2,1,40,0,0
46816,-76.9230769230769,4,2,1,5,0,0
46892,-76.9230769230769,4,2,1,40,0,0
47427,-76.9230769230769,4,2,1,5,0,0
47504,-76.9230769230769,4,2,1,40,0,0
49950,-100,4,2,1,40,0,0
50180,-100,4,2,1,5,0,0
50256,-76.9230769230769,4,2,1,40,0,0
53926,302.724520686176,4,2,1,40,1,0
53926,-76.9230769230769,4,2,1,40,0,0
55136,305.810397553517,4,2,1,40,1,0
55136,-76.9230769230769,4,2,1,40,0,0
58806,298.804780876494,4,2,1,40,1,0
58806,-80.6451612903226,4,2,1,40,0,0
60000,308.959835221421,4,2,1,40,1,0
60000,-76.3358778625954,4,2,1,40,0,0
60695,-76.3358778625954,4,2,1,5,0,0
60772,-58.8235294117647,4,2,1,40,0,0
61158,-58.8235294117647,4,2,1,5,0,0
61266,306.122448979592,4,2,1,5,1,0
61266,-76.9230769230769,4,2,1,40,0,0
63408,-100,4,2,1,40,0,0
63638,-100,4,2,1,5,0,0
63714,-100,4,2,1,40,0,0
64633,-76.9230769230769,4,2,1,40,0,0
65704,-76.9230769230769,4,2,1,5,0,0
65857,-76.9230769230769,4,2,1,40,0,0
66087,-76.9230769230769,4,2,1,5,0,0
66178,305.810397553517,4,2,1,40,1,0
66178,-76.9230769230769,4,2,1,40,0,0
66330,-76.9230769230769,4,2,1,5,0,0
66483,-76.9230769230769,4,2,1,40,0,0
67554,-76.9230769230769,4,2,1,5,0,0
67707,-76.9230769230769,4,2,1,40,0,0
68777,-76.9230769230769,4,2,1,5,0,0
68930,-76.9230769230769,4,2,1,40,0,0
71070,-71.4285714285714,4,2,1,45,0,0
71835,-71.4285714285714,4,2,1,5,0,0
71988,-71.4285714285714,4,2,1,45,0,0
72447,-71.4285714285714,4,2,1,5,0,0
72600,-71.4285714285714,4,2,1,45,0,0
73670,-71.4285714285714,4,2,1,5,0,0
73746,-71.4285714285714,4,2,1,45,0,0
74281,-71.4285714285714,4,2,1,5,0,0
74434,-71.4285714285714,4,2,1,45,0,0
74664,-71.4285714285714,4,2,1,5,0,0
74740,-71.4285714285714,4,2,1,45,0,0
74893,-71.4285714285714,4,2,1,5,0,0
75046,-71.4285714285714,4,2,1,45,0,0
75505,-71.4285714285714,4,2,1,5,0,0
75658,-71.4285714285714,4,2,1,45,0,0
76728,-71.4285714285714,4,2,1,5,0,0
76881,-71.4285714285714,4,2,1,45,0,0
78028,-71.4285714285714,4,2,1,5,0,0
78104,-71.4285714285714,4,2,1,45,0,0
79174,-71.4285714285714,4,2,1,5,0,0
79327,-71.4285714285714,4,2,1,45,0,0
79862,-71.4285714285714,4,2,1,5,0,0
79939,-71.4285714285714,4,2,1,45,0,0
81621,-71.4285714285714,4,2,1,5,0,0
81774,-71.4285714285714,4,2,1,45,0,0
82844,-71.4285714285714,4,2,1,5,0,0
82997,-71.4285714285714,4,2,1,45,0,0
83456,-71.4285714285714,4,2,1,5,0,0
83532,-71.4285714285714,4,2,1,45,0,0
84067,-71.4285714285714,4,2,1,5,0,0
84220,-71.4285714285714,4,2,1,45,0,0
84450,-71.4285714285714,4,2,1,5,0,0
84526,-71.4285714285714,4,2,1,45,0,0
84679,-71.4285714285714,4,2,1,5,0,0
84832,-71.4285714285714,4,2,1,45,0,0
85291,-71.4285714285714,4,2,1,5,0,0
85444,-71.4285714285714,4,2,1,45,0,0
86514,-71.4285714285714,4,2,1,5,0,0
86667,-71.4285714285714,4,2,1,45,0,0
87814,-71.4285714285714,4,2,1,5,0,0
87890,-71.4285714285714,4,2,1,45,0,0
90184,-71.4285714285714,4,2,1,5,0,0
90336,-71.4285714285714,4,2,1,45,0,0
90642,-50,4,2,1,45,0,0
91407,-50,4,2,1,5,0,0
91560,-50,4,2,1,45,0,0
91636,-50,4,2,1,5,0,0
91713,-50,4,2,1,45,0,0
91942,-50,4,2,1,5,0,0
92018,-50,4,2,1,45,0,0
92248,-50,4,2,1,5,0,0
92324,-50,4,2,1,45,0,0
92554,-50,4,2,1,5,0,0
92630,-50,4,2,1,45,0,0
93089,-66.6666666666667,4,2,2,55,0,1
93165,-66.6666666666667,4,2,1,50,0,1
94465,-66.6666666666667,4,2,1,5,0,1
94618,-66.6666666666667,4,2,1,50,0,1
94847,-66.6666666666667,4,2,1,5,0,1
94924,-66.6666666666667,4,2,2,90,0,1
95000,-66.6666666666667,4,2,1,50,0,1
95688,-66.6666666666667,4,2,1,5,0,1
95841,-66.6666666666667,4,2,1,50,0,1
96300,-66.6666666666667,4,2,1,5,0,1
96453,-66.6666666666667,4,2,1,50,0,1
96758,-66.6666666666667,4,2,2,75,0,1
96835,-66.6666666666667,4,2,1,5,0,1
96911,-66.6666666666667,4,2,1,50,0,1
97370,-66.6666666666667,4,2,2,90,0,1
97676,-66.6666666666667,4,2,2,50,0,1
97982,299.7002997003,4,2,2,50,1,1
97982,-66.6666666666667,4,2,2,55,0,1
98056,-66.6666666666667,4,2,1,50,0,1
99180,307.692307692308,4,2,1,50,1,1
99180,-66.6666666666667,4,2,1,50,0,1
99795,-66.6666666666667,4,2,2,90,0,1
99949,-66.6666666666667,4,2,1,5,0,1
100256,-66.6666666666667,4,2,1,50,0,1
100410,309.278350515464,4,2,1,50,1,1
100410,-66.6666666666667,4,2,1,50,0,1
100564,-66.6666666666667,4,2,1,5,0,1
100719,-66.6666666666667,4,2,1,50,0,1
101647,307.692307692308,4,2,2,75,1,1
101647,-66.6666666666667,4,2,2,75,0,1
101723,-66.6666666666667,4,2,1,5,0,1
101800,-66.6666666666667,4,2,1,50,0,1
102261,-66.6666666666667,4,2,2,90,0,1
102570,-66.6666666666667,4,2,2,50,0,1
102877,305.810397553517,4,2,2,55,1,1
102877,-66.6666666666667,4,2,2,55,0,1
102953,-66.6666666666667,4,2,1,50,0,1
104253,-66.6666666666667,4,2,1,5,0,1
104406,-66.6666666666667,4,2,1,50,0,1
104635,-66.6666666666667,4,2,1,5,0,1
104711,-66.6666666666667,4,2,2,90,0,1
104788,-66.6666666666667,4,2,1,50,0,1
105476,-66.6666666666667,4,2,1,5,0,1
105629,-66.6666666666667,4,2,1,50,0,1
106546,304.259634888438,4,2,2,75,1,1
106546,-66.6666666666667,4,2,2,75,0,1
106623,-66.6666666666667,4,2,1,5,0,1
106698,-66.6666666666667,4,2,1,50,0,1
107154,-66.6666666666667,4,2,2,90,0,1
107458,-66.6666666666667,4,2,2,50,0,1
107763,305.810397553517,4,2,2,50,1,1
107763,-66.6666666666667,4,2,2,55,0,1
107839,-66.6666666666667,4,2,1,50,0,1
109139,-66.6666666666667,4,2,1,5,0,1
109292,-66.6666666666667,4,2,1,50,0,1
109597,-66.6666666666667,4,2,2,90,0,1
109674,-66.6666666666667,4,2,1,50,0,1
110362,-66.6666666666667,4,2,1,5,0,1
110438,-66.6666666666667,4,2,1,50,0,1
110974,-66.6666666666667,4,2,1,5,0,1
111126,-66.6666666666667,4,2,2,65,0,1
111203,-66.6666666666667,4,2,1,5,0,1
111279,-66.6666666666667,4,2,1,50,0,1
111432,-66.6666666666667,4,2,2,75,0,1
111509,-66.6666666666667,4,2,1,5,0,1
111585,-66.6666666666667,4,2,1,50,0,1
112044,-89.2857142857143,4,2,2,55,0,0
112120,-89.2857142857143,4,2,1,50,0,0
112503,-89.2857142857143,4,2,1,5,0,0
112655,301.507537688442,4,2,1,40,1,0
112655,-76.9230769230769,4,2,1,40,0,0
112805,-76.9230769230769,4,2,1,5,0,0
112956,-76.9230769230769,4,2,1,40,0,0
113861,305.810397553517,4,2,1,40,1,0
113861,-76.9230769230769,4,2,1,40,0,0
115848,-76.9230769230769,4,2,1,5,0,0
116001,-76.9230769230769,4,2,1,40,0,0
116231,-76.9230769230769,4,2,1,5,0,0
116307,-76.9230769230769,4,2,1,40,0,0
117072,-76.9230769230769,4,2,1,5,0,0
117224,-111.111111111111,4,2,1,40,0,0
117454,-111.111111111111,4,2,1,5,0,0
117530,-76.9230769230769,4,2,1,40,0,0
118906,-76.9230769230769,4,2,1,5,0,0
119059,-76.9230769230769,4,2,1,40,0,0
119518,-76.9230769230769,4,2,1,5,0,0
119671,-76.9230769230769,4,2,1,40,0,0
119900,-76.9230769230769,4,2,1,5,0,0
119977,-76.9230769230769,4,2,1,40,0,0
120894,-111.111111111111,4,2,1,40,0,0
121123,-111.111111111111,4,2,1,5,0,0
121200,-76.9230769230769,4,2,1,40,0,0
121888,-76.9230769230769,4,2,1,5,0,0
121964,-55.5555555555556,4,2,1,40,0,0
122347,-55.5555555555556,4,2,1,5,0,0
122423,-71.4285714285714,4,2,1,40,0,0
122576,-71.4285714285714,4,2,1,5,0,0
122729,-71.4285714285714,4,2,1,40,0,0
123264,-71.4285714285714,4,2,1,5,0,0
123341,-71.4285714285714,4,2,1,40,0,0
124411,-71.4285714285714,4,2,1,5,0,0
124564,-71.4285714285714,4,2,1,40,0,0
124793,-71.4285714285714,4,2,1,5,0,0
124870,-71.4285714285714,4,2,1,40,0,0
125023,-71.4285714285714,4,2,1,5,0,0
125175,-71.4285714285714,4,2,1,40,0,0
126016,-71.4285714285714,4,2,1,5,0,0
126093,-71.4285714285714,4,2,1,40,0,0
127546,-71.4285714285714,4,2,1,5,0,0
127622,-71.4285714285714,4,2,1,40,0,0
128157,-71.4285714285714,4,2,1,5,0,0
128234,-71.4285714285714,4,2,1,40,0,0
128539,304.259634888438,4,2,1,40,1,0
128539,-71.4285714285714,4,2,1,40,0,0
129299,-71.4285714285714,4,2,1,5,0,0
129603,-71.4285714285714,4,2,1,40,0,0
129756,302.724520686176,4,2,1,40,1,0
129756,-71.4285714285714,4,2,1,40,0,0
130664,-100,4,2,1,40,0,0
130891,-100,4,2,1,5,0,0
130966,317.124735729387,4,2,1,5,1,0
130966,-71.4285714285714,4,2,1,40,0,0
131600,-71.4285714285714,4,2,1,40,0,0
132075,-71.4285714285714,4,2,1,5,0,0
132234,305.810397553517,4,2,1,45,1,0
132234,-71.4285714285714,4,2,1,45,0,0
133457,-71.4285714285714,4,2,1,45,0,0
133610,-71.4285714285714,4,2,1,5,0,0
133763,-71.4285714285714,4,2,1,45,0,0
134221,-71.4285714285714,4,2,1,5,0,0
134374,-71.4285714285714,4,2,1,45,0,0
136668,-71.4285714285714,4,2,1,5,0,0
136821,-71.4285714285714,4,2,1,45,0,0
136974,-71.4285714285714,4,2,1,5,0,0
137049,-71.4285714285714,4,2,1,45,0,0
137891,-71.4285714285714,4,2,1,5,0,0
138044,-71.4285714285714,4,2,1,45,0,0
138197,264.084507042254,4,2,1,5,1,0
138197,-71.4285714285714,4,2,1,5,0,0
138263,-71.4285714285714,4,2,1,45,0,0
138330,305.810397553517,4,2,1,45,1,0
138330,-71.4285714285714,4,2,1,45,0,0
139553,304.259634888438,4,2,1,45,1,0
139553,-71.4285714285714,4,2,1,45,0,0
140617,-71.4285714285714,4,2,1,5,0,0
140770,312.174817898023,4,2,1,5,1,0
140770,-71.4285714285714,4,2,1,45,0,0
141472,-71.4285714285714,4,2,1,5,0,0
141550,-50,4,2,1,45,0,0
141940,-50,4,2,1,5,0,0
142018,305.810397553517,4,2,1,45,1,0
142018,-71.4285714285714,4,2,1,45,0,0
144006,-71.4285714285714,4,2,1,5,0,0
144159,-71.4285714285714,4,2,1,45,0,0
144312,-71.4285714285714,4,2,1,5,0,0
144388,-71.4285714285714,4,2,1,45,0,0
146605,-100,4,2,1,45,0,0
146835,-100,4,2,1,5,0,0
146911,-71.4285714285714,4,2,1,45,0,0
147064,-71.4285714285714,4,2,1,5,0,0
147217,-71.4285714285714,4,2,1,45,0,0
148287,-71.4285714285714,4,2,1,5,0,0
148440,-71.4285714285714,4,2,1,45,0,0
150580,304.259634888438,4,2,1,45,1,0
150580,-71.4285714285714,4,2,1,45,0,0
150732,-71.4285714285714,4,2,1,5,0,0
150884,-71.4285714285714,4,2,1,45,0,0
151797,305.810397553517,4,2,1,45,1,0
151797,-66.6666666666667,4,2,1,50,0,0
154243,307.377049180328,4,2,1,50,1,0
154243,-66.6666666666667,4,2,1,50,0,0
154396,-66.6666666666667,4,2,1,5,0,0
154473,-66.6666666666667,4,2,1,50,0,0
155011,-66.6666666666667,4,2,1,5,0,0
155165,-66.6666666666667,4,2,1,50,0,0
155395,-66.6666666666667,4,2,1,5,0,0
155472,-66.6666666666667,4,2,1,50,0,0
155626,-66.6666666666667,4,2,1,5,0,0
155779,-66.6666666666667,4,2,1,50,0,0
157470,-66.6666666666667,4,2,1,5,0,0
157624,-66.6666666666667,4,2,1,50,0,0
157931,302.724520686176,4,2,1,50,1,0
157931,-66.6666666666667,4,2,1,50,0,0
158763,-66.6666666666667,4,2,1,5,0,0
158839,-66.6666666666667,4,2,1,50,0,0
159141,301.204819277108,4,2,1,50,1,0
159141,-66.6666666666667,4,2,1,50,0,0
160345,310.55900621118,4,2,1,50,1,0
160345,-66.6666666666667,4,2,1,50,0,0
160577,-66.6666666666667,4,2,1,5,0,0
160655,-66.6666666666667,4,2,1,50,0,0
161257,329.308452250274,4,2,1,50,1,0
161257,-66.6666666666667,4,2,1,50,0,0
161587,302.724520686176,4,2,1,50,1,0
161587,-66.6666666666667,4,2,1,50,0,0
162343,-66.6666666666667,4,2,1,5,0,0
162495,-66.6666666666667,4,2,1,50,0,0
164008,312.174817898023,4,2,1,50,1,0
164008,-66.6666666666667,4,2,1,50,0,0
164164,-66.6666666666667,4,2,1,5,0,0
164242,-66.6666666666667,4,2,1,50,0,0
164788,-66.6666666666667,4,2,1,5,0,0
164944,-66.6666666666667,4,2,1,50,0,0
165178,-66.6666666666667,4,2,1,5,0,0
165256,305.810397553517,4,2,1,50,1,0
165256,-66.6666666666667,4,2,1,50,0,0
165408,-66.6666666666667,4,2,1,5,0,0
165561,-66.6666666666667,4,2,1,50,0,0
166020,-66.6666666666667,4,2,1,5,0,0
166173,-66.6666666666667,4,2,1,50,0,0
168543,-66.6666666666667,4,2,1,5,0,0
168619,-66.6666666666667,4,2,1,50,0,0
169690,-66.6666666666667,4,2,1,5,0,0
169843,-66.6666666666667,4,2,1,50,0,0
171372,-50,4,2,1,50,0,0
172136,-50,4,2,1,5,0,0
172289,-50,4,2,1,50,0,0
172366,-50,4,2,1,5,0,0
172595,304.259634888438,4,2,1,50,1,0
172595,-50,4,2,1,50,0,0
172671,-50,4,2,1,5,0,0
172747,-50,4,2,1,50,0,0
172975,-50,4,2,1,5,0,0
173051,-50,4,2,1,50,0,0
173279,-50,4,2,1,5,0,0
173355,-50,4,2,1,50,0,0
173812,305.810397553517,4,2,2,55,1,1
173812,-62.5,4,2,2,55,0,1
173888,-62.5,4,2,1,55,0,1
175188,-62.5,4,2,1,5,0,1
175341,-62.5,4,2,1,55,0,1
175570,-62.5,4,2,1,5,0,1
175646,-62.5,4,2,2,90,0,1
175723,-62.5,4,2,1,55,0,1
176258,304.568527918782,4,2,1,55,1,1
176258,-62.5,4,2,1,55,0,1
176410,-62.5,4,2,1,5,0,1
176562,-62.5,4,2,1,55,0,1
177476,-62.5,4,2,2,80,0,1
177552,-62.5,4,2,1,5,0,1
177628,-62.5,4,2,1,55,0,1
178085,-62.5,4,2,2,90,0,1
178389,-62.5,4,2,2,55,0,1
178694,312.5,4,2,2,55,1,1
178694,-62.5,4,2,2,55,0,1
178772,-62.5,4,2,1,55,0,1
179944,306.122448979592,4,2,1,55,1,1
179944,-62.5,4,2,1,55,0,1
180093,-62.5,4,2,1,5,0,1
180250,-62.5,4,2,1,55,0,1
180556,-62.5,4,2,2,90,0,1
180632,-62.5,4,2,1,55,0,1
181168,301.507537688442,4,2,1,55,1,1
181168,-62.5,4,2,1,55,0,1
181921,-62.5,4,2,1,5,0,1
182072,-62.5,4,2,1,55,0,1
182374,310.880829015544,4,2,1,55,1,1
182374,-62.5,4,2,2,55,0,1
182451,-62.5,4,2,1,5,0,1
182529,-62.5,4,2,1,55,0,1
182995,-62.5,4,2,2,90,0,1
183306,-62.5,4,2,2,55,0,1
183617,306.122448979592,4,2,2,55,1,1
183617,-62.5,4,2,2,55,0,1
183693,-62.5,4,2,1,55,0,1
184841,304.568527918782,4,2,1,55,1,1
184841,-62.5,4,2,1,55,0,1
184993,-62.5,4,2,1,5,0,1
185145,-62.5,4,2,1,55,0,1
185373,-62.5,4,2,1,5,0,1
185450,-62.5,4,2,2,90,0,1
185526,-62.5,4,2,1,55,0,1
186211,-62.5,4,2,1,5,0,1
186363,-62.5,4,2,1,55,0,1
186820,-62.5,4,2,1,5,0,1
186972,-62.5,4,2,1,55,0,1
187277,-62.5,4,2,2,80,0,1
187353,-62.5,4,2,1,5,0,1
187429,-62.5,4,2,1,55,0,1
187886,-62.5,4,2,2,90,0,1
188191,-62.5,4,2,2,55,0,1
188495,306.122448979592,4,2,2,55,1,1
188495,-62.5,4,2,2,55,0,1
188571,-62.5,4,2,1,55,0,1
189872,-62.5,4,2,1,5,0,1
190025,-62.5,4,2,1,55,0,1
190331,-62.5,4,2,2,90,0,1
190484,-62.5,4,2,1,5,0,1
190790,-62.5,4,2,1,55,0,1
190943,-62.5,4,2,1,55,0,1
191862,-62.5,4,2,2,55,0,1
191938,-62.5,4,2,1,5,0,1
192015,-62.5,4,2,1,55,0,1
192168,-62.5,4,2,2,90,0,1
192245,-62.5,4,2,1,5,0,1
192321,-62.5,4,2,1,55,0,1
192780,-62.5,4,2,2,55,0,1
192857,-62.5,4,2,1,55,0,1
193392,300,4,2,1,55,1,1
193392,-62.5,4,2,1,50,0,0
194592,304.568527918782,4,2,1,50,1,0
195810,307.692307692308,4,2,1,50,1,0
197040,297.029702970297,4,2,1,50,1,0
198270,300,4,2,3,60,1,0
198270,-83.3333333333333,4,2,3,60,0,0
198945,-83.3333333333333,4,2,3,5,0,0
199507,297.029702970297,4,2,3,60,1,0
199507,-83.3333333333333,4,2,3,60,0,0
200175,-83.3333333333333,4,2,3,5,0,0
200731,297.029702970297,4,2,3,5,1,0
200731,-83.3333333333333,4,2,3,60,0,0
201399,-83.3333333333333,4,2,3,5,0,0
201955,297.029702970297,4,2,3,60,1,0
201955,-83.3333333333333,4,2,3,60,0,0
202623,-83.3333333333333,4,2,3,5,0,0
203192,297.029702970297,4,2,3,60,1,0
203192,-83.3333333333333,4,2,3,60,0,0
203860,-83.3333333333333,4,2,3,5,0,0
204422,297.029702970297,4,2,3,60,1,0
204422,-83.3333333333333,4,2,3,60,0,0
205090,-83.3333333333333,4,2,3,5,0,0
205616,297.029702970297,4,2,3,5,1,0
205616,-83.3333333333333,4,2,3,60,0,0
206284,-83.3333333333333,4,2,3,5,0,0
206822,297.029702970297,4,2,3,60,1,0
206822,-83.3333333333333,4,2,3,60,0,0
207416,-83.3333333333333,4,2,3,60,0,0
207490,-83.3333333333333,4,2,3,5,0,0
207713,-83.3333333333333,4,2,3,60,0,0
208072,297.029702970297,4,2,3,60,1,0
208666,-83.3333333333333,4,2,3,60,0,0
208740,-83.3333333333333,4,2,3,5,0,0
209287,294.117647058824,4,2,3,60,1,0
209287,-83.3333333333333,4,2,3,60,0,0
209948,-83.3333333333333,4,2,3,5,0,0
210512,291.26213592233,4,2,3,60,1,0
210512,-83.3333333333333,4,2,3,60,0,0
211167,-83.3333333333333,4,2,3,5,0,0
211727,291.26213592233,4,2,3,60,1,0
211727,-83.3333333333333,4,2,3,60,0,0
212382,-83.3333333333333,4,2,3,5,0,0
212939,297.029702970297,4,2,3,60,1,0
212939,-83.3333333333333,4,2,3,60,0,0
213607,-83.3333333333333,4,2,3,5,0,0
214172,297.029702970297,4,2,3,60,1,0
214172,-83.3333333333333,4,2,3,60,0,0
214840,-83.3333333333333,4,2,3,5,0,0
215389,297.029702970297,4,2,3,60,1,0
215389,-83.3333333333333,4,2,3,60,0,0
216057,-83.3333333333333,4,2,3,5,0,0
216619,297.029702970297,4,2,3,60,1,0
216619,-83.3333333333333,4,2,3,60,0,0
217287,-83.3333333333333,4,2,3,5,0,0
217510,-83.3333333333333,4,2,3,60,0,0
217844,297.029702970297,4,2,3,60,1,0
217844,-83.3333333333333,4,2,3,60,0,0
218512,-83.3333333333333,4,2,3,5,0,0
219061,297.029702970297,4,2,3,60,1,0
219061,-83.3333333333333,4,2,3,60,0,0
219729,-83.3333333333333,4,2,3,5,0,0
220305,297.029702970297,4,2,3,60,1,0
220305,-83.3333333333333,4,2,3,60,0,0
220973,-83.3333333333333,4,2,3,5,0,0
221512,297.029702970297,4,2,3,60,1,0
221512,-83.3333333333333,4,2,3,60,0,0
222180,-83.3333333333333,4,2,3,5,0,0
222403,-83.3333333333333,4,2,3,60,0,0
222774,291.26213592233,4,2,3,60,1,0
222774,-83.3333333333333,4,2,3,60,0,0
223429,-83.3333333333333,4,2,3,5,0,0
223944,294.117647058824,4,2,3,60,1,0
223944,-83.3333333333333,4,2,3,60,0,0
224605,-83.3333333333333,4,2,3,5,0,0
225154,303.030303030303,4,2,3,60,1,0
225154,-83.3333333333333,4,2,3,60,0,0
225835,-83.3333333333333,4,2,3,5,0,0
226405,297.029702970297,4,2,3,60,1,0
226405,-83.3333333333333,4,2,3,60,0,0
227073,-83.3333333333333,4,2,3,5,0,0
227296,-83.3333333333333,4,2,3,60,0,0
227637,297.029702970297,4,2,3,60,1,0
227637,-83.3333333333333,4,2,3,60,0,0
228858,297.029702970297,4,2,3,60,1,0
230082,297.029702970297,4,2,3,60,1,0
231300,297.029702970297,4,2,3,60,1,0
232519,297.029702970297,4,2,3,60,1,0
233737,294.117647058824,4,2,3,60,1,0
234325,-166.666666666667,4,2,3,60,0,0
234980,301.507537688442,4,2,1,60,1,0
234980,-71.4285714285715,4,2,1,60,0,0
236186,306.122448979592,4,2,1,60,1,0
236186,-71.4285714285715,4,2,1,60,0,0
237410,309.278350515464,4,2,1,60,1,0
237410,-71.4285714285715,4,2,1,60,0,1
237641,-71.4285714285715,4,2,1,5,0,1
237719,-71.4285714285715,4,2,1,60,0,1
238647,306.122448979592,4,2,1,60,1,1
238647,-71.4285714285715,4,2,1,60,0,1
239794,-71.4285714285715,4,2,1,5,0,1
239871,-71.4285714285715,4,2,1,60,0,1
241095,304.568527918782,4,2,1,60,1,1
241095,-71.4285714285715,4,2,1,60,0,1
242313,306.122448979592,4,2,1,60,1,1
242313,-71.4285714285715,4,2,1,60,0,1
242542,-71.4285714285715,4,2,1,5,0,1
242619,-71.4285714285715,4,2,1,60,0,1
243537,304.568527918782,4,2,1,60,1,1
244755,309.278350515464,4,2,1,60,1,1
244755,-71.4285714285715,4,2,1,60,0,1
245993,-71.4285714285715,4,2,1,60,0,1
246997,-71.4285714285715,4,2,1,5,0,1
247074,-71.4285714285715,4,2,1,60,0,1
247154,-71.4285714285715,4,2,1,5,0,1
247229,300,4,2,1,60,1,1
247229,-71.4285714285715,4,2,1,60,0,1
248279,-71.4285714285715,4,2,1,5,0,1
248429,-71.4285714285715,4,2,1,60,0,1
249554,-71.4285714285715,4,2,1,5,0,1
249629,314.13612565445,4,2,1,5,1,1
249629,-71.4285714285715,4,2,1,60,0,1
250885,306.122448979592,4,2,1,60,1,1
250885,-71.4285714285715,4,2,1,60,0,1
251879,-71.4285714285715,4,2,1,5,0,1
251956,-71.4285714285715,4,2,1,60,0,1
252032,-71.4285714285715,4,2,1,5,0,1
252109,-71.4285714285715,4,2,1,60,0,1
254558,-71.4285714285715,4,2,1,60,0,1
257007,-52.6315789473684,4,2,1,60,0,1
257237,-52.6315789473684,4,2,1,5,0,1
257313,-52.6315789473684,4,2,1,60,0,1
258078,-52.6315789473684,4,2,1,5,0,1
258231,-52.6315789473684,4,2,1,60,0,1
258385,-52.6315789473684,4,2,1,5,0,1
258538,-52.6315789473684,4,2,1,60,0,1
258920,-71.4285714285715,4,2,1,5,0,1
258997,-71.4285714285715,4,2,1,60,0,1
259073,-27.7777777777778,4,2,1,60,0,1
259303,-52.6315789473684,4,2,1,60,0,1
259379,-71.4285714285715,4,2,1,5,0,1
259456,-52.6315789473684,4,2,1,60,0,1
259686,-52.6315789473684,4,2,1,5,0,1
259762,-52.6315789473684,4,2,1,60,0,1
260680,303.030303030303,4,2,1,60,1,1
261134,-52.6315789473684,4,2,1,60,0,1
261892,306.122448979592,4,2,1,60,1,1
261892,-52.6315789473684,4,2,1,60,0,1
262121,-52.6315789473684,4,2,1,5,0,1
262198,-52.6315789473684,4,2,1,60,0,1
265565,295.566502463054,4,2,1,60,1,1
266008,-52.6315789473684,4,2,1,60,0,1
266303,240,4,2,1,60,1,1
266303,-52.6315789473684,4,2,1,60,0,1
266747,307.692307692308,4,2,1,60,1,1
269207,306.122448979592,4,2,1,55,1,0
269207,-66.6666666666667,4,2,1,55,0,0
272803,-66.6666666666667,4,2,1,5,0,0
272880,-66.6666666666667,4,2,1,55,0,0
274870,-66.6666666666667,4,2,1,5,0,0
275023,-66.6666666666667,4,2,1,55,0,0
276171,-66.6666666666667,4,2,1,5,0,0
276247,-66.6666666666667,4,2,1,55,0,0
277778,315.789473684211,4,2,1,55,1,0
277778,-66.6666666666667,4,2,1,55,0,0
278014,-66.6666666666667,4,2,1,5,0,0
278093,-66.6666666666667,4,2,1,55,0,0
279041,300,4,2,1,55,1,0
279041,-66.6666666666667,4,2,1,55,0,0
280991,-66.6666666666667,4,2,1,5,0,0
281141,-66.6666666666667,4,2,1,55,0,0
281441,312.5,4,2,1,55,1,0
281441,-66.6666666666667,4,2,1,55,0,0
281597,-66.6666666666667,4,2,1,5,0,0
281675,-66.6666666666667,4,2,1,55,0,0
282222,-66.6666666666667,4,2,1,5,0,0
282378,-66.6666666666667,4,2,1,55,0,0
282612,-66.6666666666667,4,2,1,5,0,0
282691,306.122448979592,4,2,1,55,1,0
282691,-66.6666666666667,4,2,1,55,0,0
282844,-66.6666666666667,4,2,1,5,0,0
282997,-66.6666666666667,4,2,1,55,0,0
283457,-66.6666666666667,4,2,1,5,0,0
283609,-66.6666666666667,4,2,1,55,0,0
285139,303.030303030303,4,2,1,55,1,0
285139,-66.6666666666667,4,2,1,55,0,0
285972,-66.6666666666667,4,2,1,5,0,0
286048,-66.6666666666667,4,2,1,55,0,0
287563,306.122448979592,4,2,1,55,1,0
287563,-66.6666666666667,4,2,1,55,0,0
288328,-66.6666666666667,4,2,1,5,0,0
288481,-66.6666666666667,4,2,1,55,0,0
288787,-47.6190476190476,4,2,1,55,0,0
289552,-47.6190476190476,4,2,1,5,0,0
289705,-47.6190476190476,4,2,1,55,0,0
289782,-47.6190476190476,4,2,1,5,0,0
290011,309.278350515464,4,2,1,55,1,0
290011,-47.6190476190476,4,2,1,55,0,0
290088,-47.6190476190476,4,2,1,5,0,0
290320,-47.6190476190476,4,2,1,55,0,0
290397,-47.6190476190476,4,2,1,5,0,0
290629,-47.6190476190476,4,2,1,55,0,0
290706,-47.6190476190476,4,2,1,5,0,0
291248,306.122448979592,4,2,1,50,1,0
291248,-62.5,4,2,2,60,0,1
291324,-62.5,4,2,1,60,0,1
292472,-62.5,4,2,1,60,0,1
293008,-62.5,4,2,1,5,0,1
293084,-62.5,4,2,2,90,0,1
293161,-62.5,4,2,1,60,0,1
293696,304.568527918782,4,2,1,60,1,1
293696,-62.5,4,2,1,60,0,1
294914,310.880829015544,4,2,1,60,1,1
294914,-62.5,4,2,2,90,0,1
294991,-62.5,4,2,1,5,0,1
295069,-62.5,4,2,1,60,0,1
295535,-62.5,4,2,2,90,0,1
295846,-62.5,4,2,2,60,0,1
296157,306.122448979592,4,2,2,60,1,1
296157,-62.5,4,2,2,60,0,1
296233,-62.5,4,2,1,60,0,1
297534,-62.5,4,2,1,5,0,1
297687,-62.5,4,2,1,60,0,1
297993,-62.5,4,2,2,90,0,1
298070,-62.5,4,2,1,60,0,1
298605,301.507537688442,4,2,1,60,1,1
298605,-62.5,4,2,1,60,0,1
299811,309.278350515464,4,2,1,60,1,1
299811,-62.5,4,2,2,90,0,1
299888,-62.5,4,2,1,5,0,1
299965,-62.5,4,2,1,60,0,1
300429,-62.5,4,2,2,90,0,1
300738,-62.5,4,2,2,60,0,1
301048,301.507537688442,4,2,2,60,1,1
301048,-62.5,4,2,2,60,0,1
301123,-62.5,4,2,1,60,0,1
302404,-62.5,4,2,1,5,0,1
302555,-62.5,4,2,1,60,0,1
302781,-62.5,4,2,1,5,0,1
302857,-62.5,4,2,2,90,0,1
302932,-62.5,4,2,1,60,0,1
303460,304.568527918782,4,2,1,60,1,1
303460,-62.5,4,2,1,60,0,1
303612,-62.5,4,2,1,5,0,1
303764,-62.5,4,2,1,60,0,1
304069,-62.5,4,2,1,60,0,1
304221,-62.5,4,2,1,5,0,1
304373,-62.5,4,2,1,60,0,1
304678,312.5,4,2,1,60,1,1
304678,-62.5,4,2,2,90,0,1
304756,-62.5,4,2,1,5,0,1
304834,-62.5,4,2,1,60,0,1
305303,-62.5,4,2,2,90,0,1
305615,-62.5,4,2,2,60,0,1
305928,301.507537688442,4,2,2,60,1,1
305928,-62.5,4,2,2,60,0,1
306003,-62.5,4,2,1,60,0,1
307134,306.122448979592,4,2,1,60,1,1
307134,-62.5,4,2,1,60,0,1
307746,-62.5,4,2,2,90,0,1
307822,-62.5,4,2,1,60,0,1
308285,-62.5,4,2,1,5,0,1
308358,291.26213592233,4,2,1,60,1,1
308358,-62.5,4,2,1,60,0,0
309231,315.789473684211,4,2,1,60,1,0
309546,363.636363636364,4,2,1,60,1,0
309909,306.122448979592,4,2,2,60,1,0
309909,-62.5,4,2,2,60,0,0
309985,-62.5,4,2,1,5,0,0
310216,-90.9090909090909,4,2,2,60,0,0
310291,-90.9090909090909,4,2,1,5,0,0

[Colours]
Combo1 : 186,181,202
Combo2 : 96,96,96
Combo3 : 128,64,64
Combo4 : 134,174,170

[HitObjects]
374,101,7450,6,0,P|338:125|317:160,1,83.9999999999998,2|0,0:0|0:0,0:0:0:0:
310,232,8061,2,0,P|344:255|366:290,1,83.9999999999998,2|0,0:0|0:0,0:0:0:0:
360,366,8520,1,0,0:0:0:0:
385,120,8673,6,0,L|395:7,1,112,2|0,0:0|0:0,0:0:0:0:
403,7,9055,1,0,0:0:0:0:
411,6,9131,1,0,0:0:0:0:
512,109,9284,2,0,B|458:135|458:135|450:181|450:181|392:203,1,168,2|0,0:0|2:0,0:0:0:0:
224,283,9896,6,0,P|199:273|171:266,1,56,2|0,0:0|0:0,0:0:0:0:
206,350,10202,2,0,P|180:339|152:332,1,56,0|0,0:0|2:0,0:0:0:0:
6,151,10508,6,0,P|31:140|59:133,1,56,2|0,0:0|2:0,0:0:0:0:
24,217,10813,2,0,P|49:206|77:199,1,56
185,2,11119,6,0,L|171:113,1,112,2|0,0:0|3:0,0:0:0:0:
245,171,11501,5,0,3:0:0:0:
244,179,11578,1,0,3:0:0:0:
243,187,11654,1,0,3:0:0:0:
242,195,11731,2,0,L|296:180,1,56,2|0,3:2|2:0,0:0:0:0:
311,11,12037,2,0,L|256:25,1,56,2|0,0:2|2:0,0:0:0:0:
368,263,12342,6,0,L|389:110,1,154,4|2,3:1|0:0,0:0:0:0:
493,44,12801,1,0,3:2:0:0:
456,328,12954,2,0,B|414:331|414:331|387:362,1,77,10|0,3:2|0:0,0:0:0:0:
177,224,13260,2,0,B|219:221|219:221|245:189,1,77,2|0,0:0|2:0,0:0:0:0:
392,357,13566,6,0,L|382:280,1,77,2|0,3:2|0:0,0:0:0:0:
179,110,13872,2,0,L|183:148,1,38.5,2|0,0:0|0:0,0:0:0:0:
118,185,14024,1,0,3:2:0:0:
347,9,14177,5,10,3:2:0:0:
276,360,14483,1,2,0:0:0:0:
3,116,14789,6,0,B|62:133|62:133|65:170|65:170|118:185,1,154,2|2,3:2|0:0,0:0:0:0:
192,129,15248,1,0,3:2:0:0:
15,378,15401,2,0,L|-1:300,1,77,10|0,3:2|2:0,0:0:0:0:
217,19,15706,1,2,0:0:0:0:
217,19,16012,6,0,L|160:27,1,38.5,2|0,3:2|0:0,0:0:0:0:
276,360,16318,2,0,L|352:370,1,77,2|0,0:0|3:2,0:0:0:0:
357,365,16547,1,0,3:2:0:0:
363,360,16624,2,0,L|324:364,1,38.5,10|0,3:2|0:0,0:0:0:0:
201,375,16930,1,2,0:0:0:0:
428,52,17235,6,0,B|382:78|382:78|403:180,1,154,4|2,3:2|0:0,0:0:0:0:
505,220,17694,1,0,3:2:0:0:
274,43,17847,2,0,L|199:22,1,77,10|0,3:2|0:0,0:0:0:0:
349,311,18153,2,0,L|423:290,1,77,2|0,0:0|0:0,0:0:0:0:
230,111,18459,6,0,B|197:137|197:137|207:173,1,77,2|0,3:2|0:0,0:0:0:0:
414,328,18764,2,0,L|422:290,1,38.5,2|0,0:0|0:0,0:0:0:0:
492,270,18917,1,0,3:2:0:0:
30,308,19070,5,10,3:2:0:0:
371,380,19376,1,2,0:0:0:0:
86,57,19682,6,0,B|43:59|43:59|20:121|20:121|52:149,1,154,2|2,3:2|0:0,0:0:0:0:
131,117,20141,1,0,3:2:0:0:
45,384,20294,2,0,L|30:308,1,77,10|0,3:2|0:0,0:0:0:0:
314,26,20599,1,2,0:0:0:0:
314,26,20905,6,0,L|299:76,1,38.5,2|0,3:2|0:0,0:0:0:0:
512,339,21211,2,0,L|489:265,1,77,2|0,0:0|3:2,0:0:0:0:
482,262,21440,1,0,3:2:0:0:
474,259,21517,2,0,L|461:295,1,38.5,10|0,3:2|0:0,0:0:0:0:
512,339,21823,1,2,0:0:0:0:
428,27,22128,6,0,B|376:48|376:48|370:109|370:109|294:138,1,196,4|2,3:1|0:0,0:0:0:0:
181,49,22587,1,0,3:2:0:0:
333,230,22740,2,0,B|367:197|367:197|417:202,1,98,10|0,3:2|0:0,0:0:0:0:
217,357,23046,2,0,B|183:390|183:390|132:384,1,98,2|0,0:0|0:0,0:0:0:0:
181,49,23352,6,0,B|220:12|220:12|189:150,1,196,2|2,3:2|0:0,0:0:0:0:
272,296,23810,1,0,3:2:0:0:
53,117,23963,2,0,P|29:74|31:22,1,98,10|0,3:2|0:0,0:0:0:0:
372,273,24269,2,0,P|373:320|352:362,1,94.5000000000001,2|0,0:0|2:0,0:0:0:0:
352,362,24575,6,0,L|332:166,1,196,2|2,3:2|0:0,0:0:0:0:
434,90,25034,1,0,3:2:0:0:
149,221,25187,2,0,L|53:199,1,98,10|0,3:2|0:0,0:0:0:0:
373,274,25492,6,0,L|420:284,1,49,2|0,0:0|0:0,0:0:0:0:
54,200,25798,2,0,L|101:210,1,49,2|0,3:2|0:0,0:0:0:0:
256,377,26104,5,2,0:0:0:0:
248,338,26180,1,0,3:2:0:0:
240,299,26257,1,0,3:2:0:0:
230,261,26333,1,0,3:2:0:0:
233,221,26410,6,0,L|255:316,1,98,10|0,3:2|0:0,0:0:0:0:
69,10,26716,5,2,0:0:0:0:
31,21,26792,1,2,0:0:0:0:
7,51,26868,1,2,0:0:0:0:
12,90,26945,1,2,0:0:0:0:
40,116,27021,6,0,B|114:95|114:95|129:100|143:112|143:112|226:92,1,196,4|2,3:2|0:0,0:0:0:0:
266,0,27480,1,0,3:2:0:0:
330,262,27633,2,0,B|284:249|284:249|250:285,1,98,10|0,3:2|0:0,0:0:0:0:
473,368,27939,5,2,0:0:0:0:
481,371,28015,1,2,0:0:0:0:
490,374,28092,1,2,0:0:0:0:
498,377,28168,1,2,0:0:0:0:
506,381,28245,6,0,L|486:185,1,196,2|2,3:2|0:0,0:0:0:0:
411,156,28703,1,0,3:2:0:0:
256,384,28856,2,0,L|249:286,1,98,10|0,3:2|0:0,0:0:0:0:
467,44,29162,5,2,0:0:0:0:
476,40,29238,1,2,0:0:0:0:
485,36,29315,1,2,0:0:0:0:
494,32,29391,1,2,0:0:0:0:
503,28,29468,6,0,B|460:88|460:88|343:50,1,196,2|2,3:2|0:0,0:0:0:0:
486,186,29927,1,0,3:2:0:0:
187,36,30079,2,0,B|226:8|226:8|273:25,1,98,10|0,3:2|0:0,0:0:0:0:
274,310,30385,5,2,0:0:0:0:
271,319,30462,1,0,0:0:0:0:
269,328,30538,1,0,0:0:0:0:
267,337,30615,1,0,0:0:0:0:
265,345,30691,6,0,L|258:296,1,49,2|0,3:2|0:0,0:0:0:0:
56,81,30997,5,2,0:0:0:0:
103,90,31073,1,0,3:2:0:0:
151,100,31150,1,0,3:2:0:0:
198,111,31226,1,0,3:2:0:0:
221,148,31303,6,0,L|97:124,1,126,10|0,3:2|0:0,0:0:0:0:
0,384,31914,6,0,P|25:355|61:342,1,77,6|0,3:2|0:0,0:0:0:0:
57,266,32220,2,0,P|94:274|123:298,1,77,2|0,0:0|3:2,0:0:0:0:
207,384,32526,2,0,L|216:230,1,154,10|2,3:2|0:0,0:0:0:0:
404,176,32985,5,2,0:0:0:0:
409,181,33061,1,2,0:0:0:0:
413,186,33138,2,0,L|408:262,1,77,2|0,3:2|0:0,0:0:0:0:
279,346,33443,2,0,L|283:269,1,77,2|0,0:0|3:2,0:0:0:0:
504,91,33749,5,10,3:2:0:0:
504,91,33902,1,0,0:0:0:0:
468,28,34055,2,0,L|392:12,1,77,2|0,0:0|0:0,0:0:0:0:
211,254,34361,6,0,B|230:200|230:200|287:189,1,115.5,2|0,3:2|2:0,0:0:0:0:
287,188,34667,1,2,0:0:0:0:
322,0,34820,1,0,3:2:0:0:
238,87,34972,2,0,L|313:73,1,77,10|0,3:2|0:0,0:0:0:0:
310,349,35278,2,0,L|196:329,1,115.5,2|0,0:0|2:0,0:0:0:0:
171,250,35584,6,0,P|118:302|127:376,1,154,2|2,3:2|0:0,0:0:0:0:
196,329,36043,1,0,3:2:0:0:
111,49,36196,2,0,L|37:26,1,77,10|0,3:2|0:0,0:0:0:0:
148,169,36501,2,0,L|170:250,1,84,2|0,0:0|2:0,0:0:0:0:
212,117,36807,6,0,L|254:266,1,154,2|2,3:2|0:0,0:0:0:0:
86,230,37266,1,0,3:2:0:0:
248,384,37419,2,0,B|284:341|284:341|342:353,1,115.5,10|0,3:2|2:0,0:0:0:0:
342,353,37725,1,2,0:0:0:0:
440,52,37878,1,0,0:0:0:0:
475,116,38031,6,0,B|430:139|430:139|439:242,1,154,2|2,3:2|0:0,0:0:0:0:
498,287,38489,1,0,3:2:0:0:
245,86,38642,2,0,L|319:106,1,77,10|0,3:2|0:0,0:0:0:0:
391,296,38948,2,0,P|343:327|325:381,1,115.5,2|0,0:0|2:0,0:0:0:0:
333,221,39254,6,0,L|319:106,1,115.5,2|0,3:2|2:0,0:0:0:0:
371,52,39560,1,2,0:0:0:0:
301,35,39712,1,0,3:2:0:0:
81,219,39865,1,10,3:2:0:0:
10,204,40018,1,0,0:0:0:0:
88,291,40171,2,0,B|97:376,1,84,2|0,0:0|2:0,0:0:0:0:
151,231,40477,6,0,B|167:384,1,154,2|2,3:2|0:0,0:0:0:0:
239,305,40936,1,0,3:2:0:0:
58,63,41089,6,0,L|14:49,1,45.5,10|0,3:2|0:0,0:0:0:0:
145,88,41242,2,0,L|173:384,1,297.5,10|0,0:0|2:0,0:0:0:0:
173,384,41700,6,0,P|201:347|242:330,1,91,6|0,3:2|0:0,0:0:0:0:
270,119,42006,2,0,P|233:95|214:54,1,91,2|0,0:0|3:2,0:0:0:0:
293,250,42312,2,0,L|313:385,1,136.5,10|0,3:2|2:0,0:0:0:0:
313,384,42618,1,2,0:0:0:0:
394,117,42771,1,0,0:0:0:0:
467,324,42924,6,0,L|382:289,1,91,2|0,3:2|0:0,0:0:0:0:
387,203,43229,1,2,0:0:0:0:
387,203,43382,1,0,3:2:0:0:
201,384,43535,2,0,L|187:284,1,91,10|0,3:2|2:0,0:0:0:0:
157,11,43841,2,0,L|171:146,1,136.5,2|0,0:0|2:0,0:0:0:0:
104,188,44147,6,0,P|65:159|19:146,1,91,2|0,3:2|0:0,0:0:0:0:
12,358,44446,1,2,0:0:0:0:
20,359,44521,1,2,0:0:0:0:
28,360,44596,2,0,P|67:338|97:304,1,91,0|10,3:2|3:2,0:0:0:0:
33,224,44896,1,0,0:0:0:0:
323,341,45046,2,0,L|186:322,1,136.5,2|0,0:0|2:0,0:0:0:0:
373,279,45345,6,0,B|418:250|418:250|392:375,1,182,2|2,3:2|0:0,0:0:0:0:
300,263,45810,1,0,3:2:0:0:
449,91,45966,2,0,L|467:-4,1,91,10|0,3:2|0:0,0:0:0:0:
512,190,46276,1,2,0:0:0:0:
512,190,46431,1,0,0:0:0:0:
258,14,46587,6,0,B|225:32|225:32|222:97|222:97|192:113,1,136.5,2|0,3:2|2:0,0:0:0:0:
61,36,46892,2,0,L|150:51,1,91,2|0,0:0|3:2,0:0:0:0:
27,298,47198,2,0,L|0:164,1,136.5,10|0,3:2|2:0,0:0:0:0:
53,120,47504,1,2,0:0:0:0:
113,373,47657,5,2,0:0:0:0:
120,378,47733,1,2,0:0:0:0:
127,382,47810,2,0,B|109:289|109:289|178:235,1,182,2|2,3:2|0:0,0:0:0:0:
191,325,48268,1,0,3:2:0:0:
230,55,48421,2,0,L|218:145,1,91,10|0,3:2|0:0,0:0:0:0:
509,315,48880,5,0,0:0:0:0:
469,251,49033,2,0,B|422:279|422:279|438:356|438:356|397:382,1,182,2|2,3:2|0:0,0:0:0:0:
359,320,49492,1,0,3:2:0:0:
356,39,49645,2,0,L|443:65,1,91,10|0,3:2|0:0,0:0:0:0:
445,171,49950,2,0,L|344:202,1,105,2|0,0:0|2:0,0:0:0:0:
268,129,50256,6,0,B|206:171|206:171|236:311,1,182,2|2,3:2|0:0,0:0:0:0:
293,302,50715,1,0,3:2:0:0:
105,186,50868,1,10,3:2:0:0:
136,0,51021,2,0,L|114:180,1,182,0|0,3:2|0:0,0:0:0:0:
364,275,51479,6,0,P|337:238|295:224,1,91,6|0,3:2|0:0,0:0:0:0:
339,37,51785,2,0,P|298:57|272:94,1,91,2|0,0:0|3:2,0:0:0:0:
385,365,52091,2,0,L|403:183,1,182,10|2,3:2|0:0,0:0:0:0:
475,144,52550,1,0,0:0:0:0:
269,330,52703,6,0,B|178:304,1,91,2|0,3:2|0:0,0:0:0:0:
160,232,53009,1,2,0:0:0:0:
325,281,53161,1,0,3:2:0:0:
27,262,53314,2,0,L|0:174,1,91,10|0,3:2|0:0,0:0:0:0:
65,120,53620,1,2,0:0:0:0:
65,120,53773,1,0,0:0:0:0:
264,381,53926,6,0,L|291:201,1,182,2|2,3:2|0:0,0:0:0:0:
284,194,54304,1,2,0:0:0:0:
277,187,54380,1,2,3:2:0:0:
232,127,54531,1,10,3:2:0:0:
469,50,54682,2,0,L|451:144,2,91,0|2|0,0:0|0:0|0:0,0:0:0:0:
512,222,55136,6,0,P|451:161|370:191,1,182,2|2,3:2|0:0,0:0:0:0:
434,240,55594,1,0,3:2:0:0:
164,166,55747,2,0,P|119:148|76:140,1,91,10|0,3:2|0:0,0:0:0:0:
68,44,56053,2,0,P|118:32|155:18,1,91,2|0,0:0|0:0,0:0:0:0:
208,103,56282,5,2,0:0:0:0:
216,98,56359,2,0,L|188:277,1,182,2|2,3:2|0:0,0:0:0:0:
113,304,56818,1,0,3:2:0:0:
285,118,56971,2,0,L|299:28,1,91,10|0,3:2|0:0,0:0:0:0:
100,229,57277,2,0,B|51:240|51:240|43:280,1,91,2|0,0:0|0:0,0:0:0:0:
113,304,57507,5,2,0:0:0:0:
115,312,57583,2,0,L|297:273,1,182,2|2,3:2|0:0,0:0:0:0:
334,206,58042,1,0,3:2:0:0:
439,367,58195,1,10,3:2:0:0:
383,8,58500,5,2,0:0:0:0:
383,8,58653,1,0,0:0:0:0:
470,44,58806,2,0,P|430:61|404:95,1,86.8,2|0,3:2|0:0,0:0:0:0:
475,122,59104,1,2,0:0:0:0:
258,141,59254,6,0,P|218:124|192:89,1,86.8,0|10,3:2|3:2,0:0:0:0:
118,14,59553,1,2,0:0:0:0:
110,18,59627,1,2,0:0:0:0:
101,22,59702,2,0,L|96:108,1,86.8,2|0,0:0|0:0,0:0:0:0:
7,270,60001,6,0,B|65:252|65:252|106:305|106:305|160:290,1,183.4,2|2,3:2|0:0,0:0:0:0:
132,220,60463,1,0,3:2:0:0:
294,384,60617,2,0,L|289:338,1,45.85,10|0,3:2|0:0,0:0:0:0:
319,87,60772,6,0,P|299:235|295:384,1,297.5,2|0,0:0|2:0,0:0:0:0:
240,105,61266,6,0,P|208:72|167:53,1,91.0928571428571,6|0,3:2|0:0,0:0:0:0:
374,252,61572,2,0,P|415:233|446:200,1,91.0928571428571,2|0,0:0|3:2,0:0:0:0:
228,0,61878,1,10,3:2:0:0:
249,195,62031,2,0,L|239:103,1,91.0928571428571,0|2,0:0|0:0,0:0:0:0:
310,44,62337,1,0,0:0:0:0:
174,218,62490,6,0,B|132:172|132:172|16:204,1,182.185714285714,2|2,3:2|0:0,0:0:0:0:
36,126,62949,1,0,3:2:0:0:
155,381,63102,2,0,L|166:290,1,91.0928571428571,10|0,3:2|0:0,0:0:0:0:
88,381,63408,2,0,L|100:276,1,105.107142857143,2|0,0:0|2:0,0:0:0:0:
147,226,63714,5,2,3:2:0:0:
86,19,63944,1,2,2:2:0:0:
51,189,64174,5,0,3:2:0:0:
62,206,64327,1,10,3:2:0:0:
82,208,64480,1,0,0:0:0:0:
251,100,64633,2,0,L|239:213,1,91.0928571428571,2|0,0:0|0:0,0:0:0:0:
144,364,64939,6,0,P|228:336|303:391,1,182.185714285714,2|2,3:2|0:0,0:0:0:0:
373,341,65398,1,0,3:2:0:0:
239,9,65551,2,0,L|250:99,1,91.0928571428571,10|0,3:2|2:0,0:0:0:0:
446,321,65857,2,0,B|407:259|407:259|344:273,1,136.639285714286,2|0,0:0|2:0,0:0:0:0:
389,164,66178,6,0,L|477:186,1,90.9999958343508,2|0,3:2|2:0,0:0:0:0:
469,0,66483,2,0,L|380:22,1,91,2|0,0:0|3:2,0:0:0:0:
326,203,66789,1,10,3:2:0:0:
288,141,66942,2,0,B|248:168|248:168|254:210,1,91,0|2,0:0|0:0,0:0:0:0:
283,359,67248,1,0,0:0:0:0:
177,140,67401,6,0,L|165:50,1,91,2|0,3:2|2:0,0:0:0:0:
22,266,67707,2,0,L|94:211,1,91,2|0,0:0|3:2,0:0:0:0:
165,0,68012,2,0,L|189:183,1,182,10|2,3:2|0:0,0:0:0:0:
7,377,68624,6,0,B|36:339|36:339|80:353,1,91,2|0,3:2|2:0,0:0:0:0:
280,307,68930,2,0,L|192:329,1,91,2|0,0:0|3:2,0:0:0:0:
81,84,69236,1,10,3:2:0:0:
38,21,69389,2,0,P|11:56|6:101,2,91,0|2|0,0:0|0:0|0:0,0:0:0:0:
130,313,69847,6,0,L|110:224,1,91,2|0,3:2|0:0,0:0:0:0:
191,155,70153,1,2,0:0:0:0:
144,382,70306,1,0,3:2:0:0:
150,79,70459,1,10,3:2:0:0:
150,79,70765,5,10,3:2:0:0:
266,366,70918,1,10,3:2:0:0:
470,125,71070,6,0,B|403:141|403:141|390:200|390:200|325:217,1,196,6|2,3:2|3:2,0:0:0:0:
330,140,71529,1,0,3:2:0:0:
325,342,71682,2,0,P|374:348|417:374,1,98,10|0,3:2|2:0,0:0:0:0:
493,315,71988,1,2,3:2:0:0:
493,315,72141,1,0,3:2:0:0:
274,251,72294,6,0,P|235:281|211:326,1,98,10|0,3:2|2:0,0:0:0:0:
25,281,72600,2,0,P|69:301|101:337,1,98,2|0,3:2|3:2,0:0:0:0:
131,83,72905,1,10,3:2:0:0:
131,83,73058,1,0,0:0:0:0:
151,254,73211,2,0,L|142:156,1,98,2|0,3:2|3:2,0:0:0:0:
478,233,73517,6,0,L|469:330,1,98,10|0,3:2|2:0,0:0:0:0:
462,337,73746,1,2,0:0:0:0:
454,343,73823,1,2,3:2:0:0:
382,369,73976,1,0,3:2:0:0:
233,161,74129,6,0,B|326:190,1,98,10|0,3:2|2:0,0:0:0:0:
495,46,74434,2,0,P|439:48|384:127,1,147,2|0,3:2|2:0,0:0:0:0:
408,211,74740,6,0,L|385:115,1,98,10|0,3:2|2:0,0:0:0:0:
407,36,75046,1,2,3:2:0:0:
407,36,75199,1,0,3:2:0:0:
168,139,75352,2,0,L|145:234,1,98,10|0,3:2|2:0,0:0:0:0:
34,300,75658,1,2,3:2:0:0:
25,294,75734,1,2,0:0:0:0:
16,289,75811,1,2,3:2:0:0:
127,71,75963,6,0,P|218:75|240:164,1,196,6|2,3:2|3:2,0:0:0:0:
168,139,76422,1,0,3:2:0:0:
245,329,76575,6,0,P|281:297|328:285,1,98,10|0,3:2|2:0,0:0:0:0:
414,173,76881,2,0,P|380:138|335:122,1,98,2|0,3:2|3:2,0:0:0:0:
451,366,77187,2,0,L|435:269,2,98,10|0|2,3:2|0:0|3:2,0:0:0:0:
498,207,77645,1,0,3:2:0:0:
250,295,77798,6,0,B|224:250|224:250|131:271,1,147,10|0,3:2|2:0,0:0:0:0:
35,384,78104,2,0,L|56:288,1,98,2|0,3:2|3:2,0:0:0:0:
0,48,78410,6,0,B|74:61|74:61|94:101|94:101|169:115,1,196,10|2,3:2|3:2,0:0:0:0:
239,40,78869,1,0,3:2:0:0:
105,206,79022,2,0,P|72:242|56:288,1,98,10|0,3:2|2:0,0:0:0:0:
349,168,79327,2,0,P|332:122|303:81,1,98,2|0,3:2|3:2,0:0:0:0:
392,17,79557,5,2,0:0:0:0:
396,25,79633,2,0,P|388:97|355:163,1,147,10|0,3:2|2:0,0:0:0:0:
183,183,79939,2,0,P|241:186|278:203,1,98,2|0,3:2|3:2,0:0:0:0:
345,259,80245,1,10,3:2:0:0:
345,259,80551,5,2,3:2:0:0:
312,77,80703,1,0,3:2:0:0:
257,346,80856,6,0,B|322:331|322:331|347:389|347:389|411:375,1,196,6|2,3:2|3:2,0:0:0:0:
456,301,81315,1,0,3:2:0:0:
198,384,81468,2,0,P|162:351|114:340,1,98,10|0,3:2|2:0,0:0:0:0:
76,263,81774,1,2,3:2:0:0:
76,263,81927,1,0,3:2:0:0:
227,0,82080,6,0,L|205:194,1,196,10|2,3:2|3:2,0:0:0:0:
274,243,82538,1,0,3:2:0:0:
96,46,82691,2,0,L|4:10,1,98,10|0,3:2|2:0,0:0:0:0:
340,145,82997,2,0,L|431:180,1,98,2|0,3:2|3:2,0:0:0:0:
192,100,83303,6,0,L|283:64,1,98,10|0,3:2|2:0,0:0:0:0:
284,54,83532,1,2,0:0:0:0:
286,44,83609,1,2,3:2:0:0:
227,0,83762,1,0,3:2:0:0:
254,229,83915,2,0,L|266:326,1,98,10|0,3:2|2:0,0:0:0:0:
496,294,84220,2,0,B|459:249|459:249|378:286,1,147,2|0,3:2|2:0,0:0:0:0:
391,384,84526,6,0,L|378:286,1,98,10|0,3:2|2:0,0:0:0:0:
482,179,84832,1,2,3:2:0:0:
482,179,84985,1,0,3:2:0:0:
199,314,85138,6,0,L|291:346,1,98,10|0,3:2|2:0,0:0:0:0:
117,164,85444,1,2,3:2:0:0:
107,167,85520,1,2,0:0:0:0:
98,170,85596,1,2,3:2:0:0:
128,364,85749,6,0,L|98:170,1,196,6|2,3:2|3:2,0:0:0:0:
19,134,86208,1,0,3:2:0:0:
199,314,86361,2,0,L|183:213,1,98,10|0,3:2|2:0,0:0:0:0:
4,38,86667,2,0,L|20:139,1,98,2|0,3:2|3:2,0:0:0:0:
341,155,86973,6,0,B|298:103|298:103|174:139,1,196,10|2,3:2|3:2,0:0:0:0:
225,384,87431,1,2,3:2:0:0:
233,379,87508,1,2,0:0:0:0:
241,373,87584,2,0,L|269:228,1,147,10|0,3:2|2:0,0:0:0:0:
188,243,87890,2,0,L|93:267,1,98,2|0,3:2|3:2,0:0:0:0:
0,0,88196,6,0,B|61:9|61:9|74:80|74:80|138:91,1,196,14|2,3:2|3:2,0:0:0:0:
234,16,88655,1,0,3:2:0:0:
188,243,88807,2,0,L|171:146,1,98,10|0,3:2|0:0,0:0:0:0:
305,0,89113,1,2,3:2:0:0:
305,0,89266,1,0,3:2:0:0:
287,202,89419,6,0,B|273:359|273:359|307:375,1,196,10|2,3:2|3:2,0:0:0:0:
371,302,89878,1,0,3:2:0:0:
175,359,90031,2,0,L|80:384,1,98,10|0,3:2|2:0,0:0:0:0:
22,327,90337,1,2,3:2:0:0:
307,375,90489,1,0,3:2:0:0:
168,0,90642,6,0,B|181:112|181:112|148:154|148:154|162:266,1,280,6|2,3:2|3:2,0:0:0:0:
101,87,91101,1,0,3:2:0:0:
403,148,91254,2,0,B|451:68|451:68|436:23,1,140,10|0,3:2|2:0,0:0:0:0:
48,129,91560,6,0,P|79:113|100:86,1,70,6|0,3:2|0:0,0:0:0:0:
435,208,91866,2,0,P|412:181|403:148,1,70,6|0,3:2|0:0,0:0:0:0:
172,61,92171,6,0,P|176:95|165:128,1,70,4|0,3:2|0:0,0:0:0:0:
347,92,92477,2,0,P|329:122|326:156,1,70,4|0,3:2|0:0,0:0:0:0:
195,336,93089,6,0,L|165:128,1,210,4|2,3:1|0:0,0:0:0:0:
267,32,93548,1,0,3:2:0:0:
57,244,93700,2,0,B|25:240|0:214|0:214|-14:267|26:303|26:303|54:300|70:290,1,210,10|2,3:2|0:0,0:0:0:0:
71,159,94159,1,0,0:0:0:0:
261,380,94312,6,0,P|302:347|353:337,1,105,2|0,3:2|2:0,0:0:0:0:
508,168,94618,1,2,0:0:0:0:
503,177,94694,1,2,0:0:0:0:
498,186,94771,2,0,L|447:200,1,52.5,2|0,3:2|0:0,0:0:0:0:
306,223,94924,2,0,L|509:167,1,210,4|2,3:2|0:0,0:0:0:0:
494,87,95382,1,0,0:0:0:0:
231,199,95535,6,0,B|202:244|202:244|241:278,1,105,2|0,3:2|2:0,0:0:0:0:
306,223,95841,1,2,0:0:0:0:
221,384,95994,1,0,3:2:0:0:
164,117,96147,2,0,L|146:14,1,105,10|0,3:2|2:0,0:0:0:0:
310,226,96453,5,2,0:0:0:0:
310,226,96606,1,0,0:0:0:0:
17,44,96759,2,0,P|43:46|68:53,1,52.5,4|0,3:2|0:0,0:0:0:0:
111,321,97064,5,2,0:0:0:0:
101,275,97141,1,0,3:2:0:0:
90,228,97217,1,0,3:2:0:0:
81,181,97294,1,0,3:2:0:0:
90,134,97370,6,0,L|128:340,1,210,8|2,3:2|0:0,0:0:0:0:
128,340,97982,6,0,B|199:323|199:323|222:336|243:371|243:371|313:356,1,208.6266,4|2,3:1|0:0,0:0:0:0:
373,144,98431,1,0,3:2:0:0:
121,270,98581,2,0,B|107:232|81:218|81:218|34:241|20:287|20:287|63:307,1,210.000008010865,10|2,3:2|0:0,0:0:0:0:
128,340,99030,1,0,0:0:0:0:
166,138,99180,6,0,P|125:105|75:92,1,105.000004005432,2|0,3:2|0:0,0:0:0:0:
271,289,99487,2,0,P|321:276|361:243,1,105.107142857143,2|0,0:0|3:2,0:0:0:0:
369,136,99718,1,2,0:0:0:0:
378,140,99795,2,0,L|362:243,1,105.107142857143,4|0,3:2|2:0,0:0:0:0:
39,35,100256,5,0,0:0:0:0:
90,89,100410,2,0,B|190:57,1,105.107142857143,2|0,3:2|2:0,0:0:0:0:
112,9,100719,1,2,0:0:0:0:
73,252,100873,1,0,3:2:0:0:
252,105,101028,2,0,B|280:64|280:64|257:13,1,105.107142857143,10|0,3:2|0:0,0:0:0:0:
205,372,101337,5,2,0:0:0:0:
404,45,101647,2,0,P|377:51|354:62,1,52.5535714285714,4|0,3:2|0:0,0:0:0:0:
322,319,101954,5,2,0:0:0:0:
344,277,102031,1,0,3:2:0:0:
390,267,102108,1,0,3:2:0:0:
433,283,102185,1,0,3:2:0:0:
454,325,102262,2,0,L|249:277,1,210.214285714286,8|2,3:2|0:0,0:0:0:0:
249,278,102877,6,0,P|242:173|225:69,1,210.214285714286,4|2,3:1|0:0,0:0:0:0:
316,0,103335,1,0,3:2:0:0:
433,283,103488,2,0,B|419:346|419:346|332:369|332:369|293:328,1,210.214285714286,10|2,3:2|0:0,0:0:0:0:
350,256,103947,1,0,0:0:0:0:
86,326,104100,6,0,P|35:257|-5:226,1,105.107142857143,2|0,3:2|2:0,0:0:0:0:
58,40,104406,1,2,0:0:0:0:
65,32,104482,1,2,0:0:0:0:
72,25,104558,2,0,L|122:12,1,52.5535714285714,2|0,3:2|0:0,0:0:0:0:
99,221,104711,2,0,L|123:12,1,210.214285714286,4|2,3:2|0:0,0:0:0:0:
211,0,105170,1,0,0:0:0:0:
178,287,105323,6,0,B|130:321|130:321|140:366,1,105.107142857143,2|0,3:2|2:0,0:0:0:0:
265,94,105629,2,0,B|313:60|313:60|302:14,1,105.107142857143,2|0,0:0|3:2,0:0:0:0:
388,10,105858,1,2,0:0:0:0:
395,16,105935,2,0,P|378:66|375:119,1,105.107142857143,10|0,3:2|0:0,0:0:0:0:
470,346,106240,5,2,0:0:0:0:
488,26,106546,2,0,P|469:44|453:65,1,52.5535714285714,4|0,3:2|0:0,0:0:0:0:
127,294,106850,5,2,0:0:0:0:
85,272,106926,1,0,3:2:0:0:
47,251,107002,1,0,3:2:0:0:
66,208,107078,1,0,3:2:0:0:
87,165,107154,2,0,L|104:374,1,210.214285714286,8|2,3:2|0:0,0:0:0:0:
104,374,107763,6,0,B|168:335|168:335|163:271|163:271|223:235,1,210.214285714286,4|2,3:1|0:0,0:0:0:0:
281,328,108221,1,0,3:2:0:0:
3,101,108374,2,0,B|-24:168|30:212|30:212|48:169|97:158,1,210.214285714286,10|2,3:2|0:0,0:0:0:0:
103,235,108833,1,0,0:0:0:0:
261,0,108986,6,0,L|239:102,1,105.107142857143,2|0,3:2|2:0,0:0:0:0:
502,250,109292,2,0,L|480:147,1,105.107142857143,2|0,0:0|3:2,0:0:0:0:
499,360,109521,1,2,0:0:0:0:
497,349,109597,2,0,P|460:312|410:299,1,105.107142857143,4|0,3:2|0:0,0:0:0:0:
349,0,110056,5,0,0:0:0:0:
406,60,110209,2,0,B|369:98|369:98|320:79,1,105.107142857143,2|0,3:2|2:0,0:0:0:0:
311,84,110438,1,2,0:0:0:0:
301,88,110515,1,2,0:0:0:0:
456,123,110668,1,0,3:2:0:0:
318,280,110821,2,0,L|331:384,1,105.107142857143,10|0,3:2|2:0,0:0:0:0:
295,36,111126,6,0,L|301:88,1,52.5535714285714,2|0,0:0|0:0,0:0:0:0:
21,353,111432,2,0,L|27:300,1,52.5535714285714,4|0,3:2|0:0,0:0:0:0:
281,176,111738,5,2,0:0:0:0:
229,186,111814,1,0,3:2:0:0:
177,197,111891,1,0,3:2:0:0:
125,208,111967,1,0,3:2:0:0:
86,171,112044,6,0,L|316:215,1,235.44,4|0,3:1|2:0,0:0:0:0:
316,10,112655,6,0,P|275:29|249:66,1,90.40486,6|0,3:2|2:0,0:0:0:0:
416,163,112956,2,0,P|389:128|347:111,1,90.9999958343508,2|0,0:0|3:2,0:0:0:0:
205,201,113258,1,10,3:2:0:0:
208,209,113333,1,2,0:0:0:0:
211,217,113408,2,0,L|299:238,2,90.9999958343508,2|2|0,0:0|0:0|0:0,0:0:0:0:
345,187,113861,1,2,3:2:0:0:
161,325,114013,6,0,P|143:283|106:257,1,91,0|2,0:0|0:0,0:0:0:0:
126,150,114319,1,0,3:2:0:0:
306,364,114472,2,0,P|348:349|392:358,2,91,10|0|2,3:2|0:0|0:0,0:0:0:0:
109,61,115084,6,0,L|126:150,1,91,2|0,3:2|0:0,0:0:0:0:
205,201,115390,1,2,0:0:0:0:
205,201,115542,1,0,3:2:0:0:
0,307,115695,2,0,B|88:328,1,91,10|0,3:2|2:0,0:0:0:0:
340,180,116001,2,0,L|205:200,1,136.5,2|0,0:0|2:0,0:0:0:0:
392,129,116307,6,0,B|416:91|416:91|279:111,1,182,2|2,3:2|0:0,0:0:0:0:
232,31,116766,1,0,3:2:0:0:
342,365,116919,2,0,L|364:276,1,91,10|0,3:2|2:0,0:0:0:0:
369,38,117224,2,0,L|392:129,1,94.5000000000001,2|0,0:0|2:0,0:0:0:0:
512,194,117530,6,0,B|451:181|451:181|418:212|418:212|345:196,1,182,2|2,3:2|0:0,0:0:0:0:
293,101,117989,1,0,3:2:0:0:
509,298,118142,2,0,B|531:320|531:320|368:282,1,182,10|2,3:2|0:0,0:0:0:0:
239,178,118601,5,2,0:0:0:0:
231,181,118677,1,2,0:0:0:0:
224,186,118753,2,0,L|235:276,1,91,2|0,3:2|2:0,0:0:0:0:
157,328,119059,1,2,0:0:0:0:
157,328,119212,1,0,3:2:0:0:
57,82,119365,2,0,P|101:90|138:116,1,91,10|0,3:2|2:0,0:0:0:0:
124,200,119671,2,0,P|64:231|34:291,1,136.5,2|0,0:0|2:0,0:0:0:0:
54,380,119977,6,0,L|34:291,1,91,2|0,3:2|0:0,0:0:0:0:
138,116,120283,1,2,0:0:0:0:
124,200,120435,1,0,3:2:0:0:
310,286,120588,1,10,3:2:0:0:
296,370,120741,1,0,0:0:0:0:
390,256,120894,2,0,L|478:222,1,94.5000000000001,2|0,0:0|2:0,0:0:0:0:
318,200,121200,6,0,L|488:135,1,182,2|2,3:2|0:0,0:0:0:0:
508,40,121659,1,0,3:2:0:0:
316,194,121812,6,0,L|272:179,1,45.5,10|0,3:2|0:0,0:0:0:0:
187,20,121964,2,0,L|217:333,1,315,8|0,0:0|2:0,0:0:0:0:
217,333,122423,6,0,P|248:296|294:280,1,98,6|0,3:2|2:0,0:0:0:0:
24,225,122729,2,0,P|58:259|69:306,1,98,2|0,0:0|3:2,0:0:0:0:
0,8,123035,2,0,L|15:154,1,147,10|0,3:2|2:0,0:0:0:0:
15,154,123341,1,2,0:0:0:0:
108,3,123494,1,0,0:0:0:0:
122,190,123646,6,0,L|214:221,1,98,2|0,3:2|0:0,0:0:0:0:
290,175,123952,1,2,0:0:0:0:
290,175,124105,1,0,3:2:0:0:
266,384,124258,2,0,L|245:288,1,98,10|0,3:2|2:0,0:0:0:0:
492,197,124564,2,0,L|460:340,1,147,2|0,0:0|2:0,0:0:0:0:
377,170,124870,6,0,P|400:127|443:104,1,98,2|0,3:2|2:0,0:0:0:0:
507,18,125175,1,2,0:0:0:0:
508,27,125252,1,2,0:0:0:0:
510,36,125328,2,0,P|465:13|416:12,1,98,2|10,3:2|3:2,0:0:0:0:
344,66,125634,1,0,0:0:0:0:
459,251,125787,2,0,L|443:104,1,147,2|0,0:0|2:0,0:0:0:0:
468,325,126093,6,0,B|423:368|423:368|309:297,1,196,2|2,3:2|0:0,0:0:0:0:
345,233,126552,1,0,3:2:0:0:
17,299,126705,2,0,B|-7:343|-7:343|24:379,1,98,10|0,3:2|0:0,0:0:0:0:
123,322,127010,1,2,0:0:0:0:
123,322,127163,1,0,0:0:0:0:
112,83,127316,6,0,B|60:99|60:99|50:142|50:142|4:158,1,147,2|0,3:2|2:0,0:0:0:0:
1,0,127622,2,0,L|97:17,1,98,2|0,0:0|3:2,0:0:0:0:
305,244,127928,2,0,L|160:218,1,147,10|0,3:2|2:0,0:0:0:0:
140,149,128234,1,2,0:0:0:0:
422,203,128386,5,2,0:0:0:0:
429,209,128463,1,2,0:0:0:0:
434,215,128539,2,0,B|380:205|380:205|399:344,1,196,2|2,3:2|0:0,0:0:0:0:
478,384,128995,1,0,3:2:0:0:
434,118,129147,2,0,L|416:21,1,98,10|0,3:2|2:0,0:0:0:0:
0,320,129603,5,2,0:0:0:0:
8,314,129679,1,2,0:0:0:0:
15,308,129756,2,0,B|91:321|91:321|111:358|111:358|186:371,1,196,2|2,3:2|0:0,0:0:0:0:
249,299,130210,1,0,3:2:0:0:
120,161,130361,2,0,P|68:167|19:193,1,98,10|0,3:2|0:0,0:0:0:0:
205,135,130664,2,0,P|176:90|130:64,1,105,2|0,0:0|2:0,0:0:0:0:
210,4,130966,6,0,P|211:101|228:198,1,196,2|2,3:2|0:0,0:0:0:0:
315,229,131441,1,0,3:2:0:0:
103,338,131600,1,10,3:2:0:0:
418,240,131758,2,0,P|325:211|228:197,1,195.999994018555,0|0,3:2|2:0,0:0:0:0:
309,369,132234,6,0,P|349:340|395:323,1,97.9999970092774,4|0,3:2|0:0,0:0:0:0:
474,66,132539,2,0,L|443:169,1,97.6020304568529,2|0,0:0|3:2,0:0:0:0:
259,328,132845,6,0,B|185:319|185:319|148:347|148:347|72:338,1,195.204060913706,10|2,3:2|0:0,0:0:0:0:
24,250,133304,1,0,0:0:0:0:
204,17,133457,6,0,B|218:113,1,97.9999970092774,2|0,3:2|2:0,0:0:0:0:
291,140,133763,1,2,0:0:0:0:
125,94,133915,1,0,3:2:0:0:
352,272,134068,6,0,B|366:175,1,98,10|0,3:2|2:0,0:0:0:0:
436,135,134374,1,2,0:0:0:0:
436,135,134527,1,0,0:0:0:0:
476,384,134680,6,0,L|504:190,1,196,2|2,3:2|0:0,0:0:0:0:
496,184,135062,1,2,0:0:0:0:
488,178,135139,1,2,3:2:0:0:
399,273,135292,1,10,3:2:0:0:
260,84,135445,2,0,L|150:67,2,98,0|2|0,0:0|0:0|0:0,0:0:0:0:
298,0,135903,6,0,L|302:195,1,196,2|2,3:2|0:0,0:0:0:0:
399,273,136362,1,0,3:2:0:0:
98,129,136515,2,0,B|118:81|118:81|161:69,1,98,10|0,3:2|2:0,0:0:0:0:
302,195,136821,2,0,B|282:243|282:243|238:254,1,98,2|0,0:0|2:0,0:0:0:0:
192,161,137050,5,2,0:0:0:0:
200,156,137126,2,0,P|169:249|146:344,1,196,2|2,3:2|0:0,0:0:0:0:
206,384,137584,1,0,3:2:0:0:
398,180,137737,2,0,L|301:194,1,98,10|0,3:2|2:0,0:0:0:0:
481,378,138044,2,0,B|510:335|510:335|477:298,1,98,2|0,0:0|2:0,0:0:0:0:
418,345,138263,5,2,0:0:0:0:
411,337,138330,2,0,L|429:141,1,196,2|2,3:2|0:0,0:0:0:0:
499,38,138788,1,0,3:2:0:0:
479,300,138941,1,10,3:2:0:0:
91,64,139247,5,2,0:0:0:0:
91,64,139400,1,0,0:0:0:0:
157,29,139553,2,0,B|177:76|177:76|148:113,1,98,2|0,3:2|0:0,0:0:0:0:
79,139,139857,1,2,0:0:0:0:
190,186,140009,2,0,P|233:164|281:156,1,98,0|10,3:2|3:2,0:0:0:0:
217,268,140313,1,2,0:0:0:0:
214,277,140389,1,2,0:0:0:0:
211,286,140465,2,0,P|162:278|119:255,1,98,2|0,0:0|2:0,0:0:0:0:
17,384,140770,6,0,L|211:360,1,196,2|2,3:2|0:0,0:0:0:0:
291,260,141238,1,0,3:2:0:0:
7,301,141394,6,0,L|-1:250,1,49,10|0,3:2|0:0,0:0:0:0:
19,378,141550,2,0,L|366:335,1,350,2|0,0:0|2:0,0:0:0:0:
215,204,142018,6,0,B|173:228|173:228|195:281,1,98,6|0,3:2|0:0,0:0:0:0:
433,351,142324,2,0,B|452:305|452:305|410:281,1,98,2|0,0:0|3:2,0:0:0:0:
239,132,142630,1,10,3:2:0:0:
406,94,142783,2,0,L|310:116,1,98,0|2,0:0|0:0,0:0:0:0:
262,60,143089,1,0,0:0:0:0:
144,251,143241,6,0,B|150:90|150:90|180:71,1,196,2|2,3:2|0:0,0:0:0:0:
210,0,143700,1,0,3:2:0:0:
75,208,143853,2,0,L|81:104,1,98,10|0,3:2|2:0,0:0:0:0:
212,287,144159,2,0,L|206:384,1,98,2|0,0:0|2:0,0:0:0:0:
196,381,144388,1,2,0:0:0:0:
187,375,144465,5,2,3:2:0:0:
225,133,144694,1,2,0:0:0:0:
327,288,144923,5,2,0:0:0:0:
327,307,145076,1,10,3:2:0:0:
308,313,145229,1,0,0:0:0:0:
203,209,145382,2,0,L|213:111,1,98,2|0,0:0|0:0,0:0:0:0:
411,0,145688,6,0,B|456:21|456:21|438:166,1,196,2|2,3:2|0:0,0:0:0:0:
367,67,146147,1,0,3:2:0:0:
416,301,146300,2,0,L|509:272,1,98,10|0,3:2|0:0,0:0:0:0:
337,242,146605,2,0,B|289:265|289:265|308:313,1,105,2|0,0:0|2:0,0:0:0:0:
384,384,146911,6,0,L|403:288,1,98,2|0,3:2|2:0,0:0:0:0:
224,337,147217,2,0,L|130:367,1,98,2|0,0:0|3:2,0:0:0:0:
0,136,147523,1,10,3:2:0:0:
33,73,147676,2,0,B|74:101|74:101|69:149,1,98,0|2,0:0|0:0,0:0:0:0:
0,243,147981,1,0,0:0:0:0:
260,158,148134,6,0,L|350:120,1,98,2|0,3:2|2:0,0:0:0:0:
93,223,148440,2,0,L|2:260,1,98,2|0,0:0|3:2,0:0:0:0:
204,0,148746,2,0,L|177:194,1,196,10|2,3:2|0:0,0:0:0:0:
461,317,149358,6,0,B|411:342|411:342|417:384,1,98,2|0,3:2|0:0,0:0:0:0:
489,219,149663,2,0,L|509:123,1,98,2|0,0:0|3:2,0:0:0:0:
282,0,149969,1,10,3:2:0:0:
294,76,150122,2,0,L|306:173,2,98,0|2|0,0:0|0:0|0:0,0:0:0:0:
105,307,150580,6,0,P|133:268|180:254,1,98,2|0,3:2|2:0,0:0:0:0:
150,104,150884,1,2,0:0:0:0:
183,341,151036,1,0,3:2:0:0:
219,50,151188,1,10,3:2:0:0:
219,50,151492,5,10,3:2:0:0:
119,384,151644,1,10,3:2:0:0:
8,119,151797,6,0,B|82:130|82:130|93:180|93:180|175:193,1,210,6|2,3:2|3:2,0:0:0:0:
204,124,152255,1,0,3:2:0:0:
119,384,152408,2,0,L|107:279,1,105,10|0,3:2|0:0,0:0:0:0:
199,273,152714,1,2,3:2:0:0:
199,273,152867,1,0,3:2:0:0:
91,63,153020,6,0,P|41:78|7:118,1,105,10|0,3:2|0:0,0:0:0:0:
290,163,153326,2,0,P|268:115|225:87,1,105,2|0,3:2|3:2,0:0:0:0:
123,264,153631,1,10,3:2:0:0:
123,264,153784,1,0,0:0:0:0:
169,6,153937,2,0,L|151:109,1,105,2|0,3:2|3:2,0:0:0:0:
512,157,154243,6,0,L|494:53,1,105,10|0,3:2|2:0,0:0:0:0:
484,49,154473,1,2,0:0:0:0:
474,45,154550,1,2,3:2:0:0:
388,20,154704,1,0,3:2:0:0:
477,232,154857,2,0,B|457:193|457:193|379:207,1,105,10|0,3:2|2:0,0:0:0:0:
276,384,155165,2,0,L|256:227,1,157.5,2|0,3:2|2:0,0:0:0:0:
152,212,155472,6,0,L|255:227,1,105,10|0,3:2|2:0,0:0:0:0:
346,300,155779,1,2,3:2:0:0:
346,300,155933,1,0,3:2:0:0:
98,276,156087,2,0,B|60:239|60:239|78:172,1,105,10|0,3:2|0:0,0:0:0:0:
228,109,156394,1,2,3:2:0:0:
226,119,156471,1,2,0:0:0:0:
224,129,156548,1,2,3:2:0:0:
0,352,156702,6,0,B|92:340|92:340|114:365|114:365|197:354,1,210,6|2,3:2|3:2,0:0:0:0:
220,289,157163,1,0,3:2:0:0:
114,110,157316,6,0,L|12:83,1,105,10|0,3:2|2:0,0:0:0:0:
309,108,157624,2,0,P|289:59|246:31,1,105,2|0,3:2|3:2,0:0:0:0:
213,280,157931,6,0,L|222:384,2,105,10|0|2,3:2|0:0|3:2,0:0:0:0:
282,242,158385,1,0,3:2:0:0:
9,5,158536,2,0,L|169:44,1,157.5,10|0,3:2|2:0,0:0:0:0:
247,150,158839,2,0,B|266:97|266:97|235:59,1,105,2|0,3:2|3:2,0:0:0:0:
463,241,159141,6,0,B|381:257|381:257|366:304|366:304|290:318,1,210,10|2,3:2|3:2,0:0:0:0:
343,384,159592,1,0,3:2:0:0:
191,226,159743,2,0,P|142:205|91:195,1,105,10|0,3:2|0:0,0:0:0:0:
0,42,160044,2,0,P|51:31|99:10,1,105,2|2,3:2|3:2,0:0:0:0:
164,58,160270,5,2,0:0:0:0:
156,65,160345,2,0,L|0:42,1,157.5,10|0,3:2|2:0,0:0:0:0:
153,166,160655,2,0,P|192:131|243:122,1,105,2|0,3:2|3:2,0:0:0:0:
281,41,160966,1,10,3:2:0:0:
281,41,161257,5,2,3:2:0:0:
251,368,161421,1,0,3:2:0:0:
406,72,161587,6,0,B|352:95|352:95|351:193|351:193|300:214,1,210,6|2,3:2|3:2,0:0:0:0:
285,126,162041,1,0,3:2:0:0:
156,325,162192,2,0,P|206:338|250:367,1,105,10|0,3:2|2:0,0:0:0:0:
324,302,162495,1,2,3:2:0:0:
324,302,162646,1,0,3:2:0:0:
169,27,162797,6,0,L|206:233,1,210,10|2,3:2|3:2,0:0:0:0:
156,325,163251,1,0,3:2:0:0:
0,56,163403,2,0,P|59:71|100:86,1,105,10|0,3:2|0:0,0:0:0:0:
378,151,163706,2,0,P|328:168|277:181,1,105,2|0,3:2|3:2,0:0:0:0:
123,152,164008,6,0,L|144:276,1,105,10|0,3:2|2:0,0:0:0:0:
131,261,164242,1,2,0:0:0:0:
122,267,164320,1,2,3:2:0:0:
54,210,164476,1,0,3:2:0:0:
262,383,164632,2,0,L|370:358,1,105,10|0,3:2|2:0,0:0:0:0:
439,203,164944,2,0,B|419:167|419:167|307:198,1,157.5,2|0,3:2|2:0,0:0:0:0:
298,303,165256,6,0,L|306:198,1,105,10|0,3:2|2:0,0:0:0:0:
235,116,165561,1,2,3:2:0:0:
235,116,165714,1,0,3:2:0:0:
14,270,165867,6,0,L|31:373,1,105,10|0,3:2|2:0,0:0:0:0:
213,201,166173,1,2,3:2:0:0:
210,190,166249,1,2,0:0:0:0:
207,179,166326,1,2,3:2:0:0:
0,148,166479,6,0,L|207:179,1,210,6|2,3:2|3:2,0:0:0:0:
270,51,166937,1,0,3:2:0:0:
132,276,167090,2,0,L|28:260,1,105,10|0,3:2|0:0,0:0:0:0:
235,116,167396,2,0,B|287:143|287:143|285:189,1,105,2|0,3:2|3:2,0:0:0:0:
459,384,167702,6,0,L|467:174,1,210,10|2,3:2|3:2,0:0:0:0:
427,42,168161,1,2,3:2:0:0:
420,33,168237,1,2,0:0:0:0:
412,25,168314,2,0,B|454:16|454:16|480:67|480:67|433:100,1,157.5,10|0,3:2|2:0,0:0:0:0:
354,80,168619,2,0,L|251:56,1,105,2|0,3:2|3:2,0:0:0:0:
100,307,168925,6,0,B|180:288|180:288|212:310|212:310|299:293,1,210,14|2,3:2|3:2,0:0:0:0:
384,328,169384,1,0,3:2:0:0:
229,225,169537,2,0,B|183:195|183:195|190:145,1,105,10|0,3:2|2:0,0:0:0:0:
14,20,169843,1,2,3:2:0:0:
14,20,169996,1,0,3:2:0:0:
266,160,170148,6,0,B|426:117|426:117|429:72,1,210,10|2,3:2|3:2,0:0:0:0:
352,49,170607,1,0,3:2:0:0:
408,349,170760,2,0,L|417:241,1,105,10|0,3:2|0:0,0:0:0:0:
495,182,171066,1,2,3:2:0:0:
479,384,171219,1,0,3:2:0:0:
0,278,171372,6,0,B|104:264|104:264|118:298|156:318|156:318|254:305,1,279.0844,6|2,3:2|3:2,0:0:0:0:
316,195,171830,1,0,3:2:0:0:
0,32,171983,2,0,B|67:47|67:47|54:117,1,139.431472081218,10|0,3:2|2:0,0:0:0:0:
240,374,172289,6,0,L|253:305,1,69.7157360406092,6|0,3:2|0:0,0:0:0:0:
308,0,172595,2,0,L|294:68,1,69.7157360406092,6|0,3:2|0:0,0:0:0:0:
382,255,172899,6,0,P|348:263|318:281,1,69.7157360406092,4|0,3:2|0:0,0:0:0:0:
165,64,173203,2,0,P|194:82|228:90,1,69.7157360406092,4|0,3:2|0:0,0:0:0:0:
382,340,173812,6,0,L|159:316,1,224.572304547777,4|2,3:1|0:0,0:0:0:0:
39,379,174270,1,0,3:2:0:0:
412,262,174423,2,0,B|418:227|440:211|440:211|492:219|505:276|505:276|493:309|466:327,1,224.572304547777,10|2,3:2|0:0,0:0:0:0:
382,340,174882,1,0,0:0:0:0:
273,117,175035,6,0,P|232:155|202:202,1,112.286152273888,2|0,3:2|2:0,0:0:0:0:
13,34,175341,1,2,0:0:0:0:
22,39,175417,1,2,0:0:0:0:
31,45,175493,2,0,L|37:100,1,56.1430761369442,2|0,3:2|0:0,0:0:0:0:
0,266,175646,2,0,L|31:44,1,224.572304547777,4|2,3:2|0:0,0:0:0:0:
145,0,176105,1,0,0:0:0:0:
126,279,176258,6,0,P|77:305|51:354,1,112.286152273888,2|0,3:2|2:0,0:0:0:0:
141,371,176562,1,2,0:0:0:0:
391,269,176714,1,0,3:2:0:0:
108,183,176867,2,0,L|0:154,1,112.286152273888,10|0,3:2|0:0,0:0:0:0:
197,0,177171,5,2,0:0:0:0:
197,0,177323,1,0,0:0:0:0:
246,265,177476,2,0,L|233:210,1,56.1430761369442,4|0,3:2|0:0,0:0:0:0:
488,33,177780,5,2,0:0:0:0:
477,81,177856,1,0,3:2:0:0:
465,130,177933,1,0,3:2:0:0:
452,178,178009,1,0,3:2:0:0:
478,221,178085,6,0,L|447:-11,1,224.572304547777,8|2,3:2|0:0,0:0:0:0:
448,0,178694,6,0,B|389:24|389:24|384:112|384:112|317:139,1,224.572304547777,4|2,3:1|0:0,0:0:0:0:
223,38,179162,1,0,3:2:0:0:
412,178,179319,2,0,B|362:190|348:242|348:242|378:366,1,224.572304547777,10|2,3:2|0:0,0:0:0:0:
429,260,179787,1,0,0:0:0:0:
136,143,179944,6,0,P|155:89|151:32,1,112.286152273888,2|0,3:2|2:0,0:0:0:0:
216,290,180250,2,0,P|253:333|304:359,1,112.286152273888,2|0,0:0|3:2,0:0:0:0:
417,340,180479,1,2,0:0:0:0:
410,331,180556,6,0,L|301:357,1,112.286152273888,4|0,3:2|0:0,0:0:0:0:
10,66,181015,5,0,0:0:0:0:
59,16,181168,2,0,L|45:127,1,112.286152273888,2|0,3:2|0:0,0:0:0:0:
118,238,181469,1,2,0:0:0:0:
150,0,181620,1,0,3:2:0:0:
43,332,181771,2,0,B|100:317|100:317|135:355,1,112.286152273888,10|0,3:2|2:0,0:0:0:0:
210,32,182072,5,2,0:0:0:0:
341,336,182374,2,0,P|318:351|301:373,1,56.1430761369442,4|0,3:2|0:0,0:0:0:0:
311,4,182684,5,2,0:0:0:0:
333,54,182762,1,0,3:2:0:0:
312,106,182840,1,0,3:2:0:0:
258,120,182918,1,0,3:2:0:0:
211,88,182995,6,0,P|322:100|432:118,1,224.572304547777,8|2,3:2|0:0,0:0:0:0:
433,119,183617,6,0,B|335:136|335:136|325:161|325:161|229:180,1,224,4|2,3:1|0:0,0:0:0:0:
311,4,184076,1,0,3:2:0:0:
41,236,184229,2,0,B|16:233|-9:242|-9:242|-32:318|28:348|28:348|50:328|68:321,1,224.228571428571,10|2,3:2|0:0,0:0:0:0:
122,254,184688,1,0,0:0:0:0:
9,2,184841,6,0,L|24:112,1,112.114285714286,2|0,3:2|2:0,0:0:0:0:
165,314,185145,1,2,0:0:0:0:
156,320,185221,1,2,0:0:0:0:
147,325,185297,2,0,L|137:380,1,56.0571428571429,2|0,3:2|0:0,0:0:0:0:
368,289,185450,2,0,L|147:325,1,224.228571428571,4|2,3:2|0:0,0:0:0:0:
41,236,185906,1,0,0:0:0:0:
420,348,186059,6,0,B|457:302|457:302|432:255,1,112.114285714286,2|0,3:2|2:0,0:0:0:0:
229,26,186363,2,0,B|192:72|192:72|216:118,1,112.114285714286,2|0,0:0|3:2,0:0:0:0:
334,129,186592,1,2,0:0:0:0:
327,138,186668,2,0,L|216:118,1,112.114285714286,10|0,3:2|2:0,0:0:0:0:
154,0,186972,5,2,0:0:0:0:
192,384,187277,2,0,L|187:328,1,56.0571428571429,4|0,3:2|0:0,0:0:0:0:
12,134,187582,5,2,0:0:0:0:
55,109,187658,1,0,3:2:0:0:
101,88,187734,1,0,3:2:0:0:
137,122,187810,1,0,3:2:0:0:
169,160,187886,6,0,L|184:395,1,224.228571428571,8|2,3:2|0:0,0:0:0:0:
183,383,188495,6,0,B|200:315|200:315|352:292,1,224.228571428571,4|2,3:1|0:0,0:0:0:0:
410,206,188954,1,0,3:2:0:0:
123,319,189107,2,0,B|128:261|84:232|84:232|7:260|7:260|45:282,1,224.228571428571,10|2,3:2|0:0,0:0:0:0:
57,366,189566,1,0,0:0:0:0:
20,127,189719,6,0,L|5:15,1,112.114285714286,2|0,3:2|2:0,0:0:0:0:
217,205,190025,2,0,L|202:316,1,112.114285714286,2|0,0:0|3:2,0:0:0:0:
320,141,190255,1,2,0:0:0:0:
327,132,190331,2,0,B|284:101|284:101|220:132,1,112.114285714286,4|0,3:2|2:0,0:0:0:0:
477,378,190790,5,0,0:0:0:0:
468,304,190943,2,0,L|455:192,1,112.114285714286,2|2,3:2|0:0,0:0:0:0:
445,187,191173,1,2,0:0:0:0:
434,182,191250,1,2,0:0:0:0:
495,107,191403,1,0,3:2:0:0:
411,351,191556,2,0,L|297:324,1,112.114285714286,10|0,3:2|0:0,0:0:0:0:
250,9,191862,6,0,L|262:63,1,56.0571428571429,2|0,0:0|0:0,0:0:0:0:
2,337,192168,2,0,L|14:282,1,56.0571428571429,4|0,3:2|0:0,0:0:0:0:
365,42,192474,5,2,0:0:0:0:
357,97,192551,1,0,3:2:0:0:
347,152,192627,1,0,3:2:0:0:
336,206,192704,1,0,3:2:0:0:
356,258,192780,6,0,B|330:73|330:73|359:49,1,224.228571428571,4|2,3:1|0:0,0:0:0:0:
365,42,193392,5,12,3:2:0:0:
258,189,193542,1,8,3:2:0:0:
430,133,193692,1,8,3:2:0:0:
258,77,193842,1,8,3:2:0:0:
365,224,193992,1,8,3:2:0:0:
359,30,194592,5,12,3:2:0:0:
255,201,194744,1,8,3:2:0:0:
439,123,194896,1,8,3:2:0:0:
245,79,195048,1,8,3:2:0:0:
376,229,195201,1,8,3:2:0:0:
351,18,195810,5,12,3:2:0:0:
254,215,195963,1,8,3:2:0:0:
448,113,196117,1,8,3:2:0:0:
231,82,196271,1,8,3:2:0:0:
389,235,196425,1,8,3:2:0:0:
342,5,197040,5,12,3:2:0:0:
255,231,197188,1,8,3:2:0:0:
456,100,197337,1,8,3:2:0:0:
216,87,197485,1,8,3:2:0:0:
404,239,197634,1,8,3:2:0:0:
404,239,198270,6,0,P|437:214|478:209,3,83.9999974365235,14|8|8|8,3:2|3:2|3:2|3:2,0:0:0:0:
478,209,198870,2,0,L|495:156,1,41.9999987182618,10|8,3:2|3:2,0:0:0:0:
328,183,199507,6,0,P|322:141|339:103,3,83.9999974365235,10|8|8|8,3:2|3:2|3:2|3:2,0:0:0:0:
339,103,200101,2,0,L|301:61,1,41.9999987182618,10|8,3:2|3:2,0:0:0:0:
241,220,200731,6,0,P|202:203|178:170,3,83.9999974365235,10|8|8|8,3:2|3:2|3:2|3:2,0:0:0:0:
178,170,201325,2,0,L|123:181,1,41.9999987182618,10|8,3:2|3:2,0:0:0:0:
229,313,201955,6,0,P|195:337|154:342,3,83.9999974365235,10|8|8|8,3:2|3:2|3:2|3:2,0:0:0:0:
154,342,202549,2,0,L|137:394,1,41.9999987182618,10|8,3:2|3:2,0:0:0:0:
140,381,203192,6,0,L|132:297,3,83.9999974365235,10|8|8|8,3:2|3:2|3:2|3:2,0:0:0:0:
138,293,203786,2,0,L|133:248,1,41.9999987182618,10|0,3:2|0:0,0:0:0:0:
11,93,204422,6,0,L|18:176,3,83.9999974365235,10|8|8|8,3:2|3:2|3:2|3:2,0:0:0:0:
15,183,205016,2,0,L|20:228,1,41.9999987182618,10|0,3:2|0:0,0:0:0:0:
100,18,205616,6,0,P|144:13|181:31,3,83.9999974365235,10|8|8|8,3:2|3:2|3:2|3:2,0:0:0:0:
179,29,206210,2,0,L|171:70,1,41.9999987182618,10|0,3:2|0:0,0:0:0:0:
445,249,206822,6,0,P|400:254|363:238,3,83.9999974365235,10|8|8|8,3:2|3:2|3:2|3:2,0:0:0:0:
364,240,207416,2,0,L|369:198,1,41.9999987182618,10|0,3:2|0:0,0:0:0:0:
270,127,207713,5,4,0:0:0:0:
270,127,208072,5,14,3:2:0:0:
258,201,208220,1,8,3:2:0:0:
246,276,208369,1,8,3:2:0:0:
234,350,208517,1,8,3:2:0:0:
226,355,208666,2,0,L|216:315,1,42.0428571428572,10|0,3:2|0:0,0:0:0:0:
89,82,209287,5,10,3:2:0:0:
163,94,209434,1,8,3:2:0:0:
238,106,209581,1,8,3:2:0:0:
312,118,209728,1,8,3:2:0:0:
317,126,209875,2,0,L|277:136,1,42.0428571428572,10|0,3:2|0:0,0:0:0:0:
47,265,210512,5,10,3:2:0:0:
59,191,210657,1,8,3:2:0:0:
71,116,210803,1,8,3:2:0:0:
83,42,210948,1,8,3:2:0:0:
91,37,211094,2,0,L|101:77,1,42.0428571428572,10|0,3:2|0:0,0:0:0:0:
228,310,211727,5,10,3:2:0:0:
154,298,211872,1,8,3:2:0:0:
79,286,212018,1,8,3:2:0:0:
5,274,212163,1,8,3:2:0:0:
0,266,212309,2,0,L|40:256,1,42.0428571428572,10|0,3:2|0:0,0:0:0:0:
329,376,212939,5,10,3:2:0:0:
293,309,213087,1,8,3:2:0:0:
317,237,213236,1,8,3:2:0:0:
388,213,213384,1,8,3:2:0:0:
393,221,213533,2,0,L|352:209,1,41.9999987182618,10|8,3:2|3:2,0:0:0:0:
120,304,214172,5,10,3:2:0:0:
172,249,214320,1,8,3:2:0:0:
248,249,214469,1,8,3:2:0:0:
293,309,214617,1,8,3:2:0:0:
287,316,214766,2,0,L|285:273,1,41.9999987182618,10|8,3:2|3:2,0:0:0:0:
124,83,215389,5,10,3:2:0:0:
192,115,215537,1,8,3:2:0:0:
215,187,215686,1,8,3:2:0:0:
172,249,215834,1,8,3:2:0:0:
164,245,215983,2,0,L|204:230,1,41.9999987182618,10|8,3:2|3:2,0:0:0:0:
334,27,216619,5,10,3:2:0:0:
324,101,216767,1,8,3:2:0:0:
263,145,216916,1,8,3:2:0:0:
190,123,217064,1,8,3:2:0:0:
192,115,217213,2,0,L|218:148,1,41.9999987182618,10|8,3:2|3:2,0:0:0:0:
491,209,217510,5,4,0:0:0:0:
162,368,217844,6,0,P|135:338|95:324,1,83.9999974365235,14|8,3:2|3:2,0:0:0:0:
99,242,218141,2,0,P|59:251|29:280,1,83.9999974365235,8|8,3:2|3:2,0:0:0:0:
162,368,218438,2,0,P|164:347|169:326,1,41.9999987182618,10|0,3:2|0:0,0:0:0:0:
0,206,219061,6,0,P|30:178|44:138,1,83.9999974365235,10|8,3:2|3:2,0:0:0:0:
125,142,219358,2,0,P|116:101|87:71,1,83.9999974365235,8|8,3:2|3:2,0:0:0:0:
0,206,219655,2,0,P|20:208|40:214,1,41.9999987182618,10|0,3:2|0:0,0:0:0:0:
157,38,220305,6,0,P|184:68|224:82,1,83.9999974365235,10|8,3:2|3:2,0:0:0:0:
221,163,220602,2,0,P|261:154|291:125,1,83.9999974365235,8|8,3:2|3:2,0:0:0:0:
157,38,220899,2,0,P|155:58|149:79,1,41.9999987182618,10|0,3:2|0:0,0:0:0:0:
325,202,221512,6,0,P|294:229|280:269,1,83.9999974365235,10|8,3:2|3:2,0:0:0:0:
200,265,221809,2,0,P|208:305|237:335,1,83.9999974365235,8|8,3:2|3:2,0:0:0:0:
325,202,222106,2,0,P|304:201|283:195,1,41.9999987182618,10|0,3:2|0:0,0:0:0:0:
84,70,222403,5,4,0:0:0:0:
407,325,222774,6,0,L|488:306,3,83.9999974365235,14|8|8|8,3:2|3:2|3:2|3:2,0:0:0:0:
408,256,223356,2,0,L|454:246,1,41.9999987182618,10|0,3:2|0:0,0:0:0:0:
258,358,223944,6,0,L|175:375,3,83.9999974365235,10|8|8|8,3:2|3:2|3:2|3:2,0:0:0:0:
227,294,224532,2,0,L|181:304,1,41.9999987182618,10|0,3:2|0:0,0:0:0:0:
418,183,225154,6,0,L|499:164,3,83.9999974365235,10|8|8|8,3:2|3:2|3:2|3:2,0:0:0:0:
419,114,225760,2,0,L|465:104,1,41.9999987182618,10|0,3:2|0:0,0:0:0:0:
187,231,226405,6,0,L|104:248,3,83.9999974365235,10|8|8|8,3:2|3:2|3:2|3:2,0:0:0:0:
156,167,226999,2,0,L|110:177,1,41.9999987182618,10|0,3:2|0:0,0:0:0:0:
255,0,227296,5,4,0:0:0:0:
321,384,227637,5,14,3:2:0:0:
256,260,227785,1,8,3:2:0:0:
380,322,227934,1,8,3:2:0:0:
242,344,228082,1,8,3:2:0:0:
341,247,228231,1,10,3:2:0:0:
263,38,228858,5,10,3:2:0:0:
328,162,229006,1,8,3:2:0:0:
204,100,229155,1,8,3:2:0:0:
342,78,229303,1,8,3:2:0:0:
243,175,229452,1,10,3:2:0:0:
465,182,230082,5,10,3:2:0:0:
341,247,230230,1,8,3:2:0:0:
403,123,230379,1,8,3:2:0:0:
425,261,230527,1,8,3:2:0:0:
328,162,230676,1,10,3:2:0:0:
119,240,231300,5,10,3:2:0:0:
243,175,231448,1,8,3:2:0:0:
181,299,231597,1,8,3:2:0:0:
159,161,231745,1,8,3:2:0:0:
256,260,231894,1,10,3:2:0:0:
256,260,232519,5,14,3:2:0:0:
119,240,232667,1,8,3:2:0:0:
277,329,232816,1,8,3:2:0:0:
74,299,232964,1,8,3:2:0:0:
184,286,233113,1,10,3:2:0:0:
398,109,233737,5,10,3:2:0:0:
432,340,233884,1,0,3:2:0:0:
335,156,234031,1,0,3:2:0:0:
358,312,234178,1,0,3:2:0:0:
512,191,234325,6,0,B|460:203|460:203|451:219|451:219|395:231,1,125.999996154785,10|0,3:2|0:0,0:0:0:0:
115,278,234980,5,2,0:0:0:0:
105,273,235055,1,2,0:0:0:0:
95,269,235130,1,2,0:0:0:0:
23,336,235281,1,10,3:2:0:0:
208,262,235432,1,0,3:2:0:0:
50,100,235583,2,0,L|72:197,1,97.7260482846251,2|0,0:0|3:2,0:0:0:0:
326,384,235884,2,0,L|347:288,1,97.7260482846251,10|0,3:2|0:0,0:0:0:0:
190,144,236186,5,2,0:0:0:0:
230,357,236339,1,0,3:0:0:0:
433,288,236492,1,10,3:2:0:0:
110,173,236645,1,0,3:2:0:0:
89,271,236798,5,2,0:0:0:0:
274,204,236951,1,0,3:2:0:0:
230,357,237104,1,10,3:2:0:0:
103,24,237257,1,8,3:2:0:0:
346,232,237410,6,0,B|385:246|385:246|376:351,1,147.337931034483,4|0,3:2|2:0,0:0:0:0:
310,374,237719,1,10,3:2:0:0:
340,157,237873,2,0,L|353:59,1,98.2252873563217,0|2,3:2|3:2,0:0:0:0:
455,10,238183,1,0,3:2:0:0:
202,178,238337,2,0,L|108:149,1,98.2252873563217,10|0,3:2|0:0,0:0:0:0:
76,306,238647,6,0,P|114:218|201:177,1,196.450574712643,2|10,3:2|3:2,0:0:0:0:
353,59,239106,1,0,3:2:0:0:
275,273,239259,2,0,P|226:267|181:285,1,98.2252873563217,2|0,3:2|3:2,0:0:0:0:
26,7,239565,2,0,L|63:149,1,147.337931034483,8|0,3:2|2:0,0:0:0:0:
255,185,239871,6,0,L|62:148,1,196.2,6|10,3:2|3:2,0:0:0:0:
111,69,240330,1,0,3:2:0:0:
300,367,240483,2,0,L|274:272,1,98.0999999999999,2|0,3:2|3:2,0:0:0:0:
399,65,240789,5,10,3:2:0:0:
411,69,240891,5,2,0:0:0:0:
423,73,240993,5,2,0:0:0:0:
435,77,241095,6,0,L|407:291,1,196.2,2|10,3:2|3:2,0:0:0:0:
472,328,241551,1,0,3:2:0:0:
472,328,241856,5,0,3:2:0:0:
342,222,242008,1,8,3:2:0:0:
490,155,242160,1,0,0:0:0:0:
356,369,242313,6,0,L|334:223,1,147.15,4|0,3:2|2:0,0:0:0:0:
413,184,242619,5,10,3:2:0:0:
110,96,242772,1,0,3:2:0:0:
151,162,242925,1,2,3:2:0:0:
461,122,243078,1,0,3:2:0:0:
489,189,243231,5,10,3:2:0:0:
293,110,243384,1,0,0:0:0:0:
376,123,243537,5,2,3:2:0:0:
341,332,243689,1,0,3:2:0:0:
403,378,243841,1,10,3:2:0:0:
319,182,243993,1,0,3:2:0:0:
457,244,244146,5,2,3:2:0:0:
130,315,244298,1,0,3:2:0:0:
175,372,244450,1,8,3:2:0:0:
452,173,244602,1,0,0:0:0:0:
97,95,244755,6,0,L|1:74,1,98.0999999999999,2|0,3:2|2:0,0:0:0:0:
210,303,245064,2,0,L|305:282,1,98.0999999999999,10|0,3:2|3:2,0:0:0:0:
339,142,245373,5,2,3:2:0:0:
297,384,245528,1,0,3:2:0:0:
103,260,245682,1,8,3:2:0:0:
376,208,245837,1,0,0:0:0:0:
330,271,245992,5,2,3:2:0:0:
60,188,246146,1,0,3:2:0:0:
376,208,246301,5,10,3:2:0:0:
241,166,246456,1,0,3:2:0:0:
343,82,246610,1,2,3:2:0:0:
216,359,246765,1,2,3:2:0:0:
217,363,246842,1,2,3:2:0:0:
218,367,246919,2,0,L|224:318,1,49.0499999999999,10|0,3:2|0:0,0:0:0:0:
255,46,247074,2,8,L|249:95,1,49.0499999999999
93,355,247229,6,0,B|150:331|150:331|165:197,1,196.2,4|10,3:2|3:2,0:0:0:0:
187,28,247679,2,0,B|154:-10|154:-10|111:10,1,98.0999999999999,0|2,3:2|3:2,0:0:0:0:
136,79,247979,1,0,3:2:0:0:
346,23,248129,2,0,P|393:10|441:10,1,98.0999999999999,10|0,3:2|2:0,0:0:0:0:
374,310,248429,6,0,L|401:111,1,196.2,2|10,3:2|3:2,0:0:0:0:
436,356,248879,2,0,L|450:258,1,98.0999999999999,0|2,3:2|3:2,0:0:0:0:
512,225,249179,1,0,3:2:0:0:
286,331,249329,6,0,B|234:348|234:348|202:323|202:323|146:337,1,147.15,8|0,3:2|2:0,0:0:0:0:
94,383,249629,5,2,3:2:0:0:
45,152,249786,1,0,0:0:0:0:
135,108,249943,1,10,3:2:0:0:
31,326,250100,1,0,3:2:0:0:
246,270,250257,5,2,3:2:0:0:
40,237,250414,1,0,3:2:0:0:
338,199,250571,1,8,3:2:0:0:
143,282,250728,1,0,0:0:0:0:
351,115,250885,6,0,B|376:154|376:154|355:204,1,97.9999970092774,2|0,3:2|3:0,0:0:0:0:
60,141,251191,2,0,B|31:112|31:112|55:60,1,97.9999970092774,10|2,3:2|3:2,0:0:0:0:
65,59,251420,1,2,0:0:0:0:
74,57,251497,1,2,3:2:0:0:
143,282,251650,5,2,3:2:0:0:
136,289,251726,1,2,3:2:0:0:
130,297,251803,2,0,L|81:289,1,49.0499999999999,10|0,3:2|0:0,0:0:0:0:
360,333,251956,2,0,L|409:341,1,49.0499999999999,8|0,3:2|0:0,0:0:0:0:
224,126,252109,6,0,L|248:320,1,196.2,4|10,3:2|3:2,0:0:0:0:
177,368,252568,1,0,3:2:0:0:
299,196,252721,5,2,3:2:0:0:
322,189,252798,1,0,0:2:0:0:
345,182,252874,1,2,2:2:0:0:
368,176,252951,1,0,0:2:0:0:
394,136,253027,5,10,3:2:0:0:
417,143,253104,1,0,0:2:0:0:
440,150,253180,1,2,0:2:0:0:
463,156,253257,1,0,0:2:0:0:
481,190,253333,6,0,L|474:238,3,49.0499999999999,2|0|2|0,3:2|0:2|0:2|0:2,0:2:0:0:
322,106,253640,2,0,L|328:57,3,49.0499999999999,10|0|2|0,3:2|0:2|0:2|0:2,0:2:0:0:
164,147,253946,2,0,L|157:195,1,49.0499999999999,2|0,3:2|0:2,0:2:0:0:
0,26,254099,5,2,3:2:0:0:
33,6,254175,1,0,3:2:0:0:
71,9,254252,2,0,P|88:26|109:39,3,49.0499999999999,10|0|2|0,3:2|0:2|0:2|0:2,0:2:0:0:
286,174,254558,5,2,3:2:0:0:
308,211,254635,1,0,0:2:0:0:
308,255,254711,1,2,0:2:0:0:
286,293,254788,1,0,0:2:0:0:
246,312,254864,1,10,3:2:0:0:
201,308,254941,1,0,0:2:0:0:
165,281,255017,1,2,0:2:0:0:
149,239,255094,1,0,0:2:0:0:
157,195,255170,6,0,L|204:208,3,49.0499999999999,2|0|2|0,3:2|0:2|0:2|0:2,0:2:0:0:
464,281,255476,2,0,L|417:268,3,49.0499999999999,10|0|2|0,3:2|0:2|0:2|0:2,0:2:0:0:
246,312,255782,6,0,L|254:360,1,49.0499999999999,2|0,3:2|0:2,0:2:0:0:
165,281,255936,2,0,L|173:329,1,49.0499999999999,2|0,0:2|0:2,0:2:0:0:
362,178,256089,6,0,L|353:226,1,49.0499999999999,10|0,3:2|0:2,0:2:0:0:
443,147,256242,2,0,L|434:195,1,49.0499999999999,2|0,0:2|0:2,0:2:0:0:
304,15,256395,5,2,3:2:0:0:
297,63,256471,1,0,3:2:0:0:
290,111,256548,1,2,3:2:0:0:
283,159,256624,1,0,3:2:0:0:
275,207,256701,1,10,3:2:0:0:
379,98,256854,1,0,3:2:0:0:
123,384,257007,6,0,B|79:155,1,198.63018,4|0,3:2|2:0,0:0:0:0:
0,27,257313,2,0,B|53:26|53:26|69:108,1,132.999996448517,10|0,3:2|3:2,0:0:0:0:
0,239,257619,1,2,3:2:0:0:
0,239,257772,1,0,3:2:0:0:
163,0,257925,2,0,L|140:131,1,132.796946564886,10|0,3:2|2:0,0:0:0:0:
95,384,258231,2,0,L|117:252,1,132.796946564886,2|0,3:2|2:0,0:0:0:0:
303,119,258538,5,10,3:2:0:0:
0,239,258691,1,0,3:2:0:0:
332,383,258844,6,0,L|317:318,1,66.3984732824428,10|0,3:2|0:0,0:0:0:0:
246,0,259073,6,0,L|259:61,1,62.9999980773926,10|0,3:2|3:2,0:0:0:0:
487,376,259303,6,0,L|423:355,1,66.3984732824428,10|0,0:0|0:0,0:0:0:0:
142,166,259456,6,0,B|290:201|290:201|303:246,1,199.195419847328,2|0,3:2|2:0,0:0:0:0:
208,283,259762,1,10,3:2:0:0:
467,149,259915,2,0,L|439:283,1,132.796946564886,0|2,3:2|3:2,0:0:0:0:
155,363,260221,2,0,B|106:316|106:316|128:232,1,132.796946564886,0|8,3:2|3:2,0:0:0:0:
395,167,260527,2,0,L|265:196,1,132.796946564886,0|2,0:0|3:2,0:0:0:0:
11,38,260831,5,0,0:0:0:0:
208,283,260983,1,10,3:2:0:0:
90,6,261134,6,0,L|61:285,1,265.593893129771,4|0,3:2|3:2,0:0:0:0:
67,275,261513,1,0,3:2:0:0:
72,278,261589,2,0,L|136:260,3,66.3984732824428,8|0|0|0,3:2|0:0|0:0|0:0,0:0:0:0:
29,379,261892,6,0,L|223:323,1,199.5,4|0,3:2|2:0,0:0:0:0:
292,249,262198,2,0,B|338:276|338:276|315:352,1,132.966114649681,10|0,3:2|3:2,0:0:0:0:
219,151,262504,1,2,3:2:0:0:
219,151,262657,1,0,3:2:0:0:
220,323,262810,1,10,3:2:0:0:
268,88,262963,1,0,0:0:0:0:
448,245,263116,6,0,L|461:377,1,132.966114649681,2|0,3:2|0:0,0:0:0:0:
292,249,263422,1,10,3:2:0:0:
512,55,263575,2,0,B|469:0|469:0|406:13,1,132.966114649681,0|2,3:2|3:2,0:0:0:0:
268,88,263881,1,0,3:2:0:0:
261,86,263958,1,0,3:2:0:0:
254,84,264034,1,8,3:2:0:0:
220,323,264187,1,0,0:0:0:0:
10,35,264340,6,0,B|61:39|61:39|85:122,1,132.966114649681,2|0,3:2|0:0,0:0:0:0:
210,4,264647,1,10,3:2:0:0:
341,167,264800,2,0,P|346:101|362:35,1,132.966114649681,0|2,3:2|3:2,0:0:0:0:
220,295,265106,2,0,P|274:332|323:379,1,132.966114649681,0|8,3:2|3:2,0:0:0:0:
169,126,265412,2,0,P|109:154|44:173,1,132.966114649681,0|2,0:0|3:2,0:0:0:0:
8,244,265712,5,0,0:0:0:0:
384,184,265860,1,10,3:2:0:0:
97,384,266008,2,0,P|91:323|80:251,1,132.966114649681,0|2,3:2|3:2,0:0:0:0:
8,244,266303,1,0,3:2:0:0:
321,227,266423,2,0,P|308:298|304:359,1,132.966114649681,8|0,3:2|0:0,0:0:0:0:
209,378,266747,5,12,3:2:0:0:
163,70,266900,1,8,3:2:0:0:
242,120,267054,1,8,3:2:0:0:
135,325,267208,1,12,3:2:0:0:
349,252,267362,5,8,3:2:0:0:
6,167,267516,1,8,3:2:0:0:
415,160,267670,5,12,3:2:0:0:
77,249,267823,1,8,3:2:0:0:
434,24,267977,5,12,3:2:0:0:
389,355,268131,1,8,3:2:0:0:
483,97,268285,1,8,3:2:0:0:
454,303,268439,5,12,3:2:0:0:
372,86,268593,1,12,3:2:0:0:
343,292,268747,1,8,3:2:0:0:
506,198,268900,5,12,3:2:0:0:
135,325,269054,1,12,3:2:0:0:
434,24,269207,6,0,L|401:231,1,210.48275862069,6|2,3:2|3:2,0:0:0:0:
454,303,269666,1,0,3:2:0:0:
338,154,269819,2,0,L|354:50,1,105.241379310345,10|0,3:2|0:0,0:0:0:0:
288,0,270125,1,2,3:2:0:0:
288,0,270278,1,0,3:2:0:0:
243,209,270431,6,0,P|289:233|317:281,1,105.241379310345,10|0,3:2|0:0,0:0:0:0:
30,203,270737,2,0,P|57:158|108:132,1,105.241379310345,2|0,3:2|3:2,0:0:0:0:
157,29,271043,1,10,3:2:0:0:
157,29,271196,1,0,0:0:0:0:
110,330,271349,2,0,L|128:227,1,105.241379310345,2|0,3:2|3:2,0:0:0:0:
489,106,271655,6,0,L|507:209,1,105.241379310345,14|0,3:2|0:0,0:0:0:0:
500,217,271885,1,2,0:0:0:0:
493,225,271962,1,2,3:2:0:0:
374,122,272115,1,0,3:2:0:0:
409,358,272268,2,0,B|511:382,1,105.241379310345,10|0,3:2|0:0,0:0:0:0:
314,176,272574,2,0,L|160:211,1,157.862068965517,2|0,3:2|2:0,0:0:0:0:
149,316,272880,6,0,L|161:205,1,105.241379310345,10|0,3:2|0:0,0:0:0:0:
102,148,273186,1,2,3:2:0:0:
102,148,273339,1,0,3:2:0:0:
332,256,273492,6,0,L|344:360,1,105.241379310345,10|0,3:2|0:0,0:0:0:0:
75,376,273798,1,2,3:2:0:0:
77,366,273875,1,2,0:0:0:0:
79,356,273951,1,2,3:2:0:0:
347,84,274104,6,0,B|264:73|264:73|242:98|242:98|150:86,1,210.48275862069,6|2,3:2|3:2,0:0:0:0:
106,3,274564,1,0,3:2:0:0:
10,198,274717,2,0,P|60:209|94:247,1,105.241379310345,10|0,3:2|2:0,0:0:0:0:
172,384,275023,2,0,L|182:279,1,105.241379310345,2|0,3:2|3:2,0:0:0:0:
208,7,275329,6,0,L|197:111,2,105.241379310345,10|0|2,3:2|0:0|3:2,0:0:0:0:
128,160,275788,1,0,3:2:0:0:
449,88,275941,2,0,B|413:49|413:49|311:75,1,157.862068965517,10|0,3:2|2:0,0:0:0:0:
365,236,276247,2,0,B|387:133,1,105.241379310345,2|0,3:2|3:2,0:0:0:0:
469,347,276553,6,0,P|373:312|286:365,1,210.48275862069,14|2,3:2|3:2,0:0:0:0:
365,236,277013,1,0,3:2:0:0:
110,351,277166,6,0,P|62:371|11:381,1,105.241379310345,10|0,3:2|0:0,0:0:0:0:
3,173,277472,2,0,P|54:184|102:205,1,105.241379310345,2|2,3:2|3:2,0:0:0:0:
182,271,277701,5,2,0:0:0:0:
188,262,277778,2,0,L|162:106,1,157.862068965517,10|0,3:2|2:0,0:0:0:0:
193,22,278093,2,0,P|236:49|258:96,1,105.241379310345,2|0,3:2|3:2,0:0:0:0:
105,47,278409,1,10,3:2:0:0:
105,47,278725,1,2,3:2:0:0:
477,136,278883,1,2,3:2:0:0:
110,351,279041,6,0,B|164:328|164:328|165:230|165:230|216:209,1,210.48275862069,6|2,3:2|3:2,0:0:0:0:
244,291,279491,1,0,3:2:0:0:
187,18,279641,2,0,L|204:121,1,105.241379310345,10|0,3:2|0:0,0:0:0:0:
343,129,279941,1,2,3:2:0:0:
343,129,280091,1,0,3:2:0:0:
439,342,280241,6,0,L|476:136,1,210.48275862069,10|2,3:2|3:2,0:0:0:0:
397,58,280691,1,0,3:2:0:0:
349,328,280841,2,0,B|316:290|316:290|264:309,1,105.241379310345,10|0,3:2|2:0,0:0:0:0:
0,340,281141,2,0,B|33:378|33:378|84:358,1,105.241379310345,2|0,3:2|3:2,0:0:0:0:
200,151,281441,6,0,L|221:27,1,105.241379310345,14|0,3:2|2:0,0:0:0:0:
208,42,281675,1,2,0:0:0:0:
199,36,281753,1,2,3:2:0:0:
131,93,281909,1,0,3:2:0:0:
182,281,282066,6,0,L|164:384,1,105.241379310345,10|0,3:2|2:0,0:0:0:0:
132,219,282378,2,0,B|112:183|112:183|0:214,1,157.862068965517,2|0,3:2|2:0,0:0:0:0:
211,204,282691,6,0,L|312:178,1,105.241379310345,10|0,3:2|2:0,0:0:0:0:
346,85,282997,1,2,3:2:0:0:
346,85,283150,1,0,3:2:0:0:
303,384,283303,6,0,L|320:281,1,105.241379310345,10|0,3:2|2:0,0:0:0:0:
432,183,283609,1,2,3:2:0:0:
435,172,283685,1,2,0:0:0:0:
438,161,283762,1,2,3:2:0:0:
471,369,283915,6,0,L|438:161,1,210.48275862069,6|2,3:2|3:2,0:0:0:0:
512,107,284374,1,0,3:2:0:0:
364,246,284527,2,0,L|260:262,1,105.241379310345,10|0,3:2|0:0,0:0:0:0:
124,28,284833,2,0,L|228:44,1,105.241379310345,2|0,3:2|3:2,0:0:0:0:
245,377,285139,6,0,L|219:160,1,210.48275862069,10|2,3:2|3:2,0:0:0:0:
24,39,285593,1,2,3:2:0:0:
31,30,285669,1,2,0:0:0:0:
39,22,285745,2,0,B|-3:13|-3:13|43:149,1,157.862068965517,10|0,3:2|2:0,0:0:0:0:
117,144,286048,2,0,L|220:168,1,105.241379310345,2|0,3:2|3:2,0:0:0:0:
503,206,286351,6,0,B|416:189|416:189|384:211|384:211|304:192,1,210.48275862069,14|2,3:2|3:2,0:0:0:0:
289,58,286805,1,0,3:2:0:0:
241,292,286957,2,0,B|234:342|234:342|280:372,1,105.241379310345,10|0,3:2|0:0,0:0:0:0:
433,262,287260,1,2,3:2:0:0:
433,262,287411,1,0,3:2:0:0:
231,295,287563,6,0,B|7:331,1,210.48275862069,10|2,3:2|3:2,0:0:0:0:
0,240,288022,1,0,3:2:0:0:
258,85,288175,2,0,L|242:188,1,105.241379310345,10|0,3:2|2:0,0:0:0:0:
303,281,288481,1,2,3:2:0:0:
205,9,288634,1,0,3:2:0:0:
301,384,288787,6,0,L|338:90,1,294.675862068966,6|2,3:2|3:2,0:0:0:0:
421,33,289246,1,0,3:2:0:0:
512,357,289399,2,0,B|482:324|482:324|387:364,1,147.337931034483,10|0,3:2|2:0,0:0:0:0:
0,237,289705,6,0,L|77:257,1,73.6689655172414,6|0,3:2|0:0,0:0:0:0:
512,357,290011,2,0,L|440:338,1,73.6689655172414,6|0,3:2|0:0,0:0:0:0:
74,337,290320,6,0,P|108:329|138:311,1,73.6689655172414,4|0,3:2|0:0,0:0:0:0:
445,247,290629,2,0,P|411:255|381:273,1,73.6689655172414,4|0,3:2|0:0,0:0:0:0:
74,337,291248,6,0,L|53:113,1,224,4|2,3:1|0:0,0:0:0:0:
0,64,291707,1,0,3:2:0:0:
203,212,291860,2,0,B|263:250|263:250|240:313|240:313|155:329,1,223.885888945492,10|2,3:2|0:0,0:0:0:0:
128,151,292319,1,0,0:0:0:0:
316,361,292472,6,0,P|330:306|357:258,1,111.942944472746,2|0,3:2|0:0,0:0:0:0:
512,124,292778,1,2,0:0:0:0:
509,133,292855,1,2,0:0:0:0:
504,143,292931,2,0,L|450:156,1,55.9714722363729,2|0,3:2|0:0,0:0:0:0:
415,378,293084,2,0,L|450:154,1,223.885888945492,4|2,3:2|0:0,0:0:0:0:
382,60,293543,1,0,0:0:0:0:
116,196,293696,6,0,L|7:167,1,111.942944472746,2|0,3:2|0:0,0:0:0:0:
17,61,294000,1,2,0:0:0:0:
93,350,294152,1,0,3:2:0:0:
183,136,294305,2,0,L|166:17,1,111.942944472746,10|0,3:2|0:0,0:0:0:0:
271,0,294609,5,2,0:0:0:0:
271,0,294761,1,0,0:0:0:0:
219,316,294914,2,0,P|198:335|181:358,1,55.9714722363729,4|0,3:2|0:0,0:0:0:0:
324,139,295224,5,2,0:0:0:0:
372,146,295302,1,0,3:2:0:0:
422,155,295380,1,0,3:2:0:0:
471,164,295458,1,0,3:2:0:0:
512,135,295536,6,0,L|282:182,1,223.885888945492,8|2,3:2|0:0,0:0:0:0:
0,6,296157,6,0,B|59:30|59:30|64:118|64:118|131:145,1,223.885888945492,4|2,3:1|0:0,0:0:0:0:
147,43,296616,1,0,3:2:0:0:
256,189,296769,2,0,B|321:217|321:217|290:377,1,223.885888945492,10|2,3:2|0:0,0:0:0:0:
193,384,297228,1,0,0:0:0:0:
237,111,297381,6,0,L|252:0,1,111.942944472746,2|0,3:2|2:0,0:0:0:0:
415,205,297687,2,0,P|378:248|327:274,1,111.942944472746,2|0,0:0|3:2,0:0:0:0:
213,256,297917,1,2,0:0:0:0:
220,247,297993,2,0,L|329:273,1,111.942944472746,4|0,3:2|0:0,0:0:0:0:
512,0,298452,5,0,0:0:0:0:
474,60,298605,2,0,L|364:37,1,111.942944472746,2|0,3:2|0:0,0:0:0:0:
178,167,298906,1,2,0:0:0:0:
437,124,299057,1,0,3:2:0:0:
216,276,299208,2,0,B|167:242|167:242|119:261,1,111.942944472746,10|0,3:2|0:0,0:0:0:0:
49,384,299509,5,2,0:0:0:0:
0,30,299811,2,0,P|23:45|40:67,1,55.9714722363729,4|0,3:2|0:0,0:0:0:0:
238,226,300120,5,2,0:0:0:0:
216,276,300197,1,0,3:2:0:0:
237,328,300274,1,0,3:2:0:0:
291,342,300352,1,0,3:2:0:0:
338,310,300429,2,0,P|227:322|117:340,1,223.885888945492,8|2,3:2|0:0,0:0:0:0:
40,67,301048,6,0,B|138:84|138:84|148:109|148:109|244:128,1,223.885888945492,4|2,3:1|0:0,0:0:0:0:
287,43,301500,1,0,3:2:0:0:
0,169,301651,2,0,B|8:203|7:222|7:222|69:220|122:251|122:251|138:228|158:213,1,224,10|2,3:2|0:0,0:0:0:0:
83,153,302103,1,0,0:0:0:0:
282,348,302254,6,0,L|261:235,1,111.942944472746,2|0,3:2|2:0,0:0:0:0:
292,72,302555,1,2,0:0:0:0:
301,78,302630,1,2,0:0:0:0:
310,83,302706,2,0,L|320:138,1,55.9714722363729,2|0,3:2|0:0,0:0:0:0:
512,118,302857,2,0,L|293:73,1,223.885888945492,4|2,3:2|0:0,0:0:0:0:
267,0,303309,1,0,0:0:0:0:
439,231,303460,6,0,B|327:207,1,111.942944472746,2|0,3:2|2:0,0:0:0:0:
44,65,303764,2,0,B|7:111|7:111|31:157,1,111.942944472746,2|0,0:0|3:2,0:0:0:0:
118,126,303992,1,2,0:0:0:0:
125,132,304069,2,0,L|101:242,1,111.942944472746,10|0,3:2|2:0,0:0:0:0:
0,384,304373,5,2,0:0:0:0:
152,0,304678,2,0,L|139:56,1,55.9714722363729,4|0,3:2|0:0,0:0:0:0:
319,311,304990,5,2,0:0:0:0:
362,336,305068,1,0,3:2:0:0:
408,357,305146,1,0,3:2:0:0:
444,323,305224,1,0,3:2:0:0:
476,285,305303,6,0,L|223:328,1,223.885888945492,8|2,3:2|0:0,0:0:0:0:
294,65,305928,6,0,B|340:12|340:12|485:63,1,223.885888945492,4|2,3:1|0:0,0:0:0:0:
441,173,306380,1,0,3:2:0:0:
228,32,306531,2,0,B|170:38|152:111|196:151|248:138|248:138|223:109|233:71,1,224,10|2,3:2|0:0,0:0:0:0:
294,65,306983,1,0,0:0:0:0:
21,249,307134,6,0,L|12:137,1,111.942944472746,2|0,3:2|0:0,0:0:0:0:
281,210,307440,2,0,L|272:321,1,111.942944472746,2|0,0:0|3:2,0:0:0:0:
124,376,307669,1,2,0:0:0:0:
117,367,307746,2,0,B|160:336|160:336|224:367,1,111.942944472746,4|0,3:2|0:0,0:0:0:0:
380,234,308052,1,2,0:0:0:0:
370,236,308128,1,2,0:0:0:0:
359,239,308205,2,0,L|354:294,1,55.9714722363729,2|0,0:0|0:0,0:0:0:0:
350,384,308358,5,2,3:2:0:0:
350,384,308649,1,0,0:0:0:0:
474,128,308940,1,0,0:0:0:0:
472,133,309013,1,0,0:0:0:0:
470,138,309086,1,0,0:0:0:0:
388,102,309231,1,0,0:0:0:0:
408,195,309546,1,0,0:0:0:0:
38,372,309909,6,0,L|13:262,1,112.73248,2|0,3:2|0:0,0:0:0:0:
512,51,310216,2,0,L|461:276,1,231.000007049561,4|0,3:1|0:0,0:0:0:0:
