osu file format v14

[General]
AudioFilename: audio.mp3
AudioLeadIn: 0
PreviewTime: 122156
Countdown: 0
SampleSet: Soft
StackLeniency: 0.5
Mode: 0
LetterboxInBreaks: 0
EpilepsyWarning: 1
WidescreenStoryboard: 1

[Editor]
DistanceSpacing: 0.2
BeatDivisor: 4
GridSize: 32
TimelineZoom: 2.899999

[Metadata]
Title:Night Witches
TitleUnicode:Night Witches
Artist:Sabaton
ArtistUnicode:Sabaton
Creator:PantyDev
Version:piroshki's Insane
Source:
Tags:588 female heroes bomber regiment 46 power heavy metal po-2 polikarpov soviet world war II great patriotic war KeRLi_ Waaif piroshki english
BeatmapID:3226231
BeatmapSetID:1177947

[Difficulty]
HPDrainRate:4
CircleSize:4.2
OverallDifficulty:7
ApproachRate:9
SliderMultiplier:1.4
SliderTickRate:1

[Events]
//Background and Video events
0,0,"bg1.jpg",0,0
//Break Periods
//Storyboard Layer 0 (Background)
//Storyboard Layer 1 (Fail)
//Storyboard Layer 2 (Pass)
//Storyboard Layer 3 (Foreground)
Sprite,Foreground,Centre,"sb/dot.jpg",0,0 C,0,6530,,116,5,0 F,0,10080,10330,1,0 M,0,6530,10330,247.64,145 V,4,6530,6780,3,0,3,24
Sprite,Foreground,Centre,"sb/dot.jpg",0,0 C,0,6530,,116,5,0 F,0,10080,10330,1,0 M,0,6530,10330,253.64,145 V,4,6530,6780,0,3,12,3
Sprite,Foreground,Centre,"sb/dot.jpg",0,0 C,0,6530,,116,5,0 F,0,10080,10330,1,0 M,0,6530,10330,259.64,139 V,4,6530,6780,3,0,3,12
Sprite,Foreground,Centre,"sb/dot.jpg",0,0 C,0,6530,,116,5,0 F,0,10080,10330,1,0 M,0,6530,10330,253.64,133 V,4,6530,6780,0,3,12,3
Sprite,Foreground,Centre,"sb/circle.png",0,0 C,0,6530,,116,5,0 F,0,10080,10330,1,0 M,0,6530,10330,247.64,157 V,4,6530,6780,0,0,0.01271186,0.01271186
Sprite,Foreground,Centre,"sb/circle.png",0,0 C,0,6530,,116,5,0 F,0,10080,10330,1,0 M,0,6530,10330,259.64,145 V,4,6530,6780,0,0,0.01271186,0.01271186
Sprite,Foreground,Centre,"sb/circle.png",0,0 C,0,6530,,116,5,0 F,0,10080,10330,1,0 M,0,6530,10330,247.64,133 V,4,6530,6780,0,0,0.01271186,0.01271186
Sprite,Foreground,Centre,"sb/circle.png",0,0 C,0,6530,,116,5,0 F,0,10080,10330,1,0 M,0,6530,10330,259.64,133 V,4,6530,6780,0,0,0.01271186,0.01271186
Sprite,Foreground,Centre,"sb/dot.jpg",0,0 C,0,6680,,116,5,0 F,0,10130,10380,1,0 M,0,6680,10380,272.6,145 V,4,6680,6930,3,0,3,24
Sprite,Foreground,Centre,"sb/circle.png",0,0 C,0,6680,,116,5,0 F,0,10130,10380,1,0 M,0,6680,10380,272.6,133 V,4,6680,6930,0,0,0.01271186,0.01271186
Sprite,Foreground,Centre,"sb/circle.png",0,0 C,0,6680,,116,5,0 F,0,10130,10380,1,0 M,0,6680,10380,272.6,157 V,4,6680,6930,0,0,0.01271186,0.01271186
Sprite,Foreground,Centre,"sb/dot.jpg",0,0 C,0,6830,,116,5,0 F,0,10180,10430,1,0 M,0,6830,10430,285.56,145 V,4,6830,7080,3,0,3,24
Sprite,Foreground,Centre,"sb/dot.jpg",0,0 C,0,6830,,116,5,0 F,0,10180,10430,1,0 M,0,6830,10430,291.56,145 V,4,6830,7080,0,3,12,3
Sprite,Foreground,Centre,"sb/dot.jpg",0,0 C,0,6830,,116,5,0 F,0,10180,10430,1,0 M,0,6830,10430,297.56,139 V,4,6830,7080,3,0,3,12
Sprite,Foreground,Centre,"sb/dot.jpg",0,0 C,0,6830,,116,5,0 F,0,10180,10430,1,0 M,0,6830,10430,291.56,133 V,4,6830,7080,0,3,12,3
Sprite,Foreground,Centre,"sb/dot.jpg",0,0 C,0,6830,,116,5,0 F,0,10180,10430,1,0 M,0,6830,10430,291.56,151 V,4,6830,7080,3,0,3,16.98 R,0,6830,,-0.7853982
Sprite,Foreground,Centre,"sb/circle.png",0,0 C,0,6830,,116,5,0 F,0,10180,10430,1,0 M,0,6830,10430,285.56,157 V,4,6830,7080,0,0,0.01271186,0.01271186
Sprite,Foreground,Centre,"sb/circle.png",0,0 C,0,6830,,116,5,0 F,0,10180,10430,1,0 M,0,6830,10430,297.56,145 V,4,6830,7080,0,0,0.01271186,0.01271186
Sprite,Foreground,Centre,"sb/circle.png",0,0 C,0,6830,,116,5,0 F,0,10180,10430,1,0 M,0,6830,10430,285.56,133 V,4,6830,7080,0,0,0.01271186,0.01271186
Sprite,Foreground,Centre,"sb/circle.png",0,0 C,0,6830,,116,5,0 F,0,10180,10430,1,0 M,0,6830,10430,297.56,133 V,4,6830,7080,0,0,0.01271186,0.01271186
Sprite,Foreground,Centre,"sb/circle.png",0,0 C,0,6830,,116,5,0 F,0,10180,10430,1,0 M,0,6830,10430,297.56,157 V,4,6830,7080,0,0,0.01271186,0.01271186
Sprite,Foreground,Centre,"sb/dot.jpg",0,0 C,0,6980,,116,5,0 F,0,10230,10480,1,0 M,0,6980,10480,304.52,145 V,4,6980,7230,3,0,3,24
Sprite,Foreground,Centre,"sb/dot.jpg",0,0 C,0,6980,,116,5,0 F,0,10230,10480,1,0 M,0,6980,10480,316.52,145 V,4,6980,7230,3,0,3,24
Sprite,Foreground,Centre,"sb/dot.jpg",0,0 C,0,6980,,116,5,0 F,0,10230,10480,1,0 M,0,6980,10480,310.52,133 V,4,6980,7230,0,3,12,3
Sprite,Foreground,Centre,"sb/dot.jpg",0,0 C,0,6980,,116,5,0 F,0,10230,10480,1,0 M,0,6980,10480,310.52,157 V,4,6980,7230,0,3,12,3
Sprite,Foreground,Centre,"sb/circle.png",0,0 C,0,6980,,116,5,0 F,0,10230,10480,1,0 M,0,6980,10480,304.52,157 V,4,6980,7230,0,0,0.01271186,0.01271186
Sprite,Foreground,Centre,"sb/circle.png",0,0 C,0,6980,,116,5,0 F,0,10230,10480,1,0 M,0,6980,10480,316.52,157 V,4,6980,7230,0,0,0.01271186,0.01271186
Sprite,Foreground,Centre,"sb/circle.png",0,0 C,0,6980,,116,5,0 F,0,10230,10480,1,0 M,0,6980,10480,304.52,133 V,4,6980,7230,0,0,0.01271186,0.01271186
Sprite,Foreground,Centre,"sb/circle.png",0,0 C,0,6980,,116,5,0 F,0,10230,10480,1,0 M,0,6980,10480,316.52,133 V,4,6980,7230,0,0,0.01271186,0.01271186
Sprite,Foreground,Centre,"sb/dot.jpg",0,0 C,0,7130,,116,5,0 F,0,10280,10530,1,0 M,0,7130,10530,329.48,133 V,4,7130,7380,0,3,12,3
Sprite,Foreground,Centre,"sb/dot.jpg",0,0 C,0,7130,,116,5,0 F,0,10280,10530,1,0 M,0,7130,10530,323.48,139 V,4,7130,7380,3,0,3,12
Sprite,Foreground,Centre,"sb/dot.jpg",0,0 C,0,7130,,116,5,0 F,0,10280,10530,1,0 M,0,7130,10530,329.48,145 V,4,7130,7380,0,3,12,3
Sprite,Foreground,Centre,"sb/dot.jpg",0,0 C,0,7130,,116,5,0 F,0,10280,10530,1,0 M,0,7130,10530,335.48,151 V,4,7130,7380,3,0,3,12
Sprite,Foreground,Centre,"sb/dot.jpg",0,0 C,0,7130,,116,5,0 F,0,10280,10530,1,0 M,0,7130,10530,329.48,157 V,4,7130,7380,0,3,12,3
Sprite,Foreground,Centre,"sb/circle.png",0,0 C,0,7130,,116,5,0 F,0,10280,10530,1,0 M,0,7130,10530,323.48,157 V,4,7130,7380,0,0,0.01271186,0.01271186
Sprite,Foreground,Centre,"sb/circle.png",0,0 C,0,7130,,116,5,0 F,0,10280,10530,1,0 M,0,7130,10530,335.48,145 V,4,7130,7380,0,0,0.01271186,0.01271186
Sprite,Foreground,Centre,"sb/circle.png",0,0 C,0,7130,,116,5,0 F,0,10280,10530,1,0 M,0,7130,10530,323.48,133 V,4,7130,7380,0,0,0.01271186,0.01271186
Sprite,Foreground,Centre,"sb/circle.png",0,0 C,0,7130,,116,5,0 F,0,10280,10530,1,0 M,0,7130,10530,335.48,133 V,4,7130,7380,0,0,0.01271186,0.01271186
Sprite,Foreground,Centre,"sb/circle.png",0,0 C,0,7130,,116,5,0 F,0,10280,10530,1,0 M,0,7130,10530,335.48,157 V,4,7130,7380,0,0,0.01271186,0.01271186
Sprite,Foreground,Centre,"sb/circle.png",0,0 C,0,7130,,116,5,0 F,0,10280,10530,1,0 M,0,7130,10530,323.48,145 V,4,7130,7380,0,0,0.01271186,0.01271186
Sprite,Foreground,Centre,"sb/dot.jpg",0,0 C,0,7280,,116,5,0 F,0,10330,10580,1,0 M,0,7280,10580,354.44,145 V,4,7280,7530,3,0,3,24
Sprite,Foreground,Centre,"sb/dot.jpg",0,0 C,0,7280,,116,5,0 F,0,10330,10580,1,0 M,0,7280,10580,342.44,145 V,4,7280,7530,3,0,3,24
Sprite,Foreground,Centre,"sb/dot.jpg",0,0 C,0,7280,,116,5,0 F,0,10330,10580,1,0 M,0,7280,10580,348.44,145 V,4,7280,7530,0,3,12,3
Sprite,Foreground,Centre,"sb/circle.png",0,0 C,0,7280,,116,5,0 F,0,10330,10580,1,0 M,0,7280,10580,354.44,133 V,4,7280,7530,0,0,0.01271186,0.01271186
Sprite,Foreground,Centre,"sb/circle.png",0,0 C,0,7280,,116,5,0 F,0,10330,10580,1,0 M,0,7280,10580,342.44,133 V,4,7280,7530,0,0,0.01271186,0.01271186
Sprite,Foreground,Centre,"sb/circle.png",0,0 C,0,7280,,116,5,0 F,0,10330,10580,1,0 M,0,7280,10580,342.44,157 V,4,7280,7530,0,0,0.01271186,0.01271186
Sprite,Foreground,Centre,"sb/circle.png",0,0 C,0,7280,,116,5,0 F,0,10330,10580,1,0 M,0,7280,10580,354.44,157 V,4,7280,7530,0,0,0.01271186,0.01271186
Sprite,Foreground,Centre,"sb/dot.jpg",0,0 C,0,7430,,116,5,0 F,0,10380,10630,1,0 M,0,7430,10630,361.4,145 V,4,7430,7680,3,0,3,12
Sprite,Foreground,Centre,"sb/dot.jpg",0,0 C,0,7430,,116,5,0 F,0,10380,10630,1,0 M,0,7430,10630,367.4,151 V,4,7430,7680,3,0,3,16.98 R,0,7430,,-0.7853982
Sprite,Foreground,Centre,"sb/dot.jpg",0,0 C,0,7430,,116,5,0 F,0,10380,10630,1,0 M,0,7430,10630,367.4,139 V,4,7430,7680,3,0,3,16.98 R,0,7430,,0.7853982
Sprite,Foreground,Centre,"sb/circle.png",0,0 C,0,7430,,116,5,0 F,0,10380,10630,1,0 M,0,7430,10630,361.4,157 V,4,7430,7680,0,0,0.01271186,0.01271186
Sprite,Foreground,Centre,"sb/circle.png",0,0 C,0,7430,,116,5,0 F,0,10380,10630,1,0 M,0,7430,10630,373.4,157 V,4,7430,7680,0,0,0.01271186,0.01271186
Sprite,Foreground,Centre,"sb/circle.png",0,0 C,0,7430,,116,5,0 F,0,10380,10630,1,0 M,0,7430,10630,373.4,133 V,4,7430,7680,0,0,0.01271186,0.01271186
Sprite,Foreground,Centre,"sb/circle.png",0,0 C,0,7430,,116,5,0 F,0,10380,10630,1,0 M,0,7430,10630,361.4,133 V,4,7430,7680,0,0,0.01271186,0.01271186
Sprite,Foreground,Centre,"sb/dot.jpg",0,0 C,0,7580,,116,5,0 F,0,10430,10680,1,0 M,0,7580,10680,386.36,145 V,4,7580,7830,3,0,3,24
Sprite,Foreground,Centre,"sb/circle.png",0,0 C,0,7580,,116,5,0 F,0,10430,10680,1,0 M,0,7580,10680,386.36,133 V,4,7580,7830,0,0,0.01271186,0.01271186
Sprite,Foreground,Centre,"sb/circle.png",0,0 C,0,7580,,116,5,0 F,0,10430,10680,1,0 M,0,7580,10680,386.36,157 V,4,7580,7830,0,0,0.01271186,0.01271186
//Storyboard Sound Samples

[TimingPoints]
1531,312.5,4,2,1,80,1,0
11531,-62.5,4,2,1,80,0,0
21218,-62.5,4,2,1,85,0,0
21999,-62.5,4,2,1,40,0,0
22156,312.5,4,2,1,65,1,0
22156,-76.9230769230769,4,2,1,65,0,0
24656,-55.5555555555556,4,2,1,65,0,0
25906,-62.5,4,2,1,65,0,0
26999,-76.9230769230769,4,2,1,65,0,0
29656,-55.5555555555556,4,2,1,65,0,0
30906,-62.5,4,2,1,65,0,0
31999,-76.9230769230769,4,2,1,65,0,0
34656,-55.5555555555556,4,2,1,65,0,0
35906,-62.5,4,2,1,65,0,0
36999,-76.9230769230769,4,2,1,65,0,0
39656,-55.5555555555556,4,2,1,65,0,0
40906,-71.4285714285714,4,2,1,65,0,0
42156,-90.9090909090909,4,2,1,55,0,0
43406,-90.9090909090909,4,2,2,55,0,0
43425,-90.9090909090909,4,2,1,55,0,0
44656,-90.9090909090909,4,2,2,55,0,0
44675,-90.9090909090909,4,2,1,55,0,0
45906,-90.9090909090909,4,2,2,55,0,0
45925,-90.9090909090909,4,2,1,55,0,0
46531,-90.9090909090909,4,2,2,55,0,0
46550,-90.9090909090909,4,2,1,55,0,0
48406,-90.9090909090909,4,2,2,55,0,0
48425,-90.9090909090909,4,2,1,55,0,0
49656,-90.9090909090909,4,2,2,55,0,0
49675,-90.9090909090909,4,2,1,55,0,0
50906,-90.9090909090909,4,2,1,60,0,0
51531,-90.9090909090909,4,2,1,65,0,0
52156,-66.6666666666667,4,2,20,75,0,1
52175,-66.6666666666667,4,2,1,75,0,1
61531,-66.6666666666667,4,2,1,80,0,1
62156,-76.9230769230769,4,2,1,65,0,0
64656,-55.5555555555556,4,2,1,65,0,0
65906,-62.5,4,2,1,65,0,0
66999,-76.9230769230769,4,2,1,65,0,0
69656,-55.5555555555556,4,2,1,65,0,0
70906,-62.5,4,2,1,65,0,0
71999,-76.9230769230769,4,2,1,65,0,0
74656,-55.5555555555556,4,2,1,65,0,0
75906,-62.5,4,2,1,65,0,0
76999,-76.9230769230769,4,2,1,65,0,0
79656,-55.5555555555556,4,2,1,65,0,0
80906,-62.5,4,2,1,65,0,0
82156,-90.9090909090909,4,2,1,55,0,0
83406,-90.9090909090909,4,2,2,55,0,0
83425,-90.9090909090909,4,2,1,55,0,0
84656,-90.9090909090909,4,2,2,55,0,0
84675,-90.9090909090909,4,2,1,55,0,0
85906,-90.9090909090909,4,2,2,55,0,0
85925,-90.9090909090909,4,2,1,55,0,0
86531,-90.9090909090909,4,2,2,55,0,0
86550,-90.9090909090909,4,2,1,55,0,0
87156,-90.9090909090909,4,2,2,55,0,0
87175,-90.9090909090909,4,2,1,55,0,0
88406,-90.9090909090909,4,2,2,55,0,0
88425,-90.9090909090909,4,2,1,55,0,0
89656,-90.9090909090909,4,2,2,55,0,0
89675,-90.9090909090909,4,2,1,55,0,0
90906,-90.9090909090909,4,2,1,60,0,0
91531,-90.9090909090909,4,2,1,65,0,0
92156,-90.9090909090909,4,2,20,75,0,1
92175,-90.9090909090909,4,2,1,75,0,1
92312,-66.6666666666667,4,2,1,75,0,1
101531,-66.6666666666667,4,2,1,80,0,1
102156,-66.6666666666667,4,2,1,70,0,0
112156,-66.6666666666667,4,2,1,65,0,0
122781,-66.6666666666667,4,2,2,65,0,0
122800,-66.6666666666667,4,2,1,65,0,0
124031,-66.6666666666667,4,2,2,65,0,0
124050,-66.6666666666667,4,2,1,65,0,0
124656,-66.6666666666667,4,2,1,70,0,0
126999,-66.6666666666667,4,2,1,65,0,0
127781,-66.6666666666667,4,2,2,65,0,0
127800,-66.6666666666667,4,2,1,65,0,0
129031,-66.6666666666667,4,2,2,65,0,0
129050,-66.6666666666667,4,2,1,65,0,0
129656,-66.6666666666667,4,2,1,75,0,0
131999,-66.6666666666667,4,2,1,65,0,0
132781,-66.6666666666667,4,2,2,65,0,0
132800,-66.6666666666667,4,2,1,65,0,0
134031,-66.6666666666667,4,2,2,65,0,0
134050,-66.6666666666667,4,2,1,65,0,0
134656,-66.6666666666667,4,2,1,70,0,0
136999,-66.6666666666667,4,2,1,65,0,0
137781,-66.6666666666667,4,2,2,65,0,0
137800,-66.6666666666667,4,2,1,65,0,0
139031,-66.6666666666667,4,2,2,65,0,0
139050,-66.6666666666667,4,2,1,65,0,0
139656,-66.6666666666667,4,2,1,70,0,0
140906,-66.6666666666667,4,2,1,60,0,0
141999,-66.6666666666667,4,2,1,40,0,0
142156,-66.6666666666667,4,2,20,75,0,1
142175,-66.6666666666667,4,2,1,75,0,1
152156,-62.5,4,2,1,80,0,1
157156,-62.5,4,2,3,80,0,1
159656,-62.5,4,2,1,80,0,1
162156,-62.5,4,2,20,90,0,0

[Colours]
Combo1 : 146,130,99
Combo2 : 186,44,44
Combo3 : 102,53,53
Combo4 : 224,145,65

[HitObjects]
512,122,11531,6,0,B|405:158,1,112,12|0,3:1|0:0,0:0:0:0:
402,331,11843,2,0,B|441:284|441:284|425:235,1,112,8|0,3:1|0:0,0:0:0:0:
130,229,12156,2,0,L|351:265,1,224,8|8,3:1|3:1,0:0:0:0:
351,265,12781,6,0,P|307:299|282:349,1,112,8|0,3:1|0:0,0:0:0:0:
244,173,13093,2,0,P|192:152|136:156,1,112,8|0,3:1|0:0,0:0:0:0:
364,101,13406,2,0,P|355:46|325:0,1,112,8|0,3:1|0:0,0:0:0:0:
77,101,13718,1,8,3:1:0:0:
77,101,14031,6,0,B|195:73|195:73|170:112,1,168,8|0,3:1|0:0,0:0:0:0:
159,117,14343,2,0,L|49:142,1,112,8|0,3:1|0:0,0:0:0:0:
280,291,14656,2,0,L|63:233,1,224,8|8,3:1|3:1,0:0:0:0:
63,233,15281,6,0,P|103:274|115:329,1,112,8|0,3:1|0:0,0:0:0:0:
331,360,15593,2,0,P|360:313|409:287,1,112,8|0,3:1|0:0,0:0:0:0:
446,126,15906,1,8,3:1:0:0:
409,287,16062,1,0,3:0:0:0:
348,188,16218,1,8,3:1:0:0:
509,223,16374,1,0,3:0:0:0:
276,252,16531,6,0,B|250:176|250:176|277:145,1,112,12|0,3:1|0:0,0:0:0:0:
451,25,16843,2,0,B|471:49|471:49|446:125,1,112,8|0,3:1|0:0,0:0:0:0:
162,89,17156,2,0,P|278:78|384:62,1,224,8|8,3:1|3:1,0:0:0:0:
384,62,17781,6,0,P|346:103|318:151,1,112,8|0,3:1|0:0,0:0:0:0:
235,339,18093,2,0,P|217:285|190:237,1,112,8|0,3:1|0:0,0:0:0:0:
69,71,18406,2,0,P|123:82|179:83,1,112,8|0,3:1|0:0,0:0:0:0:
299,232,18718,1,8,3:1:0:0:
299,232,19031,6,0,L|314:60,1,168,8|0,3:1|0:0,0:0:0:0:
306,56,19343,2,0,B|274:108|274:108|291:155,1,112,8|0,3:1|0:0,0:0:0:0:
512,100,19656,2,0,L|401:116,1,112,8|0,3:1|0:0,0:0:0:0:
299,232,19968,2,0,L|409:248,1,112,8|0,3:1|3:0,0:0:0:0:
226,353,20281,6,0,P|207:332|184:316,3,56,8|0|0|0,3:1|3:0|3:0|3:0,0:0:0:0:
145,254,20593,2,0,P|119:265|97:282,3,56,8|0|0|0,3:1|3:0|3:0|3:0,0:0:0:0:
99,293,20906,1,8,3:1:0:0:
101,303,20984,1,0,3:0:0:0:
102,314,21062,1,0,3:0:0:0:
103,325,21140,1,0,3:0:0:0:
105,335,21218,1,12,3:1:0:0:
134,17,22156,5,6,3:2:0:0:
134,17,22312,1,0,0:0:0:0:
204,57,22468,2,0,P|172:88|150:128,1,90.9999958343508,10|0,3:2|0:0,0:0:0:0:
149,275,22781,2,0,L|133:93,1,181.999991668702,2|10,3:2|3:2,0:0:0:0:
297,0,23249,6,0,L|279:89,1,90.9999958343508,0|2,0:0|3:2,0:0:0:0:
340,145,23562,1,0,0:0:0:0:
480,13,23718,2,0,L|391:33,1,90.9999958343508,10|0,3:2|0:0,0:0:0:0:
416,131,24031,2,0,P|451:159|472:199,1,90.9999958343508,2|2,3:2|0:2,0:0:0:0:
200,130,24343,2,0,P|235:101|278:89,1,90.9999958343508,10|2,3:2|0:2,0:0:0:0:
357,384,24656,6,0,L|339:132,2,251.999992309571,6|10|2,3:2|3:2|3:2,0:0:0:0:
429,262,25593,1,10,3:2:0:0:
429,262,25749,1,0,0:0:0:0:
270,331,25906,2,0,B|183:308|183:308|153:351|153:351|74:328,1,224,2|10,3:2|3:2,0:0:0:0:
74,328,26374,1,2,3:2:0:0:
123,161,26531,5,2,3:2:0:0:
152,236,26687,1,2,3:2:0:0:
76,219,26843,1,10,3:2:0:0:
204,175,26999,6,0,L|218:85,1,90.9999958343508,6|6,2:2|3:2,0:0:0:0:
162,23,27312,1,0,0:0:0:0:
51,132,27468,2,0,P|68:173|75:218,1,90.9999958343508,10|0,3:2|0:0,0:0:0:0:
179,282,27781,2,0,L|0:248,1,181.999991668702,2|10,3:2|3:2,0:0:0:0:
176,380,28249,6,0,P|207:296|287:258,1,181.999991668702
314,178,28718,1,10,3:2:0:0:
314,178,28874,1,0,0:0:0:0:
360,331,29031,2,0,L|376:241,1,90.9999958343508,2|2,3:2|0:2,0:0:0:0:
207,99,29343,2,0,L|223:188,1,90.9999958343508,10|2,3:2|0:2,0:0:0:0:
469,70,29656,6,0,P|339:48|221:20,2,251.999992309571,6|10|2,3:2|3:2|3:2,0:0:0:0:
314,178,30593,1,10,3:2:0:0:
314,178,30749,1,0,0:0:0:0:
466,144,30906,2,0,B|391:161|391:161|419:307,1,224,2|10,3:2|3:2,0:0:0:0:
493,317,31374,1,2,3:2:0:0:
313,266,31531,5,2,3:2:0:0:
494,231,31687,1,10,3:2:0:0:
357,350,31843,1,10,3:2:0:0:
387,128,31999,6,0,L|372:35,1,90.9999958343508,10|6,2:2|3:2,0:0:0:0:
454,0,32312,1,0,0:0:0:0:
454,0,32468,1,10,3:2:0:0:
298,98,32624,2,0,B|259:72|259:72|215:81,1,90.9999958343508,0|2,0:0|3:2,0:0:0:0:
239,173,32937,1,0,0:0:0:0:
239,173,33093,1,10,3:2:0:0:
278,362,33249,6,0,L|255:166,1,181.999991668702
173,240,33718,1,10,3:2:0:0:
145,152,33874,2,0,L|56:129,1,90.9999958343508,0|2,0:2|3:2,0:0:0:0:
9,325,34187,2,0,P|52:305|97:302,1,90.9999958343508,0|2,0:2|3:2,0:0:0:0:
173,240,34499,1,2,0:2:0:0:
197,378,34656,6,0,L|220:127,2,251.999992309571,6|10|2,3:2|3:2|3:2,0:0:0:0:
287,274,35593,1,10,3:2:0:0:
287,274,35749,1,0,0:0:0:0:
113,252,35906,6,0,B|51:241|51:241|33:80,1,224,2|10,3:2|3:2,0:0:0:0:
33,80,36374,1,2,3:2:0:0:
137,187,36531,1,2,3:2:0:0:
114,28,36687,1,2,3:2:0:0:
43,161,36843,1,10,3:2:0:0:
196,62,36999,6,0,L|286:79,1,90.9999958343508,6|2,2:2|3:2,0:0:0:0:
348,19,37312,1,0,0:0:0:0:
374,167,37468,2,0,P|393:126|426:95,1,90.9999958343508,10|0,3:2|0:0,0:0:0:0:
254,170,37781,2,0,P|287:200|306:241,1,90.9999958343508,2|0,3:2|0:0,0:0:0:0:
374,167,38093,1,10,3:2:0:0:
426,384,38249,6,0,L|447:203,1,181.999991668702
378,170,38718,1,10,3:2:0:0:
378,170,38874,1,0,0:0:0:0:
247,284,39031,2,0,L|262:373,1,90.9999958343508,2|2,3:2|0:2,0:0:0:0:
87,275,39343,2,0,B|120:241|120:241|161:255,1,90.9999958343508,10|2,3:2|0:2,0:0:0:0:
210,35,39656,6,0,L|248:288,2,251.999992309571,6|10|2,3:2|3:2|3:2,0:0:0:0:
294,9,40593,1,10,3:2:0:0:
294,9,40749,1,0,0:0:0:0:
116,59,40906,2,0,B|47:26|47:26|-3:75|-3:75|15:120,1,195.999994018555,2|10,3:2|3:2,0:0:0:0:
96,129,41374,1,2,3:2:0:0:
19,207,41531,5,2,3:2:0:0:
197,147,41687,1,10,3:2:0:0:
162,217,41843,1,10,3:2:0:0:
0,131,41999,1,10,2:2:0:0:
132,308,42156,6,0,P|185:254|260:239,1,154.000004699707,6|10,3:2|3:2,0:0:0:0:
287,164,42624,1,0,0:0:0:0:
321,374,42781,2,0,L|337:220,1,154.000004699707,2|10,3:2|3:2,0:0:0:0:
287,164,43249,1,0,0:0:0:0:
406,276,43406,6,0,L|481:261,1,77.0000023498536,2|0,3:2|0:0,0:0:0:0:
505,182,43718,1,10,3:2:0:0:
383,357,43874,2,0,L|458:342,1,77.0000023498536,0|2,0:0|3:2,0:0:0:0:
191,225,44343,5,10,3:2:0:0:
191,225,44499,1,0,0:0:0:0:
179,300,44656,2,0,L|168:379,1,77.0000023498536,2|0,3:2|0:0,0:0:0:0:
249,270,44968,1,10,3:2:0:0:
104,251,45124,2,0,B|69:225|69:225|71:191,1,77.0000023498536,0|2,0:0|3:2,0:0:0:0:
298,139,45437,2,0,B|300:172|300:172|265:198,1,77.0000023498536,2|10,0:2|3:2,0:0:0:0:
17,74,45749,5,0,0:0:0:0:
175,91,45906,2,0,L|22:68,1,154.000004699707,2|10,3:2|3:2,0:0:0:0:
17,74,46531,5,2,3:2:0:0:
52,195,46687,1,10,0:2:0:0:
124,176,46843,1,10,3:2:0:0:
88,337,46999,1,10,3:2:0:0:
194,233,47156,6,0,P|204:158|163:95,1,154.000004699707,6|10,3:2|3:2,0:0:0:0:
178,15,47624,1,0,0:0:0:0:
278,147,47781,2,0,L|354:138,1,77.0000023498536,2|2,3:2|0:2,0:0:0:0:
255,63,48093,2,0,P|219:84|198:114,1,77.0000023498536,10|0,3:2|0:0,0:0:0:0:
340,291,48406,6,0,L|353:137,1,154.000004699707,2|10,3:2|3:2,0:0:0:0:
426,92,48874,1,0,0:0:0:0:
402,342,49031,2,0,B|326:317|326:317|266:360,1,154.000004699707,2|10,3:2|3:2,0:0:0:0:
49,210,49499,5,10,3:2:0:0:
117,257,49656,2,0,L|122:333,2,77.0000023498536,2|0|10,3:2|0:0|3:2,0:0:0:0:
0,136,50124,2,0,P|73:121|130:168,1,154.000004699707,0|2,0:0|0:2,0:0:0:0:
192,222,50593,2,0,L|267:208,1,77.0000023498536,10|0,3:2|0:0,0:0:0:0:
370,81,50906,5,0,3:2:0:0:
354,166,51062,1,0,3:2:0:0:
457,98,51218,1,8,3:2:0:0:
441,183,51374,1,8,3:2:0:0:
379,62,51531,5,8,3:1:0:0:
333,157,51687,1,8,3:1:0:0:
476,109,51843,1,8,3:1:0:0:
430,204,51999,1,8,3:1:0:0:
336,0,52156,5,12,3:1:0:0:
278,47,52312,2,0,L|68:26,1,210.000008010865,0|2,0:0|0:0,0:0:0:0:
115,131,52781,2,0,P|167:128|217:141,1,105.000004005432,8|0,3:2|0:0,0:0:0:0:
180,300,53093,2,0,P|157:252|119:216,1,105.000004005432,2|0,0:0|0:0,0:0:0:0:
37,173,53406,5,8,3:1:0:0:
99,340,53562,2,0,L|114:130,1,210.000008010865,0|2,0:0|0:0,0:0:0:0:
236,247,54031,2,0,B|271:294|271:294|244:332,1,105.000004005432,8|0,3:2|0:0,0:0:0:0:
345,384,54343,2,0,L|354:279,1,105.000004005432,2|0,0:0|0:0,0:0:0:0:
310,204,54656,5,8,3:1:0:0:
418,384,54812,2,0,L|438:170,1,210.000008010865,0|2,0:0|0:0,0:0:0:0:
232,170,55281,2,0,P|267:132|317:119,1,105.000004005432,8|0,3:2|0:0,0:0:0:0:
243,0,55593,2,0,P|293:11|329:48,1,105.000004005432,2|0,0:0|0:0,0:0:0:0:
393,99,55906,5,8,3:1:0:0:
110,84,56062,2,0,L|317:118,1,210.000008010865,8|0,3:2|0:0,0:0:0:0:
462,124,56531,2,0,B|480:80|480:80|440:38,1,105.000004005432,8|8,3:2|3:2,0:0:0:0:
393,99,56843,1,8,3:2:0:0:
420,277,56999,1,8,3:2:0:0:
462,124,57156,5,12,3:1:0:0:
403,170,57312,2,0,B|312:155|312:155|289:175|289:175|202:159,1,210.000008010865,0|2,0:0|0:0,0:0:0:0:
224,20,57781,2,0,B|272:45|272:45|265:95,1,105.000004005432,8|0,3:2|0:0,0:0:0:0:
374,307,58093,2,0,B|326:282|326:282|332:231,1,105.000004005432,2|0,0:0|0:0,0:0:0:0:
403,170,58406,5,8,3:1:0:0:
225,376,58562,2,0,L|254:161,1,210.000008010865,0|2,0:0|0:0,0:0:0:0:
329,118,59031,2,0,P|368:85|420:79,1,105.000004005432,8|0,3:2|0:0,0:0:0:0:
194,101,59343,2,0,P|162:59|113:43,1,105.000004005432,2|0,0:0|0:0,0:0:0:0:
114,127,59656,5,8,3:1:0:0:
31,0,59812,2,0,L|52:208,1,210.000008010865,0|2,0:0|0:0,0:0:0:0:
227,236,60281,2,0,L|127:201,1,105.000004005432,8|0,3:2|0:0,0:0:0:0:
23,326,60593,2,0,B|66:293|66:293|113:309,1,105.000004005432,2|0,0:0|0:0,0:0:0:0:
305,365,60906,6,0,L|295:260,1,105.000004005432,8|8,3:1|3:2,0:0:0:0:
277,40,61218,2,0,L|286:144,1,105.000004005432
380,261,61531,5,8,3:2:0:0:
229,203,61687,1,8,3:2:0:0:
444,192,61843,5,8,3:2:0:0:
295,260,61999,1,8,3:2:0:0:
472,371,62156,6,0,L|491:266,1,90.9999958343508,6|0,3:2|0:0,0:0:0:0:
363,171,62468,2,0,L|379:260,1,90.9999958343508,10|0,3:2|0:0,0:0:0:0:
512,120,62781,2,0,L|334:78,1,181.999991668702,2|10,3:2|3:2,0:0:0:0:
207,127,63249,2,0,B|251:115|251:115|286:143,1,90.9999958343508,0|2,0:0|3:2,0:0:0:0:
232,204,63562,1,0,0:0:0:0:
123,107,63718,6,0,L|34:84,1,90.9999958343508,10|0,3:2|0:0,0:0:0:0:
5,227,64031,2,0,P|36:194|79:180,1,90.9999958343508,2|2,3:2|0:2,0:0:0:0:
283,275,64343,2,0,P|265:233|231:203,1,90.9999958343508,10|2,3:2|0:2,0:0:0:0:
148,357,64656,6,0,L|122:106,2,251.999992309571,6|10|2,3:2|3:2|3:2,0:0:0:0:
63,293,65593,1,10,3:2:0:0:
63,293,65749,1,0,0:0:0:0:
229,314,65906,2,0,B|300:325|300:325|317:366|317:366|423:379,1,224,2|10,3:2|3:2,0:0:0:0:
423,379,66374,1,2,3:2:0:0:
471,179,66531,5,2,3:2:0:0:
415,244,66687,1,2,3:2:0:0:
503,265,66843,1,10,3:2:0:0:
370,149,66999,6,0,P|374:193|384:238,1,90.9999958343508,6|6,2:2|3:2,0:0:0:0:
471,179,67312,1,0,0:0:0:0:
271,119,67468,2,0,P|282:71|285:29,1,90.9999958343508,10|0,3:2|0:0,0:0:0:0:
286,221,67781,2,0,P|197:243|112:275,1,181.999991668702,2|10,3:2|3:2,0:0:0:0:
0,95,68249,6,0,P|85:127|173:149,1,181.999991668702,2|0,0:0|0:0,0:0:0:0:
275,123,68718,1,10,3:2:0:0:
275,123,68874,1,0,0:0:0:0:
151,225,69031,2,0,P|120:261|101:301,1,90.9999958343508,2|2,3:2|0:2,0:0:0:0:
216,384,69343,2,0,L|206:293,1,90.9999958343508,10|2,3:2|0:2,0:0:0:0:
48,132,69656,6,0,L|74:382,2,251.999992309571,6|10|2,3:2|3:2|3:2,0:0:0:0:
112,59,70593,1,10,3:2:0:0:
112,59,70749,1,0,0:0:0:0:
156,192,70906,2,0,B|244:214|244:214|258:264|258:264|336:286,1,224,2|10,3:2|3:2,0:0:0:0:
411,261,71374,1,2,3:2:0:0:
305,384,71531,5,2,3:2:0:0:
335,183,71687,1,10,3:2:0:0:
396,336,71843,1,10,3:2:0:0:
338,97,71999,6,0,P|294:110|261:140,1,90.9999958343508,10|6,2:2|3:2,0:0:0:0:
251,33,72312,1,0,0:0:0:0:
251,33,72468,1,10,3:2:0:0:
358,189,72624,2,0,P|403:192|442:214,1,90.9999958343508,0|2,0:0|3:2,0:0:0:0:
473,139,72937,1,0,0:0:0:0:
473,139,73093,1,10,3:2:0:0:
490,320,73249,6,0,L|472:138,1,181.999991668702
338,97,73718,1,10,3:2:0:0:
320,311,73874,2,0,P|359:336|387:372,1,90.9999958343508,0|2,0:0|3:2,0:0:0:0:
272,216,74187,2,0,P|312:195|357:188,1,90.9999958343508,2|10,0:2|3:2,0:0:0:0:
416,251,74499,1,2,0:2:0:0:
253,376,74656,6,0,L|233:124,2,251.999992309571,6|10|2,3:2|3:2|3:2,0:0:0:0:
165,162,75593,1,10,3:2:0:0:
165,162,75749,1,0,0:0:0:0:
263,27,75906,2,0,B|180:39|180:39|164:87|164:87|75:99,1,224,2|10,3:2|3:2,0:0:0:0:
75,99,76374,1,2,3:2:0:0:
20,37,76531,5,2,3:2:0:0:
52,199,76687,1,2,3:2:0:0:
111,23,76843,1,10,3:2:0:0:
166,212,76999,6,0,P|80:233|39:311,1,181.999991668702,6|0,2:2|0:0,0:0:0:0:
88,380,77468,1,10,3:2:0:0:
88,380,77624,1,0,0:0:0:0:
261,232,77781,2,0,L|172:217,1,90.9999958343508,2|0,3:2|0:0,0:0:0:0:
132,302,78093,1,10,3:2:0:0:
375,337,78249,6,0,B|399:252|399:252|331:186,1,181.999991668702
345,103,78718,1,10,3:2:0:0:
345,103,78874,1,0,0:0:0:0:
479,201,79031,2,0,P|479:246|487:291,1,90.9999958343508,2|2,3:2|0:2,0:0:0:0:
253,322,79343,2,0,P|261:277|261:231,1,90.9999958343508,10|2,3:2|0:2,0:0:0:0:
375,0,79656,6,0,L|355:251,2,251.999992309571,6|10|2,3:2|3:2|3:2,0:0:0:0:
407,336,80593,1,10,3:2:0:0:
407,336,80749,1,0,0:0:0:0:
380,79,80906,2,0,B|373:175|373:175|348:200|348:200|342:294,1,224,2|10,3:2|3:2,0:0:0:0:
420,263,81374,1,2,3:2:0:0:
274,323,81531,1,2,3:2:0:0:
443,183,81687,5,10,3:2:0:0:
453,186,81765,1,10,3:2:0:0:
463,189,81843,1,10,3:2:0:0:
511,266,81999,1,10,2:2:0:0:
334,241,82156,6,0,L|182:213,1,154.000004699707,6|10,3:2|3:2,0:0:0:0:
132,140,82624,1,0,0:0:0:0:
147,297,82781,2,0,P|139:220|123:145,1,154.000004699707,2|10,3:2|3:2,0:0:0:0:
22,111,83249,1,0,0:0:0:0:
61,341,83406,6,0,P|96:354|122:382,1,77.0000023498536,2|0,3:2|0:0,0:0:0:0:
147,297,83718,1,10,3:2:0:0:
83,154,83874,2,0,P|53:178|16:187,1,77.0000023498536,0|2,0:0|3:2,0:0:0:0:
268,328,84343,5,10,3:2:0:0:
268,328,84499,1,0,0:0:0:0:
331,376,84656,2,0,B|356:348|356:348|345:310,1,77.0000023498536,2|0,3:2|0:0,0:0:0:0:
246,247,84968,1,10,3:2:0:0:
370,159,85124,2,0,L|358:235,1,77.0000023498536,0|0,0:0|3:2,0:0:0:0:
177,208,85437,2,0,B|150:178|150:178|165:131,1,77.0000023498536,2|10,0:2|3:2,0:0:0:0:
250,14,85749,5,0,0:0:0:0:
245,176,85906,2,0,L|254:22,1,154.000004699707,2|10,3:2|3:2,0:0:0:0:
250,14,86531,5,2,3:2:0:0:
403,62,86687,1,10,0:2:0:0:
468,16,86843,1,10,3:2:0:0:
361,194,86999,1,10,3:2:0:0:
474,95,87156,6,0,L|451:247,1,154.000004699707,6|10,3:2|3:2,0:0:0:0:
374,273,87624,1,0,0:0:0:0:
488,370,87781,2,0,P|464:339|431:320,1,77.0000023498536,2|2,3:2|0:2,0:0:0:0:
373,266,88093,2,0,P|337:279|308:304,1,77.0000023498536,10|0,3:2|0:0,0:0:0:0:
187,384,88406,6,0,L|170:230,1,154.000004699707,2|10,3:2|3:2,0:0:0:0:
235,184,88874,1,0,0:0:0:0:
42,126,89031,2,0,B|108:96|108:96|170:161,1,154.000004699707,2|10,3:2|3:2,0:0:0:0:
377,55,89499,1,10,3:2:0:0:
371,132,89656,6,0,L|360:208,2,77.0000023498536,2|0|10,3:2|0:0|3:2,0:0:0:0:
309,291,90124,2,0,B|266:263|266:263|282:155,1,154.000004699707,0|2,0:0|0:2,0:0:0:0:
404,306,90593,2,0,P|392:342|368:372,1,77.0000023498536,10|0,3:2|0:0,0:0:0:0:
197,266,90906,5,0,3:2:0:0:
309,291,91062,1,0,3:2:0:0:
223,153,91218,1,8,3:2:0:0:
335,178,91374,1,8,3:2:0:0:
181,248,91531,5,8,3:1:0:0:
291,306,91687,1,8,3:1:0:0:
240,137,91843,1,8,3:1:0:0:
350,195,91999,1,8,3:1:0:0:
102,272,92156,5,12,3:1:0:0:
181,248,92312,2,0,B|21:213|21:213|8:168,1,210.000008010865,0|2,0:0|0:0,0:0:0:0:
240,137,92781,2,0,P|286:159|307:206,1,105.000004005432,8|0,3:2|0:0,0:0:0:0:
291,384,93093,2,0,L|302:279,1,105.000004005432,2|0,0:0|0:0,0:0:0:0:
378,247,93406,5,8,3:1:0:0:
489,384,93562,2,0,L|506:174,1,210.000008010865,0|2,0:0|0:0,0:0:0:0:
481,84,94031,2,0,P|436:110|412:156,1,105.000004005432,8|0,3:2|0:0,0:0:0:0:
238,116,94343,2,0,P|286:133|318:173,1,105.000004005432,2|0,0:0|0:0,0:0:0:0:
357,49,94656,5,8,3:1:0:0:
227,194,94812,2,0,L|18:167,1,210.000008010865,0|2,0:0|0:0,0:0:0:0:
193,55,95281,2,0,B|245:64|245:64|237:115,1,105.000004005432,8|0,3:2|0:0,0:0:0:0:
273,255,95593,2,0,B|221:246|221:246|228:194,1,105.000004005432,2|0,0:0|0:0,0:0:0:0:
325,147,95906,5,8,3:1:0:0:
110,53,96062,2,0,P|132:155|138:260,1,210.000008010865,8|0,3:2|0:0,0:0:0:0:
69,365,96531,2,0,B|119:349|119:349|158:383,1,105.000004005432,8|8,3:2|3:2,0:0:0:0:
263,222,96843,1,8,3:2:0:0:
238,384,96999,1,8,3:2:0:0:
322,274,97156,5,12,3:1:0:0:
263,222,97312,2,0,L|55:248,1,210.000008010865,0|2,0:0|0:0,0:0:0:0:
18,115,97781,2,0,P|69:116|119:142,1,105.000004005432,8|0,3:2|0:0,0:0:0:0:
181,26,98093,2,0,P|205:70|207:127,1,105.000004005432,2|0,0:0|0:0,0:0:0:0:
178,202,98406,5,8,3:1:0:0:
284,84,98562,2,0,B|365:93|365:93|390:127|390:127|475:139,1,210.000008010865,0|2,0:0|0:0,0:0:0:0:
512,1,99031,2,0,P|462:15|427:53,1,105.000004005432,8|0,3:2|0:0,0:0:0:0:
512,196,99343,2,0,P|486:154|439:133,1,105.000004005432,2|0,0:0|0:0,0:0:0:0:
512,82,99656,5,8,3:1:0:0:
422,224,99812,2,0,L|214:188,1,210.000008010865,0|2,0:0|0:0,0:0:0:0:
174,3,100281,2,0,L|196:105,1,105.000004005432,8|0,3:2|0:0,0:0:0:0:
215,189,100593,2,0,L|237:291,1,105.000004005432,2|0,0:0|0:0,0:0:0:0:
402,323,100906,6,0,B|359:357|359:357|313:335,1,105.000004005432,8|8,3:1|3:2,0:0:0:0:
391,146,101218,2,0,B|436:124|436:124|479:158,1,105.000004005432
413,235,101531,1,8,3:2:0:0:
440,19,101687,1,8,3:2:0:0:
488,248,101843,1,8,3:2:0:0:
372,60,101999,1,8,3:2:0:0:
310,248,102156,6,0,L|319:322,5,70.0000026702882,6|0|0|10|0|0,3:2|0:0|0:0|3:2|0:0|0:0,0:0:0:0:
299,146,102781,2,0,L|290:76,5,70.0000026702882,2|0|0|10|0|0,3:2|0:0|0:0|3:2|0:0|0:0,0:0:0:0:
223,209,103406,5,2,3:2:0:0:
210,202,103510,1,0,0:0:0:0:
197,195,103614,1,0,0:0:0:0:
175,164,103718,1,10,3:2:0:0:
162,171,103822,1,0,0:0:0:0:
149,178,103926,1,0,0:0:0:0:
132,213,104031,6,0,L|111:-13,1,210.000008010865,2|10,3:2|3:2,0:0:0:0:
225,340,104656,2,0,P|131:302|43:352,1,210.000008010865,6|10,3:2|3:2,0:0:0:0:
8,272,105124,1,0,0:0:0:0:
226,350,105281,6,0,B|321:339|321:339|343:355|343:355|429:344,1,210.000008010865,2|10,3:2|3:2,0:0:0:0:
359,275,105749,1,0,0:0:0:0:
479,123,105906,6,0,L|459:228,1,105.000004005432,2|0,3:2|0:0,0:0:0:0:
251,240,106218,2,0,B|214:199|214:199|231:136,1,105.000004005432,10|0,3:2|0:0,0:0:0:0:
316,146,106531,1,2,3:2:0:0:
316,146,106687,1,2,3:2:0:0:
138,226,106843,2,0,L|34:207,1,105.000004005432,10|10,3:2|3:2,0:0:0:0:
10,29,107156,6,0,P|51:42|73:60,3,52.5000020027161,6|0|0|0,3:2|0:0|0:0|0:0,0:0:0:0:
65,54,107468,2,0,P|84:92|87:120,3,52.5000020027161,10|0|0|0,3:2|0:0|0:0|0:0,0:0:0:0:
85,111,107781,2,0,P|80:136|67:159,3,52.5000020027161,2|0|2|0,3:2|0:0|0:0|0:0,0:0:0:0:
57,162,108093,1,10,3:2:0:0:
47,165,108171,1,0,0:0:0:0:
37,168,108249,2,0,L|48:219,1,52.5000020027161
7,329,108406,6,0,L|58:337,3,52.5000020027161,2|0|0|0,3:2|0:0|0:0|0:0,0:0:0:0:
68,339,108718,2,0,L|119:347,3,52.5000020027161,10|0|0|0,3:2|0:0|0:0|0:0,0:0:0:0:
130,348,109031,2,0,L|181:356,3,52.5000020027161,2|0|2|0,3:2|0:0|0:0|0:0,0:0:0:0:
190,350,109343,1,10,3:2:0:0:
198,343,109421,1,0,0:0:0:0:
206,337,109499,2,0,L|196:285,1,52.5000020027161
304,194,109656,5,6,3:2:0:0:
301,209,109734,1,0,0:0:0:0:
298,224,109812,1,0,0:0:0:0:
295,239,109890,1,0,0:0:0:0:
292,254,109968,6,0,P|318:250|342:239,3,52.5000020027161,10|0|0|0,3:2|0:0|0:0|0:0,0:0:0:0:
355,230,110281,2,0,P|371:208|380:183,3,52.5000020027161,2|0|2|0,3:2|0:0|0:0|0:0,0:0:0:0:
383,169,110593,2,0,P|379:142|368:118,2,52.5000020027161,10|0|0,3:2|0:0|0:0,0:0:0:0:
336,34,110906,5,2,3:2:0:0:
321,39,110984,1,0,0:0:0:0:
306,44,111062,1,0,0:0:0:0:
291,49,111140,1,0,0:0:0:0:
276,53,111218,2,0,L|500:107,1,210.000008010865,10|2,3:2|3:2,0:0:0:0:
466,19,111687,1,2,3:2:0:0:
482,193,111843,1,10,3:2:0:0:
403,75,111999,1,10,3:2:0:0:
428,261,112156,6,0,B|459:309|459:309|442:353,1,105.000004005432,6|0,3:2|0:0,0:0:0:0:
242,324,112468,2,0,L|345:341,1,105.000004005432,10|0,3:2|0:0,0:0:0:0:
179,199,112781,2,0,B|102:220|102:220|122:348,1,210.000008010865,2|10,3:2|3:2,0:0:0:0:
209,383,113249,1,0,0:0:0:0:
177,209,113406,6,0,L|159:99,1,105.000004005432,2|0,3:2|0:0,0:0:0:0:
315,22,113718,2,0,P|322:68|298:125,1,105.000004005432,10|0,3:2|0:0,0:0:0:0:
28,13,114031,2,0,L|236:41,1,210.000008010865,2|10,3:2|3:2,0:0:0:0:
238,51,114421,1,0,0:0:0:0:
242,60,114499,1,0,0:0:0:0:
392,81,114656,5,6,3:2:0:0:
306,131,114812,1,0,0:0:0:0:
306,131,114968,1,10,3:2:0:0:
395,170,115124,1,0,0:0:0:0:
305,244,115281,2,0,P|266:211|216:195,1,105.000004005432,2|2,3:2|0:0,0:0:0:0:
205,203,115515,1,0,0:0:0:0:
196,209,115593,2,0,L|200:156,2,52.5000020027161,10|0|0,3:2|0:0|0:0,0:0:0:0:
123,277,115906,5,2,3:2:0:0:
117,275,115984,1,0,0:0:0:0:
111,273,116062,1,0,0:0:0:0:
105,272,116140,1,0,0:0:0:0:
99,270,116218,2,0,L|92:217,3,52.5000020027161,10|0|0|0,3:2|0:0|0:0|0:0,0:0:0:0:
54,142,116531,6,0,L|79:350,1,210.000008010865,2|10,3:2|3:2,0:0:0:0:
165,373,116999,1,10,3:2:0:0:
224,159,117156,6,0,B|176:134|176:134|130:156,1,105.000004005432,6|0,3:2|0:0,0:0:0:0:
4,60,117468,2,0,P|56:59|103:81,1,105.000004005432,10|0,3:2|0:0,0:0:0:0:
281,45,117781,2,0,L|177:59,1,105.000004005432,2|2,3:2|0:0,0:0:0:0:
180,221,118093,1,10,3:2:0:0:
180,221,118249,1,0,0:0:0:0:
344,120,118406,6,0,B|356:42|356:42|377:27,1,105.000004005432,2|0,3:2|0:0,0:0:0:0:
429,163,118718,2,0,P|399:205|351:224,1,105.000004005432,10|0,3:2|0:0,0:0:0:0:
266,172,119031,1,2,3:2:0:0:
260,276,119187,1,2,0:0:0:0:
351,224,119343,1,10,3:2:0:0:
425,372,119499,6,0,L|428:162,1,210.000008010865,10|0,3:2|0:0,0:0:0:0:
499,99,119968,2,0,B|461:58|461:58|413:69,1,105.000004005432,10|0,3:2|0:0,0:0:0:0:
248,106,120281,2,0,L|350:130,1,105.000004005432,2|2,3:2|0:0,0:0:0:0:
336,37,120593,1,10,3:2:0:0:
198,11,120749,6,0,L|227:218,1,210.000008010865
118,197,121218,2,0,P|120:144|99:97,1,105.000004005432,10|0,3:2|0:0,0:0:0:0:
43,0,121531,1,2,3:2:0:0:
58,0,121609,1,2,3:2:0:0:
73,4,121687,1,2,3:2:0:0:
84,15,121765,1,2,3:2:0:0:
89,29,121843,1,10,3:2:0:0:
26,80,121999,1,8,3:2:0:0:
47,228,122156,6,0,L|67:384,1,157.500006008148,4|0,3:2|0:0,0:0:0:0:
57,381,122468,1,8,3:2:0:0:
156,347,122624,2,0,L|142:241,1,105.000004005432,0|2,0:0|3:2,0:0:0:0:
213,184,122937,1,0,3:2:0:0:
213,184,123093,1,10,3:2:0:0:
235,296,123249,6,0,P|273:330|290:379,1,105.000004005432,4|0,3:2|0:0,0:0:0:0:
268,100,123562,1,0,3:2:0:0:
268,100,123718,2,0,P|229:134|212:183,1,105.000004005432,8|0,3:2|0:0,0:0:0:0:
294,243,124031,2,0,L|419:266,1,105.000004005432,2|0,3:2|3:2,0:0:0:0:
470,68,124343,2,0,L|366:87,1,105.000004005432,8|0,3:2|0:0,0:0:0:0:
178,158,124656,5,4,3:2:0:0:
174,167,124734,1,0,0:0:0:0:
170,176,124812,1,0,0:0:0:0:
165,185,124890,1,0,0:0:0:0:
160,194,124968,2,0,L|211:183,3,52.5000020027161,8|0|0|0,3:2|0:0|0:0|0:0,0:0:0:0:
222,182,125281,2,0,L|273:192,3,52.5000020027161,0|0|0|0,3:2|0:0|0:0|0:0,0:0:0:0:
282,186,125593,1,8,3:2:0:0:
222,283,125749,1,0,0:0:0:0:
87,156,125906,6,0,L|71:33,1,105.000004005432,0|0,3:2|3:2,0:0:0:0:
164,0,126218,1,8,3:2:0:0:
164,0,126374,1,0,0:0:0:0:
24,199,126531,2,0,P|75:199|118:228,1,105.000004005432,0|0,3:2|3:2,0:0:0:0:
47,282,126843,1,8,3:2:0:0:
219,157,126999,6,0,P|188:257|176:361,1,210.000008010865,4|0,3:2|3:2,0:0:0:0:
261,335,127468,1,8,3:2:0:0:
230,153,127624,2,0,L|210:49,1,105.000004005432,0|2,0:0|3:2,0:0:0:0:
296,6,127937,1,0,3:2:0:0:
296,6,128093,1,10,3:2:0:0:
391,134,128249,6,0,B|337:127|337:127|302:163,1,105.000004005432,4|0,3:2|0:0,0:0:0:0:
365,208,128562,1,0,3:2:0:0:
477,114,128718,2,0,L|496:10,1,105.000004005432,8|0,3:2|0:0,0:0:0:0:
462,202,129031,2,0,L|442:305,1,105.000004005432,2|0,3:2|3:2,0:0:0:0:
498,363,129343,1,8,3:2:0:0:
498,363,129499,1,0,0:0:0:0:
299,241,129656,6,0,P|246:246|197:266,1,105.000004005432,4|0,3:2|0:0,0:0:0:0:
148,75,129968,2,0,P|126:122|118:175,1,105.000004005432,8|0,3:2|0:0,0:0:0:0:
140,384,130281,2,0,L|119:175,1,210.000008010865,0|8,3:2|3:2,0:0:0:0:
37,133,130749,1,4,3:2:0:0:
219,171,130906,6,0,B|259:135|259:135|319:141,1,105.000004005432,0|0,3:2|0:0,0:0:0:0:
510,126,131218,2,0,B|470:162|470:162|409:155,1,105.000004005432,0|8,3:2|3:2,0:0:0:0:
372,55,131531,1,8,3:2:0:0:
355,253,131687,1,8,3:2:0:0:
448,84,131843,1,8,3:2:0:0:
249,297,131999,6,0,P|350:282|434:341,1,210.000008010865,4|0,3:2|3:2,0:0:0:0:
492,273,132468,1,8,3:2:0:0:
248,306,132624,2,0,P|152:282|40:270,1,210.000008010865,0|0,0:0|3:2,0:0:0:0:
67,343,133093,1,10,3:2:0:0:
26,120,133249,6,0,B|-14:156|-14:156|5:202,1,105.000004005432,4|0,3:2|0:0,0:0:0:0:
188,100,133562,1,0,3:2:0:0:
188,100,133718,2,0,B|208:53|208:53|167:17,1,105.000004005432,8|0,3:2|0:0,0:0:0:0:
113,179,134031,2,0,P|152:213|176:259,1,105.000004005432,2|0,3:2|3:2,0:0:0:0:
285,282,134343,2,0,P|289:335|274:384,1,105.000004005432,8|0,3:2|0:0,0:0:0:0:
269,211,134656,6,0,L|258:159,3,52.5000020027161,4|0|0|0,3:2|0:0|0:0|0:0,0:0:0:0:
257,149,134968,2,0,L|296:114,3,52.5000020027161,8|0|0|0,3:2|0:0|0:0|0:0,0:0:0:0:
295,103,135281,1,0,3:2:0:0:
293,92,135359,1,0,0:0:0:0:
291,81,135437,1,0,0:0:0:0:
289,70,135515,1,0,0:0:0:0:
287,59,135593,1,8,3:2:0:0:
223,14,135749,1,0,0:0:0:0:
359,49,135906,6,0,L|368:100,3,52.5000020027161,0|0|0|0,3:2|0:0|3:2|0:0,0:0:0:0:
379,101,136218,1,8,3:2:0:0:
389,102,136296,1,0,0:0:0:0:
399,103,136374,1,0,0:0:0:0:
409,104,136452,1,0,0:0:0:0:
419,105,136531,1,0,3:2:0:0:
401,175,136687,1,0,3:2:0:0:
433,30,136843,1,8,3:2:0:0:
329,201,136999,6,0,B|392:209|392:209|426:351,1,210.000008010865,4|0,3:2|3:2,0:0:0:0:
506,372,137468,1,8,3:2:0:0:
332,279,137624,2,0,L|228:263,1,105.000004005432,0|2,0:0|3:2,0:0:0:0:
205,166,137937,1,0,3:2:0:0:
205,166,138093,1,10,3:2:0:0:
207,381,138249,6,0,P|204:276|188:172,1,210.000008010865,4|0,3:2|3:2,0:0:0:0:
82,117,138718,1,8,3:2:0:0:
73,122,138796,1,0,0:0:0:0:
64,127,138874,1,0,0:0:0:0:
33,33,139031,2,0,P|84:43|136:48,1,105.000004005432,2|0,3:2|3:2,0:0:0:0:
108,212,139343,2,0,P|57:201|5:196,1,105.000004005432,8|0,3:2|0:0,0:0:0:0:
67,364,139656,5,12,3:1:0:0:
76,360,139734,1,0,3:2:0:0:
85,356,139812,1,0,3:2:0:0:
95,353,139890,1,0,3:2:0:0:
105,350,139968,1,0,3:2:0:0:
115,347,140046,1,0,3:2:0:0:
125,344,140124,2,0,L|138:293,5,52.5000020027161,12|0|0|0|0|0,3:1|3:2|3:2|3:2|3:2|3:2,0:0:0:0:
214,240,140593,5,12,3:1:0:0:
223,243,140671,1,0,3:2:0:0:
232,246,140749,1,0,3:2:0:0:
242,249,140827,1,0,3:2:0:0:
283,236,140906,5,0,3:2:0:0:
242,26,142156,5,12,3:1:0:0:
251,106,142312,2,0,L|277:314,1,210.000008010865,0|2,0:0|0:0,0:0:0:0:
367,376,142781,2,0,B|396:339|396:339|369:287,1,105.000004005432,8|0,3:2|0:0,0:0:0:0:
389,215,143093,2,0,L|493:193,1,105.000004005432,2|0,0:0|0:0,0:0:0:0:
480,275,143406,5,8,3:1:0:0:
512,106,143562,2,0,L|307:59,1,210.000008010865,0|2,0:0|0:0,0:0:0:0:
233,183,144031,2,0,P|275:153|326:155,1,105.000004005432,8|0,3:2|0:0,0:0:0:0:
158,92,144343,2,0,P|162:143|134:186,1,105.000004005432,2|0,0:0|0:0,0:0:0:0:
298,225,144656,5,8,3:1:0:0:
87,262,144812,2,0,L|298:232,1,210.000008010865,0|2,0:0|0:0,0:0:0:0:
264,339,145281,2,0,B|208:327|208:327|166:351,1,105.000004005432,8|0,3:2|0:0,0:0:0:0:
12,267,145593,2,0,P|55:295|79:344,1,105.000004005432,2|0,0:0|0:0,0:0:0:0:
167,351,145906,5,8,3:1:0:0:
245,161,146062,2,0,L|37:190,1,210.000008010865,8|0,3:2|0:0,0:0:0:0:
46,20,146531,2,0,B|101:24|101:24|120:70,1,105.000004005432,8|8,3:2|3:2,0:0:0:0:
36,107,146843,1,8,3:2:0:0:
191,33,146999,1,8,3:2:0:0:
104,162,147156,5,12,3:1:0:0:
185,126,147312,2,0,L|160:334,1,210.000008010865,0|2,0:0|0:0,0:0:0:0:
306,219,147781,2,0,B|250:236|250:236|245:282,1,105.000004005432,8|0,3:2|0:0,0:0:0:0:
343,381,148093,2,0,B|399:364|399:364|404:318,1,105.000004005432,2|0,0:0|0:0,0:0:0:0:
324,300,148406,5,8,3:1:0:0:
512,164,148562,2,0,L|304:211,1,210.000008010865,0|2,0:0|0:0,0:0:0:0:
250,28,149031,2,0,P|301:34|340:68,1,105.000004005432,8|0,3:2|0:0,0:0:0:0:
511,96,149343,2,0,P|462:79|412:92,1,105.000004005432,2|0,0:0|0:0,0:0:0:0:
399,17,149656,5,8,3:1:0:0:
265,109,149812,2,0,L|225:315,1,210.000008010865,0|2,0:0|0:0,0:0:0:0:
291,373,150281,2,0,L|392:344,1,105.000004005432,8|0,3:2|0:0,0:0:0:0:
159,256,150593,2,0,L|57:284,1,105.000004005432,2|0,0:0|0:0,0:0:0:0:
8,51,150906,6,0,B|55:80|55:80|43:128,1,105.000004005432,8|0,3:1|0:0,0:0:0:0:
173,21,151218,2,0,L|145:124,1,105.000004005432,8|0,3:2|0:0,0:0:0:0:
195,324,151531,2,0,B|242:295|242:295|230:246,1,105.000004005432,8|8,3:2|3:2,0:0:0:0:
360,354,151843,2,0,L|332:251,1,105.000004005432,8|8,3:2|3:2,0:0:0:0:
480,5,152156,6,0,L|453:113,1,112,12|0,3:1|0:0,0:0:0:0:
466,227,152468,2,0,B|428:183|428:183|369:190,1,112,8|0,3:1|0:0,0:0:0:0:
53,228,152781,2,0,L|277:202,1,224,8|8,3:1|3:1,0:0:0:0:
275,202,153406,6,0,P|319:236|344:286,1,112,8|0,3:1|0:0,0:0:0:0:
177,140,153718,2,0,P|228:118|284:122,1,112,8|0,3:1|0:0,0:0:0:0:
64,212,154031,2,0,P|71:156|102:110,1,112,8|0,3:1|0:0,0:0:0:0:
27,0,154343,1,8,3:1:0:0:
27,0,154656,6,0,L|45:169,1,168,8|0,3:1|0:0,0:0:0:0:
55,166,154968,2,0,B|83:113|83:113|54:69,1,112,8|0,3:1|0:0,0:0:0:0:
0,251,155281,2,0,P|110:269|218:299,1,224,8|8,3:1|3:1,0:0:0:0:
218,299,155906,6,0,P|163:302|109:319,1,112,8|0,3:1|0:0,0:0:0:0:
166,145,156218,2,0,P|211:177|247:220,1,112,8|0,3:1|0:0,0:0:0:0:
328,293,156531,1,8,3:1:0:0:
486,247,156687,1,0,3:0:0:0:
429,348,156843,1,8,3:1:0:0:
382,190,156999,1,0,3:0:0:0:
289,384,157156,6,0,L|215:373,2,74.6666666666667,12|0|0,3:2|3:2|3:2,0:0:0:0:
293,372,157468,2,0,L|219:361,2,74.6666666666667,8|0|0,3:2|3:2|3:2,0:0:0:0:
328,293,157781,6,0,L|401:282,2,74.6666666666667,8|0|0,3:2|3:2|3:2,0:0:0:0:
324,281,158093,2,0,L|397:270,2,74.6666666666667,8|0|0,3:2|3:2|3:2,0:0:0:0:
234,231,158406,5,8,3:2:0:0:
227,217,158510,1,0,3:2:0:0:
220,203,158614,1,0,3:2:0:0:
268,183,158718,2,0,L|342:189,2,74.6666666666667,8|0|0,3:2|3:2|3:2,0:0:0:0:
178,175,159031,2,0,L|103:168,2,74.6666666666667,8|0|0,3:2|3:2|3:2,0:0:0:0:
93,83,159343,2,0,P|57:95|30:120,2,74.6666666666667,8|0|0,3:2|3:2|3:2,0:0:0:0:
205,2,159656,6,0,L|197:57,3,56,0|0|0|0,3:1|3:0|3:0|3:0,0:0:0:0:
213,5,159968,2,0,L|205:60,3,56,0|0|0|0,3:1|3:1|3:1|3:1,0:0:0:0:
333,115,160281,6,0,L|342:189,3,56,0|0|0|0,3:1|3:1|3:1|3:1,0:0:0:0:
341,112,160593,2,0,L|350:186,3,56,0|0|0|0,3:1|3:1|3:1|3:1,0:0:0:0:
415,20,160906,5,0,3:1:0:0:
425,23,160984,1,0,3:0:0:0:
435,26,161062,1,0,3:0:0:0:
445,29,161140,1,0,3:0:0:0:
454,32,161218,6,0,P|442:57|437:84,3,56,8|8|8|8,3:3|3:3|3:3|3:3,0:0:0:0:
438,95,161531,2,0,P|453:118|474:136,3,56,4|4|4|4,3:3|3:3|3:3|3:3,0:0:0:0:
473,147,161843,5,0,3:3:0:0:
471,158,161921,1,0,3:3:0:0:
470,169,161999,1,0,3:3:0:0:
469,180,162077,1,0,3:3:0:0:
448,203,162156,5,12,3:1:0:0:
