osu file format v14

[General]
AudioFilename: audio.mp3
AudioLeadIn: 0
PreviewTime: 122156
Countdown: 0
SampleSet: Soft
StackLeniency: 0.7
Mode: 0
LetterboxInBreaks: 0
EpilepsyWarning: 1
WidescreenStoryboard: 1

[Editor]
DistanceSpacing: 1
BeatDivisor: 4
GridSize: 4
TimelineZoom: 2

[Metadata]
Title:Night Witches
TitleUnicode:Night Witches
Artist:Sabaton
ArtistUnicode:Sabaton
Creator:PantyDev
Version:KeRLi_ x Waaif's Extra
Source:
Tags:588 female heroes bomber regiment 46 power heavy metal po-2 polikarpov soviet world war II great patriotic war KeRLi_ Waaif piroshki english
BeatmapID:2856626
BeatmapSetID:1177947

[Difficulty]
HPDrainRate:4.5
CircleSize:4
OverallDifficulty:7.5
ApproachRate:9
SliderMultiplier:1.6
SliderTickRate:1

[Events]
//Background and Video events
0,0,"bg3.jpg",0,0
//Break Periods
//Storyboard Layer 0 (Background)
//Storyboard Layer 1 (Fail)
//Storyboard Layer 2 (Pass)
//Storyboard Layer 3 (Foreground)
Sprite,Foreground,Centre,"sb/dot.jpg",0,0 C,0,6530,,116,5,0 F,0,10080,10330,1,0 M,0,6530,10330,192.8192,145 V,4,6530,6780,3,0,3,12
Sprite,Foreground,Centre,"sb/dot.jpg",0,0 C,0,6530,,116,5,0 F,0,10080,10330,1,0 M,0,6530,10330,198.8192,151 V,4,6530,6780,3,0,3,16.98 R,0,6530,,-0.7853982
Sprite,Foreground,Centre,"sb/dot.jpg",0,0 C,0,6530,,116,5,0 F,0,10080,10330,1,0 M,0,6530,10330,198.8192,139 V,4,6530,6780,3,0,3,16.98 R,0,6530,,0.7853982
Sprite,Foreground,Centre,"sb/circle.png",0,0 C,0,6530,,116,5,0 F,0,10080,10330,1,0 M,0,6530,10330,192.8192,157 V,4,6530,6780,0,0,0.01271186,0.01271186
Sprite,Foreground,Centre,"sb/circle.png",0,0 C,0,6530,,116,5,0 F,0,10080,10330,1,0 M,0,6530,10330,204.8192,157 V,4,6530,6780,0,0,0.01271186,0.01271186
Sprite,Foreground,Centre,"sb/circle.png",0,0 C,0,6530,,116,5,0 F,0,10080,10330,1,0 M,0,6530,10330,204.8192,133 V,4,6530,6780,0,0,0.01271186,0.01271186
Sprite,Foreground,Centre,"sb/circle.png",0,0 C,0,6530,,116,5,0 F,0,10080,10330,1,0 M,0,6530,10330,192.8192,133 V,4,6530,6780,0,0,0.01271186,0.01271186
Sprite,Foreground,Centre,"sb/dot.jpg",0,0 C,0,6680,,116,5,0 F,0,10130,10380,1,0 M,0,6680,10380,217.7792,133 V,4,6680,6930,0,3,12,3
Sprite,Foreground,Centre,"sb/dot.jpg",0,0 C,0,6680,,116,5,0 F,0,10130,10380,1,0 M,0,6680,10380,211.7792,145 V,4,6680,6930,3,0,3,12
Sprite,Foreground,Centre,"sb/dot.jpg",0,0 C,0,6680,,116,5,0 F,0,10130,10380,1,0 M,0,6680,10380,217.7792,157 V,4,6680,6930,0,3,12,3
Sprite,Foreground,Centre,"sb/dot.jpg",0,0 C,0,6680,,116,5,0 F,0,10130,10380,1,0 M,0,6680,10380,216.2792,145 V,4,6680,6930,0,3,8.888889,3
Sprite,Foreground,Centre,"sb/circle.png",0,0 C,0,6680,,116,5,0 F,0,10130,10380,1,0 M,0,6680,10380,223.7792,133 V,4,6680,6930,0,0,0.01271186,0.01271186
Sprite,Foreground,Centre,"sb/circle.png",0,0 C,0,6680,,116,5,0 F,0,10130,10380,1,0 M,0,6680,10380,211.7792,133 V,4,6680,6930,0,0,0.01271186,0.01271186
Sprite,Foreground,Centre,"sb/circle.png",0,0 C,0,6680,,116,5,0 F,0,10130,10380,1,0 M,0,6680,10380,211.7792,157 V,4,6680,6930,0,0,0.01271186,0.01271186
Sprite,Foreground,Centre,"sb/circle.png",0,0 C,0,6680,,116,5,0 F,0,10130,10380,1,0 M,0,6680,10380,223.7792,157 V,4,6680,6930,0,0,0.01271186,0.01271186
Sprite,Foreground,Centre,"sb/dot.jpg",0,0 C,0,6830,,116,5,0 F,0,10180,10430,1,0 M,0,6830,10430,230.7392,145 V,4,6830,7080,3,0,3,24
Sprite,Foreground,Centre,"sb/dot.jpg",0,0 C,0,6830,,116,5,0 F,0,10180,10430,1,0 M,0,6830,10430,236.7392,145 V,4,6830,7080,0,3,12,3
Sprite,Foreground,Centre,"sb/dot.jpg",0,0 C,0,6830,,116,5,0 F,0,10180,10430,1,0 M,0,6830,10430,242.7392,139 V,4,6830,7080,3,0,3,12
Sprite,Foreground,Centre,"sb/dot.jpg",0,0 C,0,6830,,116,5,0 F,0,10180,10430,1,0 M,0,6830,10430,236.7392,133 V,4,6830,7080,0,3,12,3
Sprite,Foreground,Centre,"sb/dot.jpg",0,0 C,0,6830,,116,5,0 F,0,10180,10430,1,0 M,0,6830,10430,236.7392,151 V,4,6830,7080,3,0,3,16.98 R,0,6830,,-0.7853982
Sprite,Foreground,Centre,"sb/circle.png",0,0 C,0,6830,,116,5,0 F,0,10180,10430,1,0 M,0,6830,10430,230.7392,157 V,4,6830,7080,0,0,0.01271186,0.01271186
Sprite,Foreground,Centre,"sb/circle.png",0,0 C,0,6830,,116,5,0 F,0,10180,10430,1,0 M,0,6830,10430,242.7392,145 V,4,6830,7080,0,0,0.01271186,0.01271186
Sprite,Foreground,Centre,"sb/circle.png",0,0 C,0,6830,,116,5,0 F,0,10180,10430,1,0 M,0,6830,10430,230.7392,133 V,4,6830,7080,0,0,0.01271186,0.01271186
Sprite,Foreground,Centre,"sb/circle.png",0,0 C,0,6830,,116,5,0 F,0,10180,10430,1,0 M,0,6830,10430,242.7392,133 V,4,6830,7080,0,0,0.01271186,0.01271186
Sprite,Foreground,Centre,"sb/circle.png",0,0 C,0,6830,,116,5,0 F,0,10180,10430,1,0 M,0,6830,10430,242.7392,157 V,4,6830,7080,0,0,0.01271186,0.01271186
Sprite,Foreground,Centre,"sb/dot.jpg",0,0 C,0,6980,,116,5,0 F,0,10230,10480,1,0 M,0,6980,10480,249.6992,145 V,4,6980,7230,3,0,3,24
Sprite,Foreground,Centre,"sb/dot.jpg",0,0 C,0,6980,,116,5,0 F,0,10230,10480,1,0 M,0,6980,10480,255.6992,157 V,4,6980,7230,0,3,12,3
Sprite,Foreground,Centre,"sb/circle.png",0,0 C,0,6980,,116,5,0 F,0,10230,10480,1,0 M,0,6980,10480,249.6992,157 V,4,6980,7230,0,0,0.01271186,0.01271186
Sprite,Foreground,Centre,"sb/circle.png",0,0 C,0,6980,,116,5,0 F,0,10230,10480,1,0 M,0,6980,10480,261.6992,157 V,4,6980,7230,0,0,0.01271186,0.01271186
Sprite,Foreground,Centre,"sb/circle.png",0,0 C,0,6980,,116,5,0 F,0,10230,10480,1,0 M,0,6980,10480,249.6992,133 V,4,6980,7230,0,0,0.01271186,0.01271186
Sprite,Foreground,Centre,"sb/dot.jpg",0,0 C,0,7130,,116,5,0 F,0,10280,10530,1,0 M,0,7130,10530,274.6592,145 V,4,7130,7380,3,0,3,24
Sprite,Foreground,Centre,"sb/circle.png",0,0 C,0,7130,,116,5,0 F,0,10280,10530,1,0 M,0,7130,10530,274.6592,133 V,4,7130,7380,0,0,0.01271186,0.01271186
Sprite,Foreground,Centre,"sb/circle.png",0,0 C,0,7130,,116,5,0 F,0,10280,10530,1,0 M,0,7130,10530,274.6592,157 V,4,7130,7380,0,0,0.01271186,0.01271186
Sprite,Foreground,Centre,"sb/dot.jpg",0,0 C,0,7280,,116,5,0 F,0,10330,10580,1,0 M,0,7280,10580,293.6192,157 V,4,7280,7530,0,3,12,3
Sprite,Foreground,Centre,"sb/circle.png",0,0 C,0,7280,,116,5,0 F,0,10330,10580,1,0 M,0,7280,10580,287.6192,157 V,4,7280,7530,0,0,0.01271186,0.01271186
Sprite,Foreground,Centre,"sb/circle.png",0,0 C,0,7280,,116,5,0 F,0,10330,10580,1,0 M,0,7280,10580,299.6192,157 V,4,7280,7530,0,0,0.01271186,0.01271186
Sprite,Foreground,Centre,"sb/dot.jpg",0,0 C,0,7430,,116,5,0 F,0,10380,10630,1,0 M,0,7430,10630,327.2192,145 V,4,7430,7680,3,0,3,26.8284 R,0,7430,,0.4619989
Sprite,Foreground,Centre,"sb/dot.jpg",0,0 C,0,7430,,116,5,0 F,0,10380,10630,1,0 M,0,7430,10630,327.2192,145 V,4,7430,7680,3,0,3,26.8284 R,0,7430,,-0.4619989
Sprite,Foreground,Centre,"sb/circle.png",0,0 C,0,7430,,116,5,0 F,0,10380,10630,1,0 M,0,7430,10630,321.2192,157 V,4,7430,7680,0,0,0.01271186,0.01271186
Sprite,Foreground,Centre,"sb/circle.png",0,0 C,0,7430,,116,5,0 F,0,10380,10630,1,0 M,0,7430,10630,333.2192,157 V,4,7430,7680,0,0,0.01271186,0.01271186
Sprite,Foreground,Centre,"sb/circle.png",0,0 C,0,7430,,116,5,0 F,0,10380,10630,1,0 M,0,7430,10630,321.2192,133 V,4,7430,7680,0,0,0.01271186,0.01271186
Sprite,Foreground,Centre,"sb/circle.png",0,0 C,0,7430,,116,5,0 F,0,10380,10630,1,0 M,0,7430,10630,333.2192,133 V,4,7430,7680,0,0,0.01271186,0.01271186
Sprite,Foreground,Centre,"sb/dot.jpg",0,0 C,0,7580,,116,5,0 F,0,10430,10680,1,0 M,0,7580,10680,354.8192,145 V,4,7580,7830,3,0,3,24
Sprite,Foreground,Centre,"sb/dot.jpg",0,0 C,0,7580,,116,5,0 F,0,10430,10680,1,0 M,0,7580,10680,366.8192,145 V,4,7580,7830,3,0,3,24
Sprite,Foreground,Centre,"sb/dot.jpg",0,0 C,0,7580,,116,5,0 F,0,10430,10680,1,0 M,0,7580,10680,357.8192,151 V,4,7580,7830,3,0,3,13.37008 R,0,7580,,0.4619989
Sprite,Foreground,Centre,"sb/dot.jpg",0,0 C,0,7580,,116,5,0 F,0,10430,10680,1,0 M,0,7580,10680,363.8192,151 V,4,7580,7830,3,0,3,13.37008 R,0,7580,,-0.4619989
Sprite,Foreground,Centre,"sb/circle.png",0,0 C,0,7580,,116,5,0 F,0,10430,10680,1,0 M,0,7580,10680,354.8192,157 V,4,7580,7830,0,0,0.01271186,0.01271186
Sprite,Foreground,Centre,"sb/circle.png",0,0 C,0,7580,,116,5,0 F,0,10430,10680,1,0 M,0,7580,10680,366.8192,157 V,4,7580,7830,0,0,0.01271186,0.01271186
Sprite,Foreground,Centre,"sb/circle.png",0,0 C,0,7580,,116,5,0 F,0,10430,10680,1,0 M,0,7580,10680,354.8192,133 V,4,7580,7830,0,0,0.01271186,0.01271186
Sprite,Foreground,Centre,"sb/circle.png",0,0 C,0,7580,,116,5,0 F,0,10430,10680,1,0 M,0,7580,10680,366.8192,133 V,4,7580,7830,0,0,0.01271186,0.01271186
Sprite,Foreground,Centre,"sb/circle.png",0,0 C,0,7580,,116,5,0 F,0,10430,10680,1,0 M,0,7580,10680,360.8192,145 V,4,7580,7830,0,0,0.01271186,0.01271186
Sprite,Foreground,Centre,"sb/dot.jpg",0,0 C,0,7730,,116,5,0 F,0,10480,10730,1,0 M,0,7730,10730,373.7792,145 V,4,7730,7980,3,0,3,24 R,0,7730,,0.3141593
Sprite,Foreground,Centre,"sb/dot.jpg",0,0 C,0,7730,,116,5,0 F,0,10480,10730,1,0 M,0,7730,10730,379.7792,145 V,4,7730,7980,0,3,12,3
Sprite,Foreground,Centre,"sb/dot.jpg",0,0 C,0,7730,,116,5,0 F,0,10480,10730,1,0 M,0,7730,10730,385.7792,145 V,4,7730,7980,3,0,3,24 R,0,7730,,-0.3141593
Sprite,Foreground,Centre,"sb/dot.jpg",0,0 C,0,7730,,116,5,0 F,0,10480,10730,1,0 M,0,7730,10730,379.7792,133.5873 V,4,7730,7980,0,3,4.565072,3
Sprite,Foreground,Centre,"sb/circle.png",0,0 C,0,7730,,116,5,0 F,0,10480,10730,1,0 M,0,7730,10730,382.0618,133.5873 V,4,7730,7980,0,0,0.01271186,0.01271186
Sprite,Foreground,Centre,"sb/circle.png",0,0 C,0,7730,,116,5,0 F,0,10480,10730,1,0 M,0,7730,10730,377.4967,133.5873 V,4,7730,7980,0,0,0.01271186,0.01271186
Sprite,Foreground,Centre,"sb/circle.png",0,0 C,0,7730,,116,5,0 F,0,10480,10730,1,0 M,0,7730,10730,389.48,156.4127 V,4,7730,7980,0,0,0.01271186,0.01271186
Sprite,Foreground,Centre,"sb/circle.png",0,0 C,0,7730,,116,5,0 F,0,10480,10730,1,0 M,0,7730,10730,370.0785,156.4127 V,4,7730,7980,0,0,0.01271186,0.01271186
Sprite,Foreground,Centre,"sb/dot.jpg",0,0 C,0,7880,,116,5,0 F,0,10530,10780,1,0 M,0,7880,10780,395,145 V,4,7880,8130,3,0,3,24 R,0,7880,,0.3141593
Sprite,Foreground,Centre,"sb/dot.jpg",0,0 C,0,7880,,116,5,0 F,0,10530,10780,1,0 M,0,7880,10780,401,145 V,4,7880,8130,0,3,12,3
Sprite,Foreground,Centre,"sb/dot.jpg",0,0 C,0,7880,,116,5,0 F,0,10530,10780,1,0 M,0,7880,10780,407,145 V,4,7880,8130,3,0,3,24 R,0,7880,,-0.3141593
Sprite,Foreground,Centre,"sb/dot.jpg",0,0 C,0,7880,,116,5,0 F,0,10530,10780,1,0 M,0,7880,10780,401,133.5873 V,4,7880,8130,0,3,4.565072,3
Sprite,Foreground,Centre,"sb/circle.png",0,0 C,0,7880,,116,5,0 F,0,10530,10780,1,0 M,0,7880,10780,403.2825,133.5873 V,4,7880,8130,0,0,0.01271186,0.01271186
Sprite,Foreground,Centre,"sb/circle.png",0,0 C,0,7880,,116,5,0 F,0,10530,10780,1,0 M,0,7880,10780,398.7175,133.5873 V,4,7880,8130,0,0,0.01271186,0.01271186
Sprite,Foreground,Centre,"sb/circle.png",0,0 C,0,7880,,116,5,0 F,0,10530,10780,1,0 M,0,7880,10780,410.7008,156.4127 V,4,7880,8130,0,0,0.01271186,0.01271186
Sprite,Foreground,Centre,"sb/circle.png",0,0 C,0,7880,,116,5,0 F,0,10530,10780,1,0 M,0,7880,10780,391.2992,156.4127 V,4,7880,8130,0,0,0.01271186,0.01271186
Sprite,Foreground,Centre,"sb/dot.jpg",0,0 C,0,8030,,116,5,0 F,0,10580,10830,1,0 M,0,8030,10830,422.2208,145 V,4,8030,8280,3,0,3,24
Sprite,Foreground,Centre,"sb/circle.png",0,0 C,0,8030,,116,5,0 F,0,10580,10830,1,0 M,0,8030,10830,422.2208,133 V,4,8030,8280,0,0,0.01271186,0.01271186
Sprite,Foreground,Centre,"sb/circle.png",0,0 C,0,8030,,116,5,0 F,0,10580,10830,1,0 M,0,8030,10830,422.2208,157 V,4,8030,8280,0,0,0.01271186,0.01271186
Sprite,Foreground,Centre,"sb/dot.jpg",0,0 C,0,8180,,116,5,0 F,0,10630,10880,1,0 M,0,8180,10880,441.1808,133 V,4,8180,8430,0,3,12,3
Sprite,Foreground,Centre,"sb/dot.jpg",0,0 C,0,8180,,116,5,0 F,0,10630,10880,1,0 M,0,8180,10880,435.1808,145 V,4,8180,8430,3,0,3,24
Sprite,Foreground,Centre,"sb/dot.jpg",0,0 C,0,8180,,116,5,0 F,0,10630,10880,1,0 M,0,8180,10880,439.6808,145 V,4,8180,8430,0,3,8.888889,3
Sprite,Foreground,Centre,"sb/circle.png",0,0 C,0,8180,,116,5,0 F,0,10630,10880,1,0 M,0,8180,10880,447.1808,133 V,4,8180,8430,0,0,0.01271186,0.01271186
Sprite,Foreground,Centre,"sb/circle.png",0,0 C,0,8180,,116,5,0 F,0,10630,10880,1,0 M,0,8180,10880,435.1808,133 V,4,8180,8430,0,0,0.01271186,0.01271186
Sprite,Foreground,Centre,"sb/circle.png",0,0 C,0,8180,,116,5,0 F,0,10630,10880,1,0 M,0,8180,10880,435.1808,157 V,4,8180,8430,0,0,0.01271186,0.01271186
//Storyboard Sound Samples

[TimingPoints]
1531,312.5,4,2,1,80,1,0
11531,-80,4,2,1,80,0,1
21218,-100,4,2,1,85,0,0
21999,-100,4,2,1,40,0,0
22156,312.5,4,2,1,65,1,0
22156,-100,4,2,1,65,0,0
24656,-100,4,2,1,65,0,0
26999,-100,4,2,1,65,0,0
29656,-100,4,2,1,65,0,0
31999,-100,4,2,1,65,0,0
34656,-90.9090909090909,4,2,1,65,0,0
36999,-100,4,2,1,65,0,0
39656,-100,4,2,1,65,0,0
42156,-100,4,2,1,55,0,0
43406,-100,4,2,2,55,0,0
43425,-100,4,2,1,55,0,0
44656,-100,4,2,2,55,0,0
44675,-100,4,2,1,55,0,0
45906,-100,4,2,2,55,0,0
45925,-100,4,2,1,55,0,0
46531,-100,4,2,2,55,0,0
46550,-100,4,2,1,55,0,0
46999,-100,4,2,1,55,0,0
48406,-100,4,2,2,55,0,0
48425,-100,4,2,1,55,0,0
49499,-100,4,2,1,55,0,0
49656,-100,4,2,2,55,0,0
49675,-100,4,2,1,55,0,0
50906,-100,4,2,1,60,0,0
51531,-100,4,2,1,65,0,0
52156,-80,4,2,20,75,0,1
52175,-80,4,2,1,75,0,1
61218,-100,4,2,1,75,0,1
61531,-100,4,2,1,80,0,1
62156,-100,4,2,1,65,0,0
64656,-100,4,2,1,65,0,0
66999,-100,4,2,1,65,0,0
69656,-100,4,2,1,65,0,0
71999,-100,4,2,1,65,0,0
74656,-100,4,2,1,65,0,0
76999,-100,4,2,1,65,0,0
79656,-100,4,2,1,65,0,0
82156,-100,4,2,1,55,0,0
83406,-100,4,2,2,55,0,0
83425,-100,4,2,1,55,0,0
84656,-100,4,2,2,55,0,0
84675,-100,4,2,1,55,0,0
85906,-100,4,2,2,55,0,0
85925,-100,4,2,1,55,0,0
86531,-100,4,2,2,55,0,0
86550,-100,4,2,1,55,0,0
86999,-100,4,2,1,55,0,0
87156,-100,4,2,2,55,0,0
87175,-100,4,2,1,55,0,0
88406,-100,4,2,2,55,0,0
88425,-100,4,2,1,55,0,0
89499,-100,4,2,1,55,0,0
89656,-100,4,2,2,55,0,0
89675,-100,4,2,1,55,0,0
90906,-100,4,2,1,60,0,0
91531,-100,4,2,1,65,0,0
92156,-80,4,2,20,75,0,1
92175,-80,4,2,1,75,0,1
101531,-80,4,2,1,80,0,1
102156,-76.9230769230769,4,2,1,70,0,0
104343,-100,4,2,1,70,0,0
104656,-100,4,2,1,70,0,0
107156,-100,4,2,1,70,0,0
112156,-76.9230769230769,4,2,1,65,0,0
114656,-90.9090909090909,4,2,1,65,0,0
122781,-100,4,2,2,65,0,0
122800,-100,4,2,1,65,0,0
124031,-100,4,2,2,65,0,0
124050,-100,4,2,1,65,0,0
124656,-100,4,2,1,70,0,0
126999,-100,4,2,1,65,0,0
127781,-100,4,2,2,65,0,0
127800,-100,4,2,1,65,0,0
129031,-100,4,2,2,65,0,0
129050,-100,4,2,1,65,0,0
129656,-100,4,2,1,75,0,0
131999,-100,4,2,1,65,0,0
132781,-100,4,2,2,65,0,0
132800,-100,4,2,1,65,0,0
134031,-100,4,2,2,65,0,0
134050,-100,4,2,1,65,0,0
134656,-100,4,2,1,70,0,0
136999,-100,4,2,1,65,0,0
137781,-100,4,2,2,65,0,0
137800,-100,4,2,1,65,0,0
139031,-100,4,2,2,65,0,0
139050,-100,4,2,1,65,0,0
139656,-100,4,2,1,70,0,0
140906,-100,4,2,1,60,0,0
141999,-100,4,2,1,40,0,0
142156,-80,4,2,20,75,0,1
142175,-80,4,2,1,75,0,1
152156,-83.3333333333333,4,2,1,80,0,1
157156,-83.3333333333333,4,2,3,80,0,1
159656,-83.3333333333333,4,2,1,80,0,1
162156,-100,4,2,20,90,0,0

[Colours]
Combo1 : 146,130,99
Combo2 : 186,44,44
Combo3 : 102,53,53
Combo4 : 224,145,65

[HitObjects]
490,82,11531,6,0,B|410:91|444:27|340:45,1,150,12|0,3:1|0:0,0:0:0:0:
275,31,11843,2,0,P|281:91|282:156,1,100,8|0,3:1|0:0,0:0:0:0:
114,56,12156,2,0,P|162:20|218:-12,1,100,8|0,3:1|0:0,0:0:0:0:
217,183,12468,2,0,P|162:158|105:126,1,100,8|0,3:1|0:0,0:0:0:0:
315,283,12781,6,0,P|374:231|446:253,1,150,8|0,3:1|0:0,0:0:0:0:
388,317,13093,2,0,L|213:296,1,150,8|0,3:1|0:0,0:0:0:0:
164,331,13406,1,8,3:1:0:0:
100,282,13562,1,0,0:0:0:0:
173,252,13718,1,8,3:1:0:0:
111,204,13874,1,0,0:0:0:0:
73,354,14031,6,0,P|13:304|47:230,1,150,8|0,3:1|0:0,0:0:0:0:
102,200,14343,2,0,P|114:143|121:87,1,100,8|0,3:1|0:0,0:0:0:0:
317,70,14656,2,0,P|268:63|219:52,1,100,8|0,3:1|0:0,0:0:0:0:
145,24,14968,1,8,3:1:0:0:
315,176,15124,1,0,0:0:0:0:
315,176,15281,6,0,P|378:200|372:298,1,150,8|0,3:1|0:0,0:0:0:0:
318,327,15593,2,0,P|254:302|260:204,1,150,8|0,3:1|0:0,0:0:0:0:
317,252,15906,1,8,3:1:0:0:
317,252,16062,1,0,3:0:0:0:
237,384,16218,1,8,3:1:0:0:
161,226,16374,1,0,3:0:0:0:
408,371,16531,6,0,B|434:362|434:362|452:225,1,150,12|0,3:1|0:0,0:0:0:0:
494,168,16843,2,0,B|442:153|442:153|388:185,1,100,8|0,3:1|0:0,0:0:0:0:
276,29,17156,2,0,B|289:81|289:81|343:112,1,100,8|0,3:1|0:0,0:0:0:0:
264,287,17468,2,0,B|302:249|302:249|302:186,1,100,8|0,3:1|0:0,0:0:0:0:
135,0,17781,6,0,L|146:159,1,150,8|0,3:1|0:0,0:0:0:0:
83,202,18093,2,0,B|104:174|104:174|187:169|187:169|217:195,1,150,8|0,3:1|0:0,0:0:0:0:
151,253,18406,1,8,3:1:0:0:
97,306,18562,1,0,0:0:0:0:
171,326,18718,1,8,3:1:0:0:
116,380,18874,1,0,0:0:0:0:
277,369,19031,6,0,B|350:369|334:293|427:321,1,150,8|0,3:1|0:0,0:0:0:0:
482,343,19343,2,0,P|487:293|496:244,1,100,8|0,3:1|0:0,0:0:0:0:
440,76,19656,2,0,P|495:112|496:156,1,100,8|0,3:1|0:0,0:0:0:0:
416,240,19968,1,8,3:1:0:0:
416,240,20124,1,0,3:0:0:0:
278,91,20281,6,0,L|221:85,3,50,8|0|0|0,3:1|3:0|3:0|3:0,0:0:0:0:
172,33,20593,2,0,L|115:39,3,50,8|0|0|0,3:1|3:0|3:0|3:0,0:0:0:0:
48,92,20906,1,8,3:1:0:0:
83,108,20984,1,0,3:0:0:0:
102,142,21062,1,0,3:0:0:0:
98,181,21140,1,0,3:0:0:0:
72,211,21218,1,12,3:1:0:0:
325,296,22156,6,0,P|365:274|415:282,1,80,6|0,3:2|0:0,0:0:0:0:
289,381,22468,1,10,3:2:0:0:
289,381,22624,1,0,0:0:0:0:
241,247,22781,2,0,P|238:187|231:124,1,120,2|0,3:2|0:0,0:0:0:0:
231,127,23093,1,10,3:2:0:0:
346,36,23249,2,0,P|337:116|335:196,1,160
368,289,23718,1,10,3:2:0:0:
368,289,23874,1,0,0:0:0:0:
243,261,24031,2,0,B|140:253|192:302|85:318,1,160,2|10,3:2|3:2,0:0:0:0:
21,39,24656,6,0,L|34:168,1,120,6|0,3:2|0:0,0:0:0:0:
33,158,24968,2,0,L|115:149,1,80,10|0,3:2|0:0,0:0:0:0:
240,2,25281,2,0,L|227:131,1,120,2|0,3:2|0:0,0:0:0:0:
227,121,25593,1,10,3:2:0:0:
227,121,25749,1,0,0:0:0:0:
192,256,25906,6,0,P|135:233|167:134,1,160,2|10,3:2|3:2,0:0:0:0:
278,197,26374,1,2,3:2:0:0:
250,326,26531,1,2,3:2:0:0:
282,179,26687,1,2,3:2:0:0:
320,280,26843,1,10,3:2:0:0:
227,121,26999,6,0,P|216:45|290:9,1,160,6|0,2:2|0:0,0:0:0:0:
339,65,27468,1,10,3:2:0:0:
339,65,27624,1,0,0:0:0:0:
361,207,27781,2,0,P|287:202|213:200,1,120,2|0,3:2|0:0,0:0:0:0:
241,200,28093,1,10,3:2:0:0:
179,329,28249,2,0,P|100:345|22:360,1,160
149,236,28718,1,10,3:2:0:0:
149,236,28874,1,0,0:0:0:0:
271,367,29031,2,0,B|335:317|335:317|425:353,1,160,2|10,3:2|3:2,0:0:0:0:
202,113,29656,6,0,P|135:117|63:129,1,120,6|0,3:2|0:0,0:0:0:0:
82,124,29968,2,0,P|55:84|68:56,1,80,10|0,3:2|0:0,0:0:0:0:
310,65,30281,2,0,P|377:69|449:81,1,120,2|0,3:2|0:0,0:0:0:0:
429,76,30593,1,10,3:2:0:0:
429,76,30749,1,0,0:0:0:0:
250,171,30906,6,0,P|252:250|260:330,1,160,2|10,3:2|3:2,0:0:0:0:
337,361,31374,1,2,3:2:0:0:
190,351,31531,1,2,3:2:0:0:
354,358,31687,1,10,3:2:0:0:
271,283,31843,1,10,3:2:0:0:
397,157,31999,6,0,P|392:208|391:250,1,80,10|6,2:2|3:2,0:0:0:0:
434,305,32312,1,0,0:0:0:0:
488,239,32468,1,10,3:2:0:0:
292,118,32624,2,0,P|297:169|298:211,1,80,0|2,0:0|3:2,0:0:0:0:
255,266,32937,1,0,0:0:0:0:
199,190,33093,1,10,3:2:0:0:
314,19,33249,2,0,P|375:38|395:126,1,160
297,197,33718,1,10,3:2:0:0:
176,71,33874,2,0,P|129:85|114:152,1,120
112,148,34187,2,0,L|208:160,1,80,2|10,0:2|3:2,0:0:0:0:
298,207,34499,1,2,0:2:0:0:
17,228,34656,6,0,B|23:293|23:293|47:318|47:318|51:371,1,132.00000402832,6|0,3:2|0:0,0:0:0:0:
49,349,34968,2,0,B|154:363,1,88.000002685547,10|0,3:2|0:0,0:0:0:0:
287,340,35281,2,0,B|322:295|322:295|287:216,1,132.00000402832,2|0,3:2|0:0,0:0:0:0:
291,226,35593,1,10,3:2:0:0:
291,226,35749,1,0,0:0:0:0:
174,111,35906,6,0,L|161:306,1,176.000005371094,2|10,3:2|3:2,0:0:0:0:
337,128,36374,1,2,3:2:0:0:
303,206,36531,1,2,3:2:0:0:
323,107,36687,1,2,3:2:0:0:
334,218,36843,1,10,3:2:0:0:
483,85,36999,6,0,L|496:280,1,160,6|0,2:2|0:0,0:0:0:0:
444,312,37468,1,10,3:2:0:0:
444,312,37624,1,0,0:0:0:0:
306,382,37781,2,0,P|257:358|187:333,1,120,2|0,3:2|0:0,0:0:0:0:
195,335,38093,1,10,3:2:0:0:
59,300,38249,2,0,P|122:269|212:236,1,160
297,219,38718,1,10,3:2:0:0:
297,219,38874,1,0,0:0:0:0:
192,107,39031,2,0,P|160:168|211:240,1,160,2|10,3:2|3:2,0:0:0:0:
477,99,39656,6,0,L|353:49,1,120,6|0,3:2|0:0,0:0:0:0:
365,54,39968,2,0,L|377:142,1,80,10|0,3:2|0:0,0:0:0:0:
206,227,40281,2,0,L|329:177,1,120,2|0,3:2|0:0,0:0:0:0:
317,182,40593,1,10,3:2:0:0:
317,182,40749,1,0,0:0:0:0:
471,251,40906,6,0,P|475:333|406:362,1,160,2|10,3:2|3:2,0:0:0:0:
358,311,41374,1,2,3:2:0:0:
393,209,41531,1,2,3:2:0:0:
346,321,41687,1,10,3:2:0:0:
317,182,41843,1,10,3:2:0:0:
339,337,41999,1,10,2:2:0:0:
206,227,42156,6,0,B|121:223|180:151|51:150,1,160,6|10,3:2|3:2,0:0:0:0:
74,151,42624,1,0,0:0:0:0:
180,318,42781,2,0,P|195:269|293:282,1,160,2|10,3:2|3:2,0:0:0:0:
465,187,43406,6,0,P|466:159|473:95,1,80,2|0,3:2|0:0,0:0:0:0:
500,26,43718,1,10,3:2:0:0:
377,139,43874,2,0,P|317:117|261:213,1,160,0|2,0:0|0:2,0:0:0:0:
96,126,44343,2,0,L|175:115,1,80,10|0,3:2|0:0,0:0:0:0:
395,249,44656,6,0,L|291:235,1,80,2|0,3:2|0:0,0:0:0:0:
249,290,44968,1,10,3:2:0:0:
384,328,45124,2,0,L|397:224,1,80,0|2,0:0|3:2,0:0:0:0:
305,159,45437,2,0,L|315:239,1,80,2|10,0:2|3:2,0:0:0:0:
215,363,45749,1,0,0:0:0:0:
215,363,45906,2,0,P|123:343|123:279,1,160,2|10,3:2|3:2,0:0:0:0:
167,108,46531,6,0,P|196:141|204:175,1,80,2|10,3:2|0:2,0:0:0:0:
121,173,46843,1,10,3:2:0:0:
209,40,46999,1,10,3:2:0:0:
305,159,47156,6,0,P|378:176|471:204,1,160,6|10,3:2|3:2,0:0:0:0:
459,200,47624,1,0,0:0:0:0:
512,71,47781,2,0,P|468:81|413:97,1,80,2|2,3:2|0:2,0:0:0:0:
300,0,48093,2,0,P|343:10|398:26,1,80,10|0,3:2|0:0,0:0:0:0:
190,125,48406,6,0,P|123:63|128:32,1,120,2|0,3:2|0:0,0:0:0:0:
124,43,48718,1,10,3:2:0:0:
269,168,48874,2,0,P|262:238|255:336,1,160,0|2,0:0|0:2,0:0:0:0:
348,317,49343,1,10,3:2:0:0:
175,246,49499,1,10,3:2:0:0:
355,325,49656,6,0,L|454:313,1,80,2|0,3:2|0:0,0:0:0:0:
512,239,49968,1,10,3:2:0:0:
269,168,50124,2,0,L|281:267,1,80,0|2,0:0|3:2,0:0:0:0:
426,82,50437,2,0,L|327:94,1,80,2|10,0:2|3:2,0:0:0:0:
512,239,50749,2,0,L|500:140,1,80,0|2,0:0|3:2,0:0:0:0:
426,82,51062,5,0,3:2:0:0:
346,91,51218,1,8,3:2:0:0:
399,0,51374,1,8,3:2:0:0:
479,9,51530,1,8,3:1:0:0:
269,168,51687,1,8,3:1:0:0:
249,78,51843,1,8,3:1:0:0:
425,187,51999,1,8,3:1:0:0:
386,272,52156,1,12,3:1:0:0:
386,272,52312,6,0,L|406:67,1,200,0|2,0:0|0:0,0:0:0:0:
169,158,52781,2,0,L|271:168,1,100,8|0,3:2|0:0,0:0:0:0:
504,82,53093,2,0,L|401:72,1,100,2|0,0:0|0:0,0:0:0:0:
268,167,53406,1,8,3:1:0:0:
162,25,53562,6,0,L|142:224,1,200,0|2,0:0|0:0,0:0:0:0:
41,45,54031,2,0,L|31:144,1,100,8|0,3:2|0:0,0:0:0:0:
277,67,54343,2,0,L|267:166,1,100,2|0,0:0|0:0,0:0:0:0:
142,224,54656,1,8,3:1:0:0:
299,315,54812,6,0,L|452:329,1,150
448,329,55124,1,2,0:0:0:0:
233,375,55281,2,0,L|104:362,1,100,8|0,3:2|0:0,0:0:0:0:
308,215,55593,1,2,0:0:0:0:
299,315,55749,1,0,0:0:0:0:
310,199,55906,1,8,3:1:0:0:
63,312,56062,6,0,L|80:133,1,150,8|0,3:2|0:0,0:0:0:0:
77,162,56374,1,0,0:0:0:0:
216,132,56531,1,8,3:2:0:0:
136,70,56687,1,8,3:2:0:0:
158,197,56843,1,8,3:2:0:0:
132,48,56999,1,8,3:2:0:0:
230,146,57156,1,12,3:1:0:0:
372,14,57312,6,0,L|391:214,1,200,0|2,0:0|0:0,0:0:0:0:
219,255,57781,2,0,L|318:245,1,100,8|0,3:2|0:0,0:0:0:0:
434,279,58093,2,0,L|443:378,1,100,2|0,0:0|0:0,0:0:0:0:
319,245,58406,1,8,3:1:0:0:
127,359,58562,6,0,L|107:159,1,200,0|2,0:0|0:0,0:0:0:0:
186,36,59031,2,0,L|195:135,1,100,8|0,3:2|0:0,0:0:0:0:
23,250,59343,2,0,L|13:150,1,100,2|0,0:0|0:0,0:0:0:0:
97,49,59656,1,8,3:1:0:0:
253,198,59812,6,0,L|402:183,1,150
402,183,60124,1,2,0:0:0:0:
446,74,60281,2,0,L|346:83,1,100,8|0,3:2|0:0,0:0:0:0:
468,274,60593,2,0,L|368:283,1,100,2|0,0:0|0:0,0:0:0:0:
253,198,60906,5,8,3:1:0:0:
402,183,61062,1,8,3:2:0:0:
220,277,61218,1,0,0:0:0:0:
205,128,61374,1,0,0:0:0:0:
328,191,61531,1,8,3:2:0:0:
169,207,61687,1,8,3:2:0:0:
343,190,61843,1,8,3:2:0:0:
154,208,61999,1,8,3:2:0:0:
409,140,62156,6,0,P|426:198|420:225,1,80,6|0,3:2|0:0,0:0:0:0:
358,280,62468,1,10,3:2:0:0:
358,280,62624,1,0,0:0:0:0:
335,93,62781,2,0,P|382:53|460:73,1,120,2|0,3:2|0:0,0:0:0:0:
437,56,63093,1,10,3:2:0:0:
248,201,63249,2,0,B|154:194|216:143|85:139,1,160
30,204,63718,1,10,3:2:0:0:
30,204,63874,1,0,0:0:0:0:
113,363,64031,2,0,P|128:314|228:319,1,160,2|10,3:2|3:2,0:0:0:0:
409,140,64656,6,0,B|358:192|358:192|385:246,1,120,6|0,3:2|0:0,0:0:0:0:
379,234,64968,2,0,L|470:245,1,80,10|0,3:2|0:0,0:0:0:0:
302,97,65281,2,0,L|169:113,1,120,2|0,3:2|0:0,0:0:0:0:
182,112,65593,1,10,3:2:0:0:
182,112,65749,1,0,0:0:0:0:
0,88,65906,6,0,P|60:141|29:213,1,160,2|10,3:2|3:2,0:0:0:0:
159,261,66374,1,2,3:2:0:0:
41,302,66531,1,2,3:2:0:0:
181,345,66687,1,2,3:2:0:0:
30,301,66843,1,10,3:2:0:0:
242,283,66999,6,0,P|311:277|356:362,1,160,6|0,2:2|0:0,0:0:0:0:
271,364,67468,1,10,3:2:0:0:
271,364,67624,1,0,0:0:0:0:
159,261,67781,2,0,L|148:130,1,120,2|0,3:2|0:0,0:0:0:0:
148,141,68093,1,10,3:2:0:0:
268,25,68249,2,0,L|253:198,1,160
354,118,68718,1,10,3:2:0:0:
354,118,68874,1,0,0:0:0:0:
175,40,69031,2,0,B|63:48|140:93|19:114,1,160,2|10,3:2|3:2,0:0:0:0:
0,303,69656,6,0,P|62:280|111:323,1,120,6|0,3:2|0:0,0:0:0:0:
103,307,69968,2,0,L|113:226,1,80,10|0,3:2|0:0,0:0:0:0:
311,281,70281,2,0,P|249:304|200:261,1,120,2|0,3:2|0:0,0:0:0:0:
208,276,70593,1,10,3:2:0:0:
207,276,70749,1,0,0:0:0:0:
412,205,70906,6,0,L|391:373,1,160,2|10,3:2|3:2,0:0:0:0:
495,252,71374,1,2,3:2:0:0:
335,164,71531,1,2,3:2:0:0:
449,123,71687,1,10,3:2:0:0:
322,169,71843,1,10,3:2:0:0:
432,42,71999,6,0,P|495:53|513:73,1,80,10|6,2:2|3:2,0:0:0:0:
449,123,72312,1,0,0:0:0:0:
449,123,72468,1,10,3:2:0:0:
235,79,72624,2,0,L|222:-26,1,80,0|2,0:0|3:2,0:0:0:0:
311,30,72937,1,0,0:0:0:0:
311,30,73093,1,10,3:2:0:0:
162,144,73249,2,0,P|99:133|81:113,1,80,0|2,0:0|3:2,0:0:0:0:
55,38,73562,1,0,0:0:0:0:
55,38,73718,1,10,3:2:0:0:
141,238,73874,6,0,P|222:223|245:198,1,120
245,198,74187,2,0,L|239:284,1,80,2|10,0:2|3:2,0:0:0:0:
311,354,74499,1,2,0:2:0:0:
156,347,74656,6,0,P|97:340|30:335,1,120,6|0,3:2|0:0,0:0:0:0:
36,335,74968,2,0,P|8:286|27:254,1,80,10|0,3:2|0:0,0:0:0:0:
250,204,75281,2,0,P|309:197|376:192,1,120,2|0,3:2|0:0,0:0:0:0:
369,192,75593,1,10,3:2:0:0:
214,1,75749,6,0,P|144:37|163:123,1,160
80,151,76218,1,10,3:2:0:0:
230,117,76374,1,2,3:2:0:0:
66,148,76531,1,2,3:2:0:0:
250,204,76687,1,2,3:2:0:0:
52,145,76843,1,10,3:2:0:0:
199,297,76999,6,0,B|274:319|274:319|347:259,1,160,6|0,2:2|0:0,0:0:0:0:
331,181,77468,1,10,3:2:0:0:
331,181,77624,1,0,0:0:0:0:
236,37,77781,2,0,P|231:89|228:135,1,80,2|0,3:2|0:0,0:0:0:0:
254,222,78093,1,10,3:2:0:0:
389,59,78249,2,0,P|446:87|459:193,1,160
420,255,78718,1,10,3:2:0:0:
420,255,78874,1,0,0:0:0:0:
245,216,79031,2,0,B|133:217|192:258|89:268,1,160,2|10,3:2|3:2,0:0:0:0:
306,148,79656,6,0,P|334:201|316:262,1,120,6|0,3:2|0:0,0:0:0:0:
329,312,79968,2,0,P|363:268|407:268,1,80,10|0,3:2|0:0,0:0:0:0:
490,316,80281,1,2,3:2:0:0:
490,316,80437,1,0,0:0:0:0:
307,199,80593,1,10,3:2:0:0:
441,154,80749,6,0,B|442:85|442:85|471:60|471:60|474:-6,1,160
305,24,81218,5,10,3:2:0:0:
411,42,81374,1,2,3:2:0:0:
262,96,81531,5,2,3:2:0:0:
368,114,81687,1,10,3:2:0:0:
407,121,81765,1,10,3:2:0:0:
446,128,81843,1,10,3:2:0:0:
299,196,81999,1,10,2:2:0:0:
427,212,82156,6,0,P|422:282|394:306,1,80,6|0,3:2|0:0,0:0:0:0:
270,308,82468,2,0,P|275:378|303:402,1,80,10|0,3:2|0:0,0:0:0:0:
298,154,82781,2,0,P|321:185|319:224,1,80,2|2,3:2|0:2,0:0:0:0:
173,260,83093,2,0,P|149:291|151:330,1,80,10|0,3:2|0:0,0:0:0:0:
45,256,83406,6,0,P|102:209|76:142,1,120,2|0,3:2|0:0,0:0:0:0:
81,148,83718,1,10,3:2:0:0:
200,85,83874,2,0,L|372:98,1,160,0|2,0:0|0:2,0:0:0:0:
474,108,84343,1,10,3:2:0:0:
474,108,84499,1,0,0:0:0:0:
405,255,84656,6,0,P|353:214|286:218,1,120,2|0,3:2|0:0,0:0:0:0:
280,224,84968,1,10,3:2:0:0:
132,302,85124,2,0,P|163:254|146:211,1,80,0|2,0:0|3:2,0:0:0:0:
118,105,85437,2,0,P|87:153|104:196,1,80,2|10,0:2|3:2,0:0:0:0:
207,38,85749,6,0,L|367:56,1,160
450,64,86218,1,10,3:2:0:0:
303,136,86374,5,2,0:2:0:0:
380,241,86530,1,2,3:2:0:0:
256,201,86686,1,10,0:2:0:0:
380,161,86842,1,10,3:2:0:0:
303,266,86999,1,10,3:2:0:0:
217,118,87156,6,0,P|157:80|126:154,1,160,6|10,3:2|3:2,0:0:0:0:
121,142,87624,1,0,0:0:0:0:
38,258,87781,6,0,B|118:232|95:298|181:262,1,120,2|0,3:2|0:0,0:0:0:0:
166,265,88093,1,10,3:2:0:0:
261,196,88249,1,0,0:0:0:0:
347,267,88406,6,0,L|454:277,1,80,2|0,3:2|0:0,0:0:0:0:
511,284,88718,1,10,3:2:0:0:
392,185,88874,2,0,P|371:140|456:69,1,160,0|2,0:0|0:2,0:0:0:0:
506,30,89343,1,10,3:2:0:0:
319,26,89499,1,10,3:2:0:0:
319,26,89655,6,0,L|187:40,1,120,2|0,3:2|0:0,0:0:0:0:
146,48,89968,2,0,B|172:91|172:91|154:150,1,80,10|0,3:2|0:0,0:0:0:0:
55,244,90281,2,0,B|79:199|79:199|139:186,1,80,2|2,3:2|0:2,0:0:0:0:
271,225,90593,2,0,B|220:226|220:226|178:180,1,80,10|0,3:2|0:0,0:0:0:0:
144,10,90906,5,2,3:2:0:0:
231,28,91062,1,0,3:2:0:0:
315,50,91218,5,8,3:2:0:0:
255,116,91374,1,8,3:2:0:0:
194,178,91531,5,8,3:1:0:0:
166,93,91687,1,8,3:1:0:0:
282,194,91843,5,8,3:1:0:0:
222,260,91999,1,8,3:1:0:0:
419,344,92156,5,12,3:1:0:0:
419,344,92312,6,0,P|324:312|338:217,1,200,0|2,0:0|0:0,0:0:0:0:
426,118,92781,2,0,P|461:180|432:209,1,100,8|0,3:2|0:0,0:0:0:0:
254,132,93093,2,0,P|243:85|278:53,1,100,2|0,0:0|0:0,0:0:0:0:
378,33,93406,1,8,3:1:0:0:
282,273,93562,6,0,P|213:246|75:245,1,200,0|2,0:0|0:0,0:0:0:0:
29,118,94031,2,0,P|91:157|125:130,1,100,8|0,3:2|0:0,0:0:0:0:
212,0,94343,2,0,P|164:-5|133:31,1,100,2|0,0:0|0:0,0:0:0:0:
254,132,94656,1,8,3:1:0:0:
378,33,94812,6,0,P|450:60|448:141,1,150
457,125,95124,1,2,0:0:0:0:
275,224,95281,2,0,P|261:157|291:136,1,100,8|0,3:2|0:0,0:0:0:0:
384,198,95593,1,2,0:0:0:0:
372,336,95749,1,0,0:0:0:0:
386,180,95905,1,8,3:1:0:0:
199,270,96062,6,0,P|119:249|33:268,1,150,8|0,3:2|0:0,0:0:0:0:
54,260,96374,1,0,0:0:0:0:
15,350,96531,1,8,3:2:0:0:
123,291,96687,1,8,3:2:0:0:
0,204,96843,1,8,3:2:0:0:
87,372,96999,1,8,3:2:0:0:
121,181,97156,1,12,3:1:0:0:
277,306,97312,6,0,P|340:262|446:327,1,200,0|2,0:0|0:0,0:0:0:0:
216,363,97781,2,0,P|196:295|212:260,1,100,8|0,3:2|0:0,0:0:0:0:
292,87,98093,2,0,P|312:155|296:190,1,100,2|0,0:0|0:0,0:0:0:0:
216,250,98406,1,8,3:1:0:0:
151,0,98562,6,0,P|114:76|140:165,1,150
123,138,98874,1,2,0:0:0:0:
158,316,99031,2,0,P|155:252|117:226,1,100,8|0,3:2|0:0,0:0:0:0:
9,94,99343,2,0,P|6:161|19:199,1,100,2|0,0:0|0:0,0:0:0:0:
81,297,99656,1,8,3:1:0:0:
261,201,99812,6,0,P|312:171|385:254,1,150
382,215,100124,1,2,0:0:0:0:
263,337,100281,2,0,P|214:346|165:337,1,100,8|0,3:2|0:0,0:0:0:0:
35,207,100593,2,0,P|83:197|132:206,1,100,2|0,0:0|0:0,0:0:0:0:
213,268,100906,5,8,3:1:0:0:
64,356,101062,1,8,3:2:0:0:
106,189,101218,1,0,0:0:0:0:
169,364,101374,1,0,0:0:0:0:
4,288,101531,1,8,3:2:0:0:
227,266,101687,1,8,3:2:0:0:
35,207,101843,1,8,3:2:0:0:
180,373,101999,1,8,3:2:0:0:
228,176,102156,6,0,L|332:186,5,69.3333301595054,6|0|0|10|0|0,3:2|0:0|0:0|3:2|0:0|0:0,0:0:0:0:
139,153,102781,5,2,3:2:0:0:
162,119,102885,1,0,0:0:0:0:
195,93,102989,1,0,0:0:0:0:
233,77,103093,1,10,3:2:0:0:
275,74,103197,1,0,0:0:0:0:
315,82,103301,1,0,0:0:0:0:
341,113,103406,5,2,3:2:0:0:
339,167,103510,1,0,0:0:0:0:
368,213,103614,1,0,0:0:0:0:
418,235,103718,1,10,3:2:0:0:
472,224,103822,1,0,0:0:0:0:
510,185,103926,1,0,0:0:0:0:
508,131,104031,6,0,P|433:111|494:18,1,207.999990478516,2|10,3:2|3:2,0:0:0:0:
475,17,104499,1,0,0:0:0:0:
323,97,104656,6,0,B|233:64|243:156|139:104,1,160,6|10,3:2|3:2,0:0:0:0:
96,69,105124,1,0,0:0:0:0:
117,186,105281,2,0,P|139:246|114:273,1,80,2|2,3:2|0:0,0:0:0:0:
75,360,105593,2,0,P|53:300|78:273,1,80,10|0,3:2|0:0,0:0:0:0:
209,260,105906,6,0,L|366:274,1,120,2|0,3:2|0:0,0:0:0:0:
359,272,106218,5,10,3:2:0:0:
344,354,106374,1,0,0:0:0:0:
456,212,106531,5,2,3:2:0:0:
471,294,106687,1,2,3:2:0:0:
394,108,106843,5,10,3:2:0:0:
379,190,106999,1,10,3:2:0:0:
457,29,107156,5,6,3:2:0:0:
437,30,107234,1,0,0:0:0:0:
415,31,107312,2,0,L|354:35,1,40
309,97,107468,2,0,L|236:86,1,40,10|0,3:2|0:0,0:0:0:0:
157,38,107624,2,0,L|228:27,3,40,0|0|2|0,0:0|0:0|3:2|0:0,0:0:0:0:
109,109,107937,1,2,0:0:0:0:
89,106,108015,1,0,0:0:0:0:
67,103,108093,2,0,L|22:93,3,40,10|0|0|0,3:2|0:0|0:0|0:0,0:0:0:0:
32,179,108406,6,0,L|38:239,3,40,2|0|0|0,3:2|0:0|0:0|0:0,0:0:0:0:
114,260,108718,2,0,L|117:220,3,40,10|0|0|0,3:2|0:0|0:0|0:0,0:0:0:0:
197,168,109031,2,0,L|203:228,3,40,2|0|2|0,3:2|0:0|0:0|0:0,0:0:0:0:
279,249,109343,2,0,L|282:209,3,40,10|0|0|0,3:2|0:0|0:0|0:0,0:0:0:0:
365,181,109656,5,6,3:2:0:0:
370,141,109734,1,0,0:0:0:0:
394,110,109812,1,0,0:0:0:0:
431,96,109890,1,0,0:0:0:0:
472,98,109968,2,0,L|538:104,1,40,10|0,3:2|0:0,0:0:0:0:
446,227,110124,5,0,0:0:0:0:
441,267,110202,1,0,0:0:0:0:
417,298,110280,1,2,3:2:0:0:
380,312,110358,1,0,0:0:0:0:
339,310,110436,2,0,L|273:304,1,40,2|0,0:0|0:0,0:0:0:0:
242,240,110593,5,10,3:2:0:0:
202,246,110671,1,0,0:0:0:0:
163,253,110749,2,0,L|117:264,1,40
38,234,110906,6,0,P|55:203|54:170,3,40,2|0|0|0,3:2|0:0|0:0|0:0,0:0:0:0:
41,121,111218,2,0,P|24:90|25:57,3,40,10|0|0|0,3:2|0:0|0:0|0:0,0:0:0:0:
111,27,111531,1,2,3:2:0:0:
207,1,111687,1,2,3:2:0:0:
233,97,111843,1,10,3:2:0:0:
136,123,111999,1,10,3:2:0:0:
303,162,112156,5,6,3:2:0:0:
301,168,112234,1,0,0:0:0:0:
300,174,112312,1,0,0:0:0:0:
299,181,112390,1,0,0:0:0:0:
298,187,112468,1,10,3:2:0:0:
297,194,112546,1,0,0:0:0:0:
296,200,112624,1,0,0:0:0:0:
295,206,112702,1,0,0:0:0:0:
293,214,112781,2,0,L|281:281,5,51.999997619629,2|0|2|0|10|0,3:2|0:0|0:0|0:0|3:2|0:0,0:0:0:0:
378,255,113249,5,0,0:0:0:0:
419,249,113327,1,0,0:0:0:0:
460,243,113406,6,0,L|470:132,1,103.999995239258,2|0,3:2|0:0,0:0:0:0:
375,276,113718,2,0,L|365:387,1,103.999995239258,10|0,3:2|0:0,0:0:0:0:
298,222,114031,6,0,L|308:111,1,103.999995239258,2|2,3:2|0:0,0:0:0:0:
213,255,114343,1,10,3:2:0:0:
209,356,114499,1,0,0:0:0:0:
209,356,114656,6,0,P|216:317|269:280,1,88.000002685547,6|0,3:2|0:0,0:0:0:0:
350,268,114968,2,0,P|343:229|290:192,1,88.000002685547,10|0,3:2|0:0,0:0:0:0:
184,175,115281,1,2,3:2:0:0:
350,114,115437,1,2,0:0:0:0:
176,85,115593,5,10,3:2:0:0:
144,95,115671,1,0,0:0:0:0:
118,115,115749,1,0,0:0:0:0:
100,142,115827,1,0,0:0:0:0:
92,174,115906,2,0,L|99:229,3,44.0000013427735,2|0|0|0,3:2|0:0|0:0|0:0,0:0:0:0:
170,281,116218,2,0,L|175:237,3,44.0000013427735,10|0|0|0,3:2|0:0|0:0|0:0,0:0:0:0:
263,209,116531,2,0,B|300:217|317:207|317:207|357:240|357:240|390:229|450:236,1,176.000005371094,2|10,3:2|3:2,0:0:0:0:
494,292,116999,1,10,3:2:0:0:
359,150,117156,5,6,3:2:0:0:
359,150,117312,1,0,0:0:0:0:
443,82,117468,2,0,P|387:62|325:86,1,88.000002685547,10|0,3:2|0:0,0:0:0:0:
266,224,117781,2,0,P|311:185|321:119,1,88.000002685547,2|2,3:2|0:0,0:0:0:0:
232,4,118093,2,0,P|242:62|294:104,1,88.000002685547,10|0,3:2|0:0,0:0:0:0:
370,179,118406,6,0,L|218:161,1,132.00000402832,2|0,3:2|0:0,0:0:0:0:
203,157,118718,2,0,P|220:212|186:253,1,88.000002685547,10|0,3:2|0:0,0:0:0:0:
73,287,119031,1,2,3:2:0:0:
73,287,119187,1,2,0:0:0:0:
115,140,119343,1,10,3:2:0:0:
163,306,119499,1,10,3:2:0:0:
27,156,119656,6,0,P|45:76|106:44,1,132.00000402832,6|0,3:2|0:0,0:0:0:0:
129,48,119968,2,0,L|231:53,1,88.000002685547,10|0,3:2|0:0,0:0:0:0:
353,164,120281,2,0,L|266:160,1,88.000002685547,2|2,3:2|0:0,0:0:0:0:
408,55,120593,1,10,3:2:0:0:
356,164,120749,6,0,B|371:238|371:238|340:298,1,132.00000402832
323,297,121062,1,0,0:0:0:0:
217,287,121218,1,10,3:2:0:0:
375,207,121374,1,0,0:0:0:0:
481,217,121531,5,2,3:2:0:0:
476,195,121609,1,2,3:2:0:0:
472,173,121687,1,2,3:2:0:0:
468,152,121765,1,2,3:2:0:0:
463,130,121843,1,10,3:2:0:0:
408,287,121999,1,8,3:2:0:0:
301,90,122156,6,0,P|235:90|207:168,1,132.00000402832,4|0,3:2|0:0,0:0:0:0:
203,141,122468,1,8,3:2:0:0:
305,294,122624,2,0,P|360:258|418:333,1,176.000005371094,0|0,0:0|3:2,0:0:0:0:
234,347,123093,1,10,3:2:0:0:
302,193,123249,2,0,P|297:131|266:99,1,80,4|0,3:2|0:0,0:0:0:0:
192,93,123562,5,0,3:2:0:0:
111,166,123718,2,0,L|119:255,1,80,8|0,3:2|0:0,0:0:0:0:
129,335,124031,1,2,3:2:0:0:
238,254,124187,1,0,3:2:0:0:
332,326,124343,2,0,P|367:296|361:201,1,120,8|0,3:2|0:0,0:0:0:0:
343,143,124656,5,4,3:2:0:0:
382,146,124734,1,0,0:0:0:0:
423,150,124812,2,0,L|463:112,3,40,0|0|8|0,0:0|0:0|3:2|0:0,0:0:0:0:
316,59,125124,5,0,0:0:0:0:
276,54,125202,1,0,0:0:0:0:
236,49,125281,2,0,L|197:7,3,40,0|0|0|0,3:2|0:0|0:0|0:0,0:0:0:0:
127,64,125593,5,8,3:2:0:0:
132,103,125671,1,0,0:0:0:0:
137,143,125749,1,0,0:0:0:0:
82,289,125906,5,0,3:2:0:0:
82,209,126062,1,0,3:2:0:0:
162,209,126218,1,8,3:2:0:0:
83,302,126375,5,0,0:0:0:0:
181,224,126531,1,0,3:2:0:0:
103,126,126687,1,0,3:2:0:0:
5,204,126843,1,8,3:2:0:0:
226,315,126999,6,0,B|308:272|297:334|394:309,1,160,4|0,3:2|3:2,0:0:0:0:
468,269,127468,1,8,3:2:0:0:
372,216,127624,2,0,P|368:160|443:127,1,120
446,121,127937,1,0,3:2:0:0:
512,180,128093,1,10,3:2:0:0:
298,272,128249,6,0,P|265:259|272:342,1,160,4|0,3:2|3:2,0:0:0:0:
386,240,128718,1,8,3:2:0:0:
154,188,128874,2,0,L|82:245,1,80,0|2,0:0|3:2,0:0:0:0:
258,195,129187,2,0,L|244:104,1,80,0|8,3:2|3:2,0:0:0:0:
199,281,129499,1,0,0:0:0:0:
225,373,129656,5,4,3:2:0:0:
309,274,129812,1,0,0:0:0:0:
375,366,129968,1,8,3:2:0:0:
247,195,130124,1,0,0:0:0:0:
408,285,130281,6,0,P|451:259|408:145,1,160,0|8,3:2|3:2,0:0:0:0:
187,131,130749,2,0,L|266:136,1,80,4|0,3:2|3:2,0:0:0:0:
365,143,131062,1,0,0:0:0:0:
239,226,131218,1,0,3:2:0:0:
239,45,131374,1,8,3:2:0:0:
334,244,131531,5,8,3:2:0:0:
326,303,131687,1,8,3:2:0:0:
319,363,131843,1,8,3:2:0:0:
423,197,131999,6,0,P|450:143|388:92,1,120,4|0,3:2|0:0,0:0:0:0:
394,91,132312,1,0,3:2:0:0:
262,219,132468,2,0,L|365:240,1,80,8|0,3:2|0:0,0:0:0:0:
449,260,132781,1,2,3:2:0:0:
410,182,132937,1,0,3:2:0:0:
484,135,133093,1,10,3:2:0:0:
326,164,133249,6,0,P|359:109|287:43,1,160,4|0,3:2|3:2,0:0:0:0:
198,89,133718,1,8,3:2:0:0:
198,89,133874,2,0,L|90:94,1,80,0|2,0:0|3:2,0:0:0:0:
257,178,134187,2,0,L|365:183,1,80,0|8,3:2|3:2,0:0:0:0:
184,269,134499,1,0,0:0:0:0:
257,336,134656,5,4,3:2:0:0:
276,336,134734,1,0,0:0:0:0:
295,335,134812,2,0,L|354:337,3,40,0|0|8|0,0:0|0:0|3:2|0:0,0:0:0:0:
470,268,135124,2,0,L|430:269,5,40,0|0|0|0|0|0,0:0|0:0|3:2|0:0|0:0|0:0,0:0:0:0:
360,210,135593,5,8,3:2:0:0:
383,179,135671,1,0,0:0:0:0:
380,140,135749,2,0,P|374:116|362:91,1,40
256,167,135906,5,0,3:2:0:0:
258,186,135984,1,0,0:0:0:0:
259,205,136062,2,0,L|264:262,3,40,0|0|8|0,3:2|0:0|3:2|0:0,0:0:0:0:
172,350,136374,2,0,L|177:293,3,40,0|0|0|0,0:0|0:0|3:2|0:0,0:0:0:0:
79,271,136687,1,0,3:2:0:0:
114,253,136765,1,0,0:0:0:0:
133,219,136843,1,8,3:2:0:0:
127,180,136921,1,0,0:0:0:0:
101,151,136999,6,0,P|74:112|106:37,1,120,4|0,3:2|0:0,0:0:0:0:
109,37,137312,1,0,3:2:0:0:
257,47,137468,1,8,3:2:0:0:
257,47,137624,2,0,L|345:52,1,80,0|2,0:0|3:2,0:0:0:0:
452,58,137937,1,0,3:2:0:0:
401,124,138093,1,10,3:2:0:0:
480,256,138249,6,0,P|485:320|399:335,1,160,4|0,3:2|3:2,0:0:0:0:
291,287,138718,2,0,L|193:278,1,80,8|0,3:2|0:0,0:0:0:0:
274,165,139031,2,0,L|320:99,1,80,2|0,3:2|3:2,0:0:0:0:
388,211,139343,2,0,L|421:283,1,80,8|0,3:2|0:0,0:0:0:0:
213,233,139656,5,12,3:1:0:0:
194,209,139734,1,0,3:2:0:0:
185,180,139812,1,0,3:2:0:0:
186,151,139890,1,0,3:2:0:0:
197,124,139968,2,0,P|207:101|226:74,1,40,0|0,3:2|3:2,0:0:0:0:
303,32,140124,5,12,3:1:0:0:
285,56,140202,1,0,3:2:0:0:
260,72,140280,1,0,3:2:0:0:
231,77,140358,1,0,3:2:0:0:
202,70,140437,2,0,P|176:58|161:44,1,40,0|0,3:2|3:2,0:0:0:0:
75,15,140593,5,12,3:1:0:0:
78,64,140671,1,0,3:2:0:0:
81,114,140749,1,0,3:2:0:0:
84,164,140827,1,0,3:2:0:0:
87,214,140905,1,2,3:2:0:0:
347,74,142156,5,12,3:1:0:0:
265,64,142312,6,0,P|295:4|424:44,1,200,0|2,0:0|0:0,0:0:0:0:
410,133,142781,2,0,P|359:161|311:152,1,100,8|0,3:2|0:0,0:0:0:0:
116,95,143093,2,0,P|165:91|206:117,1,100,2|0,0:0|0:0,0:0:0:0:
237,204,143406,1,8,3:1:0:0:
130,379,143562,6,0,L|142:168,1,200,0|2,0:0|0:0,0:0:0:0:
13,213,144031,2,0,L|19:319,1,100,8|0,3:2|0:0,0:0:0:0:
261,315,144343,2,0,L|255:215,1,100,2|0,0:0|0:0,0:0:0:0:
141,179,144656,1,8,3:1:0:0:
323,374,144812,6,0,P|398:358|416:282,1,150
419,294,145124,1,2,0:0:0:0:
350,132,145281,2,0,L|344:232,1,100,8|0,3:2|0:0,0:0:0:0:
425,98,145593,1,2,0:0:0:0:
279,83,145749,1,0,0:0:0:0:
441,99,145906,1,8,3:1:0:0:
189,225,146062,6,0,P|113:173|129:103,1,150,8|0,3:2|0:0,0:0:0:0:
115,123,146374,1,0,0:0:0:0:
191,40,146531,2,0,L|197:140,1,100,8|8,3:2|3:2,0:0:0:0:
16,221,146843,2,0,L|22:121,1,100,8|8,3:2|3:2,0:0:0:0:
84,17,147156,1,12,3:1:0:0:
189,225,147312,6,0,L|423:210,1,200,0|2,0:0|0:0,0:0:0:0:
449,67,147781,2,0,P|471:110|464:159,1,100,8|0,3:2|0:0,0:0:0:0:
501,340,148093,2,0,P|452:329|419:293,1,100,2|0,0:0|0:0,0:0:0:0:
378,123,148406,1,8,3:1:0:0:
253,327,148562,6,0,L|18:312,1,200,0|2,0:0|0:0,0:0:0:0:
0,144,149031,2,0,P|48:197|44:240,1,100,8|0,3:2|0:0,0:0:0:0:
162,138,149343,2,0,P|158:209|125:236,1,100,2|0,0:0|0:0,0:0:0:0:
53,314,149656,1,8,3:1:0:0:
85,99,149812,6,0,L|266:87,1,150
234,89,150124,1,2,0:0:0:0:
406,11,150281,2,0,L|306:4,1,100,8|0,3:2|0:0,0:0:0:0:
310,165,150593,2,0,L|408:149,1,100,2|0,0:0|0:0,0:0:0:0:
487,295,150906,6,0,L|306:283,1,150,8|0,3:1|0:0,0:0:0:0:
260,363,151218,2,0,P|214:319|249:230,1,150,8|0,3:2|0:0,0:0:0:0:
310,165,151531,2,0,P|356:209|321:298,1,150,8|0,3:2|0:0,0:0:0:0:
185,313,151843,2,0,L|4:324,1,150,8|0,3:2|0:0,0:0:0:0:
62,86,152156,6,0,B|109:63|109:63|165:87,1,95.9999970703126,12|0,3:1|0:0,0:0:0:0:
154,177,152468,2,0,B|106:199|106:199|50:175,1,95.9999970703126,8|0,3:1|0:0,0:0:0:0:
246,14,152781,6,0,L|233:115,1,95.9999970703126,8|0,3:1|0:0,0:0:0:0:
356,262,153093,2,0,L|343:166,1,95.9999970703126,8|0,3:1|0:0,0:0:0:0:
408,3,153406,5,8,3:1:0:0:
474,103,153562,1,0,0:0:0:0:
391,86,153718,1,8,3:1:0:0:
491,20,153874,1,0,0:0:0:0:
233,109,154031,5,8,3:1:0:0:
170,243,154187,1,0,0:0:0:0:
162,157,154343,1,8,3:1:0:0:
248,277,154499,1,0,0:0:0:0:
455,197,154656,6,0,L|477:82,1,95.9999970703126,8|0,3:1|0:0,0:0:0:0:
257,282,154968,2,0,L|275:376,1,95.9999970703126,8|0,3:1|0:0,0:0:0:0:
160,67,155281,6,0,P|119:43|73:52,1,95.9999970703126,8|0,3:1|0:0,0:0:0:0:
2,193,155593,2,0,P|42:216|88:207,1,95.9999970703126,8|0,3:1|0:0,0:0:0:0:
321,137,155906,5,8,3:1:0:0:
335,52,156062,1,0,0:0:0:0:
247,194,156218,1,8,3:1:0:0:
233,109,156374,1,0,0:0:0:0:
333,231,156531,5,8,3:1:0:0:
418,245,156687,1,0,3:0:0:0:
257,282,156843,1,8,3:1:0:0:
172,296,156999,1,0,3:0:0:0:
425,253,157156,6,0,B|409:278|409:278|419:311,2,63.9999980468751,12|0|0,3:2|3:2|3:2,0:0:0:0:
328,377,157468,2,0,B|343:351|343:351|333:318,2,63.9999980468751,8|0|0,3:2|3:2|3:2,0:0:0:0:
163,301,157781,6,0,L|151:367,2,63.9999980468751,8|0|0,3:2|3:2|3:2,0:0:0:0:
81,259,158093,2,0,L|69:325,2,63.9999980468751,8|0|0,3:2|3:2|3:2,0:0:0:0:
291,175,158406,6,0,P|292:134|267:91,2,63.9999980468751,8|0|0,3:2|3:2|3:2,0:0:0:0:
167,130,158718,2,0,P|165:170|190:213,2,63.9999980468751,8|0|0,3:2|3:2|3:2,0:0:0:0:
217,65,159031,6,0,B|213:33|213:33|208:30|208:30|203:-12,2,63.9999980468751,8|0|0,3:2|3:2|3:2,0:0:0:0:
239,239,159343,2,0,B|242:270|242:270|247:273|247:273|252:316,2,63.9999980468751,8|0|0,3:2|3:2|3:2,0:0:0:0:
73,317,159656,6,0,B|69:290|69:290|89:257,3,47.9999985351563,0|0|0|0,3:1|3:1|3:1|3:1,0:0:0:0:
161,325,159968,2,0,B|165:352|165:352|145:385,3,47.9999985351563,0|0|0|0,3:1|3:1|3:1|3:1,0:0:0:0:
338,291,160281,2,0,B|342:264|342:264|322:231,3,47.9999985351563,0|0|0|0,3:1|3:1|3:1|3:1,0:0:0:0:
250,299,160593,2,0,B|246:326|246:326|266:359,3,47.9999985351563,0|0|0|0,3:1|3:1|3:0|3:1,0:0:0:0:
421,367,160906,5,0,3:1:0:0:
439,351,160984,1,0,3:0:0:0:
451,331,161062,1,0,3:0:0:0:
453,307,161140,1,0,3:0:0:0:
447,284,161218,2,0,L|438:223,3,47.9999985351563,8|8|8|8,3:3|3:3|3:3|3:3,0:0:0:0:
494,166,161531,5,4,3:3:0:0:
466,143,161609,1,4,3:3:0:0:
431,138,161687,1,4,3:3:0:0:
397,151,161765,1,4,3:3:0:0:
375,179,161843,1,0,3:3:0:0:
352,206,161921,1,0,3:3:0:0:
319,219,161999,1,0,3:3:0:0:
284,214,162077,1,0,3:3:0:0:
256,192,162155,1,12,3:1:0:0:
