osu file format v14

[General]
AudioFilename: audio.mp3
AudioLeadIn: 0
PreviewTime: 122156
Countdown: 0
SampleSet: Soft
StackLeniency: 0.7
Mode: 0
LetterboxInBreaks: 0
EpilepsyWarning: 1
WidescreenStoryboard: 1

[Editor]
DistanceSpacing: 1.5
BeatDivisor: 4
GridSize: 16
TimelineZoom: 1.6

[Metadata]
Title:Night Witches
TitleUnicode:Night Witches
Artist:Sabaton
ArtistUnicode:Sabaton
Creator:PantyDev
Version:Hard
Source:
Tags:588 female heroes bomber regiment 46 power heavy metal po-2 polikarpov soviet world war II great patriotic war KeRLi_ Waaif piroshki english
BeatmapID:2467806
BeatmapSetID:1177947

[Difficulty]
HPDrainRate:4.5
CircleSize:3.5
OverallDifficulty:6
ApproachRate:8
SliderMultiplier:1.4
SliderTickRate:1

[Events]
//Background and Video events
0,0,"bg2.jpg",0,0
//Break Periods
//Storyboard Layer 0 (Background)
//Storyboard Layer 1 (Fail)
//Storyboard Layer 2 (Pass)
//Storyboard Layer 3 (Foreground)
Sprite,Foreground,Centre,"sb/dot.jpg",0,0 C,0,6530,,116,5,0 F,0,10080,10330,1,0 M,0,6530,10330,246.5096,145 V,4,6530,6780,3,0,3,24
Sprite,Foreground,Centre,"sb/dot.jpg",0,0 C,0,6530,,116,5,0 F,0,10080,10330,1,0 M,0,6530,10330,252.5096,145 V,4,6530,6780,0,3,12,3
Sprite,Foreground,Centre,"sb/dot.jpg",0,0 C,0,6530,,116,5,0 F,0,10080,10330,1,0 M,0,6530,10330,258.5096,139 V,4,6530,6780,3,0,3,12
Sprite,Foreground,Centre,"sb/dot.jpg",0,0 C,0,6530,,116,5,0 F,0,10080,10330,1,0 M,0,6530,10330,252.5096,133 V,4,6530,6780,0,3,12,3
Sprite,Foreground,Centre,"sb/circle.png",0,0 C,0,6530,,116,5,0 F,0,10080,10330,1,0 M,0,6530,10330,246.5096,157 V,4,6530,6780,0,0,0.01271186,0.01271186
Sprite,Foreground,Centre,"sb/circle.png",0,0 C,0,6530,,116,5,0 F,0,10080,10330,1,0 M,0,6530,10330,258.5096,145 V,4,6530,6780,0,0,0.01271186,0.01271186
Sprite,Foreground,Centre,"sb/circle.png",0,0 C,0,6530,,116,5,0 F,0,10080,10330,1,0 M,0,6530,10330,246.5096,133 V,4,6530,6780,0,0,0.01271186,0.01271186
Sprite,Foreground,Centre,"sb/circle.png",0,0 C,0,6530,,116,5,0 F,0,10080,10330,1,0 M,0,6530,10330,258.5096,133 V,4,6530,6780,0,0,0.01271186,0.01271186
Sprite,Foreground,Centre,"sb/dot.jpg",0,0 C,0,6680,,116,5,0 F,0,10130,10380,1,0 M,0,6680,10380,265.4696,145 V,4,6680,6930,3,0,3,24 R,0,6680,,0.3141593
Sprite,Foreground,Centre,"sb/dot.jpg",0,0 C,0,6680,,116,5,0 F,0,10130,10380,1,0 M,0,6680,10380,271.4696,145 V,4,6680,6930,0,3,12,3
Sprite,Foreground,Centre,"sb/dot.jpg",0,0 C,0,6680,,116,5,0 F,0,10130,10380,1,0 M,0,6680,10380,277.4696,145 V,4,6680,6930,3,0,3,24 R,0,6680,,-0.3141593
Sprite,Foreground,Centre,"sb/dot.jpg",0,0 C,0,6680,,116,5,0 F,0,10130,10380,1,0 M,0,6680,10380,271.4696,133.5873 V,4,6680,6930,0,3,4.565072,3
Sprite,Foreground,Centre,"sb/circle.png",0,0 C,0,6680,,116,5,0 F,0,10130,10380,1,0 M,0,6680,10380,273.7521,133.5873 V,4,6680,6930,0,0,0.01271186,0.01271186
Sprite,Foreground,Centre,"sb/circle.png",0,0 C,0,6680,,116,5,0 F,0,10130,10380,1,0 M,0,6680,10380,269.1871,133.5873 V,4,6680,6930,0,0,0.01271186,0.01271186
Sprite,Foreground,Centre,"sb/circle.png",0,0 C,0,6680,,116,5,0 F,0,10130,10380,1,0 M,0,6680,10380,281.1704,156.4127 V,4,6680,6930,0,0,0.01271186,0.01271186
Sprite,Foreground,Centre,"sb/circle.png",0,0 C,0,6680,,116,5,0 F,0,10130,10380,1,0 M,0,6680,10380,261.7688,156.4127 V,4,6680,6930,0,0,0.01271186,0.01271186
Sprite,Foreground,Centre,"sb/dot.jpg",0,0 C,0,6830,,116,5,0 F,0,10180,10430,1,0 M,0,6830,10430,286.6904,145 V,4,6830,7080,3,0,3,24
Sprite,Foreground,Centre,"sb/dot.jpg",0,0 C,0,6830,,116,5,0 F,0,10180,10430,1,0 M,0,6830,10430,298.6904,145 V,4,6830,7080,3,0,3,24
Sprite,Foreground,Centre,"sb/dot.jpg",0,0 C,0,6830,,116,5,0 F,0,10180,10430,1,0 M,0,6830,10430,292.6904,145 V,4,6830,7080,3,0,3,26.8284 R,0,6830,,-0.4619989
Sprite,Foreground,Centre,"sb/circle.png",0,0 C,0,6830,,116,5,0 F,0,10180,10430,1,0 M,0,6830,10430,286.6904,157 V,4,6830,7080,0,0,0.01271186,0.01271186
Sprite,Foreground,Centre,"sb/circle.png",0,0 C,0,6830,,116,5,0 F,0,10180,10430,1,0 M,0,6830,10430,298.6904,157 V,4,6830,7080,0,0,0.01271186,0.01271186
Sprite,Foreground,Centre,"sb/circle.png",0,0 C,0,6830,,116,5,0 F,0,10180,10430,1,0 M,0,6830,10430,286.6904,133 V,4,6830,7080,0,0,0.01271186,0.01271186
Sprite,Foreground,Centre,"sb/circle.png",0,0 C,0,6830,,116,5,0 F,0,10180,10430,1,0 M,0,6830,10430,298.6904,133 V,4,6830,7080,0,0,0.01271186,0.01271186
Sprite,Foreground,Centre,"sb/dot.jpg",0,0 C,0,6980,,116,5,0 F,0,10230,10480,1,0 M,0,6980,10480,311.6504,133 V,4,6980,7230,0,3,12,3
Sprite,Foreground,Centre,"sb/dot.jpg",0,0 C,0,6980,,116,5,0 F,0,10230,10480,1,0 M,0,6980,10480,311.6504,145 V,4,6980,7230,3,0,3,24
Sprite,Foreground,Centre,"sb/circle.png",0,0 C,0,6980,,116,5,0 F,0,10230,10480,1,0 M,0,6980,10480,305.6504,133 V,4,6980,7230,0,0,0.01271186,0.01271186
Sprite,Foreground,Centre,"sb/circle.png",0,0 C,0,6980,,116,5,0 F,0,10230,10480,1,0 M,0,6980,10480,317.6504,133 V,4,6980,7230,0,0,0.01271186,0.01271186
Sprite,Foreground,Centre,"sb/circle.png",0,0 C,0,6980,,116,5,0 F,0,10230,10480,1,0 M,0,6980,10480,311.6504,157 V,4,6980,7230,0,0,0.01271186,0.01271186
Sprite,Foreground,Centre,"sb/dot.jpg",0,0 C,0,7130,,116,5,0 F,0,10280,10530,1,0 M,0,7130,10530,333.6104,139 V,4,7130,7380,3,0,3,13.37008 R,0,7130,,0.4619989
Sprite,Foreground,Centre,"sb/dot.jpg",0,0 C,0,7130,,116,5,0 F,0,10280,10530,1,0 M,0,7130,10530,327.6104,139 V,4,7130,7380,3,0,3,13.37008 R,0,7130,,-0.4619989
Sprite,Foreground,Centre,"sb/dot.jpg",0,0 C,0,7130,,116,5,0 F,0,10280,10530,1,0 M,0,7130,10530,330.6104,151 V,4,7130,7380,3,0,3,12
Sprite,Foreground,Centre,"sb/circle.png",0,0 C,0,7130,,116,5,0 F,0,10280,10530,1,0 M,0,7130,10530,330.6104,157 V,4,7130,7380,0,0,0.01271186,0.01271186
Sprite,Foreground,Centre,"sb/circle.png",0,0 C,0,7130,,116,5,0 F,0,10280,10530,1,0 M,0,7130,10530,324.6104,133 V,4,7130,7380,0,0,0.01271186,0.01271186
Sprite,Foreground,Centre,"sb/circle.png",0,0 C,0,7130,,116,5,0 F,0,10280,10530,1,0 M,0,7130,10530,336.6104,133 V,4,7130,7380,0,0,0.01271186,0.01271186
Sprite,Foreground,Centre,"sb/dot.jpg",0,0 C,0,7280,,116,5,0 F,0,10330,10580,1,0 M,0,7280,10580,348.0703,133 V,4,7280,7530,0,3,8.888889,3
Sprite,Foreground,Centre,"sb/dot.jpg",0,0 C,0,7280,,116,5,0 F,0,10330,10580,1,0 M,0,7280,10580,354.0816,145 V,4,7280,7530,3,0,3,24 R,0,7280,,-0.1256637
Sprite,Foreground,Centre,"sb/dot.jpg",0,0 C,0,7280,,116,5,0 F,0,10330,10580,1,0 M,0,7280,10580,343.5703,145 V,4,7280,7530,3,0,3,12
Sprite,Foreground,Centre,"sb/dot.jpg",0,0 C,0,7280,,116,5,0 F,0,10330,10580,1,0 M,0,7280,10580,349.5703,157 V,4,7280,7530,0,3,12,3
Sprite,Foreground,Centre,"sb/circle.png",0,0 C,0,7280,,116,5,0 F,0,10330,10580,1,0 M,0,7280,10580,352.5703,133 V,4,7280,7530,0,0,0.01271186,0.01271186
Sprite,Foreground,Centre,"sb/circle.png",0,0 C,0,7280,,116,5,0 F,0,10330,10580,1,0 M,0,7280,10580,343.5703,133 V,4,7280,7530,0,0,0.01271186,0.01271186
Sprite,Foreground,Centre,"sb/circle.png",0,0 C,0,7280,,116,5,0 F,0,10330,10580,1,0 M,0,7280,10580,343.5703,157 V,4,7280,7530,0,0,0.01271186,0.01271186
Sprite,Foreground,Centre,"sb/circle.png",0,0 C,0,7280,,116,5,0 F,0,10330,10580,1,0 M,0,7280,10580,355.5703,157 V,4,7280,7530,0,0,0.01271186,0.01271186
Sprite,Foreground,Centre,"sb/dot.jpg",0,0 C,0,7430,,116,5,0 F,0,10380,10630,1,0 M,0,7430,10630,368.5303,133 V,4,7430,7680,0,3,12,3
Sprite,Foreground,Centre,"sb/dot.jpg",0,0 C,0,7430,,116,5,0 F,0,10380,10630,1,0 M,0,7430,10630,362.5303,145 V,4,7430,7680,3,0,3,12
Sprite,Foreground,Centre,"sb/dot.jpg",0,0 C,0,7430,,116,5,0 F,0,10380,10630,1,0 M,0,7430,10630,368.5303,157 V,4,7430,7680,0,3,12,3
Sprite,Foreground,Centre,"sb/dot.jpg",0,0 C,0,7430,,116,5,0 F,0,10380,10630,1,0 M,0,7430,10630,367.0303,145 V,4,7430,7680,0,3,8.888889,3
Sprite,Foreground,Centre,"sb/circle.png",0,0 C,0,7430,,116,5,0 F,0,10380,10630,1,0 M,0,7430,10630,374.5303,133 V,4,7430,7680,0,0,0.01271186,0.01271186
Sprite,Foreground,Centre,"sb/circle.png",0,0 C,0,7430,,116,5,0 F,0,10380,10630,1,0 M,0,7430,10630,362.5303,133 V,4,7430,7680,0,0,0.01271186,0.01271186
Sprite,Foreground,Centre,"sb/circle.png",0,0 C,0,7430,,116,5,0 F,0,10380,10630,1,0 M,0,7430,10630,362.5303,157 V,4,7430,7680,0,0,0.01271186,0.01271186
Sprite,Foreground,Centre,"sb/circle.png",0,0 C,0,7430,,116,5,0 F,0,10380,10630,1,0 M,0,7430,10630,374.5303,157 V,4,7430,7680,0,0,0.01271186,0.01271186
Sprite,Foreground,Centre,"sb/dot.jpg",0,0 C,0,7580,,116,5,0 F,0,10430,10680,1,0 M,0,7580,10680,393.4903,145 V,4,7580,7830,3,0,3,24
Sprite,Foreground,Centre,"sb/dot.jpg",0,0 C,0,7580,,116,5,0 F,0,10430,10680,1,0 M,0,7580,10680,387.4903,145 V,4,7580,7830,3,0,3,26.8284 R,0,7580,,-0.4619989
Sprite,Foreground,Centre,"sb/circle.png",0,0 C,0,7580,,116,5,0 F,0,10430,10680,1,0 M,0,7580,10680,393.4903,157 V,4,7580,7830,0,0,0.01271186,0.01271186
Sprite,Foreground,Centre,"sb/circle.png",0,0 C,0,7580,,116,5,0 F,0,10430,10680,1,0 M,0,7580,10680,381.4903,133 V,4,7580,7830,0,0,0.01271186,0.01271186
Sprite,Foreground,Centre,"sb/circle.png",0,0 C,0,7580,,116,5,0 F,0,10430,10680,1,0 M,0,7580,10680,393.4903,133 V,4,7580,7830,0,0,0.01271186,0.01271186
//Storyboard Sound Samples

[TimingPoints]
1531,312.5,4,2,1,80,1,0
11531,-83.3333333333333,4,2,1,80,0,1
21218,-83.3333333333333,4,2,1,85,0,0
21999,-83.3333333333333,4,2,1,40,0,0
22156,312.5,4,2,1,65,1,0
22156,-100,4,2,1,65,0,0
42156,-90.9090909090909,4,2,1,55,0,0
43406,-90.9090909090909,4,2,2,55,0,0
43425,-90.9090909090909,4,2,1,55,0,0
44656,-90.9090909090909,4,2,2,55,0,0
44675,-90.9090909090909,4,2,1,55,0,0
45906,-90.9090909090909,4,2,2,55,0,0
45925,-90.9090909090909,4,2,1,55,0,0
46531,-90.9090909090909,4,2,2,55,0,0
46550,-90.9090909090909,4,2,1,55,0,0
48406,-90.9090909090909,4,2,2,55,0,0
48425,-90.9090909090909,4,2,1,55,0,0
49656,-90.9090909090909,4,2,2,55,0,0
49675,-90.9090909090909,4,2,1,55,0,0
50906,-90.9090909090909,4,2,1,60,0,0
51531,-90.9090909090909,4,2,1,65,0,0
52156,-86.9565217391304,4,2,20,75,0,1
52175,-86.9565217391304,4,2,1,75,0,1
61218,-86.9565217391304,4,2,1,75,0,1
61531,-86.9565217391304,4,2,1,80,0,1
62156,-100,4,2,1,65,0,0
82156,-90.9090909090909,4,2,1,55,0,0
83406,-90.9090909090909,4,2,2,55,0,0
83425,-90.9090909090909,4,2,1,55,0,0
84656,-90.9090909090909,4,2,2,55,0,0
84675,-90.9090909090909,4,2,1,55,0,0
85906,-90.9090909090909,4,2,2,55,0,0
85925,-90.9090909090909,4,2,1,55,0,0
86531,-90.9090909090909,4,2,2,55,0,0
86550,-90.9090909090909,4,2,1,55,0,0
87156,-90.9090909090909,4,2,2,55,0,0
87175,-90.9090909090909,4,2,1,55,0,0
88406,-90.9090909090909,4,2,2,55,0,0
88425,-90.9090909090909,4,2,1,55,0,0
89656,-90.9090909090909,4,2,2,55,0,0
89675,-90.9090909090909,4,2,1,55,0,0
90906,-90.9090909090909,4,2,1,60,0,0
91531,-90.9090909090909,4,2,1,65,0,0
92156,-86.9565217391304,4,2,20,75,0,1
92175,-86.9565217391304,4,2,1,75,0,1
101531,-86.9565217391304,4,2,1,80,0,1
102156,-95.2380952380952,4,2,1,70,0,0
112156,-95.2380952380952,4,2,1,65,0,0
122156,-90.9090909090909,4,2,1,65,0,0
122781,-90.9090909090909,4,2,2,65,0,0
122800,-90.9090909090909,4,2,1,65,0,0
124031,-90.9090909090909,4,2,2,65,0,0
124050,-90.9090909090909,4,2,1,65,0,0
124656,-90.9090909090909,4,2,1,70,0,0
126999,-90.9090909090909,4,2,1,65,0,0
127781,-90.9090909090909,4,2,2,65,0,0
127800,-90.9090909090909,4,2,1,65,0,0
129031,-90.9090909090909,4,2,2,65,0,0
129050,-90.9090909090909,4,2,1,65,0,0
129656,-90.9090909090909,4,2,1,75,0,0
131999,-90.9090909090909,4,2,1,65,0,0
132781,-90.9090909090909,4,2,2,65,0,0
132800,-90.9090909090909,4,2,1,65,0,0
134031,-90.9090909090909,4,2,2,65,0,0
134050,-90.9090909090909,4,2,1,65,0,0
134656,-90.9090909090909,4,2,1,70,0,0
136999,-90.9090909090909,4,2,1,65,0,0
137781,-90.9090909090909,4,2,2,65,0,0
137800,-90.9090909090909,4,2,1,65,0,0
139031,-90.9090909090909,4,2,2,65,0,0
139050,-90.9090909090909,4,2,1,65,0,0
139656,-90.9090909090909,4,2,1,70,0,0
140906,-90.9090909090909,4,2,1,60,0,0
141999,-90.9090909090909,4,2,1,40,0,0
142156,-86.9565217391304,4,2,20,75,0,1
142175,-86.9565217391304,4,2,1,75,0,1
152156,-83.3333333333333,4,2,1,80,0,1
157156,-83.3333333333333,4,2,3,80,0,1
159656,-83.3333333333333,4,2,1,80,0,1
162156,-100,4,2,20,90,0,0

[Colours]
Combo1 : 146,130,99
Combo2 : 186,44,44
Combo3 : 102,53,53
Combo4 : 224,145,65

[HitObjects]
154,292,11531,6,0,P|203:288|255:319,1,83.9999974365235,12|0,3:1|0:0,0:0:0:0:
324,345,11843,2,0,L|438:336,1,83.9999974365235,8|0,3:1|0:0,0:0:0:0:
397,237,12156,2,0,L|283:246,2,83.9999974365235,8|0|8,3:1|0:0|3:1,0:0:0:0:
462,160,12624,1,0,0:0:0:0:
405,47,12781,6,0,L|321:53,1,83.9999974365235,8|0,3:1|0:0,0:0:0:0:
232,100,13093,2,0,L|43:82,1,167.999994873047,8|8,3:1|3:1,0:0:0:0:
3,165,13562,1,0,0:0:0:0:
57,249,13718,2,0,L|141:243,1,83.9999974365235,8|0,3:1|0:0,0:0:0:0:
207,350,14031,6,0,P|227:318|231:261,1,83.9999974365235,8|0,3:1|0:0,0:0:0:0:
140,243,14343,2,0,P|132:204|152:150,1,83.9999974365235,8|0,3:1|0:0,0:0:0:0:
228,107,14656,2,0,L|312:113,2,83.9999974365235,8|0|8,3:1|0:0|3:1,0:0:0:0:
223,0,15124,1,0,0:0:0:0:
349,24,15281,6,0,P|385:46|412:106,1,83.9999974365235,8|0,3:1|0:0,0:0:0:0:
478,151,15593,2,0,B|441:181|441:181|449:320,1,167.999994873047,8|8,3:1|3:1,0:0:0:0:
358,348,16062,2,0,P|316:345|285:311,1,83.9999974365235,0|8,3:0|3:1,0:0:0:0:
189,340,16374,1,0,3:0:0:0:
74,287,16531,6,0,L|79:190,1,83.9999974365235,12|0,3:1|0:0,0:0:0:0:
73,102,16843,2,0,P|115:111|157:157,1,83.9999974365235,8|0,3:1|0:0,0:0:0:0:
242,167,17156,2,0,P|284:158|326:112,2,83.9999974365235,8|0|8,3:1|0:0|3:1,0:0:0:0:
245,66,17624,1,0,0:0:0:0:
370,60,17781,6,0,P|397:96|402:145,1,83.9999974365235,8|0,3:1|0:0,0:0:0:0:
481,191,18093,2,0,B|446:263|446:263|475:355,1,167.999994873047,8|8,3:1|3:1,0:0:0:0:
371,359,18562,1,0,0:0:0:0:
283,308,18718,2,0,L|189:314,1,83.9999974365235,8|0,3:1|0:0,0:0:0:0:
51,359,19031,6,0,P|77:318|74:260,1,83.9999974365235,8|0,3:1|0:0,0:0:0:0:
90,183,19343,2,0,P|64:142|67:84,1,83.9999974365235,8|0,3:1|0:0,0:0:0:0:
140,44,19656,2,0,L|252:51,2,83.9999974365235,8|0|8,3:1|0:0|3:1,0:0:0:0:
201,141,20124,1,0,3:0:0:0:
201,141,20202,1,0,0:0:0:0:
201,141,20281,6,0,L|264:139,3,41.9999987182618,8|0|0|0,3:1|3:0|3:0|3:0,0:0:0:0:
291,153,20593,2,0,B|303:182|303:182|285:256,1,83.9999974365235,8|0,3:1|3:0,0:0:0:0:
199,277,20906,2,0,B|187:306|187:306|205:380,1,83.9999974365235,8|0,3:1|3:0,0:0:0:0:
299,369,21218,1,12,3:1:0:0:
71,40,22156,6,0,L|168:54,1,70,6|0,3:2|0:0,0:0:0:0:
205,102,22468,1,10,3:2:0:0:
205,102,22624,1,0,0:0:0:0:
276,56,22781,2,0,B|326:78|326:78|435:52,1,140,2|10,3:2|3:2,0:0:0:0:
472,113,23249,6,0,L|459:263,1,140,0|0,0:0|0:0,0:0:0:0:
410,320,23718,2,0,P|378:312|327:316,1,70,10|0,3:2|0:0,0:0:0:0:
264,348,24031,2,0,P|232:356|181:352,1,70,2|2,3:2|0:2,0:0:0:0:
120,317,24343,2,0,L|131:189,1,105,10|0,3:2|0:0,0:0:0:0:
145,173,24656,6,0,L|133:93,2,70,6|0|10,3:2|0:0|3:2,0:0:0:0:
223,201,25124,1,0,0:0:0:0:
283,259,25281,2,0,L|272:328,2,70,2|0|10,3:2|0:0|3:2,0:0:0:0:
355,216,25749,6,0,B|400:196|400:196|408:81,1,140
378,30,26218,2,0,L|292:40,1,70,10|2,3:2|3:2,0:0:0:0:
260,106,26531,2,0,L|174:96,1,70,2|2,3:2|3:2,0:0:0:0:
123,46,26843,1,10,3:2:0:0:
18,107,26999,6,0,L|26:264,1,140,6|0,2:2|0:0,0:0:0:0:
33,330,27468,2,0,P|73:328|125:297,1,70,10|0,3:2|0:0,0:0:0:0:
168,267,27781,2,0,L|260:300,1,70,2|0,3:2|0:0,0:0:0:0:
266,213,28093,2,0,L|174:180,1,70,10|0,3:2|0:0,0:0:0:0:
185,106,28406,5,2,3:2:0:0:
185,106,28562,1,0,0:0:0:0:
144,32,28718,2,0,P|104:34|52:65,1,70,10|0,3:2|0:0,0:0:0:0:
18,107,29031,2,0,B|46:138|46:138|26:264,1,140,2|10,3:2|3:2,0:0:0:0:
98,352,29656,6,0,L|193:357,1,70,6|0,3:2|0:0,0:0:0:0:
225,294,29968,2,0,L|320:289,1,70,10|0,3:2|0:0,0:0:0:0:
379,284,30281,2,0,P|396:313|396:367,2,70,2|0|10,3:2|0:0|3:2,0:0:0:0:
446,230,30749,6,0,P|414:170|440:83,1,140
430,22,31218,2,0,B|405:40|405:40|345:32,1,70,10|2,3:2|3:2,0:0:0:0:
298,85,31531,2,0,B|273:103|273:103|213:95,1,70,2|10,3:2|3:2,0:0:0:0:
183,31,31843,1,10,3:2:0:0:
76,84,31999,6,0,L|89:178,1,70,10|6,2:2|3:2,0:0:0:0:
38,223,32312,2,0,P|25:256|28:292,2,70,0|10|0,0:0|3:2|0:0,0:0:0:0:
122,219,32781,1,2,3:2:0:0:
166,290,32937,2,0,L|259:306,2,70,0|10|0,0:0|3:2|0:0,0:0:0:0:
122,219,33406,6,0,L|136:147,1,70,2|0,3:2|0:0,0:0:0:0:
154,68,33718,1,10,3:2:0:0:
233,42,33874,2,0,P|276:47|310:75,1,70,0|2,0:0|3:2,0:0:0:0:
363,113,34187,2,0,P|406:108|440:80,1,70,2|10,0:2|3:2,0:0:0:0:
483,31,34499,1,2,0:2:0:0:
501,149,34656,6,0,L|489:303,1,140,6|10,3:2|3:2,0:0:0:0:
421,337,35124,1,0,0:0:0:0:
350,290,35281,2,0,B|309:263|309:263|220:322,1,140,2|10,3:2|3:2,0:0:0:0:
155,368,35749,6,0,P|116:321|136:227,1,140
182,184,36218,2,0,L|263:190,1,70,10|2,3:2|3:2,0:0:0:0:
307,125,36531,2,0,L|388:119,1,70,2|2,3:2|3:2,0:0:0:0:
442,173,36843,1,10,3:2:0:0:
490,281,36999,6,0,P|459:292|409:287,1,70,6|2,2:2|3:2,0:0:0:0:
340,269,37312,1,0,0:0:0:0:
263,301,37468,2,0,L|245:383,2,70,10|0|2,3:2|0:0|3:2,0:0:0:0:
197,247,37937,1,0,0:0:0:0:
113,283,38093,2,0,L|97:351,1,70,10|0,3:2|0:0,0:0:0:0:
20,260,38406,6,0,L|39:179,1,70,2|0,3:2|0:0,0:0:0:0:
54,110,38718,1,10,3:2:0:0:
54,110,38874,1,0,0:0:0:0:
133,80,39031,2,0,B|152:120|152:120|267:112,1,140,2|10,3:2|3:2,0:0:0:0:
366,39,39656,6,0,L|357:125,1,70,6|0,3:2|0:0,0:0:0:0:
415,169,39968,2,0,L|424:255,1,70,10|0,3:2|0:0,0:0:0:0:
447,319,40281,2,0,P|391:335|317:275,1,140,2|10,3:2|3:2,0:0:0:0:
265,235,40749,6,0,P|220:218|149:270,1,140,0|0,0:0|0:0,0:0:0:0:
124,355,41218,2,0,L|40:350,1,70,10|2,3:2|3:2,0:0:0:0:
39,263,41531,2,0,L|49:166,1,70,2|10,3:2|3:2,0:0:0:0:
102,131,41843,1,10,3:2:0:0:
68,53,41999,1,10,2:2:0:0:
181,28,42156,6,0,L|268:32,1,77.0000023498536,6|0,3:2|0:0,0:0:0:0:
331,86,42468,2,0,L|418:82,1,77.0000023498536,10|0,3:2|0:0,0:0:0:0:
474,18,42781,2,0,P|441:59|454:170,1,154.000004699707,2|10,3:2|3:2,0:0:0:0:
494,233,43249,1,0,0:0:0:0:
500,325,43406,6,0,B|455:307|455:307|406:337|406:337|330:335,1,154.000004699707,2|10,3:2|3:2,0:0:0:0:
292,271,43874,2,0,P|209:279|166:337,1,154.000004699707,0|2,0:0|0:2,0:0:0:0:
78,355,44343,1,10,3:2:0:0:
78,355,44499,1,0,0:0:0:0:
39,245,44656,6,0,L|49:152,1,77.0000023498536,2|0,3:2|0:0,0:0:0:0:
116,107,44968,1,10,3:2:0:0:
62,32,45124,2,0,P|85:19|155:19,1,77.0000023498536,0|2,0:0|3:2,0:0:0:0:
210,66,45437,2,0,P|233:79|303:79,1,77.0000023498536,2|10,0:2|3:2,0:0:0:0:
336,9,45749,6,0,L|316:187,1,154.000004699707,0|0,0:0|0:0,0:0:0:0:
329,254,46218,2,0,P|397:272|456:225,1,115.50000352478,10|0,3:2|0:0,0:0:0:0:
474,229,46531,2,0,L|459:323,1,77.0000023498536,2|10,3:2|0:2,0:0:0:0:
385,356,46843,1,10,3:2:0:0:
271,335,46999,6,0,L|159:350,1,77.0000023498536,10|6,3:2|3:2,0:0:0:0:
111,305,47312,1,0,0:0:0:0:
161,227,47468,2,0,P|171:203|171:141,1,77.0000023498536,10|0,3:2|0:0,0:0:0:0:
123,74,47781,2,0,L|32:79,1,77.0000023498536,2|2,3:2|0:2,0:0:0:0:
9,163,48093,2,0,L|100:158,1,77.0000023498536,10|0,3:2|0:0,0:0:0:0:
173,152,48406,2,0,L|358:144,1,154.000004699707,2|10,3:2|3:2,0:0:0:0:
397,86,48874,2,0,P|448:139|437:231,1,154.000004699707,0|2,0:0|0:2,0:0:0:0:
397,294,49343,1,10,3:2:0:0:
298,353,49499,5,10,3:2:0:0:
215,310,49656,2,0,L|113:312,1,77.0000023498536,2|0,3:2|0:0,0:0:0:0:
103,342,49890,1,0,0:0:0:0:
103,342,49968,1,10,3:2:0:0:
40,274,50124,2,0,L|57:113,2,154.000004699707,0|2|0,0:0|0:2|0:0,0:0:0:0:
103,342,50906,6,0,L|179:340,1,77.0000023498536,0|0,3:2|3:2,0:0:0:0:
230,263,51218,2,0,L|306:261,1,77.0000023498536,8|8,3:2|3:2,0:0:0:0:
385,310,51531,1,8,3:1:0:0:
453,248,51687,1,8,3:1:0:0:
473,157,51843,1,8,3:1:0:0:
438,71,51999,1,8,3:1:0:0:
438,71,52077,1,0,0:0:0:0:
438,71,52156,6,0,L|301:90,1,120.750002303124,12|0,3:1|0:0,0:0:0:0:
273,122,52468,2,0,L|157:115,1,80.5000015354157,0|2,0:0|0:0,0:0:0:0:
157,27,52781,2,0,L|31:53,1,120.750002303124,8|0,3:2|0:0,0:0:0:0:
9,89,53093,2,0,B|41:117|41:117|33:221,1,120.750002303124,2|0,0:0|0:0,0:0:0:0:
26,243,53406,6,0,L|129:252,1,80.5000015354157,8|0,3:1|0:0,0:0:0:0:
157,331,53718,2,0,L|260:340,1,80.5000015354157,0|2,0:0|0:0,0:0:0:0:
333,352,54031,2,0,L|342:198,1,120.750002303124,8|0,3:2|0:0,0:0:0:0:
381,207,54343,2,0,B|423:192|423:192|421:85,1,120.750002303124,2|0,0:0|0:0,0:0:0:0:
402,70,54656,6,0,L|311:67,1,80.5000015354157,8|0,3:1|0:0,0:0:0:0:
236,22,54968,1,0,0:0:0:0:
236,22,55124,1,2,0:0:0:0:
145,58,55281,2,0,P|110:128|140:212,1,161.000003070831,8|2,3:2|0:0,0:0:0:0:
187,282,55749,1,0,0:0:0:0:
286,352,55906,5,8,3:1:0:0:
286,352,56062,2,0,B|323:323|323:323|458:340,1,161.000003070831,8|0,3:2|0:0,0:0:0:0:
488,255,56531,2,0,L|495:170,1,80.5000015354157,8|8,3:2|3:2,0:0:0:0:
425,107,56843,1,8,3:2:0:0:
465,19,56999,1,8,3:2:0:0:
343,17,57156,6,0,L|236:28,1,80.5000015354157,12|0,3:1|0:0,0:0:0:0:
181,76,57468,1,0,0:0:0:0:
181,76,57624,1,2,0:0:0:0:
91,38,57781,2,0,P|78:78|119:155,1,120.750002303124,8|0,3:2|0:0,0:0:0:0:
145,177,58093,2,0,B|183:197|183:197|172:306,1,120.750002303124,2|0,0:0|0:0,0:0:0:0:
170,323,58406,6,0,L|264:331,1,80.5000015354157,8|0,3:1|0:0,0:0:0:0:
330,276,58718,1,0,0:0:0:0:
330,276,58874,1,2,0:0:0:0:
396,346,59031,2,0,P|421:314|429:255,1,80.5000015354157,8|0,3:2|0:0,0:0:0:0:
467,186,59343,2,0,P|442:154|434:95,1,80.5000015354157,2|0,0:0|0:0,0:0:0:0:
502,16,59656,5,8,3:1:0:0:
406,30,59812,2,0,L|233:31,1,161.000003070831,0|2,0:0|0:0,0:0:0:0:
153,62,60281,2,0,P|189:116|189:148,1,80.5000015354157,8|0,3:2|0:0,0:0:0:0:
153,218,60593,2,0,P|117:272|117:304,2,80.5000015354157,2|0|8,0:0|0:0|3:1,0:0:0:0:
218,289,61062,6,0,B|256:318|256:318|394:291,1,161.000003070831,8|0,3:2|0:0,0:0:0:0:
455,345,61531,2,0,P|470:305|458:246,1,80.5000015354157,8|8,3:2|3:2,0:0:0:0:
413,178,61843,1,8,3:2:0:0:
460,89,61999,1,8,3:2:0:0:
364,10,62156,6,0,L|280:16,1,70,6|0,3:2|0:0,0:0:0:0:
219,53,62468,1,10,3:2:0:0:
219,53,62624,1,0,0:0:0:0:
267,122,62781,2,0,L|272:273,1,140,2|10,3:2|3:2,0:0:0:0:
221,328,63249,6,0,P|143:341|96:285,1,140,0|0,0:0|0:0,0:0:0:0:
36,250,63718,2,0,L|50:163,1,70,10|0,3:2|0:0,0:0:0:0:
117,134,64031,2,0,L|103:47,1,70,2|2,3:2|0:2,0:0:0:0:
179,25,64343,2,0,B|220:58|220:58|289:46,1,105,10|0,3:2|0:0,0:0:0:0:
313,57,64656,6,0,L|390:41,2,70,6|0|10,3:2|0:0|3:2,0:0:0:0:
285,136,65124,1,0,0:0:0:0:
360,174,65281,2,0,L|437:158,2,70,2|0|10,3:2|0:0|3:2,0:0:0:0:
344,256,65749,6,0,B|332:292|332:292|271:323|271:323|226:306,1,140
156,289,66218,2,0,P|142:253|149:219,1,70,10|2,3:2|3:2,0:0:0:0:
210,166,66531,2,0,P|224:130|217:96,1,70,2|2,3:2|3:2,0:0:0:0:
155,45,66843,1,10,3:2:0:0:
52,105,66999,6,0,B|29:137|29:137|53:254,1,140,6|0,2:2|0:0,0:0:0:0:
73,316,67468,2,0,L|175:317,1,70,10|0,3:2|0:0,0:0:0:0:
205,259,67781,2,0,P|242:275|269:323,1,70,2|0,3:2|0:0,0:0:0:0:
326,349,68093,2,0,P|363:333|390:285,1,70,10|0,3:2|0:0,0:0:0:0:
361,228,68406,5,2,3:2:0:0:
361,228,68562,1,0,0:0:0:0:
435,189,68718,2,0,L|437:108,1,70,10|0,3:2|0:0,0:0:0:0:
496,59,69031,2,0,P|419:40|353:95,1,140,2|10,3:2|3:2,0:0:0:0:
201,61,69656,6,0,B|152:92|152:92|84:78,1,105,6|0,3:2|0:0,0:0:0:0:
65,73,69968,2,0,P|54:105|73:165,1,70,10|0,3:2|0:0,0:0:0:0:
97,215,70281,2,0,P|108:247|89:307,2,70,2|0|10,3:2|0:0|3:2,0:0:0:0:
176,177,70749,6,0,L|340:193,1,140
393,218,71218,2,0,P|404:250|385:310,1,70,10|2,3:2|3:2,0:0:0:0:
334,339,71531,2,0,L|245:332,1,70,2|10,3:2|3:2,0:0:0:0:
186,364,71843,1,10,3:2:0:0:
67,351,71999,6,0,L|77:265,1,70,10|6,2:2|3:2,0:0:0:0:
82,197,72312,2,0,P|47:192|1:221,2,70,0|10|0,0:0|3:2|0:0,0:0:0:0:
149,146,72781,1,2,3:2:0:0:
98,78,72937,2,0,L|83:2,2,70,0|10|0,0:0|3:2|0:0,0:0:0:0:
149,146,73406,6,0,L|240:133,1,70,2|0,3:2|0:0,0:0:0:0:
275,74,73718,1,10,3:2:0:0:
344,27,73874,2,0,B|361:32|361:32|371:97,1,70,0|2,0:0|3:2,0:0:0:0:
429,142,74187,2,0,B|412:147|412:147|402:212,1,70,2|10,0:2|3:2,0:0:0:0:
466,255,74499,1,2,0:2:0:0:
367,323,74656,6,0,P|333:332|292:314,1,70,6|0,3:2|0:0,0:0:0:0:
248,255,74968,2,0,P|214:246|173:264,1,70,10|0,3:2|0:0,0:0:0:0:
128,321,75281,2,0,L|146:158,1,140,2|10,3:2|3:2,0:0:0:0:
155,96,75749,6,0,P|214:68|291:103,1,140
303,173,76218,2,0,L|396:177,1,70,10|2,3:2|3:2,0:0:0:0:
372,260,76531,2,0,L|279:256,1,70,2|2,3:2|3:2,0:0:0:0:
245,318,76843,1,10,3:2:0:0:
143,379,76999,6,0,P|124:347|122:312,1,70,6|2,2:2|3:2,0:0:0:0:
163,241,77312,1,0,0:0:0:0:
142,159,77468,2,0,L|58:173,1,70,10|0,3:2|0:0,0:0:0:0:
53,88,77781,2,0,L|200:63,1,140,2|10,3:2|3:2,0:0:0:0:
261,18,78249,6,0,P|305:47|336:134,1,140,0|0,0:0|0:0,0:0:0:0:
291,197,78718,1,10,3:2:0:0:
291,197,78874,1,0,0:0:0:0:
351,255,79031,2,0,P|362:301|348:345,1,70,2|2,3:2|0:2,0:0:0:0:
285,365,79343,2,0,P|274:319|288:275,1,70,10|2,3:2|0:2,0:0:0:0:
177,231,79656,6,0,L|46:250,1,105,6|0,3:2|0:0,0:0:0:0:
28,254,79968,2,0,P|22:222|40:164,1,70,10|0,3:2|0:0,0:0:0:0:
66,102,80281,2,0,P|86:76|142:53,1,70,2|0,3:2|0:0,0:0:0:0:
206,33,80593,1,10,3:2:0:0:
258,107,80749,6,0,B|292:134|292:134|412:118,1,140,0|0,0:0|0:0,0:0:0:0:
439,46,81218,2,0,L|427:212,1,140,10|2,3:2|3:2,0:0:0:0:
475,264,81687,1,10,3:2:0:0:
475,264,81765,1,10,3:2:0:0:
475,264,81843,1,10,3:2:0:0:
409,327,81999,1,10,2:2:0:0:
325,209,82156,6,0,L|228:222,1,77.0000023498536,6|0,3:2|0:0,0:0:0:0:
195,294,82468,2,0,L|98:281,1,77.0000023498536,10|0,3:2|0:0,0:0:0:0:
57,353,82781,2,0,B|87:321|87:321|75:188,1,154.000004699707,2|10,3:2|3:2,0:0:0:0:
22,135,83249,1,0,0:0:0:0:
66,53,83406,6,0,B|143:20|141:111|231:80,1,154.000004699707,2|10,3:2|3:2,0:0:0:0:
285,34,83874,2,0,L|459:29,1,154.000004699707,0|2,0:0|0:2,0:0:0:0:
497,101,84343,2,0,P|500:140|486:190,1,77.0000023498536,10|0,3:2|0:0,0:0:0:0:
460,264,84656,6,0,L|358:254,1,77.0000023498536,2|0,3:2|0:0,0:0:0:0:
316,319,84968,1,10,3:2:0:0:
229,351,85124,2,0,P|187:344|157:311,1,77.0000023498536,0|0,0:0|3:2,0:0:0:0:
81,366,85437,2,0,P|56:331|58:286,1,77.0000023498536,2|10,0:2|3:2,0:0:0:0:
12,216,85749,6,0,B|56:243|56:243|192:222,1,154.000004699707,0|0,0:0|0:0,0:0:0:0:
210,151,86218,2,0,P|272:154|335:203,1,115.50000352478,10|0,3:2|0:0,0:0:0:0:
351,212,86531,2,0,L|351:112,1,77.0000023498536,2|10,3:2|0:2,0:0:0:0:
395,54,86843,1,10,3:2:0:0:
479,153,86999,6,0,L|479:230,1,77.0000023498536,10|6,3:2|3:2,0:0:0:0:
507,318,87312,1,0,0:0:0:0:
422,354,87468,2,0,P|383:361|318:349,1,77.0000023498536,10|0,3:2|0:0,0:0:0:0:
309,271,87781,2,0,P|276:291|254:323,1,77.0000023498536,2|2,3:2|0:2,0:0:0:0:
191,256,88093,2,0,P|169:287|163:325,1,77.0000023498536,10|0,3:2|0:0,0:0:0:0:
74,350,88406,6,0,B|39:304|39:304|60:175,1,154.000004699707,2|10,3:2|3:2,0:0:0:0:
43,117,88874,2,0,P|107:135|180:74,1,154.000004699707,0|2,0:0|0:2,0:0:0:0:
210,2,89343,1,10,3:2:0:0:
332,46,89499,1,10,3:2:0:0:
420,17,89656,2,0,L|414:122,1,77.0000023498536,2|0,3:2|0:0,0:0:0:0:
441,132,89890,1,0,0:0:0:0:
441,132,89968,1,10,3:2:0:0:
490,209,90124,2,0,P|436:220|353:162,2,154.000004699707,0|2|0,0:0|0:2|0:0,0:0:0:0:
507,300,90906,6,0,P|468:313|426:310,1,77.0000023498536,0|0,3:2|3:2,0:0:0:0:
354,360,91218,2,0,P|315:347|273:350,1,77.0000023498536,8|8,3:2|3:2,0:0:0:0:
217,279,91531,1,8,3:1:0:0:
142,333,91687,1,8,3:1:0:0:
60,290,91843,1,8,3:1:0:0:
58,187,91999,1,8,3:1:0:0:
58,187,92077,1,0,0:0:0:0:
58,187,92156,6,0,L|55:51,1,120.750002303124,12|0,3:1|0:0,0:0:0:0:
76,21,92468,2,0,P|116:38|155:92,1,80.5000015354157,0|2,0:0|0:0,0:0:0:0:
207,135,92781,2,0,P|177:167|165:232,1,80.5000015354157,8|0,3:2|0:0,0:0:0:0:
241,261,93093,2,0,L|370:274,1,120.750002303124,2|0,0:0|0:0,0:0:0:0:
409,274,93406,6,0,P|439:242|451:177,1,80.5000015354157,8|0,3:1|0:0,0:0:0:0:
460,112,93718,2,0,L|355:118,1,80.5000015354157,0|2,0:0|0:0,0:0:0:0:
332,31,94031,2,0,B|302:69|302:69|214:56,1,120.750002303124,8|0,3:2|0:0,0:0:0:0:
183,48,94343,2,0,P|148:81|155:166,1,120.750002303124,2|0,0:0|0:0,0:0:0:0:
116,190,94656,6,0,P|127:231|113:289,1,80.5000015354157,8|0,3:1|0:0,0:0:0:0:
60,342,94968,1,0,0:0:0:0:
60,342,95124,1,2,0:0:0:0:
154,365,95281,2,0,L|327:353,1,161.000003070831,8|2,3:2|0:0,0:0:0:0:
410,343,95749,1,0,0:0:0:0:
471,238,95906,5,8,3:1:0:0:
471,238,96062,2,0,P|430:225|305:258,1,161.000003070831,8|0,3:2|0:0,0:0:0:0:
228,209,96531,2,0,P|194:227|133:233,1,80.5000015354157,8|8,3:2|3:2,0:0:0:0:
67,189,96843,1,8,3:2:0:0:
34,103,96999,1,8,3:2:0:0:
134,34,97156,6,0,L|225:46,1,80.5000015354157,12|0,3:1|0:0,0:0:0:0:
299,87,97468,1,0,0:0:0:0:
299,87,97624,1,2,0:0:0:0:
387,46,97781,2,0,L|513:27,1,120.750002303124,8|0,3:2|0:0,0:0:0:0:
508,76,98093,2,0,P|513:116|485:201,1,120.750002303124,2|0,0:0|0:0,0:0:0:0:
464,233,98406,6,0,L|376:223,1,80.5000015354157,8|0,3:1|0:0,0:0:0:0:
307,282,98718,1,0,0:0:0:0:
307,282,98874,1,2,0:0:0:0:
222,330,99031,2,0,P|209:293|217:239,1,80.5000015354157,8|0,3:2|0:0,0:0:0:0:
276,180,99343,2,0,P|289:143|281:89,1,80.5000015354157,2|0,0:0|0:0,0:0:0:0:
191,26,99656,5,8,3:1:0:0:
97,48,99812,2,0,B|60:70|60:70|78:220,1,161.000003070831,0|2,0:0|0:0,0:0:0:0:
157,236,100281,2,0,L|139:331,1,80.5000015354157,8|0,3:2|0:0,0:0:0:0:
62,370,100593,2,0,P|21:342|11:294,2,80.5000015354157,2|0|8,0:0|0:0|3:1,0:0:0:0:
142,315,101062,2,0,B|186:295|186:295|319:326,1,161.000003070831,8|0,3:2|0:0,0:0:0:0:
386,356,101531,2,0,P|412:317|416:273,1,80.5000015354157,8|8,3:2|3:2,0:0:0:0:
373,198,101843,1,8,3:2:0:0:
419,113,101999,1,8,3:2:0:0:
357,21,102156,6,0,P|314:17|248:50,1,97.9999970092774,6|0,3:2|0:0,0:0:0:0:
225,81,102468,2,0,L|118:53,1,97.9999970092774,10|0,3:2|0:0,0:0:0:0:
76,73,102781,6,0,B|58:97|58:97|89:199,1,97.9999970092774,2|0,3:2|0:0,0:0:0:0:
125,196,103093,2,0,B|143:220|143:220|112:322,1,97.9999970092774,10|0,3:2|0:0,0:0:0:0:
116,342,103406,6,0,P|92:354|35:349,2,48.9999985046387,2|0|0,3:2|0:0|0:0,0:0:0:0:
171,360,103718,2,0,P|195:348|252:353,2,48.9999985046387,10|0|0,3:2|0:0|0:0,0:0:0:0:
241,263,104031,6,0,P|294:305|301:361,1,110.249996635437,2|0,3:2|0:0,0:0:0:0:
341,365,104343,2,0,P|386:367|427:354,1,73.4999977569581,10|0,3:2|0:0,0:0:0:0:
450,274,104656,6,0,P|437:237|447:191,1,73.4999977569581,6|0,3:2|0:0,0:0:0:0:
448,115,104968,2,0,B|318:78|344:223|197:171,1,257.249992149353,10|0,3:2|0:0,0:0:0:0:
171,190,105593,1,10,3:2:0:0:
136,109,105749,6,0,P|94:147|103:247,1,146.999995513916,0|0,0:0|0:0,0:0:0:0:
134,311,106218,2,0,L|224:319,1,73.4999977569581,10|0,3:2|0:0,0:0:0:0:
278,264,106531,2,0,L|368:256,1,73.4999977569581,2|2,3:2|3:2,0:0:0:0:
431,293,106843,1,10,3:2:0:0:
431,293,106999,1,10,3:2:0:0:
473,215,107156,6,0,P|480:192|469:159,3,36.749998878479,6|0|0|0,3:2|0:0|0:0|0:0,0:0:0:0:
441,156,107468,2,0,P|434:133|445:100,3,36.749998878479,10|0|0|0,3:2|0:0|0:0|0:0,0:0:0:0:
477,105,107781,2,0,P|484:82|473:49,3,36.749998878479,2|0|2|0,3:2|0:0|0:0|0:0,0:0:0:0:
446,44,108093,2,0,P|439:21|450:-12,3,36.749998878479,10|0|0|0,3:2|0:0|0:0|0:0,0:0:0:0:
395,9,108406,6,0,P|356:10|296:32,1,73.4999977569581,2|0,3:2|0:0,0:0:0:0:
267,86,108718,2,0,P|228:85|168:63,1,73.4999977569581,10|0,3:2|0:0,0:0:0:0:
119,30,109031,1,2,3:2:0:0:
119,30,109187,1,2,0:0:0:0:
46,79,109343,2,0,L|58:166,1,73.4999977569581,10|0,3:2|0:0,0:0:0:0:
56,240,109656,6,0,B|104:271|104:271|217:248,1,146.999995513916,6|10,3:2|3:2,0:0:0:0:
234,175,110124,2,0,P|308:204|351:284,1,146.999995513916,0|2,0:0|0:0,0:0:0:0:
376,340,110593,1,10,3:2:0:0:
455,301,110749,1,0,0:0:0:0:
455,301,110827,1,0,0:0:0:0:
455,301,110906,6,0,L|458:250,3,36.749998878479,2|0|0|0,3:2|0:0|0:0|0:0,0:0:0:0:
480,226,111218,2,0,L|469:175,3,36.749998878479,10|0|0|0,3:2|0:0|0:0|0:0,0:0:0:0:
480,146,111531,2,0,L|440:67,1,73.4999977569581,2|2,3:2|3:2,0:0:0:0:
371,35,111843,1,10,3:2:0:0:
302,89,111999,1,10,3:2:0:0:
218,16,112156,6,0,L|77:21,1,110.249996635437,6|0,3:2|0:0,0:0:0:0:
69,41,112468,2,0,P|56:75|67:127,1,73.4999977569581,10|0,3:2|0:0,0:0:0:0:
131,163,112781,2,0,P|144:197|133:249,1,73.4999977569581,2|2,3:2|0:0,0:0:0:0:
66,281,113093,2,0,P|120:319|186:310,1,110.249996635437,10|0,3:2|0:0,0:0:0:0:
202,339,113406,6,0,L|297:333,1,73.4999977569581,2|0,3:2|0:0,0:0:0:0:
333,268,113718,2,0,L|428:274,1,73.4999977569581,10|0,3:2|0:0,0:0:0:0:
478,324,114031,2,0,P|432:277|455:189,1,146.999995513916,2|10,3:2|3:2,0:0:0:0:
484,123,114499,1,0,0:0:0:0:
484,123,114577,1,0,0:0:0:0:
484,123,114656,6,0,P|446:107|395:113,1,73.4999977569581,6|0,3:2|0:0,0:0:0:0:
330,134,114968,2,0,P|292:150|241:144,1,73.4999977569581,10|0,3:2|0:0,0:0:0:0:
180,110,115281,2,0,L|188:16,2,73.4999977569581,2|2|10,3:2|0:0|3:2,0:0:0:0:
98,142,115749,1,0,0:0:0:0:
98,142,115827,1,0,0:0:0:0:
98,142,115906,6,0,L|104:215,1,73.4999977569581,2|0,3:2|0:0,0:0:0:0:
67,295,116218,2,0,P|84:301|127:290,3,36.749998878479,10|0|0|0,3:2|0:0|0:0|0:0,0:0:0:0:
137,329,116531,2,0,B|177:306|177:306|295:326,1,146.999995513916,2|10,3:2|3:2,0:0:0:0:
361,344,116999,1,10,3:2:0:0:
436,263,117156,6,0,L|448:160,1,73.4999977569581,6|0,3:2|0:0,0:0:0:0:
463,103,117468,2,0,P|401:106|359:190,1,146.999995513916,10|2,3:2|3:2,0:0:0:0:
281,217,117937,1,2,0:0:0:0:
201,255,118093,2,0,L|97:245,1,73.4999977569581,10|0,3:2|0:0,0:0:0:0:
68,181,118406,6,0,L|78:77,1,73.4999977569581,2|0,3:2|0:0,0:0:0:0:
127,37,118718,2,0,P|155:32|214:73,1,73.4999977569581,10|0,3:2|0:0,0:0:0:0:
295,97,119031,1,2,3:2:0:0:
295,97,119187,2,0,L|389:79,1,73.4999977569581,2|10,0:0|3:2,0:0:0:0:
460,41,119499,6,0,L|449:209,1,146.999995513916,10|0,3:2|0:0,0:0:0:0:
508,254,119968,2,0,P|477:270|416:267,1,73.4999977569581,10|0,3:2|0:0,0:0:0:0:
378,337,120281,2,0,P|347:321|286:324,1,73.4999977569581,2|2,3:2|0:0,0:0:0:0:
238,265,120593,1,10,3:2:0:0:
181,332,120749,6,0,P|150:266|185:194,1,146.999995513916,0|0,0:0|0:0,0:0:0:0:
222,125,121218,2,0,L|318:135,1,73.4999977569581,10|0,3:2|0:0,0:0:0:0:
372,89,121531,2,0,L|375:28,3,36.749998878479,2|2|2|2,3:2|3:2|3:2|3:2,0:0:0:0:
406,22,121843,1,10,3:2:0:0:
487,54,121999,1,8,3:2:0:0:
480,164,122156,6,0,L|475:243,1,77.0000023498536,4|0,3:2|0:0,0:0:0:0:
466,332,122468,1,8,3:2:0:0:
379,363,122624,2,0,L|224:348,1,154.000004699707,0|0,0:0|3:2,0:0:0:0:
182,266,123093,1,10,3:2:0:0:
91,337,123249,6,0,P|64:264|105:179,1,154.000004699707,4|0,3:2|3:2,0:0:0:0:
156,131,123718,2,0,P|120:102|11:127,2,154.000004699707,8|2|8,3:2|3:2|3:2,0:0:0:0:
245,107,124499,1,0,0:0:0:0:
267,197,124656,6,0,P|305:214|330:212,3,38.5000011749268,4|0|0|0,3:2|0:0|0:0|0:0,0:0:0:0:
341,190,124968,2,0,P|379:173|404:175,3,38.5000011749268,8|0|0|0,3:2|0:0|0:0|0:0,0:0:0:0:
420,184,125281,2,0,L|431:288,1,77.0000023498536,0|0,3:2|0:0,0:0:0:0:
498,319,125593,2,0,P|471:345|402:345,1,77.0000023498536,8|0,3:2|0:0,0:0:0:0:
351,309,125906,6,0,L|251:294,2,77.0000023498536,0|0|8,3:2|3:2|3:2,0:0:0:0:
428,260,126374,2,0,L|420:184,1,77.0000023498536,0|0,0:0|3:2,0:0:0:0:
484,117,126687,1,0,3:2:0:0:
484,117,126843,1,8,3:2:0:0:
405,34,126999,6,0,L|237:41,1,154.000004699707,4|0,3:2|3:2,0:0:0:0:
179,101,127468,1,8,3:2:0:0:
139,17,127624,2,0,P|91:77|114:165,1,154.000004699707,0|0,0:0|3:2,0:0:0:0:
43,221,128093,1,10,3:2:0:0:
142,291,128249,6,0,B|197:274|242:291|242:291|213:307|202:327,1,154.000004699707,4|0,3:2|3:2,0:0:0:0:
281,375,128718,1,8,3:2:0:0:
346,309,128874,2,0,L|352:141,1,154.000004699707,0|0,0:0|3:2,0:0:0:0:
430,106,129343,1,8,3:2:0:0:
365,22,129499,1,0,0:0:0:0:
365,22,129577,1,0,0:0:0:0:
365,22,129656,6,0,L|266:33,1,77.0000023498536,4|0,3:2|0:0,0:0:0:0:
233,104,129968,2,0,L|134:93,1,77.0000023498536,8|0,3:2|0:0,0:0:0:0:
93,27,130281,2,0,B|123:54|123:54|104:187,1,154.000004699707,0|8,3:2|3:2,0:0:0:0:
44,234,130749,6,0,P|76:258|141:262,2,77.0000023498536,4|0|0,3:2|3:2|0:0,0:0:0:0:
0,152,131218,2,0,L|14:68,1,77.0000023498536,0|8,3:2|3:2,0:0:0:0:
93,27,131531,2,0,L|192:39,1,77.0000023498536,8|8,3:2|3:2,0:0:0:0:
237,100,131843,1,8,3:2:0:0:
336,27,131999,6,0,P|363:78|331:190,1,154.000004699707,4|0,3:2|3:2,0:0:0:0:
374,258,132468,1,8,3:2:0:0:
359,350,132624,2,0,B|315:345|291:307|291:307|266:347|212:357,1,154.000004699707,0|0,0:0|3:2,0:0:0:0:
203,263,133093,1,10,3:2:0:0:
123,327,133249,6,0,P|97:266|139:183,1,154.000004699707,4|0,3:2|3:2,0:0:0:0:
201,129,133718,2,0,B|246:171|246:171|370:155,2,154.000004699707,8|2|8,3:2|3:2|3:2,0:0:0:0:
141,58,134499,1,0,0:0:0:0:
54,23,134656,6,0,P|47:40|47:83,3,38.5000011749268,4|0|0|0,3:2|0:0|0:0|0:0,0:0:0:0:
60,102,134968,2,0,P|67:119|67:162,3,38.5000011749268,8|0|0|0,3:2|0:0|0:0|0:0,0:0:0:0:
47,179,135281,2,0,L|40:273,1,77.0000023498536,0|0,3:2|0:0,0:0:0:0:
36,347,135593,2,0,P|72:344|120:301,1,77.0000023498536,8|0,3:2|0:0,0:0:0:0:
174,259,135906,6,0,P|192:259|231:276,3,38.5000011749268,0|0|0|0,3:2|0:0|3:2|0:0,0:0:0:0:
245,295,136218,2,0,P|263:295|302:278,3,38.5000011749268,8|0|0|0,3:2|0:0|0:0|0:0,0:0:0:0:
329,293,136531,2,0,L|334:216,1,77.0000023498536,0|0,3:2|3:2,0:0:0:0:
390,142,136843,1,8,3:2:0:0:
409,20,136999,6,0,P|327:29|274:95,1,154.000004699707,4|0,3:2|3:2,0:0:0:0:
195,117,137468,1,8,3:2:0:0:
233,201,137624,2,0,L|246:370,1,154.000004699707,0|0,0:0|3:2,0:0:0:0:
337,362,138093,1,10,3:2:0:0:
472,318,138249,6,0,B|395:316|416:245|319:259,1,154.000004699707,4|0,3:2|3:2,0:0:0:0:
257,307,138718,2,0,L|172:310,1,77.0000023498536,8|0,3:2|0:0,0:0:0:0:
101,359,139031,2,0,P|86:316|89:268,1,77.0000023498536,2|0,3:2|3:2,0:0:0:0:
96,193,139343,1,8,3:2:0:0:
148,46,139656,6,0,P|166:58|210:65,5,38.5000011749268,12|0|0|0|0|0,3:1|3:2|3:2|3:2|3:2|3:2,0:0:0:0:
220,88,140124,2,0,P|238:76|282:69,5,38.5000011749268,12|0|0|0|0|0,3:1|3:2|3:2|3:2|3:2|3:2,0:0:0:0:
298,85,140593,2,0,P|343:125|407:121,1,115.50000352478,12|0,3:1|3:2,0:0:0:0:
430,94,140906,5,0,3:2:0:0:
394,64,142156,6,0,P|393:138|348:192,1,120.750002303124,12|0,3:1|0:0,0:0:0:0:
324,191,142468,2,0,L|338:302,1,80.5000015354157,0|2,0:0|0:0,0:0:0:0:
388,351,142781,2,0,P|340:369|265:332,1,120.750002303124,8|0,3:2|0:0,0:0:0:0:
247,308,143093,2,0,P|214:294|141:342,1,120.750002303124,2|0,0:0|0:0,0:0:0:0:
121,374,143406,5,8,3:1:0:0:
64,295,143562,2,0,L|52:119,1,161.000003070831,0|2,0:0|0:0,0:0:0:0:
68,24,144031,2,0,P|115:36|147:79,1,80.5000015354157,8|0,3:2|0:0,0:0:0:0:
199,131,144343,2,0,P|246:119|278:76,1,80.5000015354157,2|0,0:0|0:0,0:0:0:0:
327,20,144656,6,0,L|420:27,1,80.5000015354157,8|0,3:1|0:0,0:0:0:0:
481,88,144968,1,0,0:0:0:0:
481,88,145124,1,2,0:0:0:0:
428,200,145281,2,0,B|381:166|381:166|390:297,1,161.000003070831,8|2,3:2|0:0,0:0:0:0:
454,338,145749,1,0,0:0:0:0:
328,364,145906,5,8,3:1:0:0:
328,364,146062,2,0,L|157:343,1,161.000003070831,8|0,3:2|0:0,0:0:0:0:
77,379,146531,2,0,P|73:333|88:288,1,80.5000015354157,8|8,3:2|3:2,0:0:0:0:
155,237,146843,1,8,3:2:0:0:
126,144,146999,1,8,3:2:0:0:
202,43,147156,6,0,L|292:55,1,80.5000015354157,12|0,3:1|0:0,0:0:0:0:
361,107,147468,1,0,0:0:0:0:
361,107,147624,1,2,0:0:0:0:
421,31,147781,2,0,P|460:97|440:168,1,120.750002303124,8|0,3:2|0:0,0:0:0:0:
449,186,148093,2,0,B|415:212|415:212|439:322,1,120.750002303124,2|0,0:0|0:0,0:0:0:0:
438,336,148406,6,0,L|339:308,1,80.5000015354157,8|0,3:1|0:0,0:0:0:0:
273,355,148718,1,0,0:0:0:0:
273,355,148874,1,2,0:0:0:0:
230,267,149031,2,0,P|193:271|151:294,1,80.5000015354157,8|0,3:2|0:0,0:0:0:0:
91,363,149343,2,0,P|54:359|12:336,1,80.5000015354157,2|0,0:0|0:0,0:0:0:0:
47,221,149656,5,8,3:1:0:0:
19,128,149812,2,0,P|103:138|144:201,1,161.000003070831,0|2,0:0|0:0,0:0:0:0:
231,265,150281,2,0,L|323:260,1,80.5000015354157,8|0,3:2|0:0,0:0:0:0:
372,335,150593,2,0,L|452:339,1,80.5000015354157,2|0,0:0|0:0,0:0:0:0:
473,244,150906,6,0,L|484:85,1,120.750002303124,8|0,3:1|0:0,0:0:0:0:
484,75,151218,2,0,P|418:57|352:101,1,120.750002303124,8|0,3:2|0:0,0:0:0:0:
351,120,151531,2,0,L|262:114,1,80.5000015354157,8|8,3:2|3:2,0:0:0:0:
205,43,151843,1,8,3:2:0:0:
205,43,151999,1,8,3:2:0:0:
67,39,152156,6,0,P|70:80|93:115,1,83.9999974365235,12|0,3:1|0:0,0:0:0:0:
176,172,152468,2,0,P|172:213|149:248,1,83.9999974365235,8|0,3:1|0:0,0:0:0:0:
97,335,152781,2,0,L|-17:326,2,83.9999974365235,8|0|8,3:1|0:0|3:1,0:0:0:0:
196,346,153249,1,0,0:0:0:0:
321,268,153406,6,0,L|234:259,1,83.9999974365235,8|0,3:1|0:0,0:0:0:0:
176,172,153718,2,0,L|343:187,1,167.999994873047,8|8,3:1|3:1,0:0:0:0:
425,246,154187,1,0,0:0:0:0:
489,165,154343,2,0,P|499:130|482:73,1,83.9999974365235,8|0,3:1|0:0,0:0:0:0:
371,11,154656,6,0,L|267:6,1,83.9999974365235,8|0,3:1|0:0,0:0:0:0:
220,82,154968,2,0,L|116:87,1,83.9999974365235,8|0,3:1|0:0,0:0:0:0:
57,149,155281,2,0,P|35:108|44:44,2,83.9999974365235,8|0|8,3:1|0:0|3:1,0:0:0:0:
152,179,155749,1,0,0:0:0:0:
61,282,155906,6,0,L|159:292,1,83.9999974365235,8|0,3:1|0:0,0:0:0:0:
226,348,156218,2,0,P|303:323|312:238,1,167.999994873047,8|8,3:1|3:1,0:0:0:0:
262,158,156687,2,0,L|257:61,1,83.9999974365235,0|8,3:0|3:1,0:0:0:0:
336,0,156999,1,0,3:0:0:0:
190,1,157156,6,0,P|162:33|166:100,1,83.9999974365235,12|0,3:2|0:0,0:0:0:0:
98,154,157468,2,0,L|114:249,1,83.9999974365235,8|0,3:2|0:0,0:0:0:0:
193,296,157781,2,0,L|286:311,2,83.9999974365235,8|0|8,3:2|0:0|3:2,0:0:0:0:
117,362,158249,1,0,0:0:0:0:
111,236,158406,6,0,L|98:154,1,83.9999974365235,8|0,3:2|0:0,0:0:0:0:
18,92,158718,2,0,P|63:56|171:88,1,167.999994873047,8|8,3:2|3:2,0:0:0:0:
232,153,159187,1,0,0:0:0:0:
292,233,159343,2,0,L|375:227,1,83.9999974365235,8|0,3:2|0:0,0:0:0:0:
474,154,159656,6,0,P|443:123|400:113,1,83.9999974365235,0|0,3:1|3:1,0:0:0:0:
345,32,159968,2,0,L|261:26,1,83.9999974365235,0|0,3:1|3:1,0:0:0:0:
160,12,160281,2,0,P|163:58|204:103,2,83.9999974365235,0|0|0,3:1|3:1|3:1,0:0:0:0:
59,13,160749,1,0,3:0:0:0:
20,163,160906,6,0,L|177:177,1,125.999996154785,0|0,3:1|3:0,0:0:0:0:
186,203,161218,2,0,B|220:176|220:176|329:189,1,125.999996154785,8|8,3:3|3:3,0:0:0:0:
340,219,161531,2,0,L|313:323,1,83.9999974365235,4|4,3:3|3:3,0:0:0:0:
400,359,161843,1,0,3:3:0:0:
450,271,161999,1,0,3:3:0:0:
450,271,162077,1,0,3:3:0:0:
450,271,162156,5,12,3:1:0:0:
