osu file format v14

[General]
AudioFilename: audio.mp3
AudioLeadIn: 0
PreviewTime: -1
Countdown: 0
SampleSet: None
StackLeniency: 0.7
Mode: 0
LetterboxInBreaks: 0
WidescreenStoryboard: 0

[Editor]
Bookmarks: 44977,46422
DistanceSpacing: 1
BeatDivisor: 4
GridSize: 4
TimelineZoom: 1.950001

[Metadata]
Title:Camouflage
TitleUnicode:Camouflage
Artist:Sabaton
ArtistUnicode:Sabaton
Creator:AirsoftSniperz
Version:Normal
Source:
Tags:Sabaton Metal Camouflage
BeatmapID:1170656
BeatmapSetID:552810

[Difficulty]
HPDrainRate:6
CircleSize:4
OverallDifficulty:5
ApproachRate:7
SliderMultiplier:2.99999990463257
SliderTickRate:4

[Events]
//Background and Video events
0,0,"point-to-jungle.jpg",0,0
//Break Periods
//Storyboard Layer 0 (Background)
//Storyboard Layer 1 (Fail)
//Storyboard Layer 2 (Pass)
//Storyboard Layer 3 (Foreground)
//Storyboard Sound Samples

[TimingPoints]
1271.15347009137,888.884126278346,4,3,0,100,1,0
29200,444.444444444444,4,3,0,100,1,0

[HitObjects]
200,232,279,6,0,P|336:96|320:112,3,149.999995231629
416,64,2160,2,0,B|472:208|424:256|440:240,1,149.999995231629
352,272,3048,1,0,0:0:0:0:
192,272,3493,1,0,0:0:0:0:
88,240,3937,2,0,B|40:88|72:16|80:32,1,149.999995231629
176,96,4826,2,0,B|176:272|208:320|224:288,1,149.999995231629
320,248,5715,1,0,0:0:0:0:
440,176,6160,1,0,0:0:0:0:
352,72,6604,2,0,B|176:80|112:152|96:168,1,149.999995231629
88,184,7493,1,0,0:0:0:0:
184,248,7937,1,0,0:0:0:0:
80,312,8382,1,0,0:0:0:0:
216,312,8826,2,0,B|416:264|480:200|480:208,1,149.999995231629
448,168,9715,1,0,0:0:0:0:
360,104,10159,2,0,B|200:56|104:88|120:64,1,149.999995231629
104,144,11048,1,0,0:0:0:0:
208,216,11493,1,0,0:0:0:0:
112,288,11937,1,0,0:0:0:0:
240,288,12382,1,0,0:0:0:0:
376,224,12826,2,0,P|488:128|456:56,1,149.999995231629
440,72,13715,2,0,P|208:48|184:64,1,149.999995231629
160,72,14604,2,0,B|32:200|64:352|96:368|272:328|248:256|216:216,1,449.999985694885
176,144,16382,5,0,0:0:0:0:
312,104,16826,1,0,0:0:0:0:
448,144,17271,2,0,B|496:288|400:360|344:352|336:344,1,149.999995231629
336,352,18159,1,0,0:0:0:0:
160,296,18604,1,0,0:0:0:0:
104,168,19048,2,0,P|208:48|280:96,1,149.999995231629
352,32,19937,2,0,P|472:152|472:160,1,149.999995231629
440,232,20826,2,0,P|312:352|304:352,1,149.999995231629
168,312,21715,1,0,0:0:0:0:
88,208,22159,1,0,0:0:0:0:
184,112,22604,1,0,0:0:0:0:
320,112,23048,1,0,0:0:0:0:
120,128,23493,2,0,P|240:240|304:240,1,149.999995231629
320,240,24382,2,0,P|456:128|464:96,1,149.999995231629
384,64,25271,2,0,P|232:40|176:72,1,149.999995231629
96,96,26159,2,0,P|336:304|360:312,1,299.999990463257
416,176,27493,1,0,0:0:0:0:
328,80,27937,1,0,0:0:0:0:
256,192,28382,1,0,0:0:0:0:
256,192,28826,12,0,30604,0:0:0:0:
128,100,31866,5,0,0:0:0:0:
244,104,32311,1,0,0:0:0:0:
184,184,32755,1,0,0:0:0:0:
216,280,33199,2,0,P|132:272|80:224,2,149.999995231629
104,112,34199,2,0,P|192:112|264:112,1,149.999995231629
264,120,34977,1,0,0:0:0:0:
96,88,35755,2,0,P|200:168|192:200,1,149.999995231629
112,184,36422,2,0,P|184:260|248:236,1,149.999995231629
218,255,36755,1,0,0:0:0:0:
256,184,37199,1,0,0:0:0:0:
256,184,37644,1,0,0:0:0:0:
404,196,39311,5,0,0:0:0:0:
404,196,39422,1,0,0:0:0:0:
408,200,39866,2,0,P|332:252|260:244,1,149.999995231629
