osu file format v14

[General]
AudioFilename: audio.mp3
AudioLeadIn: 0
PreviewTime: 151939
Countdown: 0
SampleSet: Soft
StackLeniency: 0.7
Mode: 0
LetterboxInBreaks: 0
WidescreenStoryboard: 1

[Editor]
DistanceSpacing: 0.5
BeatDivisor: 4
GridSize: 8
TimelineZoom: 1.199999

[Metadata]
Title:Bismarck
TitleUnicode:Bismarck
Artist:Sabaton
ArtistUnicode:Sabaton
Creator:l1mi
Version:Easiest
Source:
Tags:
BeatmapID:2642975
BeatmapSetID:982432

[Difficulty]
HPDrainRate:0
CircleSize:3.6
OverallDifficulty:6
ApproachRate:8.3
SliderMultiplier:1.4
SliderTickRate:1

[Events]
//Background and Video events
0,0,"fsdghdgh.jpg",0,0
//Break Periods
//Storyboard Layer 0 (Background)
//Storyboard Layer 1 (Fail)
//Storyboard Layer 2 (Pass)
//Storyboard Layer 3 (Foreground)
//Storyboard Layer 4 (Overlay)
//Storyboard Sound Samples

[TimingPoints]
72518,631.578947368421,4,2,1,25,1,0
75044,-100,4,2,1,50,0,0
81202,-100,4,2,1,5,0,0
81360,-100,4,2,1,50,0,0
81675,-100,4,2,1,30,0,0
81991,-100,4,2,1,50,0,0
83096,-100,4,2,1,40,0,0
83254,-100,4,2,1,50,0,0
83413,-100,4,2,1,5,0,0
83571,-100,4,2,1,50,0,0
87360,-100,4,2,1,5,0,0
87518,-100,4,2,1,40,0,0
87675,-100,4,2,1,50,0,0
88781,-100,4,2,1,5,0,0
88939,-100,4,2,1,50,0,0
90991,-100,4,2,1,5,0,0
91149,-100,4,2,1,50,0,0
97307,-100,4,2,1,40,0,0
97465,-100,4,2,1,50,0,0
99518,-100,4,2,1,40,0,0
99676,-100,4,2,1,50,0,0
100150,-100,4,2,1,40,0,0
100308,-100,4,2,1,50,0,0
100781,-100,4,2,1,40,0,0
100939,-100,4,2,1,50,0,0
103149,-100,4,2,1,30,0,0
103465,-100,4,2,1,50,0,0
103939,-100,4,2,1,40,0,0
104096,-100,4,2,1,50,0,0
104570,-100,4,2,1,40,0,0
104728,-100,4,2,1,50,0,0
107254,-100,4,2,1,40,0,0
107412,-100,4,2,1,5,0,0
107570,-100,4,2,1,50,0,0
112149,-100,4,2,1,5,0,0
112307,-100,4,2,1,50,0,0
115939,-100,4,2,1,40,0,0
116097,-100,4,2,1,50,0,0
117044,-100,4,2,1,35,0,0
117360,-100,4,2,1,50,0,0
117518,-100,4,2,1,35,0,0
117675,-100,4,2,1,50,0,0
123044,-100,4,2,1,50,0,0
126675,-100,4,2,1,5,0,0
126833,-100,4,2,1,50,0,0
129281,-1000,4,2,1,5,0,0
129360,-100,4,2,1,50,0,0
132992,-100,4,2,1,5,0,0
133150,-100,4,2,1,50,0,0
138044,-100,4,2,1,5,0,0
138202,-100,4,2,1,50,0,0
138360,-100,4,2,1,5,0,0
138518,-100,4,2,1,50,0,0
140018,-1000,4,2,1,50,0,0
140254,-66.6666666666667,4,2,1,50,0,0
140413,-100,4,2,1,50,0,0
141833,-100,4,2,1,5,0,0
141991,-100,4,2,1,50,0,0
142544,-1000,4,2,1,5,0,0
142623,-66.6666666666667,4,2,1,50,0,0
143255,-100,4,2,1,50,0,0
147518,-100,4,2,1,25,0,0
147675,-100,4,2,1,50,0,0
151781,-100,4,2,1,5,0,0
152097,-100,4,2,1,40,0,0
152254,-100,4,2,1,15,0,0
152570,-100,4,2,1,25,0,0
152729,-100,4,2,1,40,0,0
153360,-100,4,2,1,50,0,0
154465,-100,4,2,1,5,0,0
154623,-100,4,2,1,50,0,0
155096,-100,4,2,1,5,0,0
155254,-100,4,2,1,50,0,0
155570,-100,4,2,1,25,0,0
155886,-100,4,2,1,50,0,0
156360,-100,4,2,1,5,0,0
156518,-100,4,2,1,50,0,0
156992,-100,4,2,1,5,0,0
157150,-100,4,2,1,50,0,0
158887,-100,4,2,1,5,0,0
159045,-100,4,2,1,50,0,0
159360,-100,4,2,1,5,0,0
159518,-100,4,2,1,40,0,0
159675,-100,4,2,1,50,0,0
160150,-100,4,2,1,5,0,0
160308,-100,4,2,1,50,0,0
160781,-100,4,2,1,40,0,0
160939,-100,4,2,1,50,0,0
161886,-100,4,2,1,5,0,0
162044,-100,4,2,1,50,0,0
162992,-100,4,2,1,5,0,0
163150,-100,4,2,1,50,0,0
163781,-250,4,2,1,5,0,0
163939,-250,4,2,1,40,0,0
164097,-100,4,2,1,50,0,0
164570,-100,4,2,1,40,0,0
164650,-100,4,2,1,5,0,0
164729,-100,4,2,1,50,0,0
165833,-100,4,2,1,5,0,0
165991,-100,4,2,1,50,0,0
168991,-100,4,2,1,25,0,0
169149,-100,4,2,1,50,0,0
169623,-100,4,2,1,5,0,0
169781,-100,4,2,1,50,0,0
170255,-100,4,2,1,5,0,0
170412,-100,4,2,1,40,0,0
170728,-100,4,2,1,5,0,0
171045,-100,4,2,1,50,0,0
174044,-100,4,2,1,5,0,0
174202,-100,4,2,1,50,0,0
177833,-100,4,2,1,5,0,0
177991,-100,4,2,1,50,0,0
178939,-100,4,2,1,5,0,0
179096,-100,4,2,1,50,0,0
182255,-100,4,2,1,5,0,0
182413,-100,4,2,1,50,0,0
183202,-100,4,2,1,5,0,0
183360,-100,4,2,1,50,0,0
186675,-100,4,2,1,40,0,0
186833,-100,4,2,1,50,0,0
189202,-100,4,2,1,40,0,0
189360,-100,4,2,1,50,0,0
190465,-100,4,2,1,40,0,0
190623,-100,4,2,1,50,0,0
192360,-100,4,2,1,5,0,0
192518,-100,4,2,1,50,0,0
193623,-100,4,2,1,5,0,0
193781,-100,4,2,1,50,0,0
194570,-100,4,2,1,5,0,0
194728,-100,4,2,1,50,0,0
197412,-100,4,2,1,5,0,0
197570,-100,4,2,1,50,0,0
198202,-66.6666666666667,4,2,1,50,0,0
198834,-100,4,2,1,50,0,0
201518,-100,4,2,1,40,0,0
201675,-100,4,2,1,50,0,0
202149,-100,4,2,1,40,0,0
202307,-100,4,2,1,50,0,0
202465,-100,4,2,1,5,0,0
202623,-100,4,2,1,5,0,0
202781,-100,4,2,1,5,0,0
202939,-100,4,2,1,50,0,0
207360,-100,4,2,1,40,0,0
207992,-100,4,2,1,25,0,0
208623,-100,4,2,1,40,0,0
208939,-400,4,2,1,50,0,0
209254,-666.666666666667,4,2,1,50,0,0
209571,-100,4,2,1,50,0,0
210045,-100,4,2,1,5,0,0
210202,-100,4,2,1,50,0,0
210675,-100,4,2,1,5,0,0
210834,-400,4,2,1,50,0,0
211150,-100,4,2,1,50,0,0
213991,-100,4,2,1,5,0,0
214386,-100,4,2,1,15,0,0
214781,-100,4,2,1,10,0,0
215018,-100,4,2,1,20,0,0
215254,-100,4,2,1,60,0,0
215570,-100,4,2,1,50,0,0
216833,-100,4,2,1,60,0,0
217149,-100,4,2,1,50,0,0
217623,-100,4,2,1,5,0,0
217781,-100,4,2,1,50,0,0
217992,-100,4,2,1,5,0,0
218097,-100,4,2,1,50,0,0
218649,-200,4,2,1,5,0,0
218728,-100,4,2,1,50,0,0
219044,-100,4,2,1,50,0,0
219360,-100,4,2,1,5,0,0
219675,-100,4,2,1,50,0,0
286623,-80,4,2,1,50,0,0
287097,-80,4,2,1,5,0,0
287255,-80,4,2,1,50,0,0
287729,-80,4,2,1,5,0,0
287887,-80,4,2,1,50,0,0
288360,-80,4,2,1,5,0,0
288518,-80,4,2,1,50,0,0
288992,-80,4,2,1,5,0,0
289150,-80,4,2,1,50,0,0
289623,-80,4,2,1,5,0,0
289781,-80,4,2,1,50,0,0
290255,-80,4,2,1,5,0,0
290413,-80,4,2,1,50,0,0
290887,-80,4,2,1,5,0,0
291044,-80,4,2,1,50,0,0
291518,-80,4,2,1,5,0,0
291676,-80,4,2,1,50,0,0
292150,-80,4,2,1,5,0,0
292308,-80,4,2,1,50,0,0
292781,-80,4,2,1,5,0,0
292939,-80,4,2,1,50,0,0
294676,-80,4,2,1,5,0,0
294834,-80,4,2,1,50,0,0
295939,-80,4,2,1,5,0,0
296097,-80,4,2,1,50,0,0
299150,-80,4,2,1,5,0,0
299255,-100,4,2,1,50,0,0
301623,-100,4,2,1,5,0,0
301781,-100,4,2,1,50,0,0
306676,-100,4,2,1,5,0,0
306834,-100,4,2,1,50,0,0
311097,-100,4,2,1,5,0,0
311255,-66.6666666666667,4,2,1,50,0,0
311729,-66.6666666666667,4,2,1,5,0,0
311887,-100,4,2,1,50,0,0
316781,-100,4,2,1,5,0,0
316939,-100,4,2,1,50,0,0

[Colours]
Combo1 : 176,0,0
Combo2 : 192,192,192

[HitObjects]
207,233,72518,6,0,P|270:252|313:201,3,140
313,201,75044,5,0,0:0:0:0:
250,134,75360,2,0,P|232:132|217:140,1,35
173,176,75676,2,0,P|140:187|109:173,1,70
0,75,76308,2,0,P|67:84|112:136,1,140
78,302,77571,5,0,0:0:0:0:
141,369,77887,2,0,P|158:370|173:362,1,35
213,322,78203,2,0,P|245:310|280:315,1,70
422,255,78834,2,0,P|418:220|438:192,1,70,0|0,2:0|2:0,2:0:0:0:
494,138,79308,2,0,P|497:154|489:172,1,35,0|0,2:0|2:0,2:0:0:0:
312,281,79781,5,0,0:0:0:0:
312,281,79939,5,0,0:0:0:0:
312,281,80097,6,0,P|250:265|260:202,1,140
344,31,81044,2,0,P|325:32|312:43,1,35
280,80,81360,2,0,P|250:97|215:95,1,70
121,68,81992,2,0,P|91:37|133:33,1,105
186,157,82623,6,0,P|186:140|170:121,3,35
104,149,83255,2,0,P|122:147|138:153,1,35
221,232,83571,2,0,P|288:240|336:193,1,140
232,52,84518,1,0,0:0:0:0:
232,52,84834,2,0,P|249:51|265:44,1,35
270,16,85150,6,0,P|203:14|173:73,1,140
101,248,86097,2,0,P|117:240|134:238,1,35
210,266,86413,2,0,B|244:277|265:243|276:252,1,70
352,273,86887,2,0,P|358:289|371:300,1,35
472,101,87518,1,0,0:0:0:0:
472,101,87676,6,0,P|454:101|440:90,1,35
374,50,87992,2,0,P|361:61|344:67,1,35
271,93,88308,2,0,B|244:112|208:88|208:88|185:96,1,70
31,69,88939,2,0,P|82:61|119:79,1,70
127,85,89413,5,0,0:0:0:0:
127,85,89571,5,0,0:0:0:0:
102,339,89887,1,0,0:0:0:0:
102,339,90044,1,0,0:0:0:0:
180,307,90202,2,0,P|197:306|213:311,1,35
277,367,90518,2,0,P|289:354|304:346,1,35
397,351,90834,2,0,P|399:334|387:321,1,35
387,321,91150,2,0,P|344:268|276:270,1,140
251,293,92097,5,0,0:0:0:0:
143,245,92571,5,0,0:0:0:0:
214,289,92729,6,0,B|231:291|231:291|248:285,1,35
269,173,93044,2,0,B|276:157|276:157|291:147,1,35
314,244,93360,1,0,0:0:0:0:
396,51,93676,2,0,P|425:111|396:172,1,140
145,121,94939,2,0,P|144:139|149:156,1,35
205,218,95255,5,0,0:0:0:0:
202,216,96833,6,0,P|205:238|223:225,2,35
213,202,97307,5,0,0:0:0:0:
230,199,97465,5,0,0:0:0:0:
245,206,97623,5,0,0:0:0:0:
271,227,97781,6,0,P|334:252|391:216,1,140
416,135,98728,1,0,0:0:0:0:
365,67,99044,2,0,B|326:51|316:90|263:66,1,105
263,66,99675,2,0,P|214:80|158:66,1,105
162,68,100307,6,0,P|174:111|129:112,1,105
106,106,100939,2,0,P|89:137|118:155,2,70
262,192,101886,2,0,P|279:191|296:193,1,35
340,208,102202,1,0,0:0:0:0:
455,350,102518,2,0,P|438:355|420:354,1,35
376,342,102833,6,0,P|341:337|297:343,1,70
217,360,103465,1,0,0:0:0:0:
127,345,103781,2,0,B|122:307|122:309,1,35
86,282,104096,2,0,L|78:212,1,70
75,166,104570,5,0,0:0:0:0:
75,166,104728,6,0,B|110:173|110:173|143:166,1,70
237,133,105360,6,0,P|202:128|169:140,2,70
454,227,106465,6,0,P|472:229|489:224,1,35
427,84,106939,5,0,0:0:0:0:
427,84,107096,6,0,B|461:87,2,35
348,49,107570,5,0,0:0:0:0:
348,49,107728,5,0,0:0:0:0:
348,49,107886,6,0,P|281:33|222:67,1,140
43,134,108833,2,0,P|39:116|42:99,1,35
65,62,109149,2,0,B|100:73|100:73|134:67,1,70
233,27,109623,5,0,0:0:0:0:
233,27,109781,6,0,L|185:22,2,35
313,109,110254,1,0,0:0:0:0:
313,109,110412,6,0,P|329:112|346:109,2,35
168,84,110886,1,0,0:0:0:0:
232,27,111044,2,0,P|267:22|300:31,1,70
409,173,111675,2,0,P|458:180|489:140,1,105
489,111,112307,1,0,0:0:0:0:
435,277,112623,1,0,0:0:0:0:
492,352,112939,5,0,0:0:0:0:
492,351,113570,2,0,P|463:371|428:371,1,70
355,331,114044,5,0,0:0:0:0:
355,331,114202,6,0,P|320:331|291:350,1,70
211,368,114675,1,0,0:0:0:0:
147,314,114833,2,0,P|153:280|180:258,1,70
72,144,115465,6,0,P|91:172|88:207,1,70
69,236,115939,1,0,0:0:0:0:
54,63,116254,5,0,0:0:0:0:
53,63,116412,6,0,P|87:61|120:73,1,70
243,145,117044,1,0,0:0:0:0:
243,145,117202,5,0,0:0:0:0:
288,225,117360,6,0,B|280:241|280:241|283:257,1,35
307,345,117675,1,0,0:0:0:0:
135,331,117833,1,0,0:0:0:0:
135,331,117991,6,0,B|141:269|141:269|137:252|137:252|143:192,1,140
305,49,118939,1,0,0:0:0:0:
305,49,119254,2,0,B|274:22|274:22|264:121,1,140
243,326,120202,5,0,0:0:0:0:
243,326,120518,2,0,P|208:280|265:277,1,140
461,357,121465,1,0,0:0:0:0:
461,356,121780,2,0,P|491:341|503:309,1,70
489,276,122254,2,0,P|487:259|501:248,1,35
377,53,123044,6,0,B|371:115|371:115|375:132|375:132|369:192,1,140
207,335,123992,1,0,0:0:0:0:
207,335,124307,2,0,B|238:362|238:362|248:263,1,140
269,58,125255,5,0,0:0:0:0:
269,58,125571,2,0,P|304:104|247:107,1,140
12,135,126518,2,0,P|25:124|23:108,1,35
51,28,126833,2,0,P|21:43|9:75,1,70
106,179,127465,1,0,0:0:0:0:
106,179,127623,5,0,0:0:0:0:
188,151,127781,5,0,0:0:0:0:
171,261,127939,1,0,0:0:0:0:
482,128,128412,6,0,L|474:210,1,70
402,145,128965,2,0,L|398:179,1,35
320,167,129281,2,0,L|320:165,1,1.75
482,128,129675,1,0,0:0:0:0:
461,211,129991,1,0,0:0:0:0:
461,211,130149,5,0,0:0:0:0:
402,145,130307,5,0,0:0:0:0:
402,145,130465,5,0,0:0:0:0:
348,75,130623,5,0,0:0:0:0:
207,134,130939,2,0,P|205:152|213:167,1,35
249,211,131255,2,0,P|260:244|246:275,1,70
148,384,131887,2,0,P|157:317|209:272,1,140
366,370,133150,5,0,0:0:0:0:
433,307,133466,2,0,P|434:290|426:275,1,35
386,235,133782,2,0,P|374:203|379:168,1,70
512,13,134413,2,0,P|516:48|496:76,1,70,0|0,2:0|2:0,2:0:0:0:
455,99,134887,2,0,P|437:101|421:96,1,35,0|0,2:0|2:0,2:0:0:0:
282,32,135360,5,0,0:0:0:0:
282,32,135518,5,0,0:0:0:0:
282,31,135676,6,0,P|228:72|237:139,1,140
416,215,136623,2,0,P|397:216|384:227,1,35
352,264,136939,2,0,P|322:281|287:279,1,70
138,205,137571,2,0,P|108:174|150:170,1,105
182,235,138202,6,0,L|178:287,1,35
146,307,138518,2,0,L|142:341,2,35
268,170,139150,2,0,P|293:156|291:185,2,70
268,170,140018,2,0,L|268:168,1,1.75
280,332,140413,2,0,P|263:333|247:340,1,35
234,352,140729,6,0,P|284:361|323:329,1,105
329,294,141360,1,0,0:0:0:0:
434,158,141675,2,0,P|418:154|405:142,1,35
404,141,141992,2,0,P|369:145|353:174,1,70
266,219,142544,2,0,L|266:221,1,1.75
31,291,143097,1,0,0:0:0:0:
31,291,143255,6,0,P|43:278|67:283,1,35
134,244,143571,2,0,P|128:227|114:217,1,35
172,276,143887,2,0,P|205:286|239:281,1,70
430,340,144518,2,0,P|379:348|342:330,1,70
331,325,144992,5,0,0:0:0:0:
331,325,145150,5,0,0:0:0:0:
216,269,145466,1,0,0:0:0:0:
157,208,145623,5,0,0:0:0:0:
157,208,145781,5,0,0:0:0:0:
222,78,146096,1,0,0:0:0:0:
222,78,146254,6,0,P|226:90|195:99,1,35
21,225,146728,2,0,P|33:236|37:253,2,35
58,295,147202,2,0,P|74:298|92:296,1,35
151,346,147518,2,0,P|165:337|166:320,1,35
284,166,147991,1,0,0:0:0:0:
284,166,148149,5,0,0:0:0:0:
210,115,148308,6,0,P|194:120|181:132,1,35
156,266,148623,2,0,P|142:274|117:267,1,35
77,253,148939,2,0,B|47:252|47:252|39:247|39:247|8:247,1,70
19,356,149412,6,0,P|-7:313|0:262,1,105
132,222,150202,1,0,0:0:0:0:
266,258,150518,2,0,P|270:274|266:292,1,35
242,335,150834,5,0,0:0:0:0:
212,354,151781,5,0,0:0:0:0:
212,354,151939,6,0,L|212:371,2,17.5
199,269,152254,2,0,L|195:234,1,35
233,160,152570,5,0,0:0:0:0:
233,160,152728,6,0,B|237:138|237:138|227:129,1,35
86,116,153044,2,0,P|83:133|85:150,1,35
102,193,153360,5,0,0:0:0:0:
165,264,153675,1,0,0:0:0:0:
165,264,153991,2,0,L|246:255,1,70
273,231,154465,2,0,L|269:196,1,35
261,69,154939,2,0,L|300:69,1,35
341,69,155254,2,0,L|333:138,1,70
354,350,155886,6,0,B|370:311|331:301|355:247,1,105
354,248,156517,2,0,P|340:199|367:156,1,105
367,155,157149,2,0,P|324:167|323:122,1,105
306,78,157781,6,0,P|275:61|240:60,2,70
250,192,158728,2,0,P|233:193|216:191,1,35
172,176,159044,1,0,0:0:0:0:
57,34,159360,2,0,P|74:29|92:30,1,35
136,42,159675,2,0,P|171:47|215:41,1,70
248,27,160149,5,0,0:0:0:0:
248,27,160307,5,0,0:0:0:0:
385,39,160623,2,0,B|390:77|390:75,1,35
426,102,160938,6,0,L|434:172,1,70
437,218,161570,2,0,B|402:211|402:211|369:218,1,70
284,253,162044,5,0,0:0:0:0:
284,253,162202,6,0,P|319:258|352:246,2,70
284,253,162991,5,0,0:0:0:0:
183,149,163307,2,0,P|165:147|148:152,1,35
112,308,163939,1,0,0:0:0:0:
241,276,164096,2,0,P|227:278|215:285,1,28
202,341,164570,5,0,0:0:0:0:
202,341,164728,6,0,P|269:357|328:323,1,140
469,250,165675,2,0,P|473:268|470:285,1,35
447,322,165991,6,0,B|412:311|412:311|378:317,1,70
279,357,166465,5,0,0:0:0:0:
279,357,166623,6,0,L|327:362,2,35
167,323,167096,2,0,P|156:308|152:291,1,35
280,357,167570,5,0,0:0:0:0:
280,357,167728,5,0,0:0:0:0:
280,357,167886,6,0,P|245:362|212:353,1,70
103,211,168517,6,0,P|54:203|23:244,1,105
27,270,169149,1,0,0:0:0:0:
126,129,169465,1,0,0:0:0:0:
125,129,169623,6,0,P|108:129|91:126,1,35
20,33,170096,1,0,0:0:0:0:
20,33,170254,5,0,0:0:0:0:
20,33,170412,6,0,P|49:13|84:13,1,70
157,53,170886,1,0,0:0:0:0:
157,53,171044,6,0,P|192:53|221:34,1,70
301,16,171517,1,0,0:0:0:0:
386,139,171833,2,0,P|384:121|390:105,1,35
334,205,172307,2,0,P|319:195|313:179,2,35
512,155,172939,2,0,P|512:138|505:122,3,35
472,88,173570,6,0,B|430:88|430:88|424:92|424:92|368:92,1,105
322,97,174202,2,0,B|284:104|284:104|253:97,1,70
406,59,174833,2,0,B|400:121|400:121|404:138|404:138|398:198,1,140
259,290,175781,5,0,0:0:0:0:
259,290,176096,2,0,B|290:317|290:317|300:218,1,140
269,58,177044,1,0,0:0:0:0:
269,58,177360,2,0,P|304:104|262:108,1,105
241,135,177991,2,0,P|211:150|199:182,1,70
323,275,178622,6,0,P|289:276|265:300,1,70
264,336,179096,2,0,P|258:352|241:356,1,35
135,331,179570,1,0,0:0:0:0:
135,331,179886,2,0,B|141:269|141:269|137:252|137:252|143:192,1,140
149,69,180834,5,0,0:0:0:0:
149,69,181149,2,0,B|118:42|118:42|113:98,1,70
260,52,181781,2,0,B|242:14|242:14|215:63,1,70
361,67,182412,2,0,B|368:26|368:26|317:50,2,70
404,147,183202,1,0,0:0:0:0:
404,147,183360,6,0,L|397:181,1,35
251,333,183991,6,0,P|281:318|293:286,1,70
274,151,184623,1,0,0:0:0:0:
129,109,184939,2,0,P|97:122|75:149,1,70
97,257,185570,1,0,0:0:0:0:
112,265,185728,5,0,0:0:0:0:
128,269,185886,5,0,0:0:0:0:
145,271,186044,5,0,0:0:0:0:
162,269,186202,5,0,0:0:0:0:
251,158,186518,6,0,P|235:148|218:150,1,35
173,176,186834,2,0,P|140:187|109:173,1,70
0,75,187466,2,0,P|67:84|112:136,1,140
78,302,188729,5,0,0:0:0:0:
141,369,189045,2,0,P|158:370|173:362,1,35
213,322,189361,2,0,P|245:310|280:315,1,70
422,255,189992,2,0,P|418:220|438:192,1,70,0|0,2:0|2:0,2:0:0:0:
483,125,190466,2,0,P|486:141|481:158,1,35,0|0,2:0|2:0,2:0:0:0:
312,281,190939,5,0,0:0:0:0:
312,281,191097,5,0,0:0:0:0:
312,281,191255,6,0,P|250:265|260:202,1,140
344,31,192202,2,0,P|325:32|312:43,1,35
280,80,192518,2,0,P|250:97|215:95,1,70
121,68,193150,2,0,P|91:37|133:33,1,105
186,157,193781,6,0,P|186:140|176:122,3,35
104,149,194413,2,0,P|122:147|138:153,1,35
221,232,194729,2,0,P|299:236|340:175,1,140
232,52,195676,1,0,0:0:0:0:
232,52,195992,2,0,P|249:51|265:44,1,35
280,28,196308,6,0,P|213:26|183:85,1,140
102,248,197255,2,0,P|153:245|156:247,1,35
209,266,197571,2,0,P|244:261|277:271,1,70
352,238,198045,2,0,P|358:254|371:265,1,35
477,97,198676,1,0,0:0:0:0:
477,97,198834,6,0,P|459:97|443:92,1,35
365,42,199150,2,0,P|350:52|341:67,1,35
260,126,199466,2,0,B|216:104|216:104|211:82,1,70
82,44,200097,2,0,P|133:36|170:54,1,70
178,60,200571,5,0,0:0:0:0:
178,60,200729,5,0,0:0:0:0:
239,197,201045,1,0,0:0:0:0:
204,318,201202,5,0,0:0:0:0:
204,318,201360,6,0,P|221:317|237:322,1,35
291,384,201676,2,0,P|303:371|318:363,1,35
411,245,201992,2,0,P|415:262|413:280,1,35
323,169,202308,2,0,P|390:167|433:219,1,140
323,170,203255,1,0,0:0:0:0:
136,250,203729,5,0,0:0:0:0:
205,300,203887,2,0,B|222:302|222:302|239:296,1,35
343,176,204202,2,0,B|349:192|349:192|345:209,1,35
260,157,204518,1,0,0:0:0:0:
431,296,204834,2,0,P|368:274|345:210,1,140
277,80,205781,1,0,0:0:0:0:
182,148,206097,2,0,P|181:166|186:183,1,35
243,236,206413,5,0,0:0:0:0:
381,39,207360,2,0,B|431:15|485:19|499:31|499:31|487:44,1,140
487,43,208307,1,0,0:0:0:0:
318,95,208623,6,0,P|300:93|283:88,2,35
176,20,209254,2,0,L|174:40,1,20.9999993591309
142,162,210202,1,0,0:0:0:0:
173,254,210518,2,0,P|189:251|196:265,1,35
196,265,210833,2,0,P|229:272|264:267,1,70
351,193,211465,5,0,0:0:0:0:
288,133,211781,2,0,B|251:128|251:128|220:139,1,70
110,184,212412,2,0,P|128:184|145:179,2,35
56,113,213044,2,0,P|122:117|145:179,1,140
51,242,213991,6,0,L|34:241,16,17.5
201,305,215570,2,0,P|199:270|200:235,1,70
160,46,216202,2,0,P|159:63|159:80,1,35
168,122,216518,5,0,0:0:0:0:
355,183,216833,2,0,P|362:216|347:247,1,70
263,302,217465,2,0,P|256:285|254:268,1,35
252,226,217781,1,0,0:0:0:0:
306,132,218096,2,0,P|340:128|373:139,1,70
418,207,218649,2,0,P|418:211|417:215,1,8.75
256,219,219044,6,0,L|221:215,1,35
200,210,219360,2,0,L|272:202,1,70
326,303,219991,1,0,0:0:0:0:
307,312,220149,5,0,0:0:0:0:
288,321,220307,5,0,0:0:0:0:
186,350,220623,2,0,P|255:348|324:360,1,140
324,360,221570,5,0,0:0:0:0:
