osu file format v14

[General]
AudioFilename: merry_christmas_to_YUUU.ogg
AudioLeadIn: 0
PreviewTime: 47787
Countdown: 0
SampleSet: Drum
StackLeniency: 0.4
Mode: 0
LetterboxInBreaks: 0
WidescreenStoryboard: 1

[Editor]
DistanceSpacing: 0.4
BeatDivisor: 4
GridSize: 32
TimelineZoom: 2.5

[Metadata]
Title:A Very Polish Christmas
TitleUnicode:A Very Polish Christmas
Artist:Sabadu
ArtistUnicode:Sabadu
Creator:Dcs
Version:nebuwua's Extreme
Source:
Tags:nebuwua sh4rq_ sh3rg_ yary shoyeu hyperpigeon shii shiitsuin roupus english tank power metal powermetal tankmetal sabaton poland santa claus merry xmas x-mas to you in 1942 world war 2 ww2 wwii
BeatmapID:4368366
BeatmapSetID:1992471

[Difficulty]
HPDrainRate:4.4
CircleSize:4.2
OverallDifficulty:9.2
ApproachRate:9.6
SliderMultiplier:2
SliderTickRate:1

[Events]
//Background and Video events
0,0,"christmas_poster_for_bravocompany_by_thuberchs_dbxgs5u_upscale_crop.png",0,0
//Break Periods
2,158843,165777
//Storyboard Layer 0 (Background)
//Storyboard Layer 1 (Fail)
//Storyboard Layer 2 (Pass)
//Storyboard Layer 3 (Foreground)
//Storyboard Layer 4 (Overlay)
//Storyboard Sound Samples

[TimingPoints]
75,285.714285714286,4,3,2,60,1,0
146,-100,4,3,11,60,0,0
217,-100,4,3,10,60,0,0
289,-100,4,3,2,60,0,0
432,-100,4,3,12,60,0,0
503,-100,4,3,10,60,0,0
575,-100,4,3,2,60,0,0
717,-100,4,3,12,60,0,0
789,-100,4,3,2,60,0,0
860,-100,4,3,12,60,0,0
932,-100,4,3,2,60,0,0
1003,-100,4,3,13,60,0,0
1075,-100,4,3,12,60,0,0
1146,-100,4,3,11,60,0,0
1217,285.714285714286,4,3,2,65,1,0
1502,-100,4,3,1,65,0,0
8145,-100,4,3,1,5,0,0
8217,-100,4,3,1,65,0,0
8716,-100,4,3,1,5,0,0
8788,-100,4,3,12,65,0,0
8931,-100,4,3,11,65,0,0
9074,-100,4,3,1,65,0,0
9288,-100,4,3,1,5,0,0
9359,-100,4,3,11,65,0,0
9502,-100,4,3,10,65,0,0
9645,-100,4,3,1,65,0,0
9859,-100,4,3,1,5,0,0
9931,-100,4,3,1,65,0,0
10074,-100,4,3,11,65,0,0
10217,-100,4,3,10,65,0,0
10359,-100,4,3,1,65,0,0
14502,-100,4,3,13,65,0,0
14645,-100,4,3,1,65,0,0
14717,-100,4,3,11,65,0,0
14788,-100,4,3,10,65,0,0
14931,-100,4,3,1,65,0,0
16931,-100,4,3,11,65,0,0
17074,-100,4,3,10,65,0,0
17217,285.714285714286,5,3,1,65,1,0
18074,-83.3333333333333,5,3,1,70,0,0
18288,-83.3333333333333,5,3,1,5,0,0
18359,-100,5,3,1,70,0,0
18573,-100,5,3,1,5,0,0
18645,285.714285714286,4,3,1,60,1,0
20502,-100,4,3,10,60,0,0
20597,-100,4,3,13,60,0,0
20645,-100,4,3,1,60,0,0
20930,285.714285714286,4,3,1,60,1,0
20930,-125,4,3,1,60,0,0
21501,-125,4,3,2,60,0,0
22286,-125,4,3,2,5,0,0
22358,-125,4,3,2,60,0,0
23144,-125,4,3,2,5,0,0
23215,-125,4,3,2,60,0,0
26286,-125,4,3,2,5,0,0
26358,-125,4,3,2,60,0,0
32286,-125,4,3,2,5,0,0
32358,-125,4,3,2,60,0,0
34572,-125,4,3,2,5,0,0
34644,-125,4,3,2,60,0,0
34858,-125,4,3,2,5,0,0
34930,-125,4,3,2,60,0,0
36858,-125,4,3,2,5,0,0
36930,-125,4,3,2,60,0,0
37144,-125,4,3,2,5,0,0
37215,-125,4,3,2,60,0,0
38072,-111.111111111111,4,3,2,60,0,0
38500,-111.111111111111,4,3,10,60,0,0
38644,-111.111111111111,4,3,14,60,0,0
38787,-111.111111111111,4,3,11,60,0,0
38930,-111.111111111111,4,3,2,60,0,0
39072,-111.111111111111,4,3,10,60,0,0
39215,-99.9999999999999,4,3,2,65,0,0
39501,-99.9999999999999,4,3,1,65,0,0
45358,-99.9999999999999,4,3,14,65,0,0
45501,-99.9999999999999,4,3,2,65,0,0
45787,-99.9999999999999,4,3,11,65,0,0
45930,-99.9999999999999,4,3,10,65,0,0
46072,-99.9999999999999,4,3,1,80,0,0
48358,-86.9565217391304,4,3,1,75,0,1
48929,-86.9565217391304,4,3,3,75,0,1
50500,-86.9565217391304,4,3,10,75,0,1
50644,-86.9565217391304,4,3,3,75,0,1
52501,-86.9565217391304,4,3,11,75,0,1
52644,-86.9565217391304,4,3,3,75,0,1
52787,-86.9565217391304,4,3,10,75,0,1
52930,-86.9565217391304,4,3,3,75,0,1
56215,-86.9565217391304,4,3,10,75,0,1
56358,-86.9565217391304,4,3,3,75,0,1
57215,-86.9565217391304,4,3,12,75,0,1
57358,-86.9565217391304,4,3,10,75,0,1
57501,-86.9565217391304,4,3,3,75,0,1
59644,-86.9565217391304,4,3,10,75,0,1
59787,-86.9565217391304,4,3,3,75,0,1
64358,-83.3333333333333,4,3,3,75,0,1
64930,-83.3333333333333,4,3,13,75,0,1
65072,-83.3333333333333,4,3,3,75,0,1
65358,-83.3333333333333,4,3,10,75,0,1
65501,-83.3333333333333,4,3,3,75,0,1
65787,-83.3333333333333,4,3,30,75,0,1
66072,-90.9090909090909,4,3,1,75,0,1
66358,-100,4,3,1,75,0,1
66644,-100,4,3,1,65,0,0
73572,-100,4,3,1,5,0,0
73644,-100,4,3,1,65,0,0
74144,-100,4,3,1,5,0,0
74215,-100,4,3,1,65,0,0
74715,-100,4,3,1,5,0,0
74787,-100,4,3,1,65,0,0
75286,-100,4,3,1,5,0,0
75358,-100,4,3,11,65,0,0
75501,-100,4,3,1,65,0,0
75644,-100,4,3,10,65,0,0
75787,-100,4,3,1,65,0,0
82500,-100,4,3,12,65,0,0
82645,285.714285714286,5,3,1,80,1,0
82930,-100,5,3,1,65,0,0
83216,-100,5,3,1,50,0,0
83502,-111.111111111111,5,3,1,70,0,0
83716,-111.111111111111,5,3,1,5,0,0
83787,-125,5,3,1,70,0,0
84001,-125,5,3,1,5,0,0
84074,285.714285714286,4,3,1,60,1,0
84074,-125,4,3,1,60,0,0
84359,-125,4,3,2,60,0,0
85430,-125,4,3,2,5,0,0
85502,-125,4,3,2,60,0,0
86288,-125,4,3,2,5,0,0
86359,-125,4,3,2,60,0,0
88573,-125,4,3,2,5,0,0
88645,-111.111111111111,4,3,2,60,0,0
88859,-111.111111111111,4,3,2,5,0,0
88931,-111.111111111111,4,3,2,60,0,0
89002,-111.111111111111,4,3,2,5,0,0
89074,-111.111111111111,4,3,2,60,0,0
90002,-111.111111111111,4,3,2,5,0,0
90074,-111.111111111111,4,3,2,60,0,0
90145,-111.111111111111,4,3,2,5,0,0
90216,-111.111111111111,4,3,2,60,0,0
91859,-111.111111111111,4,3,2,5,0,0
91931,-111.111111111111,4,3,2,60,0,0
92573,-111.111111111111,4,3,2,5,0,0
92645,-111.111111111111,4,3,2,60,0,0
93216,-125,4,3,2,60,0,0
94573,-125,4,3,2,5,0,0
94645,-125,4,3,2,60,0,0
95430,-125,4,3,2,5,0,0
95502,-125,4,3,2,60,0,0
97716,-125,4,3,2,5,0,0
97788,-100,4,3,2,60,0,0
100002,-100,4,3,2,5,0,0
100074,-90.9090909090909,4,3,2,60,0,0
101216,-90.9090909090909,4,3,12,60,0,0
101359,-90.9090909090909,4,3,11,60,0,0
101502,-90.9090909090909,4,3,2,60,0,0
101788,-90.9090909090909,4,3,10,60,0,0
101931,-90.9090909090909,4,3,2,60,0,0
102074,-90.9090909090909,4,3,10,60,0,0
102288,-90.9090909090909,4,3,13,60,0,0
102359,-100,4,3,2,65,0,0
102645,-100,4,3,1,65,0,0
108074,-100,4,3,13,65,0,0
108216,-100,4,3,11,65,0,0
108359,-100,4,3,1,65,0,0
108502,-100,4,3,10,65,0,0
108645,-100,4,3,1,65,0,0
108788,-100,4,3,12,65,0,0
108931,-100,4,3,11,65,0,0
109073,-100,4,3,10,65,0,0
109216,-100,4,3,1,80,0,0
110359,285.714285714286,5,3,1,60,1,0
111787,285.714285714286,4,3,1,75,1,1
111787,-86.9565217391304,4,3,1,75,0,1
112357,-86.9565217391304,4,3,3,75,0,1
115644,-86.9565217391304,4,3,1,75,0,1
115929,-86.9565217391304,4,3,12,75,0,1
116072,-86.9565217391304,4,3,3,75,0,1
116215,-86.9565217391304,4,3,10,75,0,1
116358,-86.9565217391304,4,3,3,75,0,1
119644,-86.9565217391304,4,3,10,75,0,1
119787,-86.9565217391304,4,3,3,75,0,1
120644,-86.9565217391304,4,3,11,75,0,1
120787,-86.9565217391304,4,3,3,75,0,1
124429,-86.9565217391304,4,3,3,5,0,1
124501,-86.9565217391304,4,3,3,75,0,1
124787,-86.9565217391304,4,3,1,75,0,1
125072,-86.9565217391304,4,3,13,75,0,1
125215,-86.9565217391304,4,3,11,75,0,1
125358,-86.9565217391304,4,3,10,75,0,1
125501,-86.9565217391304,4,3,3,75,0,1
127787,-83.3333333333333,4,3,3,75,0,1
128787,-83.3333333333333,4,3,10,75,0,1
128929,-83.3333333333333,4,3,3,75,0,1
129215,-83.3333333333333,4,3,30,75,0,1
129501,-90.9090909090909,4,3,1,75,0,1
129787,-100,4,3,1,75,0,1
130072,-100,4,3,1,65,0,1
131072,-100,4,3,1,5,0,1
131215,285.714285714286,4,3,1,65,1,0
139215,-100,4,3,10,65,0,0
139357,-100,4,3,11,65,0,0
139500,-100,4,3,2,65,0,0
139715,-100,4,3,13,65,0,0
139786,-100,4,3,12,65,0,0
139929,-100,4,3,11,65,0,0
140072,-100,4,3,10,65,0,0
140215,-100,4,3,1,65,0,0
144500,-100,4,3,11,65,0,0
144643,-100,4,3,10,65,0,0
144786,-100,4,3,1,65,0,0
147643,-100,4,3,2,65,0,0
147715,-100,4,3,11,65,0,0
147786,-100,4,3,2,65,0,0
148000,-100,4,3,11,65,0,0
148072,-100,4,3,2,65,0,0
148357,-100,4,3,12,65,0,0
148500,-100,4,3,11,65,0,0
148643,-100,4,3,10,65,0,0
148786,-100,4,3,2,65,0,0
148929,-83.3333333333333,4,3,2,65,0,0
149215,-83.3333333333333,4,3,11,65,0,0
149357,-83.3333333333333,4,3,10,65,0,0
149500,-83.3333333333333,4,3,1,75,0,1
149786,-90.9090909090909,4,3,1,75,0,1
150000,-90.9090909090909,4,3,1,5,0,1
150072,-90.9090909090909,4,3,1,75,0,1
151143,-90.9090909090909,4,3,1,5,0,1
151215,-90.9090909090909,4,3,1,75,0,1
152286,-90.9090909090909,4,3,1,5,0,1
152357,-90.9090909090909,4,3,1,75,0,1
153429,-90.9090909090909,4,3,1,5,0,1
153500,-90.9090909090909,4,3,1,75,0,1
153929,-90.9090909090909,4,3,10,75,0,1
154072,-90.9090909090909,4,3,1,75,0,1
154571,-90.9090909090909,4,3,1,5,0,1
154643,-90.9090909090909,4,3,1,75,0,1
155714,-90.9090909090909,4,3,1,5,0,1
155786,-90.9090909090909,4,3,1,75,0,1
156215,-90.9090909090909,4,3,10,75,0,1
156357,-90.9090909090909,4,3,1,75,0,1
156571,-90.9090909090909,4,3,1,5,0,1
156643,-90.9090909090909,4,3,1,75,0,1
157429,-90.9090909090909,4,3,13,75,0,1
157500,-90.9090909090909,4,3,1,75,0,1
157643,-90.9090909090909,4,3,10,75,0,1
157786,-90.9090909090909,4,3,1,75,0,1
157929,-90.9090909090909,4,3,14,75,0,1
158072,-90.9090909090909,4,3,13,75,0,1
158215,-90.9090909090909,4,3,12,75,0,1
158357,-90.9090909090909,4,3,11,75,0,1
158500,-90.9090909090909,4,3,10,75,0,1
158643,-90.9090909090909,4,3,1,60,0,0
166286,-90.9090909090909,4,3,1,45,0,0
166500,-100,4,3,10,60,0,0
166643,-100,4,3,1,80,0,0
167786,-76.9230769230769,4,3,1,75,0,1
168357,-76.9230769230769,4,3,3,75,0,1
171643,-76.9230769230769,4,3,11,75,0,1
171786,-76.9230769230769,4,3,10,75,0,1
171929,-76.9230769230769,4,3,12,75,0,1
172072,-76.9230769230769,4,3,10,75,0,1
172215,-76.9230769230769,4,3,3,75,0,1
175500,-76.9230769230769,4,3,13,55,0,1
175643,-76.9230769230769,4,3,10,55,0,1
175786,-76.9230769230769,4,3,3,75,0,1
176643,-76.9230769230769,4,3,12,75,0,1
176786,-76.9230769230769,4,3,11,75,0,1
176929,-76.9230769230769,4,3,3,75,0,1
180500,-76.9230769230769,4,3,11,75,0,1
180643,-76.9230769230769,4,3,3,75,0,1
180929,-76.9230769230769,4,3,10,75,0,1
181072,-76.9230769230769,4,3,3,75,0,1
181215,-76.9230769230769,4,3,10,75,0,1
181500,-76.9230769230769,4,3,3,75,0,1
184500,-76.9230769230769,4,3,10,75,0,1
184643,-76.9230769230769,4,3,1,75,0,1
184786,-76.9230769230769,4,3,10,75,0,1
184929,-76.9230769230769,4,3,3,75,0,1
185215,-76.9230769230769,4,3,30,75,0,1
185500,-83.3333333333333,4,3,1,75,0,1
185786,-90.9090909090909,4,3,1,75,0,1
186072,-90.9090909090909,4,3,1,65,0,0
192500,-90.9090909090909,4,3,12,65,0,0
192643,-90.9090909090909,4,3,1,65,0,0
193000,-90.9090909090909,4,3,1,5,0,0
193072,-90.9090909090909,4,3,1,65,0,0
193571,-90.9090909090909,4,3,1,5,0,0
193643,-90.9090909090909,4,3,12,65,0,0
193786,-90.9090909090909,4,3,1,65,0,0
194143,-90.9090909090909,4,3,1,5,0,0
194215,-90.9090909090909,4,3,1,65,0,0
194714,-90.9090909090909,4,3,1,5,0,0
194786,-90.9090909090909,4,3,1,65,0,0
199215,-90.9090909090909,4,3,13,65,0,0
199357,-90.9090909090909,4,3,12,65,0,0
199500,-90.9090909090909,4,3,11,65,0,0
199643,-90.9090909090909,4,3,10,65,0,0
199786,-90.9090909090909,4,3,1,65,0,0
201643,-90.9090909090909,4,3,10,65,0,0
201786,-90.9090909090909,4,3,10,60,0,0
202072,285.714285714286,5,3,1,80,1,0
202929,-90.9090909090909,5,3,1,70,0,0
203500,-90.9090909090909,5,3,1,80,0,0
204357,-83.3333333333333,5,3,1,70,0,0
204929,-76.9230769230769,5,3,1,70,0,0
205500,-76.9230769230769,5,3,1,5,0,0

[Colours]
Combo1 : 206,9,68
Combo2 : 103,134,68

[HitObjects]
93,32,75,5,10,3:0:0:0:
84,38,146,2,0,P|87:68|102:94,1,50,8|8,3:0|3:0,3:0:0:0:
37,131,289,1,10,3:0:0:0:
29,139,360,1,10,3:0:0:0:
27,151,432,2,0,P|53:165|83:167,1,50,8|8,3:0|3:0,3:0:0:0:
150,214,575,1,10,3:0:0:0:
142,203,646,2,0,P|149:177|163:150,1,50,10|8,3:0|3:0,3:0:0:0:
67,241,789,2,0,P|77:263|84:287,1,50,10|8,3:0|3:0,3:0:0:0:
184,334,932,1,10,3:0:0:0:
174,329,1003,1,8,3:0:0:0:
164,327,1075,1,8,3:0:0:0:
154,328,1146,1,8,3:0:0:0:
128,358,1217,6,0,P|180:334|235:321,1,100,4|0,3:0|3:0,3:0:0:0:
350,220,1502,2,0,P|298:196|243:183,1,100,10|0,3:0|3:0,3:0:0:0:
389,372,1788,2,0,B|438:344|438:344|474:200,1,200,2|10,3:0|3:0,3:0:0:0:
350,92,2217,2,0,P|380:48|430:52,1,100,0|2,3:0|3:0,3:0:0:0:
269,176,2502,1,0,3:0:0:0:
122,86,2645,2,0,P|138:133|150:181,1,100,10|0,3:0|3:0,3:0:0:0:
244,295,2931,2,0,B|195:269|143:302|161:318|110:352|49:323,1,200,2|10,3:0|3:0,3:0:0:0:
137,191,3359,1,0,3:0:0:0:
39,5,3502,6,0,B|3:38|3:38|15:99,1,100,2|0,3:0|3:0,3:0:0:0:
245,98,3788,2,0,B|234:50|234:50|175:30,1,100,10|0,3:0|3:0,3:0:0:0:
61,229,4074,2,0,B|107:243|107:243|154:202,1,100,2|0,3:0|3:0,3:0:0:0:
163,43,4359,1,10,3:0:0:0:
246,204,4502,2,0,P|226:253|213:306,1,100,0|2,3:0|3:0,3:0:0:0:
363,204,4788,1,0,3:0:0:0:
408,319,4931,2,0,P|378:360|317:339,1,100,10|0,3:0|3:0,3:0:0:0:
276,107,5217,2,0,B|373:87|373:87|377:84|377:84|477:64,1,200,2|10,3:0|3:0,3:0:0:0:
213,0,5645,1,0,3:0:0:0:
213,0,5717,1,0,3:0:0:0:
213,0,5788,6,0,P|193:49|180:100,1,100,4|0,3:0|3:0,3:0:0:0:
47,171,6074,2,0,P|34:122|16:76,1,100,10|0,3:0|3:0,3:0:0:0:
196,241,6359,2,0,B|227:278|227:278|64:251,1,200,2|10,3:0|3:0,3:0:0:0:
235,384,6788,2,0,P|283:363|334:354,1,100,0|2,3:0|3:0,3:0:0:0:
401,184,7074,1,0,3:0:0:0:
310,132,7217,2,0,B|276:170|276:170|289:221,1,100,10|0,3:0|3:0,3:0:0:0:
434,275,7502,1,2,3:0:0:0:
384,98,7645,1,8,3:0:0:0:
390,73,7717,1,8,3:0:0:0:
396,48,7788,1,8,3:0:0:0:
213,246,7931,6,0,P|199:175|169:89,1,150,4|0,3:0|3:0,3:0:0:0:
143,82,8217,1,2,3:0:0:0:
315,213,8359,1,8,3:0:0:0:
121,305,8502,2,0,P|167:359|237:343,1,150,4|0,3:0|3:0,3:0:0:0:
254,309,8788,1,8,3:0:0:0:
34,360,8931,1,8,3:0:0:0:
265,301,9074,2,0,B|339:316|339:316|342:319|342:319|411:333,1,150,4|0,3:0|3:0,3:0:0:0:
431,361,9359,1,8,3:0:0:0:
495,242,9502,1,8,3:0:0:0:
385,171,9645,2,0,B|360:73|360:73|397:21,1,150,4|0,3:0|3:0,3:0:0:0:
468,61,9931,5,8,3:0:0:0:
439,101,10002,1,8,3:0:0:0:
393,99,10074,1,8,3:0:0:0:
372,65,10145,1,8,3:0:0:0:
342,46,10217,1,8,3:0:0:0:
311,48,10288,1,8,3:0:0:0:
289,86,10359,6,0,P|241:96|182:118,1,100,4|0,3:2|3:0,3:0:0:0:
28,73,10645,2,0,P|55:31|113:40,1,100,10|0,3:0|3:0,3:0:0:0:
126,173,10931,2,0,P|88:263|59:366,1,200,2|10,3:0|3:0,3:0:0:0:
271,242,11359,2,0,P|237:280|181:272,1,100,0|2,3:0|3:0,3:0:0:0:
297,102,11645,1,0,3:0:0:0:
380,171,11788,2,0,P|392:220|354:262,1,100,10|0,3:0|3:0,3:0:0:0:
296,362,12074,2,0,B|347:374|347:374|496:333,1,200,2|10,3:0|3:0,3:0:0:0:
373,186,12502,1,0,3:0:0:0:
373,186,12574,1,0,3:0:0:0:
373,186,12645,6,0,P|424:197|471:217,1,100,2|0,3:0|3:0,3:0:0:0:
347,9,12931,2,0,P|296:20|249:40,1,100,10|0,3:0|3:0,3:0:0:0:
388,169,13217,2,0,P|439:180|486:200,1,100,2|0,3:0|3:0,3:0:0:0:
418,47,13502,1,10,3:0:0:0:
261,196,13645,2,0,P|224:167|235:103,1,100,0|2,3:0|3:0,3:0:0:0:
105,5,13931,1,0,3:0:0:0:
0,140,14074,2,0,B|50:152|50:152|101:124,1,100,10|0,3:0|3:0,3:0:0:0:
195,33,14359,1,4,3:2:0:0:
8,156,14502,1,8,3:0:0:0:
143,210,14645,1,10,3:0:0:0:
146,224,14717,1,8,3:0:0:0:
149,238,14788,1,8,3:0:0:0:
152,252,14859,1,8,3:0:0:0:
156,266,14931,6,0,P|97:287|61:315,1,100,4|0,3:0|3:0,3:0:0:0:
264,384,15217,2,0,P|281:338|241:297,1,100,10|0,3:0|3:0,3:0:0:0:
253,134,15502,2,0,B|222:125|200:149|200:149|280:149|340:190,1,200,2|10,3:0|3:0,3:0:0:0:
469,281,15931,2,0,B|419:269|419:269|376:301,1,100,0|2,3:0|3:0,3:0:0:0:
461,169,16217,1,0,3:0:0:0:
356,47,16359,2,0,B|406:35|406:35|449:67,1,100,10|0,3:0|3:0,3:0:0:0:
345,202,16645,1,2,3:0:0:0:
226,85,16788,1,8,3:0:0:0:
189,51,16859,1,8,3:0:0:0:
143,55,16931,1,8,3:0:0:0:
113,81,17002,1,8,3:0:0:0:
77,78,17074,1,8,3:0:0:0:
60,52,17145,1,8,3:0:0:0:
83,6,17217,5,8,3:0:0:0:
233,166,17359,1,8,3:0:0:0:
21,147,17502,5,8,3:0:0:0:
313,19,17645,1,8,3:0:0:0:
191,334,17788,5,8,3:0:0:0:
38,65,17931,1,8,3:0:0:0:
281,277,18074,6,0,P|351:219|327:139,1,180,4|0,3:0|3:0,3:0:0:0:
231,64,18359,2,0,P|243:136|309:152,1,150,4|0,3:0|3:0,3:0:0:0:
385,57,18645,5,4,3:0:0:0:
380,146,20502,5,8,3:0:0:0:
379,149,20549,5,8,3:0:0:0:
378,152,20597,5,8,3:0:0:0:
377,155,20645,5,8,3:0:0:0:
341,16,20787,1,0,3:0:0:0:
442,207,20930,6,0,P|409:232|356:230,1,80,4|0,3:0|3:0,3:0:0:0:
302,282,21215,2,0,P|262:268|234:223,1,80,8|0,3:0|3:0,3:0:0:0:
304,97,21501,1,2,3:0:0:0:
151,153,21644,1,0,3:0:0:0:
109,28,21787,2,0,B|151:22|151:22|178:47,1,80,10|0,3:0|3:0,3:0:0:0:
161,233,22072,2,0,P|103:246|55:184,1,120,2|0,3:0|3:0,3:0:0:0:
61,181,22358,1,10,3:0:0:0:
142,360,22501,1,0,3:0:0:0:
145,351,22787,1,0,3:0:0:0:
247,260,22930,2,0,L|375:286,1,120,10|0,3:0|3:0,3:0:0:0:
400,261,23215,6,0,P|373:300|375:350,1,80,2|0,3:0|3:0,3:0:0:0:
470,193,23501,2,0,P|497:232|495:282,1,80,10|0,3:0|3:0,3:0:0:0:
338,189,23787,2,0,L|346:144,2,40,2|0|0,3:0|3:0|3:0,3:0:0:0:
407,270,24072,1,10,3:0:0:0:
512,50,24215,2,0,B|471:34|434:58|446:70|408:98|359:76,1,160,0|0,3:0|3:0,3:0:0:0:
268,1,24644,1,10,3:0:0:0:
175,122,24787,2,0,P|132:99|102:92,1,80,0|2,3:0|3:0,3:0:0:0:
188,38,25072,1,0,3:0:0:0:
105,222,25215,1,10,3:0:0:0:
32,153,25358,1,0,3:0:0:0:
109,239,25501,5,2,3:0:0:0:
45,384,25644,2,0,P|62:317|99:210,1,160,0|0,3:0|3:0,3:0:0:0:
265,317,26072,2,0,P|238:351|161:351,1,120,2|0,3:0|3:0,3:0:0:0:
149,325,26358,1,10,3:0:0:0:
243,233,26501,2,0,B|256:160|256:160|255:155|255:155|271:63,1,160,0|0,3:0|3:0,3:0:0:0:
174,106,26930,1,10,3:0:0:0:
324,6,27072,2,0,P|395:17|407:109,1,160,0|0,3:0|3:0,3:0:0:0:
386,112,27430,1,0,3:0:0:0:
386,112,27501,1,10,3:0:0:0:
490,12,27644,1,0,3:0:0:0:
447,177,27787,6,0,L|354:197,1,80,2|0,3:0|3:0,3:0:0:0:
180,96,28072,2,0,L|273:116,1,80,10|0,3:0|3:0,3:0:0:0:
321,260,28358,1,2,3:0:0:0:
210,182,28501,1,0,3:0:0:0:
316,246,28644,1,10,3:0:0:0:
197,327,28787,2,0,B|152:344|117:313|127:303|86:271|35:297,1,160,0|0,3:0|3:0,3:0:0:0:
122,202,29215,2,0,P|130:158|140:121,1,80,10|0,3:0|3:0,3:0:0:0:
25,11,29501,1,2,3:0:0:0:
80,69,29644,1,2,3:0:0:0:
84,68,29715,1,2,3:0:0:0:
88,67,29787,1,8,3:0:0:0:
153,8,29930,2,0,P|166:27|172:53,1,40,2|0,3:0|3:0,3:0:0:0:
225,154,30072,6,0,B|231:161|233:170|233:170|240:133|256:92,1,80,4|0,3:2|3:0,3:0:0:0:
336,23,30358,2,0,P|357:66|366:107,1,80,8|0,3:0|3:0,3:0:0:0:
330,227,30644,1,2,3:0:0:0:
412,185,30787,1,0,3:0:0:0:
346,317,30930,2,0,B|306:321|306:321|274:297,1,80,10|0,3:0|3:0,3:0:0:0:
428,275,31215,1,2,3:0:0:0:
218,352,31358,2,0,B|193:316|193:316|199:276,1,80,0|10,3:0|3:0,3:0:0:0:
313,150,31644,1,0,3:0:0:0:
316,159,31930,1,0,3:0:0:0:
190,263,32072,2,0,B|180:322|180:322|220:379,1,120,10|0,3:0|3:0,3:0:0:0:
243,371,32358,5,2,3:0:0:0:
67,222,32501,2,0,P|101:174|195:179,1,160,0|0,3:0|3:0,3:0:0:0:
209,0,32930,1,2,3:0:0:0:
63,52,33072,2,0,P|101:63|136:82,1,80,0|10,3:0|3:0,3:0:0:0:
287,220,33358,2,0,B|318:239|318:239|296:109,1,160,0|0,3:0|3:0,3:0:0:0:
406,0,33787,1,10,3:0:0:0:
459,104,33930,1,0,3:0:0:0:
448,117,34215,1,0,3:0:0:0:
452,127,34287,1,0,3:0:0:0:
457,137,34358,2,0,P|443:192|430:255,1,120,10|0,3:0|3:0,3:0:0:0:
459,297,34644,6,0,P|408:257|352:257,1,120,2|0,3:0|3:0,3:0:0:0:
338,281,34930,1,10,3:0:0:0:
265,384,35072,2,0,L|251:300,1,80,0|2,3:0|3:0,3:0:0:0:
279,196,35358,1,0,3:0:0:0:
147,327,35501,2,0,L|161:243,1,80,10|0,3:0|3:0,3:0:0:0:
96,161,35787,2,0,P|58:162|23:192,1,80,2|0,3:0|3:0,3:0:0:0:
58,45,36072,2,0,B|103:21|145:50|133:61|166:89|220:66,1,160,10|2,3:0|3:0,3:0:0:0:
306,0,36501,1,0,3:0:0:0:
414,60,36644,2,0,P|419:117|377:158,1,120,10|0,3:0|3:0,3:0:0:0:
347,145,36930,6,0,L|372:266,1,120,2|0,3:0|3:0,3:0:0:0:
401,278,37215,1,10,3:0:0:0:
282,380,37358,2,0,P|270:325|178:314,1,160,0|0,3:0|3:0,3:0:0:0:
26,337,37787,2,0,P|69:351|97:377,1,80,10|0,3:0|3:0,3:0:0:0:
173,234,38072,6,0,L|183:189,1,45,2|0,3:0|3:0,3:0:0:0:
60,119,38215,1,8,3:0:0:0:
64,140,38287,1,8,3:0:0:0:
70,164,38358,2,0,L|90:260,1,90.0000000000001,8|8,3:0|3:0,3:0:0:0:
197,29,38644,5,8,3:0:0:0:
188,39,38715,1,0,3:0:0:0:
183,53,38787,1,8,3:0:0:0:
180,67,38858,1,8,3:0:0:0:
154,117,38930,5,8,3:0:0:0:
191,91,39001,1,8,3:0:0:0:
240,92,39072,1,8,3:0:0:0:
284,123,39144,1,8,3:0:0:0:
292,194,39215,6,0,P|306:130|329:92,1,100,4|0,3:0|3:0,3:0:0:0:
498,261,39501,2,0,P|484:197|461:159,1,100,10|0,3:0|3:0,3:0:0:0:
264,293,39787,2,0,P|317:301|359:253,1,100,2|0,3:0|3:0,3:0:0:0:
405,99,40072,1,10,3:0:0:0:
200,218,40215,2,0,B|172:69|172:69|116:40,1,200,0|0,3:0|3:0,3:0:0:0:
6,262,40644,2,0,B|47:232|47:232|98:242,1,100,10|0,3:0|3:0,3:0:0:0:
215,375,40930,2,0,B|174:345|174:345|123:355,1,100,2|0,3:0|3:0,3:0:0:0:
9,247,41215,2,0,B|50:217|50:217|101:227,1,100,10|0,3:0|3:0,3:0:0:0:
163,277,41430,1,0,3:0:0:0:
163,277,41501,6,0,P|185:227|170:185,1,100,2|0,3:0|3:0,3:0:0:0:
263,119,41787,2,0,P|233:72|190:61,1,100,10|0,3:0|3:0,3:0:0:0:
64,131,42072,2,0,P|50:76|26:28,1,100,2|0,3:0|3:0,3:0:0:0:
178,172,42358,1,10,3:0:0:0:
310,43,42501,2,0,B|366:7|419:57|403:67|454:108|504:69,1,200,0|0,3:0|3:0,3:0:0:0:
340,137,42930,1,10,3:0:0:0:
461,0,43072,1,0,3:0:0:0:
461,0,43144,1,0,3:0:0:0:
461,0,43215,1,2,3:0:0:0:
332,121,43358,1,0,3:0:0:0:
473,244,43501,2,0,P|485:198|510:146,1,100,10|0,3:0|3:0,3:0:0:0:
494,122,43715,1,0,3:0:0:0:
494,122,43787,6,0,P|452:110|410:152,1,100,4|0,3:0|3:0,3:0:0:0:
315,288,44072,2,0,P|346:257|331:200,1,100,10|0,3:0|3:0,3:0:0:0:
139,148,44358,1,2,3:0:0:0:
236,253,44501,1,0,3:0:0:0:
270,60,44644,2,0,P|317:57|346:95,1,100,10|0,3:0|3:0,3:0:0:0:
127,242,44930,1,2,3:0:0:0:
24,102,45072,2,0,P|69:82|118:71,1,100,0|10,3:0|3:0,3:0:0:0:
201,267,45358,1,8,3:0:0:0:
203,277,45430,1,8,3:0:0:0:
185,302,45501,5,8,3:0:0:0:
236,332,45572,1,8,3:0:0:0:
292,311,45644,1,8,3:0:0:0:
303,252,45715,1,8,3:0:0:0:
274,205,45787,1,8,3:0:0:0:
288,156,45858,1,8,3:0:0:0:
331,147,45930,1,8,3:0:0:0:
364,168,46001,1,8,3:0:0:0:
357,186,46072,5,8,3:0:0:0:
108,246,46215,1,8,3:0:0:0:
370,319,46358,5,8,3:0:0:0:
181,140,46501,1,8,3:0:0:0:
229,320,46644,5,8,3:0:0:0:
296,84,46787,1,8,3:0:0:0:
111,363,46930,5,8,3:0:0:0:
49,26,47072,1,8,3:0:0:0:
312,259,47215,5,12,3:0:0:0:
288,11,48358,6,0,B|264:41|264:41|299:154,1,115,4|0,3:0|3:0,3:0:0:0:
446,283,48644,2,0,P|383:216|242:262,1,230,8|2,3:0|3:0,3:0:0:0:
167,367,49072,1,2,3:0:0:0:
342,298,49215,1,8,3:0:0:0:
176,357,49358,2,0,P|151:244|117:134,1,230,4|0,3:0|3:0,3:0:0:0:
9,32,49787,1,10,3:0:0:0:
19,22,50072,1,2,3:0:0:0:
203,126,50215,1,0,3:0:0:0:
47,231,50358,2,0,P|10:194|23:132,1,115,10|8,3:0|3:0,3:0:0:0:
90,91,50572,1,8,3:0:0:0:
90,91,50644,6,0,B|142:100|142:100|145:99|145:99|210:110,1,115,4|0,3:0|3:0,3:0:0:0:
311,265,50930,2,0,B|259:274|259:274|256:273|256:273|191:284,1,115,8|0,3:0|3:0,3:0:0:0:
390,121,51215,1,2,3:0:0:0:
267,363,51358,1,2,3:0:0:0:
136,198,51501,1,8,3:0:0:0:
420,317,51644,2,0,P|439:221|492:87,1,230,4|2,3:0|3:0,3:0:0:0:
258,2,52072,1,8,3:0:0:0:
324,168,52215,1,0,3:0:0:0:
178,57,52358,1,2,3:0:0:0:
171,66,52430,1,0,3:0:0:0:
167,76,52501,1,8,3:0:0:0:
165,87,52572,1,8,3:0:0:0:
195,131,52644,5,8,3:0:0:0:
176,184,52715,1,8,3:0:0:0:
127,201,52787,1,8,3:0:0:0:
83,184,52858,1,8,3:0:0:0:
72,145,52930,5,4,3:0:0:0:
208,297,53072,2,0,P|252:277|324:262,1,115,0|8,3:0|3:0,3:0:0:0:
36,366,53358,2,0,B|3:313|3:313|59:144,1,230,0|2,3:0|3:0,3:0:0:0:
155,366,53787,1,8,3:0:0:0:
246,85,53930,2,0,P|167:39|224:120,1,230,2|2,3:0|3:0,3:0:0:0:
351,282,54358,1,8,3:0:0:0:
145,202,54501,1,2,3:0:0:0:
341,14,54644,2,0,B|381:82|326:126|317:117|260:171|304:234,1,230,2|10,3:0|3:0,3:0:0:0:
238,78,55072,1,0,3:0:0:0:
391,191,55215,6,0,P|442:167|501:149,1,115,2|0,3:0|3:0,3:0:0:0:
272,155,55501,1,8,3:0:0:0:
149,314,55644,2,0,B|127:207|127:207|123:205|123:205|98:86,1,230,0|2,3:0|3:0,3:0:0:0:
246,0,56072,1,8,3:0:0:0:
262,23,56144,1,8,3:0:0:0:
263,45,56215,2,0,P|252:76|212:96,1,57.5,8|8,3:0|3:0,3:0:0:0:
29,171,56358,5,4,3:0:0:0:
26,161,56644,5,4,3:0:0:0:
23,152,56930,5,4,3:0:0:0:
126,259,57215,6,0,P|106:277|103:314,1,57.5,8|8,3:0|3:0,3:0:0:0:
75,330,57358,2,0,P|78:356|107:379,1,57.5,8|8,3:0|3:0,3:0:0:0:
199,229,57501,6,0,P|155:185|91:192,1,115,4|0,3:0|3:0,3:0:0:0:
191,335,57787,2,0,P|285:303|417:280,1,230,8|2,3:0|3:0,3:0:0:0:
369,384,58215,1,2,3:0:0:0:
296,163,58358,2,0,P|284:189|280:217,1,57.5,8|0,3:0|3:0,3:0:0:0:
471,353,58501,2,0,P|505:274|410:185,1,230,4|0,3:0|3:0,3:0:0:0:
284,322,58930,1,10,3:0:0:0:
273,314,59215,2,0,P|259:259|230:197,1,115,2|0,3:0|3:0,3:0:0:0:
117,161,59501,1,10,3:0:0:0:
224,32,59644,1,8,3:0:0:0:
229,41,59715,1,8,3:0:0:0:
245,44,59787,6,0,B|184:56|184:56|182:58|182:58|118:70,1,115,4|0,3:0|3:0,3:0:0:0:
340,0,60072,2,0,B|401:12|401:12|403:14|403:14|452:23,1,115,8|0,3:0|3:0,3:0:0:0:
256,295,60358,1,2,3:0:0:0:
318,97,60501,1,2,3:0:0:0:
421,227,60644,1,8,3:0:0:0:
87,152,60787,2,0,B|149:118|194:173|177:187|240:239|299:200,1,230,4|2,3:0|3:0,3:0:0:0:
71,266,61215,1,10,3:0:0:0:
168,71,61358,1,0,3:0:0:0:
78,13,61501,1,2,3:0:0:0:
68,2,61787,2,0,P|29:38|44:101,1,115,8|0,3:0|3:0,3:0:0:0:
94,144,62001,1,0,3:0:0:0:
94,144,62072,6,0,P|73:199|59:256,1,115,4|0,3:0|3:0,3:0:0:0:
272,128,62358,2,0,P|258:72|237:18,1,115,10|0,3:0|3:0,3:0:0:0:
178,264,62644,2,0,P|220:305|276:293,1,115,0|2,3:0|3:0,3:0:0:0:
105,374,62930,1,8,3:0:0:0:
264,211,63072,2,0,B|373:234|373:234|379:233|379:233|500:261,1,230,2|2,3:0|3:0,3:0:0:0:
379,97,63501,2,0,B|343:143|343:143|361:202,1,115,8|0,3:0|3:0,3:0:0:0:
426,371,63787,2,0,B|442:316|442:316|406:270,1,115,2|0,3:0|3:0,3:0:0:0:
194,90,64072,1,10,3:0:0:0:
253,310,64215,1,0,3:0:0:0:
46,165,64358,6,0,L|75:30,1,120,4|0,3:0|3:0,3:0:0:0:
253,12,64644,1,8,3:0:0:0:
287,45,64715,1,0,3:0:0:0:
288,92,64787,1,0,3:0:0:0:
257,129,64858,1,0,3:0:0:0:
186,102,64930,5,10,3:0:0:0:
210,84,65001,1,8,3:0:0:0:
245,83,65072,1,8,3:0:0:0:
283,101,65144,1,8,3:0:0:0:
304,143,65215,1,8,3:0:0:0:
355,158,65287,1,8,3:0:0:0:
410,133,65358,1,8,3:0:0:0:
417,67,65430,1,8,3:0:0:0:
363,18,65501,5,12,3:0:0:0:
359,5,65787,6,0,B|356:14|349:22|349:22|358:25|366:32|366:32|368:23|376:14|376:14|367:13|359:5,1,80,4|0,3:0|3:0,3:0:0:0:
180,213,66072,6,0,P|139:190|72:175,1,110,4|0,3:2|3:0,3:0:0:0:
237,305,66358,2,0,P|278:282|345:267,1,100,4|0,3:0|3:0,3:0:0:0:
134,379,66644,6,0,P|115:327|148:288,1,100,4|0,3:2|3:0,3:0:0:0:
272,206,66930,2,0,P|291:154|258:115,1,100,10|0,3:0|3:0,3:0:0:0:
100,39,67215,2,0,B|76:85|76:85|234:51,1,200,2|10,3:0|3:0,3:0:0:0:
410,24,67644,2,0,B|367:12|367:12|364:10|364:10|313:0,1,100,0|2,3:0|3:0,3:0:0:0:
365,202,67930,1,0,3:0:0:0:
485,82,68072,2,0,P|504:135|513:181,1,100,10|0,3:0|3:0,3:0:0:0:
298,317,68358,2,0,B|402:294|402:294|480:353,1,200,2|10,3:0|3:0,3:0:0:0:
372,193,68787,1,0,3:0:0:0:
212,290,68930,6,0,B|200:341|200:341|238:384,1,100,2|0,3:0|3:0,3:0:0:0:
80,172,69215,2,0,B|92:223|92:223|54:266,1,100,10|0,3:0|3:0,3:0:0:0:
219,377,69501,2,0,B|187:341|187:341|199:290,1,100,2|0,3:0|3:0,3:0:0:0:
303,155,69787,1,10,3:0:0:0:
261,31,69930,2,0,P|204:45|164:62,1,100,0|2,3:0|3:0,3:0:0:0:
181,215,70215,1,0,3:0:0:0:
19,87,70358,2,0,P|31:38|85:27,1,100,10|0,3:0|3:0,3:0:0:0:
289,145,70644,2,0,B|323:282|323:282|293:332,1,200,2|10,3:0|3:0,3:0:0:0:
396,195,71072,1,0,3:0:0:0:
396,195,71144,1,0,3:0:0:0:
396,195,71215,6,0,P|437:165|493:172,1,100,4|0,3:0|3:0,3:0:0:0:
281,334,71501,2,0,P|241:304|192:306,1,100,10|0,3:0|3:0,3:0:0:0:
408,322,71787,2,0,B|411:359|386:382|386:382|390:300|332:238,1,200,2|10,3:0|3:0,3:0:0:0:
217,137,72215,2,0,B|189:182|189:182|211:236,1,100,0|2,3:0|3:0,3:0:0:0:
142,44,72501,1,0,3:0:0:0:
33,184,72644,2,0,B|61:229|61:229|39:283,1,100,10|0,3:0|3:0,3:0:0:0:
191,359,72930,1,2,3:0:0:0:
291,161,73072,1,8,3:0:0:0:
134,248,73215,1,8,3:0:0:0:
68,27,73358,6,0,B|38:9|38:9|69:141,1,150,4|0,3:0|3:0,3:0:0:0:
87,139,73644,1,8,3:0:0:0:
311,52,73787,1,8,3:0:0:0:
206,247,73930,2,0,P|215:190|241:92,1,150,4|0,3:0|3:0,3:0:0:0:
221,78,74215,1,8,3:0:0:0:
373,200,74358,1,8,3:0:0:0:
440,18,74501,2,0,P|513:43|505:111,1,150,4|0,3:0|3:0,3:0:0:0:
484,127,74787,1,8,3:0:0:0:
298,220,74930,1,8,3:0:0:0:
470,311,75072,2,0,B|434:301|399:324|411:333|374:364|321:342,1,150,4|0,3:0|3:0,3:0:0:0:
260,306,75358,2,0,P|244:334|252:369,1,50,8|8,3:0|3:0,3:0:0:0:
161,377,75501,1,8,3:0:0:0:
120,348,75572,1,8,3:0:0:0:
116,310,75644,1,8,3:0:0:0:
134,289,75715,1,8,3:0:0:0:
163,287,75787,6,0,P|115:326|86:368,1,100,4|0,3:2|3:0,3:0:0:0:
0,237,76072,2,0,P|23:200|75:201,1,100,10|0,3:0|3:0,3:0:0:0:
233,121,76358,2,0,B|139:103|139:103|134:105|134:105|32:87,1,200,2|10,3:0|3:0,3:0:0:0:
280,41,76787,2,0,P|315:70|307:133,1,100,0|2,3:0|3:0,3:0:0:0:
192,219,77072,1,0,3:0:0:0:
116,25,77215,2,0,P|159:12|207:54,1,100,10|0,3:0|3:0,3:0:0:0:
291,218,77501,2,0,P|389:204|422:108,1,200,2|10,3:0|3:0,3:0:0:0:
512,224,77930,1,0,3:0:0:0:
369,332,78072,6,0,L|270:350,1,100,2|0,3:0|3:0,3:0:0:0:
193,208,78358,2,0,L|292:226,1,100,10|0,3:0|3:0,3:0:0:0:
169,367,78644,2,0,L|70:385,1,100,2|0,3:0|3:0,3:0:0:0:
202,287,78930,1,10,3:0:0:0:
77,186,79072,2,0,P|42:223|45:273,1,100,0|2,3:0|3:0,3:0:0:0:
199,135,79358,1,0,3:0:0:0:
101,13,79501,2,0,L|118:111,1,100,10|0,3:0|3:0,3:0:0:0:
281,216,79787,2,0,P|295:140|338:17,1,200,2|10,3:0|3:0,3:0:0:0:
447,233,80215,1,0,3:0:0:0:
447,233,80287,1,0,3:0:0:0:
447,233,80358,6,0,P|392:231|362:275,1,100,4|0,3:0|3:0,3:0:0:0:
446,96,80644,2,0,P|471:144|524:148,1,100,10|0,3:0|3:0,3:0:0:0:
454,337,80930,2,0,B|410:362|410:362|250:324,1,200,2|10,3:0|3:0,3:0:0:0:
79,291,81358,2,0,P|128:272|175:265,1,100,0|2,3:0|3:0,3:0:0:0:
102,383,81644,1,0,3:0:0:0:
47,215,81787,2,0,P|4:236|0:283,1,100,10|0,3:0|3:0,3:0:0:0:
239,202,82072,1,2,3:0:0:0:
187,340,82215,1,0,3:0:0:0:
226,194,82358,2,0,P|209:137|184:92,1,100,10|8,3:0|3:0,3:0:0:0:
120,74,82572,1,8,3:0:0:0:
120,74,82645,5,8,3:0:0:0:
356,160,82787,1,8,3:0:0:0:
236,37,82930,5,8,3:0:0:0:
392,2,83073,1,8,3:0:0:0:
460,140,83216,5,8,3:0:0:0:
477,58,83359,1,8,3:0:0:0:
344,237,83502,6,0,P|329:172|291:101,1,135,4|0,3:0|3:0,3:0:0:0:
438,290,83787,2,0,P|451:231|479:178,1,120,4|0,3:0|3:0,3:0:0:0:
365,348,84074,6,0,P|326:351|297:324,1,80,4|0,3:2|3:0,3:0:0:0:
219,380,84359,2,0,P|194:349|200:311,1,80,10|0,3:0|3:0,3:0:0:0:
116,197,84645,1,2,3:0:0:0:
240,137,84788,1,0,3:0:0:0:
176,33,84931,2,0,P|160:69|149:108,1,80,10|0,3:0|3:0,3:0:0:0:
51,273,85216,2,0,B|11:218|11:218|32:153,1,120,2|0,3:0|3:0,3:0:0:0:
51,148,85502,1,10,3:0:0:0:
243,237,85645,1,0,3:0:0:0:
248,245,85931,1,0,3:0:0:0:
312,161,86074,2,0,L|436:137,1,120,10|0,3:0|3:0,3:0:0:0:
451,112,86359,5,2,3:0:0:0:
214,8,86502,2,0,B|183:48|183:48|224:172,1,160,0|0,3:0|3:0,3:0:0:0:
112,262,86931,2,0,P|81:235|40:230,1,80,2|0,3:0|3:0,3:0:0:0:
121,137,87216,1,10,3:0:0:0:
237,310,87359,2,0,B|193:294|163:319|178:328|136:357|84:333,1,160,0|0,3:0|3:0,3:0:0:0:
227,191,87788,1,10,3:0:0:0:
329,304,87931,2,0,P|336:260|353:229,1,80,0|2,3:0|3:0,3:0:0:0:
475,181,88216,1,0,3:0:0:0:
355,29,88359,2,0,L|383:161,1,120,10|0,3:0|3:0,3:0:0:0:
399,170,88645,6,0,B|374:149|374:149|338:138|298:131|298:131|264:98,1,135,2|0,3:0|3:0,3:0:0:0:
227,57,88931,2,0,B|220:44|223:31|223:31|230:43|250:53,1,45,10|0,3:0|3:0,3:0:0:0:
148,0,89074,2,0,B|121:29|123:65|123:65|121:69|121:69|130:109|166:119|166:119|183:138|180:160,1,180,0|0,3:0|3:0,3:0:0:0:
108,259,89502,2,0,B|123:276|124:299|124:299|144:281|170:278,1,90.0000000000001,10|0,3:0|3:0,3:0:0:0:
330,243,89788,2,0,B|307:244|310:261|359:273|375:232|305:185|254:212|254:212|262:222|260:237,1,135,2|0,3:0|3:0,3:0:0:0:
235,232,90074,2,0,B|246:243|247:256|247:256|243:268|249:298,1,45,10|0,3:0|3:0,3:0:0:0:
271,352,90216,2,0,B|289:326|326:329|326:329|328:327|328:327|384:343|368:356|408:382|447:366,1,180,0|0,3:0|3:0,3:0:0:0:
491,325,90574,1,0,3:0:0:0:
491,325,90645,2,0,B|474:306|478:282|478:282|475:280|475:280|474:250|502:231,1,90.0000000000001,10|0,3:0|3:0,3:0:0:0:
329,106,90931,6,0,B|320:149|363:171|363:171|377:162|398:161,1,90.0000000000001,2|0,3:0|3:0,3:0:0:0:
490,47,91216,2,0,B|499:90|456:112|456:112|442:103|421:102,1,90.0000000000001,10|0,3:0|3:0,3:0:0:0:
391,60,91431,1,0,3:0:0:0:
391,60,91502,2,0,B|376:40|356:35|356:35|352:32|352:32|326:26|293:37,1,90.0000000000001,2|0,3:0|3:0,3:0:0:0:
216,99,91788,2,0,B|211:93|215:83|215:83|218:98|232:115,1,45,10|0,3:0|3:0,3:0:0:0:
211,12,91931,2,0,B|191:5|171:18|171:18|167:17|167:17|145:40|152:69|116:92|116:92|115:95|115:95|83:107|63:89,1,180,0|0,3:0|3:0,3:0:0:0:
74,23,92288,1,0,3:0:0:0:
74,23,92359,1,10,3:0:0:0:
158,156,92502,2,0,P|139:166|107:173,1,45,2|0,3:0|3:0,3:0:0:0:
29,162,92645,1,0,3:0:0:0:
93,323,92788,1,10,3:0:0:0:
232,208,92931,1,10,3:0:0:0:
170,317,93074,2,0,P|165:293|148:266,1,45,2|0,3:0|3:0,3:0:0:0:
238,129,93216,6,0,B|246:132|253:125|253:125|283:131|310:160,1,80,4|0,3:2|3:0,3:0:0:0:
406,232,93502,2,0,P|440:201|435:158,1,80,10|0,3:0|3:0,3:0:0:0:
302,242,93788,1,2,3:0:0:0:
463,314,93931,1,0,3:0:0:0:
375,115,94074,2,0,L|398:26,1,80,10|0,3:0|3:0,3:0:0:0:
221,0,94359,2,0,B|201:32|201:32|226:124,1,120,2|0,3:0|3:0,3:0:0:0:
252,126,94645,1,10,3:0:0:0:
182,219,94788,1,0,3:0:0:0:
186,227,95074,1,0,3:0:0:0:
115,165,95216,2,0,P|63:158|4:198,1,120,10|0,3:0|3:0,3:0:0:0:
14,222,95502,5,2,3:0:0:0:
132,384,95645,2,0,P|142:322|179:201,1,160,0|0,3:0|3:0,3:0:0:0:
305,177,96074,2,0,P|337:216|323:262,1,80,2|0,3:0|3:0,3:0:0:0:
240,302,96359,1,10,3:0:0:0:
236,121,96502,2,0,P|296:91|388:140,1,160,0|0,3:0|3:0,3:0:0:0:
465,238,96931,1,10,3:0:0:0:
503,81,97074,1,0,3:0:0:0:
512,68,97359,1,0,3:0:0:0:
507,56,97431,1,0,3:0:0:0:
501,44,97502,2,0,P|438:49|386:6,1,120,10|0,3:0|3:0,3:0:0:0:
303,6,97788,6,0,B|316:57|316:57|320:59|320:59|334:118,1,100,2|0,3:0|3:0,3:0:0:0:
104,174,98074,2,0,B|113:132|113:132|117:131|117:131|131:79,1,100,10|0,3:0|3:0,3:0:0:0:
272,248,98359,1,2,3:0:0:0:
112,313,98502,2,0,B|175:279|217:312|201:326|253:366|302:341,1,200,0|0,3:0|3:0,3:0:0:0:
438,171,98931,2,0,P|477:194|473:256,1,100,2|0,3:0|3:0,3:0:0:0:
334,92,99216,2,0,P|260:135|268:251,1,200,10|2,3:0|3:0,3:0:0:0:
451,84,99645,1,0,3:0:0:0:
296,8,99788,2,0,L|147:34,1,150,10|0,3:0|3:0,3:0:0:0:
129,72,100074,6,0,P|74:89|24:40,1,110,2|0,3:0|3:0,3:0:0:0:
211,195,100359,1,10,3:0:0:0:
84,322,100502,2,0,P|68:259|50:213,1,110,0|2,3:0|3:0,3:0:0:0:
215,99,100788,1,0,3:0:0:0:
309,282,100931,1,10,3:0:0:0:
396,118,101074,1,0,3:0:0:0:
393,107,101145,1,0,3:0:0:0:
349,86,101216,5,8,3:0:0:0:
367,33,101288,1,8,3:0:0:0:
419,19,101359,1,8,3:0:0:0:
467,44,101431,1,8,3:0:0:0:
469,98,101502,1,8,3:0:0:0:
427,134,101574,1,8,3:0:0:0:
430,188,101645,1,8,3:0:0:0:
472,222,101716,1,8,3:0:0:0:
493,214,101788,6,0,P|495:178|518:148,1,55,8|0,3:0|3:0,3:0:0:0:
315,174,101931,1,8,3:0:0:0:
271,206,102002,1,8,3:0:0:0:
273,255,102074,1,8,3:0:0:0:
302,286,102145,1,8,3:0:0:0:
340,287,102216,1,8,3:0:0:0:
364,264,102288,1,8,3:0:0:0:
364,236,102359,6,0,P|310:252|257:280,1,100,4|0,3:0|3:0,3:0:0:0:
153,241,102645,2,0,B|130:289|130:289|154:341,1,100,10|0,3:0|3:0,3:0:0:0:
9,168,102931,2,0,B|32:216|32:216|12:258,1,100,2|0,3:0|3:0,3:0:0:0:
162,144,103216,1,10,3:0:0:0:
53,52,103359,2,0,B|45:32|21:23|21:23|75:-2|105:33|95:39|127:66|177:55,1,200,0|0,3:0|3:0,3:0:0:0:
411,51,103788,2,0,B|403:41|404:31|404:31|405:27|405:27|401:30|401:30|321:14,1,100,10|0,3:0|3:0,3:0:0:0:
236,149,104074,2,0,B|244:139|243:129|243:129|242:125|242:125|246:128|246:128|326:112,1,100,2|0,3:0|3:0,3:0:0:0:
445,277,104359,2,0,P|473:236|459:188,1,100,10|0,3:0|3:0,3:0:0:0:
396,135,104574,1,0,3:0:0:0:
396,135,104645,6,0,P|382:185|357:241,1,100,2|0,3:0|3:0,3:0:0:0:
166,198,104931,2,0,P|180:248|205:304,1,100,10|0,3:0|3:0,3:0:0:0:
384,319,105216,1,2,3:0:0:0:
229,367,105359,2,0,B|165:390|125:345|142:333|99:294|33:328,1,200,0|0,3:0|3:0,3:0:0:0:
0,147,105788,2,0,B|43:116|43:116|96:129,1,100,2|0,3:0|3:0,3:0:0:0:
114,254,106074,1,10,3:0:0:0:
170,77,106216,1,0,3:0:0:0:
170,77,106288,1,0,3:0:0:0:
170,77,106359,1,2,3:0:0:0:
103,241,106502,1,0,3:0:0:0:
234,125,106645,2,0,P|278:103|329:89,1,100,10|0,3:0|3:0,3:0:0:0:
393,126,106859,1,0,3:0:0:0:
393,126,106931,5,4,3:0:0:0:
90,54,107074,1,0,3:0:0:0:
346,194,107216,5,10,3:0:0:0:
72,165,107359,1,0,3:0:0:0:
344,275,107502,5,2,3:0:0:0:
106,318,107645,1,0,3:0:0:0:
246,226,107788,6,0,P|270:280|283:337,1,100,10|0,3:0|3:0,3:0:0:0:
237,384,108002,1,0,3:0:0:0:
224,374,108074,5,8,3:0:0:0:
254,322,108145,1,8,3:0:0:0:
308,321,108216,1,8,3:0:0:0:
341,358,108288,1,8,3:0:0:0:
385,364,108359,1,8,3:0:0:0:
418,341,108431,1,8,3:0:0:0:
422,306,108502,1,8,3:0:0:0:
400,285,108574,1,8,3:0:0:0:
385,291,108645,5,8,3:0:0:0:
341,257,108716,1,8,3:0:0:0:
343,201,108788,1,8,3:0:0:0:
385,166,108859,1,8,3:0:0:0:
439,172,108931,2,0,L|454:246,3,50,8|8|8|8,3:0|3:0|3:0|3:0,3:0:0:0:
267,159,109216,5,8,3:0:0:0:
419,258,109359,1,8,3:0:0:0:
176,266,109502,5,8,3:0:0:0:
447,142,109645,1,8,3:0:0:0:
190,80,109788,5,8,3:0:0:0:
253,340,109931,1,8,3:0:0:0:
422,44,110074,5,8,3:0:0:0:
342,376,110216,1,8,3:0:0:0:
111,20,110359,5,8,3:0:0:0:
512,329,111787,6,0,P|462:297|402:304,1,115,4|0,3:0|3:0,3:0:0:0:
256,162,112072,2,0,B|283:106|283:106|451:77,1,230,8|2,3:0|3:0,3:0:0:0:
320,253,112501,1,2,3:0:0:0:
248,23,112644,1,8,3:0:0:0:
170,193,112787,2,0,B|95:186|88:126|97:118|78:52|-2:55,1,230,4|0,3:0|3:0,3:0:0:0:
186,100,113215,1,8,3:0:0:0:
27,245,113358,1,0,3:0:0:0:
175,86,113501,1,2,3:0:0:0:
192,304,113644,1,0,3:0:0:0:
257,153,113787,2,0,P|309:129|365:117,1,115,10|0,3:0|3:0,3:0:0:0:
506,3,114072,6,0,B|511:59|511:59|471:101,1,115,4|0,3:0|3:0,3:0:0:0:
365,311,114358,2,0,B|325:269|325:269|330:212,1,115,8|0,3:0|3:0,3:0:0:0:
245,25,114644,1,2,3:0:0:0:
448,234,114787,1,2,3:0:0:0:
423,26,114929,1,8,3:0:0:0:
236,227,115072,2,0,B|132:200|132:200|119:189|119:189|-1:158,1,230,4|2,3:0|3:0,3:0:0:0:
224,99,115501,1,8,3:0:0:0:
49,317,115644,2,0,P|42:289|27:263,1,57.5,4|0,3:2|3:0,3:0:0:0:
119,222,115787,2,0,P|126:194|141:168,1,57.5,4|0,3:2|3:0,3:0:0:0:
34,85,115929,1,8,3:0:0:0:
29,74,116001,1,8,3:0:0:0:
3,42,116072,5,8,3:0:0:0:
45,0,116144,1,8,3:0:0:0:
98,5,116215,1,8,3:0:0:0:
132,37,116287,1,8,3:0:0:0:
111,84,116358,5,4,3:0:0:0:
316,91,116501,2,0,P|318:35|275:0,1,115,0|8,3:0|3:0,3:0:0:0:
211,190,116787,2,0,B|310:257|310:257|421:226,1,230,0|2,3:0|3:0,3:0:0:0:
253,350,117215,1,8,3:0:0:0:
410,135,117358,2,0,P|505:200|436:318,1,230,2|2,3:0|3:0,3:0:0:0:
307,95,117787,1,8,3:0:0:0:
236,247,117929,1,2,3:0:0:0:
55,162,118072,2,0,B|15:210|15:210|184:175,1,230,2|10,3:0|3:0,3:0:0:0:
45,54,118501,1,2,3:0:0:0:
305,0,118644,6,0,P|285:49|272:114,1,115,4|0,3:0|3:0,3:0:0:0:
365,265,118929,1,8,3:0:0:0:
512,129,119072,2,0,B|445:104|404:155|431:160|372:221|294:170,1,230,0|2,3:0|3:0,3:0:0:0:
179,22,119501,2,0,L|172:63,1,38.3333333333333,8|0,3:0|3:0,3:0:0:0:
48,249,119644,2,0,L|34:179,1,57.5,8|8,3:0|3:0,3:0:0:0:
226,121,119787,5,4,3:0:0:0:
239,117,120072,5,4,3:0:0:0:
252,113,120358,5,4,3:0:0:0:
452,95,120644,2,0,P|428:75|397:72,1,57.5,8|8,3:0|3:0,3:0:0:0:
390,0,120787,2,0,P|359:8|340:32,1,57.5,8|8,3:0|3:0,3:0:0:0:
317,215,120929,6,0,P|373:190|434:174,1,115,4|0,3:0|3:0,3:0:0:0:
376,378,121215,2,0,B|338:336|338:336|159:292,1,230,8|2,3:0|3:0,3:0:0:0:
399,272,121644,1,2,3:0:0:0:
178,384,121787,1,8,3:0:0:0:
51,174,121929,2,0,B|119:143|167:196|154:206|202:249|263:222,1,230,4|2,3:0|3:0,3:0:0:0:
269,73,122358,1,8,3:0:0:0:
88,259,122501,1,2,3:0:0:0:
176,81,122644,2,0,P|140:44|77:52,1,115,2|0,3:0|3:0,3:0:0:0:
264,210,122929,1,10,3:0:0:0:
364,73,123072,1,0,3:0:0:0:
364,73,123144,1,0,3:0:0:0:
364,73,123215,6,0,B|422:83|422:83|426:81|426:81|484:91,1,115,4|0,3:0|3:0,3:0:0:0:
287,0,123501,2,0,B|253:49|253:49|270:113,1,115,8|0,3:0|3:0,3:0:0:0:
356,334,123787,1,0,3:0:0:0:
448,159,123929,1,2,3:0:0:0:
239,195,124072,1,8,3:0:0:0:
507,360,124215,2,0,B|483:231|483:231|461:267,1,172.5,4|0,3:0|3:0,3:0:0:0:
454,292,124501,2,0,P|433:277|386:278,1,57.5,2|0,3:0|3:0,3:0:0:0:
228,189,124644,1,8,3:0:0:0:
242,376,124787,2,0,P|251:348|263:322,1,57.5,4|0,3:2|3:0,3:0:0:0:
363,185,124929,1,0,3:0:0:0:
241,39,125072,1,8,3:0:0:0:
193,72,125144,1,8,3:0:0:0:
189,123,125215,1,8,3:0:0:0:
214,162,125287,1,8,3:0:0:0:
253,168,125358,1,8,3:0:0:0:
280,146,125429,1,8,3:0:0:0:
272,113,125501,6,0,B|223:83|223:83|162:95,1,115,4|0,3:0|3:0,3:0:0:0:
50,160,125787,2,0,P|31:94|5:42,1,115,10|0,3:0|3:0,3:0:0:0:
159,272,126072,2,0,P|173:216|197:164,1,115,0|2,3:0|3:0,3:0:0:0:
56,245,126358,1,8,3:0:0:0:
193,14,126501,2,0,B|249:-19|309:33|295:57|347:93|409:54,1,230,2|2,3:0|3:0,3:0:0:0:
512,186,126929,2,0,P|462:192|418:134,1,115,8|0,3:0|3:0,3:0:0:0:
284,279,127215,2,0,P|334:285|378:227,1,115,2|0,3:0|3:0,3:0:0:0:
487,84,127501,1,10,3:0:0:0:
272,193,127644,1,0,3:0:0:0:
437,381,127787,6,0,B|467:327|467:327|444:262,1,120,4|0,3:0|3:0,3:0:0:0:
146,164,128072,1,8,3:0:0:0:
339,373,128215,1,0,3:0:0:0:
110,269,128358,1,2,3:0:0:0:
338,110,128501,1,0,3:0:0:0:
89,17,128644,1,8,3:0:0:0:
65,35,128715,1,8,3:0:0:0:
58,64,128787,2,0,P|59:90|88:125,1,60,8|8,3:0|3:0,3:0:0:0:
264,284,128929,5,12,3:0:0:0:
261,296,129215,6,0,B|258:287|251:279|251:279|260:276|268:269|268:269|270:278|278:287|278:287|269:288|261:296,1,80,4|0,3:0|3:0,3:0:0:0:
55,372,129501,6,0,P|46:319|23:268,1,110,4|0,3:2|3:0,3:0:0:0:
165,210,129787,2,0,P|174:157|197:106,1,100,4|0,3:0|3:0,3:0:0:0:
71,38,130072,1,4,3:2:0:0:
256,192,130144,12,0,131072,3:0:0:0:
428,68,131215,6,0,B|433:44|452:29|452:29|296:59,1,200,4|8,3:0|3:0,3:0:0:0:
161,219,131643,1,0,3:0:0:0:
326,126,131786,1,2,3:0:0:0:
156,206,131929,1,0,3:0:0:0:
314,326,132072,2,0,P|332:290|305:230,1,100,10|0,3:0|3:0,3:0:0:0:
119,115,132357,1,2,3:0:0:0:
151,355,132500,2,0,P|172:277|222:159,1,200,0|0,3:0|3:0,3:0:0:0:
87,292,132929,1,2,3:0:0:0:
29,114,133072,2,0,P|92:33|184:56,1,200,0|0,3:0|3:0,3:0:0:0:
289,236,133500,6,0,B|351:266|393:226|379:215|427:184|477:205,1,200,2|10,3:0|3:0,3:0:0:0:
317,127,133929,1,0,3:0:0:0:
437,288,134072,1,2,3:0:0:0:
324,117,134215,1,0,3:0:0:0:
255,307,134357,1,10,3:0:0:0:
377,201,134500,1,0,3:0:0:0:
179,116,134643,5,2,3:0:0:0:
157,128,134715,1,0,3:0:0:0:
148,151,134786,2,0,P|148:179|174:208,1,50,0|0,3:0|3:0,3:0:0:0:
103,245,134929,1,10,3:0:0:0:
112,262,135000,1,0,3:0:0:0:
129,271,135072,2,0,P|158:277|190:264,1,50,0|0,3:0|3:0,3:0:0:0:
232,218,135215,2,0,L|280:207,3,50,2|0|0|0,3:0|3:0|3:0|3:0,3:0:0:0:
336,275,135500,2,0,L|391:287,3,50,10|0|0|0,3:0|3:0|3:0|3:0,3:0:0:0:
481,92,135786,5,2,3:0:0:0:
476,100,135857,1,0,3:0:0:0:
472,109,135929,1,0,3:0:0:0:
469,118,136000,1,0,3:0:0:0:
492,163,136072,5,10,3:0:0:0:
462,190,136143,1,0,3:0:0:0:
422,186,136215,1,0,3:0:0:0:
397,153,136286,1,0,3:0:0:0:
399,113,136357,1,2,3:0:0:0:
386,75,136429,1,0,3:0:0:0:
351,53,136500,1,0,3:0:0:0:
311,58,136572,1,0,3:0:0:0:
288,91,136643,6,0,P|316:105|344:108,7,50,10|0|0|0|2|0|0|0,3:0|3:0|3:0|3:0|3:0|3:0|3:0|3:0,3:0:0:0:
226,1,137215,5,10,3:0:0:0:
216,50,137286,1,0,3:0:0:0:
207,98,137357,1,0,3:0:0:0:
198,146,137429,1,0,3:0:0:0:
190,195,137500,1,2,3:0:0:0:
183,244,137572,1,0,3:0:0:0:
173,293,137643,1,0,3:0:0:0:
165,342,137715,1,0,3:0:0:0:
195,365,137786,6,0,L|179:298,1,50,10|0,3:0|3:0,3:0:0:0:
103,258,137929,2,0,L|119:189,1,50,0|0,3:0|3:0,3:0:0:0:
294,77,138072,5,2,3:0:0:0:
0,182,138215,1,0,3:0:0:0:
285,92,138357,1,10,3:0:0:0:
52,23,138500,1,0,3:0:0:0:
195,249,138643,2,0,P|258:226|395:193,1,200,2|10,3:0|3:0,3:0:0:0:
438,18,139072,2,0,L|450:69,1,50,0|0,3:0|3:0,3:0:0:0:
502,150,139215,5,8,3:0:0:0:
508,163,139286,1,8,3:0:0:0:
485,207,139357,1,8,3:0:0:0:
435,213,139429,1,8,3:0:0:0:
397,179,139500,2,0,P|392:156|402:125,1,50,8|8,3:0|3:0,3:0:0:0:
499,305,139643,5,2,3:0:0:0:
505,315,139715,1,8,3:0:0:0:
509,327,139786,1,8,3:0:0:0:
485,370,139857,1,8,3:0:0:0:
440,375,139929,1,8,3:0:0:0:
415,342,140000,1,8,3:0:0:0:
385,323,140072,1,8,3:0:0:0:
354,325,140143,1,8,3:0:0:0:
336,342,140215,1,8,3:0:0:0:
336,362,140286,1,8,3:0:0:0:
369,384,140357,5,4,3:0:0:0:
225,176,140500,1,0,3:0:0:0:
202,364,140643,1,10,3:0:0:0:
356,236,140786,1,0,3:0:0:0:
185,371,140929,2,0,P|172:313|153:269,1,100,2|0,3:0|3:0,3:0:0:0:
280,103,141215,1,10,3:0:0:0:
57,157,141357,1,0,3:0:0:0:
57,157,141429,1,0,3:0:0:0:
57,157,141500,2,0,P|91:194|138:193,1,100,2|0,3:0|3:0,3:0:0:0:
275,6,141786,1,10,3:0:0:0:
123,101,141929,1,0,3:0:0:0:
303,260,142072,5,2,3:0:0:0:
321,243,142143,1,0,3:0:0:0:
325,218,142215,2,0,P|324:193|294:162,1,50,0|0,3:0|3:0,3:0:0:0:
363,114,142357,1,10,3:0:0:0:
353,101,142429,1,0,3:0:0:0:
340,93,142500,2,0,P|315:88|278:110,1,50,0|0,3:0|3:0,3:0:0:0:
225,202,142643,5,2,3:0:0:0:
225,202,142715,1,0,3:0:0:0:
225,202,142786,1,0,3:0:0:0:
250,351,142929,5,10,3:0:0:0:
264,363,143024,6,0,L|329:348,1,66.6666666666667,0|0,3:0|3:0,3:0:0:0:
384,281,143215,5,2,3:0:0:0:
394,266,143310,6,0,L|459:280,1,66.6666666666667,0|0,3:0|3:0,3:0:0:0:
421,384,143500,5,10,3:0:0:0:
512,219,143643,1,0,3:0:0:0:
512,219,143715,1,0,3:0:0:0:
512,219,143786,2,0,L|495:160,1,50,2|0,3:0|3:0,3:0:0:0:
398,60,143929,2,0,L|384:108,1,50,0|0,3:0|3:0,3:0:0:0:
301,209,144072,1,10,3:0:0:0:
183,97,144215,2,0,B|228:69|228:69|277:80,1,100,0|2,3:0|3:0,3:0:0:0:
165,239,144500,1,8,3:0:0:0:
151,233,144572,1,8,3:0:0:0:
141,221,144643,2,0,P|128:193|137:158,1,50,8|8,3:0|3:0,3:0:0:0:
74,66,144786,2,0,P|53:80|43:102,1,50,8|8,3:0|3:0,3:0:0:0:
8,220,144929,6,0,P|27:269|37:321,1,100,4|0,3:0|3:0,3:0:0:0:
170,349,145215,2,0,P|197:336|232:332,1,50,10|0,3:0|3:0,3:0:0:0:
248,253,145357,1,0,3:0:0:0:
261,247,145429,1,0,3:0:0:0:
276,245,145500,2,0,P|301:260|324:286,3,50,2|0|0|0,3:0|3:0|3:0|3:0,3:0:0:0:
475,302,145786,2,0,L|466:252,1,50,10|0,3:0|3:0,3:0:0:0:
370,193,145929,2,0,L|380:137,1,50,0|0,3:0|3:0,3:0:0:0:
447,22,146072,5,2,3:0:0:0:
430,6,146143,1,0,3:0:0:0:
407,0,146215,2,0,P|380:1|352:27,1,50,0|0,3:0|3:0,3:0:0:0:
308,114,146357,1,10,3:0:0:0:
286,135,146429,1,0,3:0:0:0:
256,141,146500,2,0,P|229:139|201:113,1,50,0|0,3:0|3:0,3:0:0:0:
157,12,146643,6,0,L|108:23,3,50,2|0|0|0,3:0|3:0|3:0|3:0,3:0:0:0:
13,89,146929,2,0,P|23:111|28:136,1,50,10|0,3:0|3:0,3:0:0:0:
114,211,147072,2,0,P|121:181|138:152,1,50,0|0,3:0|3:0,3:0:0:0:
218,72,147215,5,2,3:0:0:0:
207,95,147286,1,0,3:0:0:0:
210,119,147357,2,0,P|226:141|262:154,1,50,8|8,3:0|3:0,3:0:0:0:
247,226,147500,2,0,P|274:225|305:202,1,50,8|8,3:0|3:0,3:0:0:0:
356,35,147643,5,10,3:0:0:0:
343,43,147715,1,8,3:0:0:0:
319,93,147786,1,8,3:0:0:0:
343,142,147857,1,8,3:0:0:0:
393,161,147929,1,8,3:0:0:0:
423,207,148000,1,8,3:0:0:0:
407,259,148072,2,0,P|376:276|344:276,3,50,10|8|8|8,3:0|3:0|3:0|3:0,3:0:0:0:
157,174,148357,5,8,3:0:0:0:
171,194,148429,1,8,3:0:0:0:
200,202,148500,1,8,3:0:0:0:
231,186,148572,1,8,3:0:0:0:
237,146,148643,1,8,3:0:0:0:
207,111,148715,1,8,3:0:0:0:
156,113,148786,1,10,3:0:0:0:
115,149,148857,1,10,3:0:0:0:
55,140,148929,2,0,P|25:97|62:25,1,120,0|10,3:0|3:0,3:0:0:0:
145,271,149215,5,8,3:0:0:0:
142,286,149286,1,8,3:0:0:0:
139,301,149357,1,8,3:0:0:0:
137,316,149429,1,8,3:0:0:0:
160,352,149500,5,12,3:0:0:0:
44,137,149643,1,0,3:0:0:0:
265,266,149786,2,0,P|281:202|328:75,1,165,10|0,3:0|3:0,3:0:0:0:
351,84,150072,1,10,3:0:0:0:
388,271,150215,1,0,3:0:0:0:
200,59,150357,1,10,3:0:0:0:
398,159,150500,1,0,3:0:0:0:
398,159,150572,1,0,3:0:0:0:
398,159,150643,5,10,3:0:0:0:
142,175,150786,1,0,3:0:0:0:
425,0,150929,2,0,B|434:21|461:37|461:37|424:169,1,165,10|0,3:0|3:0,3:0:0:0:
463,182,151215,1,10,3:0:0:0:
225,138,151357,1,0,3:0:0:0:
372,284,151500,1,10,3:0:0:0:
186,368,151643,1,0,3:0:0:0:
186,368,151715,1,0,3:0:0:0:
186,368,151786,5,12,3:0:0:0:
345,205,151929,1,0,3:0:0:0:
224,51,152072,2,0,B|150:69|150:69|134:88|134:88|38:112,1,165,10|0,3:0|3:0,3:0:0:0:
29,83,152357,1,10,3:0:0:0:
232,256,152500,1,0,3:0:0:0:
62,17,152643,1,10,3:0:0:0:
270,147,152786,1,0,3:0:0:0:
270,147,152857,1,0,3:0:0:0:
270,147,152929,5,12,3:0:0:0:
38,183,153072,1,0,3:0:0:0:
284,0,153215,2,0,P|356:28|359:143,1,165,10|0,3:0|3:0,3:0:0:0:
349,143,153500,1,10,3:0:0:0:
220,283,153643,1,0,3:0:0:0:
110,118,153786,1,8,3:0:0:0:
82,112,153857,1,8,3:0:0:0:
55,117,153929,1,8,3:0:0:0:
33,135,154000,1,8,3:0:0:0:
23,160,154072,5,12,3:0:0:0:
325,285,154215,1,0,3:0:0:0:
167,384,154357,2,0,P|150:300|113:180,1,165,10|0,3:0|3:0,3:0:0:0:
93,194,154643,1,10,3:0:0:0:
290,27,154786,1,0,3:0:0:0:
209,233,154929,1,10,3:0:0:0:
274,40,155072,1,0,3:0:0:0:
274,40,155143,1,0,3:0:0:0:
274,40,155215,5,12,3:0:0:0:
422,273,155357,1,0,3:0:0:0:
511,94,155500,2,0,B|467:81|432:114|441:123|402:156|356:133,1,165,10|0,3:0|3:0,3:0:0:0:
329,99,155786,1,10,3:0:0:0:
170,0,155929,1,0,3:0:0:0:
58,164,156072,1,8,3:0:0:0:
42,142,156143,1,8,3:0:0:0:
40,115,156215,2,0,P|44:91|74:60,1,55,8|8,3:0|3:0,3:0:0:0:
250,211,156357,6,0,B|171:232|171:232|163:232|163:232|72:260,1,165,12|0,3:0|3:0,3:0:0:0:
69,283,156643,1,8,3:0:0:0:
202,378,156786,1,4,3:0:0:0:
204,367,156857,1,0,3:0:0:0:
206,356,156929,2,0,L|219:295,3,55,0|0|0|0,3:0|3:0|3:0|3:0,3:0:0:0:
291,273,157215,1,12,3:0:0:0:
379,335,157357,1,0,3:0:0:0:
377,347,157429,1,8,3:0:0:0:
403,377,157500,5,8,3:0:0:0:
428,367,157572,1,8,3:0:0:0:
444,344,157643,2,0,P|455:317|444:278,1,55,10|8,3:0|3:0,3:0:0:0:
372,226,157786,1,8,3:0:0:0:
347,216,157857,1,8,3:0:0:0:
331,193,157929,2,0,P|320:166|331:127,1,55,8|8,3:0|3:0,3:0:0:0:
449,50,158072,5,8,3:0:0:0:
408,12,158143,1,8,3:0:0:0:
358,13,158215,1,8,3:0:0:0:
330,48,158286,1,8,3:0:0:0:
298,69,158357,1,8,3:0:0:0:
265,69,158429,1,8,3:0:0:0:
243,51,158500,1,8,3:0:0:0:
239,29,158572,1,8,3:0:0:0:
267,0,158643,5,4,3:2:0:0:
171,186,166286,5,0,3:0:0:0:
160,174,166357,1,8,3:0:0:0:
136,205,166429,1,8,3:0:0:0:
140,245,166500,2,0,P|158:269|187:282,1,50,8|8,3:0|3:0,3:0:0:0:
278,33,166643,5,10,3:0:0:0:
275,23,166929,5,10,3:0:0:0:
272,13,167215,5,10,3:0:0:0:
96,355,167786,6,0,P|148:320|223:333,1,130,4|0,3:0|3:0,3:0:0:0:
392,217,168072,2,0,B|342:182|342:182|383:376,1,260,8|2,3:0|3:0,3:0:0:0:
480,92,168500,1,2,3:0:0:0:
257,244,168643,1,8,3:0:0:0:
85,54,168786,2,0,B|163:14|216:71|201:86|257:144|331:94,1,260,4|2,3:0|3:0,3:0:0:0:
111,228,169215,1,8,3:0:0:0:
296,12,169357,1,2,3:0:0:0:
46,146,169500,1,2,3:0:0:0:
323,199,169643,1,0,3:0:0:0:
209,384,169786,2,0,B|196:317|196:317|197:314|197:314|185:253,1,130,10|2,3:0|3:0,3:0:0:0:
121,24,170072,6,0,P|57:16|12:59,1,130,4|0,3:0|3:0,3:0:0:0:
309,211,170357,2,0,P|347:159|333:99,1,130,8|0,3:0|3:0,3:0:0:0:
105,234,170643,1,2,3:0:0:0:
363,320,170786,1,2,3:0:0:0:
203,143,170929,1,8,3:0:0:0:
343,0,171072,2,0,P|313:81|266:264,1,260,4|2,3:0|3:0,3:0:0:0:
423,376,171500,1,8,3:0:0:0:
448,224,171643,1,8,3:0:0:0:
462,219,171715,1,8,3:0:0:0:
508,243,171786,5,8,3:0:0:0:
494,292,171857,1,8,3:0:0:0:
448,316,171929,1,8,3:0:0:0:
398,299,172000,1,8,3:0:0:0:
371,254,172072,2,0,P|339:260|311:276,1,65,8|8,3:0|3:0,3:0:0:0:
261,380,172215,2,0,P|229:373|201:357,1,65,8|8,3:0|3:0,3:0:0:0:
69,194,172357,5,4,3:0:0:0:
102,368,172500,2,0,P|121:306|153:246,1,130,0|10,3:0|3:0,3:0:0:0:
246,68,172786,2,0,B|127:34|127:34|11:117,1,260,0|2,3:0|3:0,3:0:0:0:
232,273,173215,1,8,3:0:0:0:
401,8,173357,2,0,P|425:83|345:14,1,260,2|2,3:0|3:0,3:0:0:0:
451,354,173786,1,8,3:0:0:0:
212,135,173929,1,2,3:0:0:0:
490,198,174072,2,0,B|383:226|383:226|359:253|359:253|233:289,1,260,2|10,3:0|3:0,3:0:0:0:
104,211,174500,1,0,3:0:0:0:
237,0,174643,6,0,P|214:62|200:123,1,130,2|0,3:0|3:0,3:0:0:0:
279,362,174929,1,10,3:0:0:0:
20,207,175072,2,0,B|16:179|-9:154|-9:154|187:204,1,260,0|0,3:0|3:0,3:0:0:0:
370,375,175500,1,8,3:0:0:0:
305,227,175643,2,0,L|316:170,2,43.3333333333333,8|8|8,3:0|3:0|3:0,3:0:0:0:
63,364,175786,5,4,3:0:0:0:
72,360,176072,5,4,3:0:0:0:
83,356,176357,5,4,3:0:0:0:
247,49,176643,6,0,P|276:73|278:104,1,65,8|8,3:0|3:0,3:0:0:0:
353,107,176786,2,0,P|349:144|324:163,1,65,8|8,3:0|3:0,3:0:0:0:
345,12,176929,6,0,P|412:20|442:81,1,130,4|0,3:0|3:0,3:0:0:0:
243,304,177215,2,0,P|214:209|138:61,1,260,10|2,3:0|3:0,3:0:0:0:
393,341,177643,1,2,3:0:0:0:
494,103,177786,1,8,3:0:0:0:
98,219,177929,2,0,B|289:168|289:168|345:195,1,260,6|2,3:0|3:0,3:0:0:0:
150,375,178357,1,8,3:0:0:0:
418,253,178500,1,2,3:0:0:0:
188,69,178643,1,2,3:0:0:0:
401,136,178786,1,0,3:0:0:0:
210,270,178929,1,10,3:0:0:0:
306,41,179072,1,2,3:0:0:0:
81,205,179215,6,0,P|53:123|16:64,1,130,4|0,3:0|3:0,3:0:0:0:
295,30,179500,2,0,P|264:87|245:149,1,130,8|0,3:0|3:0,3:0:0:0:
129,361,179786,1,2,3:0:0:0:
331,197,179929,1,2,3:0:0:0:
107,43,180072,1,8,3:0:0:0:
236,326,180215,2,0,B|318:377|365:319|356:304|401:253|474:288,1,260,4|8,3:0|3:0,3:0:0:0:
495,329,180572,1,8,3:0:0:0:
495,329,180643,2,0,P|460:338|419:357,1,65,8|8,3:0|3:0,3:0:0:0:
340,186,180786,2,0,P|375:195|416:214,1,65,8|8,3:0|3:0,3:0:0:0:
512,91,180929,5,8,3:0:0:0:
507,78,181000,1,8,3:0:0:0:
500,66,181072,1,8,3:0:0:0:
491,55,181143,1,8,3:0:0:0:
478,13,181215,2,0,P|451:29|447:73,1,65,8|8,3:0|3:0,3:0:0:0:
363,56,181357,2,0,P|361:87|395:115,1,65,8|8,3:0|3:0,3:0:0:0:
254,226,181500,6,0,B|231:181|231:181|258:90,1,130,4|0,3:0|3:0,3:0:0:0:
129,15,181786,2,0,B|68:30|68:30|65:29|65:29|3:46,1,130,8|0,3:0|3:0,3:0:0:0:
55,282,182072,2,0,B|116:297|116:297|119:296|119:296|181:313,1,130,2|2,3:0|3:0,3:0:0:0:
384,129,182357,1,8,3:0:0:0:
512,338,182500,2,0,B|433:375|387:322|400:311|352:255|275:297,1,260,2|2,3:0|3:0,3:0:0:0:
433,55,182929,2,0,B|480:102|480:102|462:174,1,130,8|2,3:0|3:0,3:0:0:0:
195,218,183215,2,0,B|179:156|179:156|226:109,1,130,2|0,3:0|3:0,3:0:0:0:
442,244,183500,1,10,3:0:0:0:
294,16,183643,1,0,3:0:0:0:
208,340,183786,5,2,3:0:0:0:
454,136,183929,1,0,3:0:0:0:
111,37,184072,1,10,3:0:0:0:
315,273,184215,1,0,3:0:0:0:
50,365,184357,1,8,3:0:0:0:
23,320,184429,1,8,3:0:0:0:
41,270,184500,1,8,3:0:0:0:
87,246,184572,1,8,3:0:0:0:
102,250,184643,1,8,3:0:0:0:
148,227,184715,1,8,3:0:0:0:
157,175,184786,1,8,3:0:0:0:
131,130,184857,1,8,3:0:0:0:
47,133,184929,5,12,3:0:0:0:
58,128,185215,6,0,B|47:127|37:121|37:121|36:131|30:142|30:142|41:142|52:148|52:148|51:138|58:128,1,86.6666666666667,4|0,3:0|3:0,3:0:0:0:
287,29,185500,6,0,P|353:33|382:77,1,120,4|0,3:2|3:0,3:0:0:0:
272,247,185786,2,0,P|242:187|266:140,1,110,4|0,3:0|3:0,3:0:0:0:
495,207,186072,6,0,P|444:185|390:174,1,110,4|0,3:2|3:0,3:0:0:0:
244,367,186357,2,0,P|294:345|348:334,1,110,10|0,3:0|3:0,3:0:0:0:
118,143,186643,2,0,B|105:202|105:202|141:368,1,220,2|10,3:0|3:0,3:0:0:0:
284,147,187072,2,0,L|257:23,1,110,0|2,3:0|3:0,3:0:0:0:
125,15,187357,1,0,3:0:0:0:
17,200,187500,2,0,L|44:76,1,110,10|0,3:0|3:0,3:0:0:0:
148,275,187786,2,0,B|226:321|260:271|253:264|291:220|355:250,1,220,2|10,3:0|3:0,3:0:0:0:
459,349,188215,1,0,3:0:0:0:
512,121,188357,6,0,P|456:130|404:152,1,110,2|0,3:0|3:0,3:0:0:0:
188,8,188643,2,0,P|238:28|292:37,1,110,10|0,3:0|3:0,3:0:0:0:
497,103,188929,2,0,P|441:112|389:134,1,110,2|0,3:0|3:0,3:0:0:0:
286,277,189215,1,10,3:0:0:0:
167,107,189357,2,0,B|134:150|134:150|150:208,1,110,0|2,3:0|3:0,3:0:0:0:
375,275,189643,1,0,3:0:0:0:
155,384,189786,2,0,B|122:341|122:341|138:283,1,110,10|0,3:0|3:0,3:0:0:0:
300,122,190072,2,0,B|263:93|263:93|298:277,1,220,2|10,3:0|3:0,3:0:0:0:
433,351,190500,1,0,3:0:0:0:
433,351,190572,1,0,3:0:0:0:
433,351,190643,6,0,P|472:310|457:258,1,110,4|0,3:0|3:0,3:0:0:0:
502,167,190929,2,0,P|489:111|438:95,1,110,10|0,3:0|3:0,3:0:0:0:
216,41,191215,2,0,B|318:22|318:22|327:24|327:24|449:3,1,220,2|10,3:0|3:0,3:0:0:0:
264,189,191643,2,0,P|222:162|143:144,1,110,0|2,3:0|3:0,3:0:0:0:
109,25,191929,1,0,3:0:0:0:
49,200,192072,2,0,P|7:162|15:111,1,110,10|0,3:0|3:0,3:0:0:0:
201,276,192357,1,2,3:0:0:0:
240,94,192500,1,8,3:0:0:0:
245,67,192572,1,0,3:0:0:0:
251,39,192643,1,8,3:0:0:0:
416,254,192786,6,0,B|421:233|440:212|440:212|301:239,1,165,4|0,3:0|3:0,3:0:0:0:
304,261,193072,1,4,3:2:0:0:
503,384,193215,1,8,3:0:0:0:
264,338,193357,2,0,P|227:294|258:193,1,165,4|0,3:0|3:0,3:0:0:0:
280,187,193643,1,8,3:0:0:0:
129,384,193786,1,8,3:0:0:0:
97,205,193929,2,0,P|78:139|25:35,1,165,4|0,3:0|3:0,3:0:0:0:
4,38,194215,1,4,3:2:0:0:
173,175,194357,1,8,3:0:0:0:
247,28,194500,2,0,B|287:5|332:36|325:43|362:63|405:41,1,165,4|0,3:0|3:0,3:0:0:0:
462,0,194786,5,4,3:0:0:0:
469,7,194857,1,0,3:0:0:0:
475,15,194929,1,0,3:0:0:0:
481,23,195000,1,0,3:0:0:0:
486,32,195072,1,0,3:0:0:0:
490,42,195143,1,0,3:0:0:0:
510,80,195215,6,0,P|481:127|467:193,1,110,4|0,3:2|3:0,3:0:0:0:
315,270,195500,2,0,P|301:216|272:170,1,110,10|0,3:0|3:0,3:0:0:0:
474,354,195786,2,0,B|396:343|396:343|363:360|363:360|223:337,1,220,2|10,3:0|3:0,3:0:0:0:
111,257,196215,2,0,B|61:268|61:268|59:270|59:270|-3:284,1,110,0|2,3:0|3:0,3:0:0:0:
177,383,196500,1,0,3:0:0:0:
252,174,196643,2,0,B|202:163|202:163|200:161|200:161|138:147,1,110,10|0,3:0|3:0,3:0:0:0:
37,51,196929,2,0,B|39:12|81:6|81:6|35:82|34:161,1,220,2|10,3:0|3:0,3:0:0:0:
194,29,197357,1,0,3:0:0:0:
194,29,197429,1,0,3:0:0:0:
194,29,197500,6,0,P|233:75|288:63,1,110,2|0,3:0|3:0,3:0:0:0:
248,252,197786,2,0,P|307:245|328:193,1,110,10|0,3:0|3:0,3:0:0:0:
482,266,198072,2,0,P|510:212|478:166,1,110,2|0,3:0|3:0,3:0:0:0:
375,0,198357,1,10,3:0:0:0:
142,102,198500,2,0,P|167:156|183:214,1,110,4|0,3:0|3:0,3:0:0:0:
290,384,198786,1,0,3:0:0:0:
140,322,198929,1,10,3:0:0:0:
353,205,199072,1,0,3:0:0:0:
358,219,199143,1,0,3:0:0:0:
387,249,199215,5,8,3:0:0:0:
340,279,199286,1,8,3:0:0:0:
291,271,199357,1,8,3:0:0:0:
268,233,199429,1,8,3:0:0:0:
233,214,199500,1,8,3:0:0:0:
201,222,199572,1,8,3:0:0:0:
186,245,199643,1,8,3:0:0:0:
186,266,199715,1,8,3:0:0:0:
217,292,199786,6,0,P|237:241|201:190,1,110,4|0,3:0|3:0,3:0:0:0:
37,132,200072,2,0,P|11:178|31:227,1,110,10|0,3:0|3:0,3:0:0:0:
218,36,200357,2,0,B|162:3|162:3|-2:45,1,220,2|10,3:0|3:0,3:0:0:0:
204,173,200786,2,0,P|259:144|316:128,1,110,0|2,3:0|3:0,3:0:0:0:
458,209,201072,1,0,3:0:0:0:
427,12,201215,2,0,P|373:46|370:111,1,110,10|0,3:0|3:0,3:0:0:0:
419,137,201429,1,0,3:0:0:0:
432,147,201500,5,8,3:0:0:0:
413,198,201572,1,8,3:0:0:0:
367,218,201643,1,8,3:0:0:0:
325,204,201715,1,8,3:0:0:0:
304,171,201786,1,0,3:0:0:0:
273,159,201857,1,0,3:0:0:0:
246,163,201929,1,0,3:0:0:0:
229,178,202000,1,0,3:0:0:0:
232,222,202072,5,8,3:0:0:0:
330,78,202214,1,8,3:0:0:0:
120,55,202357,5,8,3:0:0:0:
321,217,202500,1,8,3:0:0:0:
226,9,202643,5,8,3:0:0:0:
64,275,202786,1,8,3:0:0:0:
313,360,202929,6,0,L|424:335,1,110,4|0,3:2|3:0,3:0:0:0:
157,144,203214,2,0,L|46:119,1,110,4|0,3:0|3:0,3:0:0:0:
374,33,203500,5,8,3:0:0:0:
213,278,203643,1,8,3:0:0:0:
211,20,203786,5,8,3:0:0:0:
416,261,203929,1,8,3:0:0:0:
30,291,204072,5,8,3:0:0:0:
401,132,204214,1,8,3:0:0:0:
41,4,204357,6,0,L|12:122,1,120,4|0,3:2|3:0,3:0:0:0:
262,384,204643,2,0,L|235:266,1,120,4|0,3:0|3:0,3:0:0:0:
472,70,204929,6,0,P|478:189|413:39,1,520,4|0,3:0|3:0,3:0:0:0:
