osu file format v14

[General]
AudioFilename: merry_christmas_to_YUUU.ogg
AudioLeadIn: 0
PreviewTime: 47787
Countdown: 0
SampleSet: Drum
StackLeniency: 0.4
Mode: 0
LetterboxInBreaks: 0
WidescreenStoryboard: 1

[Editor]
Bookmarks: 18645,48072,111787,134643,149500,158643,158786,158929,159072,159215,159357,159500,159643,159786,159929,160072,160215,160357,160500,160643,160786,160929,161072,161215,161357,161500,161643,161786,161929,162072,162215,162357,162500,162643,162786,162929,163072,163215,163357,163500,163643,163786,163929,164072,164215,164357,164500,164643,164786,164929,165072,165215,165357,165500,165643,165786,165929,166072,166215,166357,186072,202072
DistanceSpacing: 1.1
BeatDivisor: 4
GridSize: 32
TimelineZoom: 2.5

[Metadata]
Title:A Very Polish Christmas
TitleUnicode:A Very Polish Christmas
Artist:Sabadu
ArtistUnicode:Sabadu
Creator:Dcs
Version:Sh4rq_ & yary's Extreme
Source:
Tags:nebuwua sh4rq_ sh3rg_ yary shoyeu hyperpigeon shii shiitsuin roupus english tank power metal powermetal tankmetal sabaton poland santa claus merry xmas x-mas to you in 1942 world war 2 ww2 wwii
BeatmapID:4403624
BeatmapSetID:1992471

[Difficulty]
HPDrainRate:4.7
CircleSize:4.2
OverallDifficulty:9.3
ApproachRate:9.6
SliderMultiplier:2
SliderTickRate:1

[Events]
//Background and Video events
0,0,"christmas_poster_for_bravocompany_by_thuberchs_dbxgs5u_upscale_crop.png",0,0
//Break Periods
2,158843,165848
//Storyboard Layer 0 (Background)
//Storyboard Layer 1 (Fail)
//Storyboard Layer 2 (Pass)
//Storyboard Layer 3 (Foreground)
//Storyboard Layer 4 (Overlay)
//Storyboard Sound Samples

[TimingPoints]
75,285.714285714286,4,3,2,60,1,0
217,-100,4,3,10,60,0,0
289,-100,4,3,2,60,0,0
431,-100,4,3,12,60,0,0
503,-100,4,3,10,60,0,0
575,-100,4,3,2,60,0,0
717,-100,4,3,12,60,0,0
789,-100,4,3,2,60,0,0
860,-100,4,3,12,60,0,0
932,-100,4,3,2,60,0,0
1003,-100,4,3,13,60,0,0
1075,-100,4,3,12,60,0,0
1146,-100,4,3,11,60,0,0
1217,285.714285714286,4,3,2,65,1,0
1502,-100,4,3,1,65,0,0
8788,-100,4,3,12,65,0,0
8931,-100,4,3,11,65,0,0
9074,-100,4,3,1,65,0,0
9359,-100,4,3,11,65,0,0
9502,-100,4,3,10,65,0,0
9645,-100,4,3,1,65,0,0
10074,-100,4,3,11,65,0,0
10217,-100,4,3,10,65,0,0
10359,-100,4,3,1,65,0,0
14502,-100,4,3,13,65,0,0
14645,-100,4,3,1,65,0,0
14717,-100,4,3,11,65,0,0
14788,-100,4,3,10,65,0,0
14931,-100,4,3,1,65,0,0
16931,-100,4,3,11,65,0,0
17074,-100,4,3,10,65,0,0
17217,285.714285714286,5,3,1,65,1,0
18074,-100,5,3,1,70,0,0
18217,-100,5,3,1,5,0,0
18359,-100,5,3,1,70,0,0
18502,-100,5,3,1,5,0,0
18645,285.714285714286,4,3,1,60,1,0
20502,-100,4,3,10,60,0,0
20597,-100,4,3,13,60,0,0
20645,-100,4,3,1,60,0,0
20930,285.714285714286,4,3,1,60,1,0
20930,-111.111111111111,4,3,1,60,0,0
21501,-111.111111111111,4,3,2,60,0,0
23144,-111.111111111111,4,3,2,5,0,0
23215,-111.111111111111,4,3,2,60,0,0
38501,-111.111111111111,4,3,10,60,0,0
38644,-111.111111111111,4,3,14,60,0,0
38787,-100,4,3,11,60,0,0
38930,-100,4,3,2,60,0,0
39072,-100,4,3,10,60,0,0
39215,-90.9090909090909,4,3,2,65,0,0
39501,-90.9090909090909,4,3,1,65,0,0
45358,-90.9090909090909,4,3,14,65,0,0
45501,-90.9090909090909,4,3,2,65,0,0
45787,-90.9090909090909,4,3,11,65,0,0
45930,-90.9090909090909,4,3,10,65,0,0
46072,-90.9090909090909,4,3,1,80,0,0
48072,-250,4,3,1,80,0,0
48358,-66.6666666666667,4,3,1,75,0,1
48930,-66.6666666666667,4,3,3,75,0,1
50501,-66.6666666666667,4,3,10,75,0,1
50644,-66.6666666666667,4,3,3,75,0,1
52501,-66.6666666666667,4,3,11,75,0,1
52644,-66.6666666666667,4,3,3,75,0,1
52787,-66.6666666666667,4,3,10,75,0,1
52930,-66.6666666666667,4,3,3,75,0,1
56215,-66.6666666666667,4,3,10,75,0,1
56358,-66.6666666666667,4,3,3,75,0,1
57215,-66.6666666666667,4,3,12,75,0,1
57358,-66.6666666666667,4,3,10,75,0,1
57501,-66.6666666666667,4,3,3,75,0,1
59644,-66.6666666666667,4,3,10,75,0,1
59787,-66.6666666666667,4,3,3,75,0,1
64930,-66.6666666666667,4,3,13,75,0,1
65072,-66.6666666666667,4,3,3,75,0,1
65358,-66.6666666666667,4,3,10,75,0,1
65501,-66.6666666666667,4,3,3,75,0,1
66072,-83.3333333333333,4,3,1,75,0,0
66644,-100,4,3,1,65,0,0
75358,-100,4,3,11,65,0,0
75501,-100,4,3,1,65,0,0
75644,-100,4,3,10,65,0,0
75787,-100,4,3,1,65,0,0
82501,-100,4,3,12,65,0,0
82645,285.714285714286,5,3,1,80,1,0
82930,-100,5,3,1,65,0,0
83216,-100,5,3,1,50,0,0
83502,-100,5,3,1,70,0,0
83645,-100,5,3,1,5,0,0
83787,-100,5,3,1,70,0,0
83930,-100,5,3,1,5,0,0
84074,285.714285714286,4,3,1,60,1,0
84074,-111.111111111111,4,3,1,60,0,0
84359,-111.111111111111,4,3,2,60,0,0
101216,-111.111111111111,4,3,12,60,0,0
101359,-111.111111111111,4,3,11,60,0,0
101502,-111.111111111111,4,3,2,60,0,0
101788,-111.111111111111,4,3,10,60,0,0
101931,-111.111111111111,4,3,2,60,0,0
102074,-111.111111111111,4,3,10,60,0,0
102287,-111.111111111111,4,3,13,60,0,0
102359,-100,4,3,2,65,0,0
102644,-100,4,3,1,65,0,0
108074,-100,4,3,13,65,0,0
108216,-100,4,3,11,65,0,0
108359,-100,4,3,1,65,0,0
108502,-100,4,3,10,65,0,0
108645,-100,4,3,1,65,0,0
108788,-100,4,3,12,65,0,0
108931,-100,4,3,11,65,0,0
109074,-100,4,3,10,65,0,0
109216,-100,4,3,1,80,0,0
110359,285.714285714286,5,3,1,60,1,0
111501,-250,5,3,1,60,0,0
111787,285.714285714286,4,3,1,75,1,1
111787,-66.6666666666667,4,3,1,75,0,1
112358,-66.6666666666667,4,3,3,75,0,1
115644,-66.6666666666667,4,3,1,75,0,1
115929,-66.6666666666667,4,3,12,75,0,1
116072,-66.6666666666667,4,3,3,75,0,1
116215,-66.6666666666667,4,3,10,75,0,1
116358,-66.6666666666667,4,3,3,75,0,1
119644,-66.6666666666667,4,3,10,75,0,1
119787,-66.6666666666667,4,3,3,75,0,1
120644,-66.6666666666667,4,3,11,75,0,1
120787,-66.6666666666667,4,3,3,75,0,1
124787,-66.6666666666667,4,3,1,75,0,1
125072,-66.6666666666667,4,3,13,75,0,1
125215,-66.6666666666667,4,3,11,75,0,1
125358,-66.6666666666667,4,3,10,75,0,1
125501,-66.6666666666667,4,3,3,75,0,1
128787,-66.6666666666667,4,3,10,75,0,1
128929,-66.6666666666667,4,3,3,75,0,1
129501,-76.9230769230769,4,3,1,75,0,1
130072,-166.666666666667,4,3,1,65,0,0
130286,-166.666666666667,4,3,1,5,0,0
130358,-166.666666666667,4,3,1,55,0,0
131215,285.714285714286,4,3,1,65,1,0
131215,-76.9230769230769,4,3,1,65,0,0
134500,-66.6666666666667,4,3,1,65,0,0
135786,-100,4,3,1,65,0,0
136000,-100,4,3,1,5,0,0
136072,-100,4,3,1,65,0,0
139215,-100,4,3,10,65,0,0
139357,-100,4,3,11,65,0,0
139500,-100,4,3,2,65,0,0
139714,-100,4,3,13,65,0,0
139786,-100,4,3,12,65,0,0
139929,-100,4,3,11,65,0,0
140072,-100,4,3,10,65,0,0
140215,-100,4,3,1,65,0,0
144499,-100,4,3,11,65,0,0
144643,-100,4,3,10,65,0,0
144785,-100,4,3,1,65,0,0
147643,-100,4,3,2,65,0,0
147715,-100,4,3,11,65,0,0
147786,-100,4,3,2,65,0,0
148000,-100,4,3,11,65,0,0
148072,-100,4,3,2,65,0,0
148357,-100,4,3,12,65,0,0
148500,-100,4,3,11,65,0,0
148643,-100,4,3,10,65,0,0
148786,-100,4,3,2,65,0,0
149000,-100,4,3,13,65,0,0
149072,-100,4,3,2,65,0,0
149215,-100,4,3,11,65,0,0
149357,-100,4,3,10,65,0,0
149500,-83.3333333333333,4,3,1,75,0,0
153929,-83.3333333333333,4,3,10,75,0,0
154072,-83.3333333333333,4,3,1,75,0,0
156215,-83.3333333333333,4,3,10,75,0,0
156357,-100,4,3,1,75,0,0
157429,-100,4,3,13,75,0,0
157500,-100,4,3,1,75,0,0
157643,-100,4,3,10,75,0,0
157786,-100,4,3,1,75,0,0
157929,-100,4,3,14,75,0,0
158072,-100,4,3,13,75,0,0
158215,-100,4,3,12,75,0,0
158357,-100,4,3,11,75,0,0
158500,-100,4,3,10,75,0,0
158643,-100,4,3,1,60,0,0
166357,-100,4,3,1,45,0,0
166500,-100,4,3,10,60,0,0
166643,-100,4,3,1,80,0,0
167500,-100,4,3,1,60,0,0
167786,-62.5,4,3,1,75,0,1
168357,-62.5,4,3,3,75,0,1
171643,-62.5,4,3,11,75,0,1
171786,-62.5,4,3,10,75,0,1
171929,-62.5,4,3,12,75,0,1
172072,-62.5,4,3,10,75,0,1
172215,-62.5,4,3,3,75,0,1
175500,-62.5,4,3,13,55,0,1
175643,-62.5,4,3,10,55,0,1
175786,-62.5,4,3,3,75,0,1
176643,-76.9230769230769,4,3,12,75,0,1
176786,-76.9230769230769,4,3,11,75,0,1
176929,-62.5,4,3,3,75,0,1
180500,-62.5,4,3,11,75,0,1
180643,-62.5,4,3,3,75,0,1
180929,-62.5,4,3,10,75,0,1
181072,-62.5,4,3,3,75,0,1
181215,-62.5,4,3,10,75,0,1
181500,-62.5,4,3,3,75,0,1
184500,-62.5,4,3,10,75,0,1
184643,-62.5,4,3,1,75,0,1
184786,-62.5,4,3,10,75,0,1
184929,-62.5,4,3,3,75,0,1
185500,-76.9230769230769,4,3,1,75,0,1
186072,-71.4285714285714,4,3,1,65,0,0
192500,-71.4285714285714,4,3,12,65,0,0
192643,-71.4285714285714,4,3,1,65,0,0
193000,-71.4285714285714,4,3,1,5,0,0
193072,-71.4285714285714,4,3,1,65,0,0
193571,-71.4285714285714,4,3,1,5,0,0
193643,-71.4285714285714,4,3,12,65,0,0
193786,-71.4285714285714,4,3,1,65,0,0
194143,-71.4285714285714,4,3,1,5,0,0
194215,-71.4285714285714,4,3,1,65,0,0
194714,-71.4285714285714,4,3,1,5,0,0
194786,-71.4285714285714,4,3,1,65,0,0
199215,-71.4285714285714,4,3,13,65,0,0
199357,-71.4285714285714,4,3,12,65,0,0
199500,-71.4285714285714,4,3,11,65,0,0
199643,-71.4285714285714,4,3,10,65,0,0
199786,-71.4285714285714,4,3,1,65,0,0
201643,-71.4285714285714,4,3,10,65,0,0
201786,-71.4285714285714,4,3,10,60,0,0
202072,285.714285714286,5,3,1,80,1,0
202929,-83.3333333333333,5,3,1,70,0,0
203500,-83.3333333333333,5,3,1,80,0,0
204357,-83.3333333333333,5,3,1,70,0,0
205500,-83.3333333333333,5,3,1,5,0,0

[Colours]
Combo1 : 206,9,68
Combo2 : 103,134,68

[HitObjects]
108,48,75,6,0,L|84:161,1,100,10|8,3:0|3:0,3:0:0:0:
165,228,289,1,10,3:0:0:0:
176,214,360,2,0,L|167:158,1,50,10|8,3:0|3:0,3:0:0:0:
233,98,503,1,8,3:0:0:0:
235,88,575,1,10,3:0:0:0:
237,78,646,2,0,L|254:19,1,50,10|8,3:0|3:0,3:0:0:0:
94,0,789,2,0,L|111:59,1,50,10|8,3:0|3:0,3:0:0:0:
255,189,932,1,10,3:0:0:0:
293,180,1003,1,8,3:0:0:0:
332,172,1075,1,8,3:0:0:0:
371,164,1146,1,8,3:0:0:0:
410,156,1217,6,0,L|370:298,1,100,4|0,3:0|3:0,3:0:0:0:
303,96,1502,2,0,L|263:-46,1,100,10|0,3:0|3:0,3:0:0:0:
140,57,1788,1,2,3:0:0:0:
228,140,1931,1,0,3:0:0:0:
68,106,2074,1,10,3:0:0:0:
111,264,2217,2,0,L|140:158,1,100,0|2,3:0|3:0,3:0:0:0:
228,140,2502,1,0,3:0:0:0:
68,106,2645,2,0,L|49:0,1,100,10|0,3:0|3:0,3:0:0:0:
223,22,2931,1,2,3:0:0:0:
153,94,3074,1,0,3:0:0:0:
254,221,3217,1,10,3:0:0:0:
186,293,3359,1,0,3:0:0:0:
360,128,3502,6,0,B|407:142|407:142|416:141|416:141|462:153,1,100,2|0,3:0|3:0,3:0:0:0:
319,0,3788,2,0,B|272:14|272:14|263:13|263:13|217:25,1,100,10|0,3:0|3:0,3:0:0:0:
165,202,4074,1,2,3:0:0:0:
282,113,4217,1,0,3:0:0:0:
50,7,4359,1,10,3:0:0:0:
183,103,4502,2,0,L|161:219,1,100,0|2,3:0|3:0,3:0:0:0:
90,277,4788,1,0,3:0:0:0:
0,224,4931,2,0,L|22:340,1,100,10|0,3:0|3:0,3:0:0:0:
134,376,5217,1,2,3:0:0:0:
216,296,5359,1,0,3:0:0:0:
92,158,5502,1,10,3:0:0:0:
183,103,5645,1,0,3:0:0:0:
183,103,5717,1,0,3:0:0:0:
183,103,5788,6,0,L|302:127,1,100,4|0,3:0|3:0,3:0:0:0:
98,243,6074,2,0,L|0:223,1,100,10|0,3:0|3:0,3:0:0:0:
83,61,6359,1,2,3:0:0:0:
169,185,6502,1,0,3:0:0:0:
248,10,6645,1,10,3:0:0:0:
352,37,6788,2,0,L|323:158,1,100,0|2,3:0|3:0,3:0:0:0:
273,204,7074,1,0,3:0:0:0:
420,251,7217,2,0,L|449:372,1,100,10|0,3:0|3:0,3:0:0:0:
477,105,7502,5,2,3:0:0:0:
348,212,7645,2,0,L|332:281,1,50,8|8,3:0|3:0,3:0:0:0:
318,348,7788,1,8,3:0:0:0:
226,135,7931,6,0,B|142:125|142:125|118:104|118:104|23:89,1,200,4|2,3:0|3:0,3:0:0:0:
191,45,8359,1,8,3:0:0:0:
69,191,8502,2,0,L|86:300,1,100,4|0,3:0|3:0,3:0:0:0:
180,361,8788,1,8,3:0:0:0:
180,361,8931,1,8,3:0:0:0:
311,154,9074,2,0,B|265:164|265:164|257:169|257:169|199:181,1,100,4|0,3:0|3:0,3:0:0:0:
153,243,9359,1,8,3:0:0:0:
153,243,9502,1,8,3:0:0:0:
311,70,9645,2,0,P|377:90|394:131,1,100,4|0,3:0|3:0,3:0:0:0:
460,188,9931,1,8,3:0:0:0:
460,188,10002,1,8,3:0:0:0:
460,188,10074,2,0,L|445:246,1,50,8|8,3:0|3:0,3:0:0:0:
377,289,10217,2,0,L|362:231,1,50,8|8,3:0|3:0,3:0:0:0:
501,100,10359,6,0,L|469:3,1,100,4|0,3:2|3:0,3:0:0:0:
364,240,10645,2,0,L|332:337,1,100,10|0,3:0|3:0,3:0:0:0:
228,90,10931,1,2,3:0:0:0:
324,144,11074,1,0,3:0:0:0:
175,197,11217,1,10,3:0:0:0:
240,304,11359,2,0,L|118:326,1,100,0|2,3:0|3:0,3:0:0:0:
70,367,11645,1,0,3:0:0:0:
265,222,11788,2,0,L|387:244,1,100,10|0,3:0|3:0,3:0:0:0:
463,322,12074,1,2,3:0:0:0:
427,197,12217,1,0,3:0:0:0:
501,97,12359,1,10,3:0:0:0:
368,138,12502,1,0,3:0:0:0:
368,138,12574,1,0,3:0:0:0:
368,138,12645,6,0,B|322:113|322:113|256:126,1,100,2|0,3:0|3:0,3:0:0:0:
419,21,12931,2,0,B|465:-4|465:-4|531:9,1,100,10|0,3:0|3:0,3:0:0:0:
256,39,13217,1,2,3:0:0:0:
348,4,13359,1,0,3:0:0:0:
275,122,13502,1,10,3:0:0:0:
93,9,13645,2,0,B|104:58|104:58|101:62|101:62|113:113,1,100,0|2,3:0|3:0,3:0:0:0:
45,183,13931,1,0,3:0:0:0:
187,250,14074,2,0,B|176:299|176:299|179:303|179:303|167:354,1,100,10|0,3:0|3:0,3:0:0:0:
275,122,14359,1,4,3:2:0:0:
128,199,14502,1,8,3:0:0:0:
218,33,14645,1,10,3:0:0:0:
257,39,14717,1,8,3:0:0:0:
296,46,14788,1,8,3:0:0:0:
335,53,14859,1,8,3:0:0:0:
374,60,14931,6,0,B|398:103|398:103|372:149,1,100,4|0,3:0|3:0,3:0:0:0:
281,196,15217,2,0,B|257:241|257:241|281:284,1,100,10|0,3:0|3:0,3:0:0:0:
454,209,15502,1,2,3:0:0:0:
358,255,15645,1,0,3:0:0:0:
441,384,15788,1,10,3:0:0:0:
291,357,15931,2,0,L|173:334,1,100,0|2,3:0|3:0,3:0:0:0:
103,369,16217,1,0,3:0:0:0:
134,191,16359,2,0,L|16:214,1,100,10|0,3:0|3:0,3:0:0:0:
10,288,16645,1,2,3:0:0:0:
85,100,16788,1,8,3:0:0:0:
85,100,16859,1,8,3:0:0:0:
85,100,16931,2,0,L|146:87,1,50,8|8,3:0|3:0,3:0:0:0:
182,201,17074,2,0,L|121:188,1,50,8|8,3:0|3:0,3:0:0:0:
290,21,17217,5,8,3:0:0:0:
225,63,17359,1,8,3:0:0:0:
343,98,17502,1,8,3:0:0:0:
174,187,17645,1,8,3:0:0:0:
400,243,17788,1,8,3:0:0:0:
151,324,17931,1,8,3:0:0:0:
444,374,18074,2,0,L|469:259,1,100,4|0,3:0|3:0,3:0:0:0:
225,63,18359,2,0,L|250:178,1,100,4|0,3:0|3:0,3:0:0:0:
321,203,18645,5,4,3:0:0:0:
322,230,20502,6,0,L|331:192,2,33.3333333333333,8|8|8,3:0|3:0|3:0,3:0:0:0:
317,249,20645,1,8,3:0:0:0:
205,162,20787,1,0,3:0:0:0:
349,57,20930,6,0,P|336:117|328:163,1,90.0000000000001,4|0,3:0|3:0,3:0:0:0:
223,250,21215,2,0,P|213:200|202:152,1,90.0000000000001,8|0,3:0|3:0,3:0:0:0:
176,56,21501,1,2,3:0:0:0:
256,87,21644,1,0,3:0:0:0:
115,108,21787,2,0,P|92:56|124:1,1,90.0000000000001,10|0,3:0|3:0,3:0:0:0:
249,4,22072,6,0,B|302:-6|346:42|313:49|351:92|433:74,1,180,2|10,3:0|3:0,3:0:0:0:
512,0,22501,2,0,L|486:114,1,90.0000000000001,0|2,3:0|3:0,3:0:0:0:
498,188,22787,1,0,3:0:0:0:
394,3,22930,2,0,P|407:69|425:171,1,135,10|0,3:0|3:0,3:0:0:0:
325,266,23215,6,0,P|340:218|357:173,1,90.0000000000001,2|0,3:0|3:0,3:0:0:0:
225,105,23501,2,0,P|236:154|248:219,1,90.0000000000001,10|0,3:0|3:0,3:0:0:0:
187,337,23787,1,2,3:0:0:0:
238,266,23930,1,0,3:0:0:0:
109,189,24072,2,0,P|72:227|90:294,1,90.0000000000001,10|0,3:0|3:0,3:0:0:0:
279,365,24358,5,2,3:0:0:0:
149,258,24501,1,0,3:0:0:0:
187,337,24644,1,10,3:0:0:0:
256,193,24787,2,0,B|284:184|316:204|316:204|312:262|260:285|205:251,1,180,0|0,3:0|3:0,3:0:0:0:
189,119,25215,2,0,P|176:71|160:24,1,90.0000000000001,10|0,3:0|3:0,3:0:0:0:
149,258,25501,5,2,3:0:0:0:
274,89,25644,2,0,P|258:158|229:298,1,180,0|0,3:0|3:0,3:0:0:0:
258,343,26072,1,2,3:0:0:0:
330,287,26215,1,0,3:0:0:0:
168,159,26358,2,0,P|154:227|145:274,1,90.0000000000001,10|0,3:0|3:0,3:0:0:0:
347,375,26644,6,0,P|335:315|325:261,1,90.0000000000001,2|0,3:0|3:0,3:0:0:0:
259,227,26930,1,10,3:0:0:0:
501,141,27072,2,0,B|458:111|398:138|430:160|381:205|320:180,1,180,0|0,3:0|3:0,3:0:0:0:
327,173,27430,1,0,3:0:0:0:
327,173,27501,2,0,P|322:154|310:111,1,45,10|0,3:0|3:0,3:0:0:0:
397,31,27644,2,0,P|390:55|383:79,1,45,0|0,3:0|3:0,3:0:0:0:
259,227,27787,6,0,P|241:169|225:109,1,90.0000000000001,2|0,3:0|3:0,3:0:0:0:
137,0,28072,2,0,P|123:48|109:96,1,90.0000000000001,10|0,3:0|3:0,3:0:0:0:
3,268,28358,1,2,3:0:0:0:
159,196,28501,1,0,3:0:0:0:
59,160,28644,2,0,P|75:214|91:280,1,90.0000000000001,10|0,3:0|3:0,3:0:0:0:
211,330,28930,5,2,3:0:0:0:
159,196,29072,1,0,3:0:0:0:
131,376,29215,1,10,3:0:0:0:
254,210,29358,1,0,3:0:0:0:
295,383,29501,1,2,3:0:0:0:
216,335,29644,1,2,3:0:0:0:
216,335,29715,1,2,3:0:0:0:
216,335,29787,1,8,3:0:0:0:
392,252,29930,1,2,3:0:0:0:
295,383,30072,6,0,P|308:324|321:259,1,90.0000000000001,4|0,3:2|3:0,3:0:0:0:
481,255,30358,2,0,P|467:196|454:130,1,90.0000000000001,8|0,3:0|3:0,3:0:0:0:
334,29,30644,1,2,3:0:0:0:
393,91,30787,1,0,3:0:0:0:
337,217,30930,2,0,P|315:160|347:116,1,90.0000000000001,10|0,3:0|3:0,3:0:0:0:
481,255,31215,6,0,B|433:224|384:259|410:287|347:327|281:271,1,180,2|10,3:0|3:0,3:0:0:0:
209,179,31644,2,0,P|263:145|331:241,1,180,0|0,3:0|3:0,3:0:0:0:
123,383,32072,2,0,P|106:325|85:255,1,90.0000000000001,10|0,3:0|3:0,3:0:0:0:
45,234,32358,5,2,3:0:0:0:
203,301,32501,2,0,B|274:285|274:285|307:306|307:306|401:289,1,180,0|0,3:0|3:0,3:0:0:0:
480,268,32930,1,2,3:0:0:0:
441,343,33072,1,0,3:0:0:0:
319,218,33215,2,0,P|369:188|427:214,1,90.0000000000001,10|0,3:0|3:0,3:0:0:0:
302,373,33501,5,2,3:0:0:0:
218,215,33644,1,0,3:0:0:0:
361,302,33787,1,10,3:0:0:0:
224,338,33930,2,0,P|242:255|271:122,1,180,0|0,3:0|3:0,3:0:0:0:
272,127,34287,1,0,3:0:0:0:
272,127,34358,2,0,B|227:98|227:98|173:117,1,90.0000000000001,10|0,3:0|3:0,3:0:0:0:
27,167,34644,6,0,B|80:170|106:135|106:135|118:182|177:196,1,180,2|10,3:0|3:0,3:0:0:0:
333,70,35072,2,0,P|239:51|191:138,1,180,0|0,3:0|3:0,3:0:0:0:
383,299,35501,2,0,P|399:242|418:176,1,90.0000000000001,10|0,3:0|3:0,3:0:0:0:
476,108,35787,5,2,3:0:0:0:
340,157,35930,1,0,3:0:0:0:
497,208,36072,1,10,3:0:0:0:
457,39,36215,2,0,P|433:122|400:234,1,180,0|0,3:0|3:0,3:0:0:0:
284,383,36644,2,0,P|268:329|251:263,1,90.0000000000001,10|0,3:0|3:0,3:0:0:0:
144,131,36930,6,0,P|109:192|130:246,1,90.0000000000001,2|0,3:0|3:0,3:0:0:0:
338,277,37215,2,0,P|317:234|275:213,1,90.0000000000001,10|0,3:0|3:0,3:0:0:0:
123,339,37501,1,2,3:0:0:0:
257,286,37644,1,0,3:0:0:0:
74,217,37787,1,10,3:0:0:0:
201,384,37930,1,0,3:0:0:0:
276,128,38072,5,2,3:0:0:0:
172,269,38215,1,8,3:0:0:0:
172,269,38287,1,8,3:0:0:0:
172,269,38358,1,8,3:0:0:0:
74,217,38501,1,8,3:0:0:0:
269,317,38644,1,8,3:0:0:0:
269,317,38715,1,0,3:0:0:0:
269,317,38787,2,0,P|277:289|288:251,1,50,8|8,3:0|3:0,3:0:0:0:
362,111,38930,1,8,3:0:0:0:
393,93,39001,1,8,3:0:0:0:
428,98,39072,1,8,3:0:0:0:
456,119,39144,1,8,3:0:0:0:
467,152,39215,6,0,P|476:207|488:267,1,110,4|0,3:0|3:0,3:0:0:0:
358,380,39501,2,0,P|366:330|376:267,1,110,10|0,3:0|3:0,3:0:0:0:
277,19,39787,1,2,3:0:0:0:
390,183,39930,1,0,3:0:0:0:
210,89,40072,1,10,3:0:0:0:
483,115,40215,6,0,B|428:81|368:125|398:146|341:197|277:155,1,220,0|0,3:0|3:0,3:0:0:0:
101,9,40644,2,0,P|114:55|134:129,1,110,10|0,3:0|3:0,3:0:0:0:
257,266,40930,2,0,P|271:213|286:160,1,110,2|0,3:0|3:0,3:0:0:0:
339,13,41215,1,10,3:0:0:0:
130,114,41358,1,0,3:0:0:0:
130,114,41430,1,0,3:0:0:0:
130,114,41501,6,0,P|123:173|151:215,1,110,2|0,3:0|3:0,3:0:0:0:
309,338,41787,2,0,P|345:296|344:237,1,110,10|0,3:0|3:0,3:0:0:0:
198,154,42072,1,2,3:0:0:0:
386,118,42215,1,0,3:0:0:0:
272,265,42358,1,10,3:0:0:0:
217,76,42501,1,0,3:0:0:0:
391,199,42644,6,0,P|380:264|369:333,1,110,2|0,3:0|3:0,3:0:0:0:
237,344,42930,1,10,3:0:0:0:
118,120,43072,2,0,P|129:185|140:254,1,110,0|2,3:0|3:0,3:0:0:0:
272,265,43358,1,0,3:0:0:0:
399,93,43501,2,0,P|336:71|284:128,1,110,10|0,3:0|3:0,3:0:0:0:
255,158,43715,1,0,3:0:0:0:
255,158,43787,6,0,P|241:234|232:293,1,110,4|0,3:0|3:0,3:0:0:0:
457,384,44072,2,0,P|448:329|437:275,1,110,10|0,3:0|3:0,3:0:0:0:
227,67,44358,6,0,P|161:53|92:37,1,110,2|0,3:0|3:0,3:0:0:0:
330,299,44644,2,0,P|383:287|437:275,1,110,10|0,3:0|3:0,3:0:0:0:
317,69,44930,1,2,3:0:0:0:
227,297,45072,1,0,3:0:0:0:
440,179,45215,1,10,3:0:0:0:
227,67,45358,1,8,3:0:0:0:
227,67,45430,1,8,3:0:0:0:
227,67,45501,5,8,3:0:0:0:
191,101,45572,1,8,3:0:0:0:
199,150,45644,1,8,3:0:0:0:
242,173,45715,1,8,3:0:0:0:
287,154,45787,5,8,3:0:0:0:
320,157,45858,1,8,3:0:0:0:
340,182,45930,1,8,3:0:0:0:
337,215,46001,1,8,3:0:0:0:
298,251,46072,5,8,3:0:0:0:
388,46,46215,1,8,3:0:0:0:
218,269,46358,1,8,3:0:0:0:
411,123,46501,1,8,3:0:0:0:
321,376,46644,1,8,3:0:0:0:
231,122,46787,1,8,3:0:0:0:
408,365,46930,1,8,3:0:0:0:
185,193,47072,1,8,3:0:0:0:
468,66,47215,5,12,3:0:0:0:
120,90,48072,6,0,L|113:121,1,20,0|0,3:0|3:0,3:0:0:0:
197,29,48215,2,0,L|192:9,1,20,0|0,3:0|3:0,3:0:0:0:
39,229,48358,6,0,B|114:220|114:220|119:217|119:217|217:204,1,150,4|0,3:0|3:0,3:0:0:0:
297,84,48644,1,8,3:0:0:0:
297,84,48787,1,0,3:0:0:0:
386,183,48930,1,2,3:0:0:0:
277,303,49072,1,2,3:0:0:0:
397,82,49215,1,8,3:0:0:0:
492,337,49358,6,0,B|429:370|330:305|384:266|312:193|202:238,1,300,4|0,3:0|3:0,3:0:0:0:
159,369,49787,2,0,P|253:344|278:296,1,150,10|0,3:0|3:0,3:0:0:0:
165,199,50072,1,2,3:0:0:0:
165,199,50215,1,0,3:0:0:0:
289,60,50358,1,10,3:0:0:0:
165,199,50501,2,0,L|71:183,1,75,8|8,3:0|3:0,3:0:0:0:
36,16,50644,6,0,P|123:37|159:109,1,150,4|0,3:0|3:0,3:0:0:0:
359,148,50930,2,0,P|272:169|236:241,1,150,8|0,3:0|3:0,3:0:0:0:
303,376,51215,1,2,3:0:0:0:
115,284,51358,1,2,3:0:0:0:
357,302,51501,1,8,3:0:0:0:
287,43,51644,6,0,B|238:96|238:96|329:218|329:218|259:302,1,300,4|2,3:0|3:0,3:0:0:0:
125,177,52072,1,8,3:0:0:0:
362,137,52215,1,0,3:0:0:0:
171,315,52358,1,2,3:0:0:0:
221,210,52501,1,8,3:0:0:0:
221,210,52572,1,8,3:0:0:0:
221,210,52644,1,8,3:0:0:0:
256,222,52715,1,8,3:0:0:0:
290,234,52787,1,8,3:0:0:0:
325,247,52858,1,8,3:0:0:0:
359,260,52930,5,4,3:0:0:0:
325,85,53072,1,0,3:0:0:0:
487,218,53215,1,8,3:0:0:0:
282,384,53358,2,0,L|323:221,1,150,0|0,3:0|3:0,3:0:0:0:
434,144,53644,1,2,3:0:0:0:
369,21,53787,1,8,3:0:0:0:
178,254,53930,6,0,P|69:208|162:87,1,300,2|2,3:0|3:0,3:0:0:0:
399,212,54358,2,0,L|204:173,1,150,8|2,3:0|3:0,3:0:0:0:
259,15,54644,1,2,3:0:0:0:
259,15,54787,1,0,3:0:0:0:
319,239,54930,1,10,3:0:0:0:
443,74,55072,1,0,3:0:0:0:
335,332,55215,6,0,B|278:324|278:324|257:298|257:298|176:286,1,150,2|0,3:0|3:0,3:0:0:0:
95,353,55501,1,8,3:0:0:0:
135,70,55644,2,0,P|67:52|111:205,1,300,0|2,3:0|3:0,3:0:0:0:
229,149,56072,5,8,3:0:0:0:
281,140,56144,1,8,3:0:0:0:
332,132,56215,1,8,3:0:0:0:
383,124,56287,1,8,3:0:0:0:
435,116,56358,5,4,3:0:0:0:
412,193,56501,1,0,3:0:0:0:
92,286,56644,5,4,3:0:0:0:
115,363,56787,1,0,3:0:0:0:
338,50,56930,5,4,3:0:0:0:
338,50,57215,2,0,L|319:126,1,75,8|8,3:0|3:0,3:0:0:0:
247,221,57358,2,0,L|228:145,1,75,8|8,3:0|3:0,3:0:0:0:
48,19,57501,6,0,P|132:33|133:98,1,150,4|0,3:0|3:0,3:0:0:0:
34,168,57787,1,8,3:0:0:0:
34,168,57930,1,0,3:0:0:0:
198,289,58072,1,2,3:0:0:0:
29,367,58215,1,2,3:0:0:0:
164,204,58358,1,8,3:0:0:0:
410,380,58501,6,0,B|333:348|333:348|304:114,1,300,4|0,3:0|3:0,3:0:0:0:
504,96,58930,2,0,P|457:176|398:172,1,150,10|0,3:0|3:0,3:0:0:0:
342,23,59215,1,2,3:0:0:0:
238,188,59358,1,0,3:0:0:0:
151,47,59501,2,0,L|242:61,1,75,10|0,3:0|3:0,3:0:0:0:
164,204,59644,2,0,L|150:295,1,75,8|8,3:0|3:0,3:0:0:0:
0,97,59787,6,0,L|175:127,1,150,4|0,3:0|3:0,3:0:0:0:
238,188,60072,1,8,3:0:0:0:
238,188,60215,1,0,3:0:0:0:
351,60,60358,1,2,3:0:0:0:
300,261,60501,1,2,3:0:0:0:
470,199,60644,1,8,3:0:0:0:
267,367,60787,6,0,B|90:330|241:198|44:164,1,300,4|2,3:0|3:0,3:0:0:0:
5,245,61215,1,10,3:0:0:0:
5,245,61358,1,0,3:0:0:0:
202,147,61501,1,2,3:0:0:0:
1,38,61644,1,0,3:0:0:0:
137,282,61787,6,0,L|156:205,1,75,8|0,3:0|3:0,3:0:0:0:
53,97,61930,2,0,L|72:174,1,75,0|0,3:0|3:0,3:0:0:0:
246,250,62072,6,0,P|329:232|357:167,1,150,4|0,3:0|3:0,3:0:0:0:
316,59,62358,1,10,3:0:0:0:
316,59,62501,1,0,3:0:0:0:
487,197,62644,1,0,3:0:0:0:
287,135,62787,1,2,3:0:0:0:
137,282,62930,1,8,3:0:0:0:
42,58,63072,6,0,B|97:75|97:75|186:232|186:232|256:253,1,300,2|2,3:0|3:0,3:0:0:0:
332,51,63501,2,0,L|165:86,1,150,8|0,3:0|3:0,3:0:0:0:
74,195,63787,1,2,3:0:0:0:
74,195,63930,1,0,3:0:0:0:
194,7,64072,1,10,3:0:0:0:
231,152,64215,1,0,3:0:0:0:
463,84,64358,6,0,L|298:56,1,150,4|0,3:0|3:0,3:0:0:0:
289,67,64572,1,0,3:0:0:0:
289,67,64644,2,0,L|308:144,1,75,8|0,3:0|3:0,3:0:0:0:
393,193,64787,2,0,L|374:270,1,75,0|0,3:0|3:0,3:0:0:0:
297,340,64930,5,10,3:0:0:0:
287,352,65001,1,8,3:0:0:0:
263,356,65072,1,8,3:0:0:0:
235,344,65144,1,8,3:0:0:0:
225,313,65215,1,8,3:0:0:0:
241,281,65287,1,8,3:0:0:0:
237,240,65358,1,8,3:0:0:0:
195,212,65430,1,8,3:0:0:0:
153,280,65501,5,12,3:0:0:0:
153,280,66072,6,0,L|26:258,1,120,4|0,3:2|3:0,3:0:0:0:
260,160,66358,2,0,L|387:138,1,120,4|0,3:0|3:0,3:0:0:0:
117,11,66644,6,0,B|88:52|88:52|113:132,1,100,4|0,3:2|3:0,3:0:0:0:
260,160,66930,2,0,B|289:119|289:119|264:39,1,100,10|0,3:0|3:0,3:0:0:0:
107,215,67215,1,2,3:0:0:0:
203,278,67358,1,0,3:0:0:0:
184,108,67501,1,10,3:0:0:0:
21,154,67644,2,0,B|34:200|34:200|30:206|30:206|44:251,1,100,0|2,3:0|3:0,3:0:0:0:
16,334,67930,1,0,3:0:0:0:
203,278,68072,2,0,B|190:324|190:324|194:330|194:330|180:375,1,100,10|0,3:0|3:0,3:0:0:0:
134,161,68358,1,2,3:0:0:0:
217,76,68501,1,0,3:0:0:0:
291,252,68644,1,10,3:0:0:0:
370,172,68787,1,0,3:0:0:0:
394,365,68930,6,0,L|373:259,1,100,2|0,3:0|3:0,3:0:0:0:
505,118,69215,2,0,L|484:224,1,100,10|0,3:0|3:0,3:0:0:0:
276,170,69501,1,2,3:0:0:0:
384,90,69644,1,0,3:0:0:0:
291,252,69787,1,10,3:0:0:0:
165,71,69930,2,0,L|297:94,1,100,0|2,3:0|3:0,3:0:0:0:
276,170,70215,1,0,3:0:0:0:
374,1,70358,2,0,L|242:24,1,100,10|0,3:0|3:0,3:0:0:0:
190,155,70644,1,2,3:0:0:0:
302,249,70787,1,0,3:0:0:0:
263,88,70930,1,10,3:0:0:0:
159,303,71072,1,0,3:0:0:0:
159,303,71144,1,0,3:0:0:0:
159,303,71215,6,0,L|32:278,1,100,4|0,3:0|3:0,3:0:0:0:
276,170,71501,2,0,L|403:145,1,100,10|0,3:0|3:0,3:0:0:0:
94,72,71787,1,2,3:0:0:0:
190,155,71930,1,0,3:0:0:0:
245,10,72072,1,10,3:0:0:0:
374,150,72215,2,0,L|346:274,1,100,0|2,3:0|3:0,3:0:0:0:
403,329,72501,1,0,3:0:0:0:
240,261,72644,2,0,L|262:358,1,100,10|0,3:0|3:0,3:0:0:0:
131,251,72930,1,2,3:0:0:0:
176,338,73072,1,8,3:0:0:0:
224,154,73215,1,8,3:0:0:0:
111,25,73358,6,0,L|90:133,1,100,4|0,3:0|3:0,3:0:0:0:
28,204,73644,1,8,3:0:0:0:
28,204,73787,1,8,3:0:0:0:
243,55,73930,2,0,L|222:163,1,100,4|0,3:0|3:0,3:0:0:0:
160,234,74215,1,8,3:0:0:0:
160,234,74358,1,8,3:0:0:0:
382,352,74501,2,0,L|260:328,1,100,4|0,3:0|3:0,3:0:0:0:
241,246,74787,1,8,3:0:0:0:
241,246,74930,1,8,3:0:0:0:
483,278,75072,2,0,L|361:254,1,100,4|0,3:0|3:0,3:0:0:0:
328,173,75287,1,0,3:0:0:0:
328,173,75358,2,0,L|353:110,1,50,8|8,3:0|3:0,3:0:0:0:
413,57,75501,2,0,L|438:120,1,50,8|8,3:0|3:0,3:0:0:0:
261,123,75644,2,0,L|243:170,1,50,8|8,3:0|3:0,3:0:0:0:
384,258,75787,6,0,L|407:366,1,100,4|0,3:2|3:0,3:0:0:0:
261,123,76072,2,0,L|299:14,1,100,10|0,3:0|3:0,3:0:0:0:
194,299,76358,1,2,3:0:0:0:
138,196,76501,1,0,3:0:0:0:
288,239,76644,1,10,3:0:0:0:
161,101,76787,2,0,L|43:126,1,100,0|2,3:0|3:0,3:0:0:0:
7,192,77072,1,0,3:0:0:0:
151,19,77215,2,0,P|213:31|233:78,1,100,10|0,3:0|3:0,3:0:0:0:
187,181,77501,1,2,3:0:0:0:
303,224,77644,1,0,3:0:0:0:
392,121,77787,1,10,3:0:0:0:
362,288,77930,1,0,3:0:0:0:
501,172,78072,6,0,L|477:51,1,100,2|0,3:0|3:0,3:0:0:0:
373,282,78358,2,0,L|349:403,1,100,10|0,3:0|3:0,3:0:0:0:
255,130,78644,1,2,3:0:0:0:
372,177,78787,1,0,3:0:0:0:
203,273,78930,1,10,3:0:0:0:
112,101,79072,2,0,B|63:95|63:95|23:131,1,100,0|2,3:0|3:0,3:0:0:0:
10,217,79358,1,0,3:0:0:0:
109,342,79501,2,0,B|60:348|60:348|20:312,1,100,10|0,3:0|3:0,3:0:0:0:
209,156,79787,1,2,3:0:0:0:
266,253,79930,1,0,3:0:0:0:
412,170,80072,1,10,3:0:0:0:
336,328,80215,1,0,3:0:0:0:
336,328,80287,1,0,3:0:0:0:
336,328,80358,6,0,L|363:217,1,100,4|0,3:0|3:0,3:0:0:0:
485,103,80644,2,0,L|512:214,1,100,10|0,3:0|3:0,3:0:0:0:
273,37,80930,1,2,3:0:0:0:
405,95,81072,1,0,3:0:0:0:
209,156,81215,1,10,3:0:0:0:
429,268,81358,2,0,L|456:381,1,100,0|2,3:0|3:0,3:0:0:0:
336,328,81644,1,0,3:0:0:0:
209,156,81787,2,0,L|352:176,1,100,10|0,3:0|3:0,3:0:0:0:
405,95,82072,1,2,3:0:0:0:
359,230,82215,1,0,3:0:0:0:
289,36,82358,1,10,3:0:0:0:
93,149,82501,1,8,3:0:0:0:
93,149,82572,1,8,3:0:0:0:
93,149,82645,5,8,3:0:0:0:
141,222,82787,1,8,3:0:0:0:
199,107,82930,1,8,3:0:0:0:
236,280,83073,1,8,3:0:0:0:
308,49,83216,1,8,3:0:0:0:
367,327,83359,1,8,3:0:0:0:
461,9,83502,2,0,L|435:118,1,100,4|0,3:0|3:0,3:0:0:0:
236,280,83787,2,0,L|210:171,1,100,4|0,3:0|3:0,3:0:0:0:
73,27,84074,6,0,P|127:29|171:64,1,90.0000000000001,4|0,3:2|3:0,3:0:0:0:
212,182,84359,1,10,3:0:0:0:
212,182,84645,1,2,3:0:0:0:
115,160,84788,1,0,3:0:0:0:
236,280,84931,2,0,L|351:254,1,90.0000000000001,10|0,3:0|3:0,3:0:0:0:
417,191,85216,5,2,3:0:0:0:
397,291,85359,1,0,3:0:0:0:
417,191,85502,1,10,3:0:0:0:
495,251,85645,2,0,L|470:350,1,90.0000000000001,0|2,3:0|3:0,3:0:0:0:
403,384,85931,1,0,3:0:0:0:
236,280,86074,2,0,L|265:172,1,90.0000000000001,10|0,3:0|3:0,3:0:0:0:
331,125,86359,5,2,3:0:0:0:
268,49,86502,2,0,L|71:89,1,180,0|0,3:0|3:0,3:0:0:0:
37,216,86931,1,2,3:0:0:0:
121,164,87074,1,0,3:0:0:0:
136,329,87216,2,0,L|106:232,1,90.0000000000001,10|0,3:0|3:0,3:0:0:0:
247,148,87502,5,2,3:0:0:0:
195,232,87645,1,0,3:0:0:0:
260,306,87788,1,10,3:0:0:0:
195,232,87931,2,0,L|317:223,1,90.0000000000001,0|2,3:0|3:0,3:0:0:0:
360,286,88216,1,0,3:0:0:0:
463,113,88359,2,0,B|425:92|425:92|374:104,1,90.0000000000001,10|0,3:0|3:0,3:0:0:0:
360,286,88645,6,0,L|383:373,1,90.0000000000001,2|0,3:0|3:0,3:0:0:0:
472,228,88931,1,10,3:0:0:0:
412,178,89074,2,0,B|367:190|328:169|328:169|322:171|322:171|296:131|248:130,1,180,0|0,3:0|3:0,3:0:0:0:
214,239,89502,2,0,B|203:243|211:260|241:261|271:236|250:204,1,90.0000000000001,10|0,3:0|3:0,3:0:0:0:
158,141,89788,5,2,3:0:0:0:
110,238,89931,1,0,3:0:0:0:
29,52,90074,1,10,3:0:0:0:
63,121,90216,2,0,B|151:107|151:107|155:100|155:100|256:83,1,180,0|0,3:0|3:0,3:0:0:0:
259,67,90574,1,0,3:0:0:0:
259,67,90645,1,10,3:0:0:0:
383,329,90931,6,0,L|283:301,1,90.0000000000001,2|0,3:0|3:0,3:0:0:0:
193,326,91216,2,0,L|216:230,1,90.0000000000001,10|0,3:0|3:0,3:0:0:0:
158,135,91502,1,2,3:0:0:0:
266,166,91645,1,0,3:0:0:0:
198,37,91788,2,0,B|157:46|157:46|154:52|154:52|105:63,1,90.0000000000001,10|0,3:0|3:0,3:0:0:0:
24,19,92074,5,2,3:0:0:0:
76,142,92216,1,0,3:0:0:0:
76,142,92288,1,0,3:0:0:0:
76,142,92359,1,10,3:0:0:0:
113,61,92502,1,2,3:0:0:0:
0,199,92645,1,0,3:0:0:0:
191,109,92788,1,10,3:0:0:0:
129,310,92931,1,10,3:0:0:0:
76,142,93074,1,2,3:0:0:0:
190,186,93216,6,0,L|281:174,1,90.0000000000001,4|0,3:2|3:0,3:0:0:0:
394,261,93502,1,10,3:0:0:0:
394,261,93788,1,2,3:0:0:0:
375,163,93931,1,0,3:0:0:0:
492,241,94074,2,0,P|479:292|464:353,1,90.0000000000001,10|0,3:0|3:0,3:0:0:0:
339,344,94359,5,2,3:0:0:0:
394,261,94502,1,0,3:0:0:0:
313,202,94645,1,10,3:0:0:0:
339,106,94788,2,0,L|228:83,1,90.0000000000001,0|2,3:0|3:0,3:0:0:0:
185,158,95074,1,0,3:0:0:0:
403,47,95216,2,0,L|425:149,1,90.0000000000001,10|0,3:0|3:0,3:0:0:0:
269,283,95502,5,2,3:0:0:0:
313,202,95645,2,0,B|392:217|392:217|400:234|400:234|489:254,1,180,0|0,3:0|3:0,3:0:0:0:
403,353,96074,1,2,3:0:0:0:
382,256,96216,1,0,3:0:0:0:
284,375,96359,2,0,L|172:350,1,90.0000000000001,10|0,3:0|3:0,3:0:0:0:
121,191,96645,5,2,3:0:0:0:
203,245,96788,1,0,3:0:0:0:
115,290,96931,1,10,3:0:0:0:
121,191,97074,2,0,L|20:169,1,90.0000000000001,0|2,3:0|3:0,3:0:0:0:
20,305,97359,1,0,3:0:0:0:
20,305,97431,1,0,3:0:0:0:
20,305,97502,1,10,3:0:0:0:
51,83,97788,6,0,L|29:186,1,90.0000000000001,2|0,3:0|3:0,3:0:0:0:
189,263,98074,1,10,3:0:0:0:
189,263,98359,1,2,3:0:0:0:
101,237,98502,1,0,3:0:0:0:
262,359,98645,2,0,L|358:329,1,90.0000000000001,10|0,3:0|3:0,3:0:0:0:
417,222,98931,5,2,3:0:0:0:
329,255,99074,1,0,3:0:0:0:
246,198,99216,1,10,3:0:0:0:
334,165,99359,2,0,L|353:65,1,90.0000000000001,0|2,3:0|3:0,3:0:0:0:
419,25,99645,1,0,3:0:0:0:
230,89,99788,2,0,B|188:81|188:81|184:83|184:83|132:72,1,90.0000000000001,10|0,3:0|3:0,3:0:0:0:
40,295,100074,6,0,P|92:274|111:221,1,90.0000000000001,2|0,3:0|3:0,3:0:0:0:
59,118,100359,1,10,3:0:0:0:
59,118,100645,1,2,3:0:0:0:
35,215,100788,1,0,3:0:0:0:
223,202,100931,2,0,L|231:251,1,45,10|0,3:0|3:0,3:0:0:0:
100,290,101074,2,0,L|108:241,1,45,0|0,3:0|3:0,3:0:0:0:
208,336,101216,5,8,3:0:0:0:
240,352,101288,1,8,3:0:0:0:
275,350,101359,1,8,3:0:0:0:
302,326,101431,1,8,3:0:0:0:
310,291,101502,1,8,3:0:0:0:
320,256,101574,1,8,3:0:0:0:
349,235,101645,1,8,3:0:0:0:
384,235,101716,1,8,3:0:0:0:
413,256,101788,1,8,3:0:0:0:
379,143,101931,1,8,3:0:0:0:
379,143,102002,1,8,3:0:0:0:
379,143,102074,2,0,L|436:134,1,45,8|8,3:0|3:0,3:0:0:0:
320,256,102216,2,0,L|263:265,1,45,8|8,3:0|3:0,3:0:0:0:
66,107,102359,6,0,B|149:123|149:123|159:145|159:145|255:167,1,200,4|10,3:0|3:0,3:0:0:0:
229,67,102788,1,0,3:0:0:0:
89,189,102931,2,0,L|116:317,1,100,2|0,3:0|3:0,3:0:0:0:
60,354,103216,1,10,3:0:0:0:
60,354,103359,1,0,3:0:0:0:
178,240,103502,6,0,L|305:269,1,100,2|0,3:0|3:0,3:0:0:0:
315,369,103788,1,10,3:0:0:0:
434,182,103931,2,0,L|307:211,1,100,0|2,3:0|3:0,3:0:0:0:
315,369,104216,1,0,3:0:0:0:
229,151,104359,1,10,3:0:0:0:
416,306,104502,1,0,3:0:0:0:
416,306,104574,1,0,3:0:0:0:
416,306,104645,6,0,B|431:219|431:219|438:214|438:214|453:112,1,200,2|10,3:0|3:0,3:0:0:0:
336,204,105074,1,0,3:0:0:0:
195,22,105216,1,2,3:0:0:0:
280,65,105359,2,0,P|247:115|224:159,1,100,0|10,3:0|3:0,3:0:0:0:
140,217,105645,1,0,3:0:0:0:
12,163,105788,6,0,L|44:272,1,100,2|0,3:0|3:0,3:0:0:0:
2,349,106074,1,10,3:0:0:0:
111,121,106216,2,0,L|143:230,1,100,0|2,3:0|3:0,3:0:0:0:
101,307,106502,1,0,3:0:0:0:
242,169,106645,1,10,3:0:0:0:
305,371,106788,1,0,3:0:0:0:
305,371,106859,1,0,3:0:0:0:
305,371,106931,6,0,L|434:350,1,100,4|0,3:0|3:0,3:0:0:0:
111,121,107216,2,0,L|-18:100,1,100,10|0,3:0|3:0,3:0:0:0:
305,371,107502,2,0,L|434:350,1,100,2|0,3:0|3:0,3:0:0:0:
350,79,107788,1,10,3:0:0:0:
254,233,107931,2,0,L|188:223,1,50,0|0,3:0|3:0,3:0:0:0:
119,112,108074,5,8,3:0:0:0:
131,104,108145,1,8,3:0:0:0:
145,102,108216,1,8,3:0:0:0:
160,102,108288,1,8,3:0:0:0:
170,108,108359,2,0,P|198:131|209:174,1,50,8|8,3:0|3:0,3:0:0:0:
254,233,108502,1,8,3:0:0:0:
271,257,108574,1,8,3:0:0:0:
298,269,108645,1,8,3:0:0:0:
327,267,108716,1,8,3:0:0:0:
351,249,108788,2,0,P|370:218|365:183,1,50,8|8,3:0|3:0,3:0:0:0:
350,79,108931,1,8,3:0:0:0:
364,31,109002,1,8,3:0:0:0:
409,9,109074,1,8,3:0:0:0:
457,18,109145,1,8,3:0:0:0:
484,59,109216,5,8,3:0:0:0:
322,309,109359,1,8,3:0:0:0:
210,36,109502,1,8,3:0:0:0:
357,252,109645,1,8,3:0:0:0:
171,107,109788,1,8,3:0:0:0:
88,345,109931,1,8,3:0:0:0:
262,107,110074,1,8,3:0:0:0:
19,247,110216,1,8,3:0:0:0:
336,157,110359,5,8,3:0:0:0:
278,234,111501,6,0,P|270:250|259:266,1,20,0|0,3:0|3:0,3:0:0:0:
232,338,111644,2,0,P|224:318|218:308,1,20,0|0,3:0|3:0,3:0:0:0:
86,145,111787,6,0,P|142:96|222:120,1,150,4|0,3:0|3:0,3:0:0:0:
358,208,112072,1,8,3:0:0:0:
358,208,112215,1,0,3:0:0:0:
191,258,112358,1,2,3:0:0:0:
332,114,112501,1,2,3:0:0:0:
381,358,112644,1,8,3:0:0:0:
163,179,112787,6,0,B|251:123|336:191|282:255|364:306|442:257,1,300,4|0,3:0|3:0,3:0:0:0:
493,42,113215,1,8,3:0:0:0:
390,193,113358,1,0,3:0:0:0:
283,2,113501,1,2,3:0:0:0:
451,112,113644,1,0,3:0:0:0:
241,246,113787,1,10,3:0:0:0:
326,69,113929,1,0,3:0:0:0:
345,306,114072,6,0,P|316:220|291:144,1,150,4|0,3:0|3:0,3:0:0:0:
197,0,114358,2,0,P|173:71|149:142,1,150,8|0,3:0|3:0,3:0:0:0:
111,309,114644,1,2,3:0:0:0:
246,126,114787,1,2,3:0:0:0:
22,189,114929,1,8,3:0:0:0:
236,312,115072,6,0,B|273:296|297:241|247:180|106:227|141:373,1,300,4|2,3:0|3:0,3:0:0:0:
342,353,115501,1,8,3:0:0:0:
174,154,115644,1,4,3:2:0:0:
414,215,115787,1,4,3:2:0:0:
259,384,115929,2,0,P|252:361|234:306,1,75,8|8,3:0|3:0,3:0:0:0:
270,114,116072,1,8,3:0:0:0:
295,98,116144,1,8,3:0:0:0:
324,96,116215,1,8,3:0:0:0:
353,104,116287,1,8,3:0:0:0:
375,123,116358,5,4,3:0:0:0:
441,313,116501,1,0,3:0:0:0:
258,200,116644,1,8,3:0:0:0:
435,65,116787,2,0,P|446:172|392:209,1,150,0|2,3:0|3:0,3:0:0:0:
207,67,117072,1,2,3:0:0:0:
375,123,117215,1,8,3:0:0:0:
257,363,117358,6,0,P|239:249|200:26,1,300,2|2,3:0|3:0,3:0:0:0:
429,4,117787,2,0,P|429:79|312:114,1,150,8|2,3:0|3:0,3:0:0:0:
106,44,118072,1,2,3:0:0:0:
106,44,118215,1,0,3:0:0:0:
300,149,118358,1,10,3:0:0:0:
90,233,118501,1,2,3:0:0:0:
256,0,118644,6,0,P|232:86|208:177,1,150,4|0,3:0|3:0,3:0:0:0:
265,346,118929,1,8,3:0:0:0:
0,189,119072,2,0,B|80:133|151:217|98:236|182:318|284:242,1,300,0|2,3:0|3:0,3:0:0:0:
427,76,119501,5,8,3:0:0:0:
391,46,119572,1,8,3:0:0:0:
346,40,119644,1,8,3:0:0:0:
306,61,119715,1,8,3:0:0:0:
283,101,119787,5,4,3:0:0:0:
362,119,119929,1,0,3:0:0:0:
198,349,120072,5,4,3:0:0:0:
119,367,120215,1,0,3:0:0:0:
221,42,120358,5,4,3:0:0:0:
221,42,120644,6,0,P|232:67|211:125,1,75,8|8,3:0|3:0,3:0:0:0:
292,148,120787,2,0,P|277:171|218:187,1,75,8|8,3:0|3:0,3:0:0:0:
0,103,120929,6,0,P|88:89|169:74,1,150,4|0,3:0|3:0,3:0:0:0:
381,2,121215,1,8,3:0:0:0:
381,2,121358,1,0,3:0:0:0:
450,232,121501,1,2,3:0:0:0:
300,58,121644,1,2,3:0:0:0:
245,306,121787,1,8,3:0:0:0:
495,111,121929,6,0,B|452:106|407:81|407:81|373:134|312:164|312:164|255:129|188:133,1,300,4|2,3:0|3:0,3:0:0:0:
42,163,122358,1,8,3:0:0:0:
225,34,122501,1,2,3:0:0:0:
194,303,122644,1,2,3:0:0:0:
104,109,122787,1,0,3:0:0:0:
331,257,122929,2,0,P|295:245|247:232,1,75,10|0,3:0|3:0,3:0:0:0:
117,189,123072,2,0,P|153:177|201:164,1,75,0|0,3:0|3:0,3:0:0:0:
326,0,123215,6,0,P|303:85|278:173,1,150,4|0,3:0|3:0,3:0:0:0:
318,345,123501,1,8,3:0:0:0:
318,345,123644,1,0,3:0:0:0:
189,167,123787,1,0,3:0:0:0:
418,256,123929,1,2,3:0:0:0:
224,384,124072,1,8,3:0:0:0:
365,156,124215,6,0,B|407:122|460:147|460:147|452:230|350:287|289:224,1,300,4|2,3:0|3:0,3:0:0:0:
159,76,124644,1,8,3:0:0:0:
159,76,124787,1,4,3:2:0:0:
236,271,124929,1,0,3:0:0:0:
329,27,125072,1,8,3:0:0:0:
329,27,125144,1,8,3:0:0:0:
329,27,125215,2,0,P|337:73|351:134,1,75,8|8,3:0|3:0,3:0:0:0:
225,184,125358,2,0,P|234:149|244:112,1,75,8|8,3:0|3:0,3:0:0:0:
417,36,125501,6,0,P|437:133|461:236,1,150,4|0,3:0|3:0,3:0:0:0:
288,376,125787,1,10,3:0:0:0:
288,376,125929,1,0,3:0:0:0:
356,141,126072,1,0,3:0:0:0:
146,275,126215,1,2,3:0:0:0:
422,204,126358,1,8,3:0:0:0:
192,0,126501,6,0,P|207:101|240:323,1,300,2|2,3:0|3:0,3:0:0:0:
403,363,126929,2,0,P|421:260|435:176,1,150,8|0,3:0|3:0,3:0:0:0:
331,41,127215,1,2,3:0:0:0:
331,41,127358,1,0,3:0:0:0:
223,196,127501,1,10,3:0:0:0:
433,120,127644,1,0,3:0:0:0:
237,1,127787,6,0,P|155:21|74:40,1,150,4|0,3:0|3:0,3:0:0:0:
329,278,128072,1,8,3:0:0:0:
224,87,128215,1,0,3:0:0:0:
126,331,128358,1,2,3:0:0:0:
340,175,128501,1,0,3:0:0:0:
162,19,128644,1,8,3:0:0:0:
134,54,128715,1,8,3:0:0:0:
130,99,128787,1,8,3:0:0:0:
146,140,128858,1,8,3:0:0:0:
178,170,128929,5,12,3:0:0:0:
178,170,129501,6,0,P|244:155|326:135,1,130,4|0,3:2|3:0,3:0:0:0:
477,60,129787,2,0,P|411:45|329:25,1,130,4|0,3:0|3:0,3:0:0:0:
226,322,130072,6,0,P|246:261|258:216,1,89.9999999999998,4|0,3:2|3:0,3:0:0:0:
265,158,130358,5,0,2:0:0:0:
328,270,130501,1,0,2:0:0:0:
287,78,130644,5,0,2:0:0:0:
252,236,130787,1,0,2:0:0:0:
351,31,130929,5,0,2:0:0:0:
184,191,131072,1,0,2:0:0:0:
468,133,131215,6,0,B|413:91|413:91|333:122,1,130,4|0,3:0|3:0,3:0:0:0:
252,236,131500,2,0,B|308:257|308:257|363:215,1,130,8|0,3:0|3:0,3:0:0:0:
239,13,131786,1,2,3:0:0:0:
184,191,131929,1,0,3:0:0:0:
356,112,132072,2,0,P|276:124|210:134,1,130,10|0,3:0|3:0,3:0:0:0:
0,235,132357,5,2,3:0:0:0:
53,174,132500,2,0,B|125:140|182:197|137:233|214:306|282:268,1,260,0|0,3:0|3:0,3:0:0:0:
411,160,132929,1,2,3:0:0:0:
457,69,133072,2,0,P|439:156|408:346,1,260,0|0,3:0|3:0,3:0:0:0:
197,129,133500,6,0,B|217:82|268:85|268:85|248:-1|134:-5|77:95|128:197|225:186|267:160|267:160|283:149|360:204|334:303|268:326,1,650,2|0,3:0|3:0,3:0:0:0:
228,364,134357,6,0,P|217:345|216:286,1,65,10|0,3:0|3:0,3:0:0:0:
213,280,134500,2,0,P|192:318|195:351,1,75,0|0,3:0|3:0,3:0:0:0:
111,286,134643,5,2,3:0:0:0:
95,254,134715,1,0,3:0:0:0:
105,220,134786,1,0,3:0:0:0:
135,203,134857,1,0,3:0:0:0:
168,211,134929,1,10,3:0:0:0:
187,240,135000,1,0,3:0:0:0:
219,252,135072,1,0,3:0:0:0:
251,237,135143,1,0,3:0:0:0:
263,204,135215,1,2,3:0:0:0:
248,171,135286,1,0,3:0:0:0:
255,136,135357,1,0,3:0:0:0:
285,119,135429,1,0,3:0:0:0:
319,127,135500,1,10,3:0:0:0:
336,156,135572,1,0,3:0:0:0:
369,166,135643,1,0,3:0:0:0:
401,152,135715,1,0,3:0:0:0:
411,118,135786,6,0,L|255:150,1,150,2|0,3:0|3:0,3:0:0:0:
168,211,136072,2,0,L|175:161,1,50,10|0,3:0|3:0,3:0:0:0:
204,65,136215,1,0,3:0:0:0:
189,61,136286,1,0,3:0:0:0:
174,57,136357,1,2,3:0:0:0:
159,53,136429,1,0,3:0:0:0:
144,49,136500,2,0,L|93:36,1,50,0|0,3:0|3:0,3:0:0:0:
2,149,136643,1,10,3:0:0:0:
17,145,136715,1,0,3:0:0:0:
32,141,136786,1,0,3:0:0:0:
47,137,136857,1,0,3:0:0:0:
62,133,136929,6,0,L|113:120,3,50,2|0|0|0,3:0|3:0|3:0|3:0,3:0:0:0:
186,222,137215,1,10,3:0:0:0:
223,237,137286,1,0,3:0:0:0:
262,229,137357,1,0,3:0:0:0:
282,195,137429,1,0,3:0:0:0:
301,159,137500,1,2,3:0:0:0:
337,143,137572,1,0,3:0:0:0:
374,157,137643,2,0,P|391:184|380:220,1,50,0|0,3:0|3:0,3:0:0:0:
395,306,137786,5,10,3:0:0:0:
385,303,137857,1,0,3:0:0:0:
375,300,137929,1,0,3:0:0:0:
365,297,138000,1,0,3:0:0:0:
355,294,138072,5,2,3:0:0:0:
280,367,138215,1,0,3:0:0:0:
457,256,138357,1,10,3:0:0:0:
239,203,138500,1,0,3:0:0:0:
168,265,138643,2,0,L|140:62,1,200,2|10,3:0|3:0,3:0:0:0:
152,56,139072,2,0,L|138:125,1,50,0|0,3:0|3:0,3:0:0:0:
63,160,139215,5,8,3:0:0:0:
84,194,139286,1,8,3:0:0:0:
122,202,139357,1,8,3:0:0:0:
158,186,139429,1,8,3:0:0:0:
173,148,139500,1,8,3:0:0:0:
205,125,139572,1,8,3:0:0:0:
244,132,139643,2,0,L|260:202,1,50,2|8,3:0|3:0,3:0:0:0:
337,225,139786,5,8,3:0:0:0:
331,244,139857,1,8,3:0:0:0:
325,262,139929,1,8,3:0:0:0:
319,281,140000,1,8,3:0:0:0:
300,301,140072,5,8,3:0:0:0:
303,310,140143,1,8,3:0:0:0:
306,319,140215,1,8,3:0:0:0:
309,328,140286,1,8,3:0:0:0:
301,347,140357,5,4,3:0:0:0:
413,303,140500,1,0,3:0:0:0:
337,225,140643,1,10,3:0:0:0:
411,178,140786,1,0,3:0:0:0:
294,96,140929,2,0,L|197:121,1,100,2|0,3:0|3:0,3:0:0:0:
147,192,141215,1,10,3:0:0:0:
225,276,141357,1,0,3:0:0:0:
225,276,141429,1,0,3:0:0:0:
225,276,141500,6,0,L|259:166,1,100,2|0,3:0|3:0,3:0:0:0:
356,143,141786,1,10,3:0:0:0:
301,32,141929,1,0,3:0:0:0:
446,82,142072,2,0,L|431:137,1,50,2|0,3:0|3:0,3:0:0:0:
356,143,142215,2,0,L|371:198,1,50,0|0,3:0|3:0,3:0:0:0:
440,227,142357,2,0,L|425:282,1,50,10|0,3:0|3:0,3:0:0:0:
350,288,142500,2,0,L|365:343,1,50,0|0,3:0|3:0,3:0:0:0:
273,366,142643,5,2,3:0:0:0:
263,363,142715,1,0,3:0:0:0:
253,360,142786,1,0,3:0:0:0:
243,357,142857,1,0,3:0:0:0:
233,353,142929,2,0,L|224:294,3,50,10|0|0|0,3:0|3:0|3:0|3:0,3:0:0:0:
171,240,143215,5,2,3:0:0:0:
174,230,143286,1,0,3:0:0:0:
176,220,143357,2,0,L|192:168,1,50,0|0,3:0|3:0,3:0:0:0:
260,112,143500,1,10,3:0:0:0:
263,122,143572,1,0,3:0:0:0:
265,132,143643,2,0,L|281:184,1,50,0|0,3:0|3:0,3:0:0:0:
117,163,143786,5,2,3:0:0:0:
88,155,143857,1,0,3:0:0:0:
59,147,143929,1,0,3:0:0:0:
88,141,144000,1,0,3:0:0:0:
117,136,144072,1,10,3:0:0:0:
111,149,144143,1,0,3:0:0:0:
105,162,144215,2,0,L|85:215,1,50,0|0,3:0|3:0,3:0:0:0:
31,328,144357,6,0,L|165:306,1,100,2|8,3:0|3:0,3:0:0:0:
196,254,144572,1,8,3:0:0:0:
210,270,144643,2,0,L|323:300,1,100,8|8,3:0|3:0,3:0:0:0:
328,323,144857,1,8,3:0:0:0:
328,323,144929,5,4,3:0:0:0:
399,307,145072,1,0,3:0:0:0:
279,179,145215,1,10,3:0:0:0:
279,179,145286,1,0,3:0:0:0:
279,179,145357,1,0,3:0:0:0:
396,110,145500,5,2,3:0:0:0:
376,180,145643,1,0,3:0:0:0:
244,17,145786,1,10,3:0:0:0:
244,17,145857,1,0,3:0:0:0:
244,17,145929,1,0,3:0:0:0:
149,89,146072,6,0,L|20:63,1,100,2|0,3:0|3:0,3:0:0:0:
121,193,146357,1,10,3:0:0:0:
201,155,146500,1,0,3:0:0:0:
253,292,146643,1,2,3:0:0:0:
207,233,146786,1,0,3:0:0:0:
316,202,146929,1,10,3:0:0:0:
265,367,147072,1,0,3:0:0:0:
403,302,147215,5,2,3:0:0:0:
410,288,147286,1,0,3:0:0:0:
417,274,147357,1,8,3:0:0:0:
424,260,147429,1,8,3:0:0:0:
431,246,147500,2,0,L|461:187,1,50,8|8,3:0|3:0,3:0:0:0:
509,120,147643,5,10,3:0:0:0:
487,99,147715,1,8,3:0:0:0:
456,95,147786,1,8,3:0:0:0:
429,108,147857,1,8,3:0:0:0:
416,135,147929,1,8,3:0:0:0:
391,153,148000,1,8,3:0:0:0:
361,154,148072,2,0,L|340:99,1,50,10|8,3:0|3:0,3:0:0:0:
285,53,148215,2,0,L|264:108,1,50,8|8,3:0|3:0,3:0:0:0:
220,192,148357,5,8,3:0:0:0:
207,199,148429,1,8,3:0:0:0:
191,198,148500,1,8,3:0:0:0:
178,189,148572,1,8,3:0:0:0:
172,174,148643,1,8,3:0:0:0:
174,157,148715,1,8,3:0:0:0:
190,143,148786,1,10,3:0:0:0:
198,119,148857,1,10,3:0:0:0:
190,90,148929,1,0,3:0:0:0:
156,71,149000,1,8,3:0:0:0:
123,77,149072,2,0,L|103:131,1,50,10|0,3:0|3:0,3:0:0:0:
19,181,149215,5,8,3:0:0:0:
21,190,149286,1,8,3:0:0:0:
23,199,149357,1,8,3:0:0:0:
26,208,149429,1,8,3:0:0:0:
28,218,149500,6,0,P|92:236|158:258,1,120,12|0,3:0|3:0,3:0:0:0:
312,84,149786,2,0,P|254:100|197:118,1,120,10|0,3:0|3:0,3:0:0:0:
78,316,150072,1,10,3:0:0:0:
124,85,150215,1,0,3:0:0:0:
260,260,150357,1,10,3:0:0:0:
31,61,150500,1,0,3:0:0:0:
31,61,150572,1,0,3:0:0:0:
31,61,150643,5,10,3:0:0:0:
99,214,150786,1,0,3:0:0:0:
224,14,150929,5,10,3:0:0:0:
181,178,151072,1,0,3:0:0:0:
311,47,151215,5,10,3:0:0:0:
248,239,151357,1,0,3:0:0:0:
121,92,151500,5,10,3:0:0:0:
174,269,151643,1,0,3:0:0:0:
174,269,151715,1,0,3:0:0:0:
174,269,151786,6,0,P|195:347|211:402,1,120,12|0,3:0|3:0,3:0:0:0:
392,128,152072,2,0,P|371:206|355:261,1,120,10|0,3:0|3:0,3:0:0:0:
259,126,152357,5,10,3:0:0:0:
455,240,152500,1,0,3:0:0:0:
266,291,152643,1,10,3:0:0:0:
464,86,152786,1,0,3:0:0:0:
464,86,152857,1,0,3:0:0:0:
464,86,152929,5,12,3:0:0:0:
381,303,153072,1,0,3:0:0:0:
259,126,153215,5,10,3:0:0:0:
394,182,153357,1,0,3:0:0:0:
187,174,153500,5,10,3:0:0:0:
339,99,153643,1,0,3:0:0:0:
159,36,153786,6,0,P|173:68|186:112,1,60,8|8,3:0|3:0,3:0:0:0:
245,265,153929,2,0,P|254:236|266:209,1,60,8|8,3:0|3:0,3:0:0:0:
396,49,154072,6,0,P|467:54|509:118,1,120,12|0,3:0|3:0,3:0:0:0:
322,309,154357,2,0,P|277:347|218:346,1,120,10|0,3:0|3:0,3:0:0:0:
77,118,154643,1,10,3:0:0:0:
245,265,154786,1,0,3:0:0:0:
42,337,154929,1,10,3:0:0:0:
187,117,155072,1,0,3:0:0:0:
187,117,155143,1,0,3:0:0:0:
187,117,155215,5,12,3:0:0:0:
218,346,155357,1,0,3:0:0:0:
136,37,155500,5,10,3:0:0:0:
245,265,155643,1,0,3:0:0:0:
307,5,155786,1,10,3:0:0:0:
174,208,155929,1,0,3:0:0:0:
424,125,156072,1,8,3:0:0:0:
401,96,156143,1,8,3:0:0:0:
366,86,156215,1,8,3:0:0:0:
331,96,156286,1,8,3:0:0:0:
311,126,156357,6,0,P|330:180|345:233,1,100,12|0,3:0|3:0,3:0:0:0:
376,373,156643,1,8,3:0:0:0:
498,176,156786,2,0,P|467:128|411:125,1,100,4|0,3:0|3:0,3:0:0:0:
160,287,157072,1,0,3:0:0:0:
160,287,157143,1,0,3:0:0:0:
160,287,157215,2,0,P|199:329|280:303,1,150,12|8,3:0|3:0,3:0:0:0:
303,227,157500,5,8,3:0:0:0:
303,227,157572,1,8,3:0:0:0:
303,227,157643,2,0,P|295:196|286:158,1,50,10|8,3:0|3:0,3:0:0:0:
385,84,157786,1,8,3:0:0:0:
385,84,157857,1,8,3:0:0:0:
385,84,157929,2,0,P|377:115|368:153,1,50,8|8,3:0|3:0,3:0:0:0:
376,286,158072,5,8,3:0:0:0:
425,320,158143,1,8,3:0:0:0:
473,307,158215,1,8,3:0:0:0:
488,269,158286,1,8,3:0:0:0:
471,243,158357,1,8,3:0:0:0:
451,239,158429,1,8,3:0:0:0:
442,244,158500,1,8,3:0:0:0:
437,252,158572,1,8,3:0:0:0:
437,258,158643,5,4,3:2:0:0:
312,311,166357,5,8,3:0:0:0:
321,314,166429,1,8,3:0:0:0:
330,317,166500,1,8,3:0:0:0:
339,320,166572,1,8,3:0:0:0:
348,324,166643,5,10,3:0:0:0:
324,229,166786,1,0,3:0:0:0:
145,18,166929,5,10,3:0:0:0:
121,113,167072,1,0,3:0:0:0:
477,177,167215,5,10,3:0:0:0:
477,177,167500,2,0,L|425:161,1,50,0|0,3:0|3:0,3:0:0:0:
324,229,167643,2,0,L|376:213,1,50,0|0,3:0|3:0,3:0:0:0:
295,0,167786,6,0,L|249:221,1,160,4|0,3:0|3:0,3:0:0:0:
164,200,168072,1,8,3:0:0:0:
164,200,168215,1,0,3:0:0:0:
58,65,168357,1,2,3:0:0:0:
242,125,168500,1,2,3:0:0:0:
10,244,168643,1,8,3:0:0:0:
214,27,168786,6,0,B|309:8|360:86|318:133|391:198|472:165,1,320,4|2,3:0|3:0,3:0:0:0:
512,2,169215,2,0,P|425:43|443:120,1,160,8|2,3:0|3:0,3:0:0:0:
501,277,169500,1,2,3:0:0:0:
501,277,169643,1,0,3:0:0:0:
319,144,169786,1,10,3:0:0:0:
482,190,169929,1,2,3:0:0:0:
306,358,170072,6,0,B|282:276|282:276|286:265|286:265|263:181,1,160,4|0,3:0|3:0,3:0:0:0:
439,31,170357,2,0,B|415:113|415:113|419:124|419:124|396:208,1,160,8|0,3:0|3:0,3:0:0:0:
309,270,170643,1,2,3:0:0:0:
309,270,170786,1,2,3:0:0:0:
193,21,170929,1,8,3:0:0:0:
402,184,171072,6,0,B|269:156|269:156|247:118|247:118|97:90,1,320,4|2,3:0|3:0,3:0:0:0:
24,179,171500,1,8,3:0:0:0:
183,280,171643,1,8,3:0:0:0:
183,280,171715,1,8,3:0:0:0:
183,280,171786,2,0,L|208:198,1,80,8|8,3:0|3:0,3:0:0:0:
109,92,171929,2,0,L|134:174,1,80,8|8,3:0|3:0,3:0:0:0:
281,236,172072,1,8,3:0:0:0:
320,228,172143,1,8,3:0:0:0:
359,221,172215,1,8,3:0:0:0:
398,214,172286,1,8,3:0:0:0:
437,208,172357,5,4,3:0:0:0:
333,348,172500,1,0,3:0:0:0:
382,129,172643,1,10,3:0:0:0:
508,376,172786,2,0,B|409:362|392:278|392:278|386:279|386:279|343:198|263:199,1,320,0|2,3:0|3:0,3:0:0:0:
175,297,173215,1,8,3:0:0:0:
49,42,173357,6,0,P|147:12|106:187,1,320,2|2,3:0|3:0,3:0:0:0:
56,291,173786,2,0,L|85:128,1,160,8|2,3:0|3:0,3:0:0:0:
177,44,174072,1,2,3:0:0:0:
177,44,174215,1,0,3:0:0:0:
0,157,174357,1,10,3:0:0:0:
251,95,174500,1,0,3:0:0:0:
168,340,174643,6,0,L|148:164,1,160,2|0,3:0|3:0,3:0:0:0:
72,86,174929,1,10,3:0:0:0:
294,239,175072,2,0,B|371:208|371:208|97:169,1,320,0|0,3:0|3:0,3:0:0:0:
63,265,175500,1,8,3:0:0:0:
65,272,175572,1,0,3:0:0:0:
67,279,175643,1,8,3:0:0:0:
69,286,175715,1,0,3:0:0:0:
71,293,175786,5,4,3:0:0:0:
169,330,175929,1,0,3:0:0:0:
305,64,176072,5,4,3:0:0:0:
403,27,176215,1,0,3:0:0:0:
71,146,176357,5,4,3:0:0:0:
71,146,176643,2,0,L|86:224,1,65,8|8,3:0|3:0,3:0:0:0:
153,273,176786,2,0,L|168:195,1,65,8|8,3:0|3:0,3:0:0:0:
305,64,176929,6,0,B|236:23|236:23|143:57,1,160,4|0,3:0|3:0,3:0:0:0:
221,152,177215,1,10,3:0:0:0:
221,152,177357,1,0,3:0:0:0:
86,8,177500,1,2,3:0:0:0:
16,243,177643,1,2,3:0:0:0:
156,74,177786,1,8,3:0:0:0:
234,333,177929,6,0,B|288:344|327:264|327:264|334:266|334:266|371:210|450:219|450:219|412:225|385:256,1,320,6|2,3:0|3:0,3:0:0:0:
466,326,178357,1,8,3:0:0:0:
466,326,178500,1,2,3:0:0:0:
355,147,178643,1,2,3:0:0:0:
339,384,178786,1,0,3:0:0:0:
494,138,178929,1,10,3:0:0:0:
284,254,179072,1,2,3:0:0:0:
135,21,179215,6,0,B|216:32|216:32|223:40|223:40|303:54,1,160,4|0,3:0|3:0,3:0:0:0:
512,256,179500,2,0,B|431:267|431:267|424:275|424:275|344:289,1,160,8|0,3:0|3:0,3:0:0:0:
160,369,179786,1,2,3:0:0:0:
316,121,179929,1,2,3:0:0:0:
62,228,180072,1,8,3:0:0:0:
286,362,180215,6,0,B|253:208|253:208|254:205|254:205|216:34,1,320,4|8,3:0|3:0,3:0:0:0:
201,34,180572,1,8,3:0:0:0:
201,34,180643,2,0,L|115:51,1,80,8|8,3:0|3:0,3:0:0:0:
316,121,180786,2,0,L|402:138,1,80,8|8,3:0|3:0,3:0:0:0:
195,228,180929,1,8,3:0:0:0:
187,225,181000,1,8,3:0:0:0:
179,222,181072,1,8,3:0:0:0:
171,219,181143,1,8,3:0:0:0:
163,216,181215,5,8,3:0:0:0:
126,232,181286,1,8,3:0:0:0:
113,269,181357,1,8,3:0:0:0:
126,306,181429,1,8,3:0:0:0:
162,323,181500,6,0,L|352:282,1,160,4|0,3:0|3:0,3:0:0:0:
426,358,181786,1,8,3:0:0:0:
426,358,181929,1,0,3:0:0:0:
330,266,182072,1,2,3:0:0:0:
480,124,182215,1,2,3:0:0:0:
419,267,182357,1,8,3:0:0:0:
328,66,182500,6,0,B|241:13|164:90|216:135|155:199|64:168,1,320,2|2,3:0|3:0,3:0:0:0:
175,33,182929,2,0,L|229:220,1,160,8|2,3:0|3:0,3:0:0:0:
165,290,183215,1,2,3:0:0:0:
165,290,183357,1,0,3:0:0:0:
323,192,183500,1,10,3:0:0:0:
100,103,183643,1,0,3:0:0:0:
276,320,183786,6,0,L|460:270,1,160,2|0,3:0|3:0,3:0:0:0:
349,116,184072,2,0,L|316:212,1,80,10|0,3:0|3:0,3:0:0:0:
452,74,184215,1,0,3:0:0:0:
452,74,184286,1,0,3:0:0:0:
452,74,184357,5,8,3:0:0:0:
415,43,184429,1,8,3:0:0:0:
366,38,184500,1,8,3:0:0:0:
328,49,184572,1,8,3:0:0:0:
310,70,184643,5,8,3:0:0:0:
295,112,184715,1,8,3:0:0:0:
258,135,184786,1,8,3:0:0:0:
220,129,184857,1,8,3:0:0:0:
238,57,184929,5,12,3:0:0:0:
238,57,185500,6,0,L|210:193,1,130,4|0,3:2|3:0,3:0:0:0:
387,304,185786,2,0,L|359:168,1,130,4|0,3:0|3:0,3:0:0:0:
135,184,186072,6,0,P|176:260|263:252,1,140,4|0,3:2|3:0,3:0:0:0:
456,50,186357,2,0,P|388:45|342:95,1,140,10|0,3:0|3:0,3:0:0:0:
304,318,186643,1,2,3:0:0:0:
418,119,186786,1,0,3:0:0:0:
486,365,186929,1,10,3:0:0:0:
238,260,187072,6,0,P|303:230|379:275,1,140,0|2,3:0|3:0,3:0:0:0:
165,382,187357,1,0,3:0:0:0:
285,154,187500,2,0,P|301:70|315:0,1,140,10|0,3:0|3:0,3:0:0:0:
153,258,187786,1,2,3:0:0:0:
366,151,187929,1,0,3:0:0:0:
127,56,188072,1,10,3:0:0:0:
255,284,188215,1,0,3:0:0:0:
428,53,188357,6,0,P|377:6|289:38,1,140,2|0,3:0|3:0,3:0:0:0:
153,258,188643,2,0,P|220:267|269:221,1,140,10|0,3:0|3:0,3:0:0:0:
225,10,188929,1,2,3:0:0:0:
48,86,189072,1,0,3:0:0:0:
198,194,189215,1,10,3:0:0:0:
146,0,189357,6,0,P|130:76|109:165,1,140,0|2,3:0|3:0,3:0:0:0:
79,268,189643,1,0,3:0:0:0:
221,111,189786,2,0,P|237:187|258:276,1,140,10|0,3:0|3:0,3:0:0:0:
400,384,190072,1,2,3:0:0:0:
308,145,190215,1,0,3:0:0:0:
208,373,190357,1,10,3:0:0:0:
435,241,190500,1,0,3:0:0:0:
435,241,190572,1,0,3:0:0:0:
435,241,190643,6,0,P|415:160|400:79,1,140,4|0,3:0|3:0,3:0:0:0:
218,0,190929,2,0,P|203:73|185:159,1,140,10|0,3:0|3:0,3:0:0:0:
238,284,191215,1,2,3:0:0:0:
81,162,191357,1,0,3:0:0:0:
292,117,191500,1,10,3:0:0:0:
178,351,191643,2,0,P|153:266|189:212,1,140,0|2,3:0|3:0,3:0:0:0:
292,117,191929,1,0,3:0:0:0:
370,330,192072,2,0,P|293:302|221:278,1,140,10|0,3:0|3:0,3:0:0:0:
87,87,192357,1,2,3:0:0:0:
312,50,192500,2,0,P|301:85|282:148,1,70,8|0,3:0|3:0,3:0:0:0:
237,283,192643,2,0,P|226:249|216:216,1,70,8|0,3:0|3:0,3:0:0:0:
17,59,192786,6,0,B|86:24|137:79|105:110|171:145|227:101,1,210,4|0,3:0|3:0,3:0:0:0:
236,4,193072,2,0,P|202:9|183:38,1,70,4|0,3:2|3:0,3:0:0:0:
376,118,193215,2,0,P|409:123|428:152,1,70,8|0,3:0|3:0,3:0:0:0:
353,383,193357,6,0,P|333:280|313:177,1,210,4|0,3:0|3:0,3:0:0:0:
312,50,193643,2,0,P|297:75|267:117,1,70,8|0,3:0|3:0,3:0:0:0:
136,155,193786,2,0,P|156:183|174:213,1,70,8|0,3:0|3:0,3:0:0:0:
441,275,193929,6,0,B|386:240|332:269|357:304|299:346|237:315,1,210,4|0,3:0|3:0,3:0:0:0:
166,294,194215,2,0,P|177:327|190:371,1,70,4|0,3:2|3:0,3:0:0:0:
60,163,194357,2,0,P|48:196|38:229,1,70,8|0,3:0|3:0,3:0:0:0:
225,35,194500,6,0,P|243:121|272:251,1,210,4|0,3:0|3:0,3:0:0:0:
315,320,194786,1,4,3:0:0:0:
354,334,194857,1,0,3:0:0:0:
395,327,194929,1,0,3:0:0:0:
428,300,195000,1,0,3:0:0:0:
443,261,195072,1,0,3:0:0:0:
441,218,195143,1,0,3:0:0:0:
416,184,195215,6,0,P|332:167|259:152,1,140,4|0,3:2|3:0,3:0:0:0:
46,350,195500,2,0,P|130:333|203:318,1,140,10|0,3:0|3:0,3:0:0:0:
184,72,195786,1,2,3:0:0:0:
93,259,195929,1,0,3:0:0:0:
278,156,196072,1,10,3:0:0:0:
132,0,196215,6,0,P|96:63|130:154,1,140,0|2,3:0|3:0,3:0:0:0:
235,250,196500,1,0,3:0:0:0:
330,81,196643,2,0,P|366:144|332:235,1,140,10|0,3:0|3:0,3:0:0:0:
143,333,196929,1,2,3:0:0:0:
196,114,197072,1,0,3:0:0:0:
135,353,197215,1,10,3:0:0:0:
354,207,197357,1,0,3:0:0:0:
354,207,197429,1,0,3:0:0:0:
354,207,197500,6,0,P|434:189|501:176,1,140,2|0,3:0|3:0,3:0:0:0:
134,65,197786,2,0,P|202:78|270:94,1,140,10|0,3:0|3:0,3:0:0:0:
439,313,198072,1,2,3:0:0:0:
342,122,198215,1,0,3:0:0:0:
260,342,198357,1,10,3:0:0:0:
465,136,198500,6,0,P|391:101|321:147,1,140,4|0,3:0|3:0,3:0:0:0:
260,342,198786,1,0,3:0:0:0:
393,188,198929,1,10,3:0:0:0:
176,118,199072,1,0,3:0:0:0:
176,118,199143,1,0,3:0:0:0:
176,118,199215,5,8,3:0:0:0:
155,155,199286,1,8,3:0:0:0:
163,195,199357,1,8,3:0:0:0:
195,220,199429,1,8,3:0:0:0:
237,224,199500,2,0,P|266:207|316:189,1,70,8|8,3:0|3:0,3:0:0:0:
338,115,199643,2,0,P|309:98|259:80,1,70,8|8,3:0|3:0,3:0:0:0:
113,21,199786,6,0,P|142:106|160:180,1,140,4|0,3:0|3:0,3:0:0:0:
258,327,200072,2,0,P|276:259|299:193,1,140,10|0,3:0|3:0,3:0:0:0:
378,13,200357,1,2,3:0:0:0:
235,140,200500,1,0,3:0:0:0:
439,156,200643,1,10,3:0:0:0:
199,5,200786,6,0,P|221:87|241:164,1,140,0|2,3:0|3:0,3:0:0:0:
407,334,201072,1,0,3:0:0:0:
315,89,201215,1,10,3:0:0:0:
187,319,201357,1,0,3:0:0:0:
187,319,201429,1,0,3:0:0:0:
187,319,201500,5,8,3:0:0:0:
217,347,201572,1,8,3:0:0:0:
258,357,201643,1,8,3:0:0:0:
299,350,201715,1,8,3:0:0:0:
330,321,201786,2,0,P|337:294|351:233,1,70,0|0,3:0|3:0,3:0:0:0:
390,59,201929,1,0,3:0:0:0:
390,59,202000,1,0,3:0:0:0:
390,59,202072,5,8,3:0:0:0:
369,140,202214,1,8,3:0:0:0:
299,350,202357,5,8,3:0:0:0:
256,175,202500,1,8,3:0:0:0:
169,19,202643,5,8,3:0:0:0:
107,262,202786,1,8,3:0:0:0:
369,140,202929,6,0,L|501:175,1,120,4|0,3:2|3:0,3:0:0:0:
169,19,203214,2,0,L|37:54,1,120,4|0,3:0|3:0,3:0:0:0:
45,321,203500,5,8,3:0:0:0:
126,348,203643,1,8,3:0:0:0:
291,110,203786,5,8,3:0:0:0:
116,244,203929,1,8,3:0:0:0:
428,347,204072,5,8,3:0:0:0:
149,137,204214,1,8,3:0:0:0:
512,28,204357,6,0,L|486:188,1,120,4|0,3:2|3:0,3:0:0:0:
237,312,204643,2,0,L|211:152,1,120,4|0,3:0|3:0,3:0:0:0:
57,45,204929,6,0,B|18:70|13:120|13:120|94:39|197:47|197:47|260:142|328:127|328:127|305:122|290:113,1,480,4|0,3:0|3:0,3:0:0:0:
