osu file format v14

[General]
AudioFilename: merry_christmas_to_YUUU.ogg
AudioLeadIn: 0
PreviewTime: 47787
Countdown: 0
SampleSet: Drum
StackLeniency: 0.9
Mode: 0
LetterboxInBreaks: 0
WidescreenStoryboard: 1

[Editor]
Bookmarks: 11359,39215,40930,102359,134643,149500,158643,166357,166643,186072,202072,204929,205500
DistanceSpacing: 1.15
BeatDivisor: 4
GridSize: 32
TimelineZoom: 1.3

[Metadata]
Title:A Very Polish Christmas
TitleUnicode:A Very Polish Christmas
Artist:Sabadu
ArtistUnicode:Sabadu
Creator:Dcs
Version:Normal
Source:
Tags:nebuwua sh4rq_ sh3rg_ yary shoyeu hyperpigeon shii shiitsuin roupus english tank power metal powermetal tankmetal sabaton poland santa claus merry xmas x-mas to you in 1942 world war 2 ww2 wwii
BeatmapID:4369843
BeatmapSetID:1992471

[Difficulty]
HPDrainRate:3
CircleSize:2.5
OverallDifficulty:4
ApproachRate:4
SliderMultiplier:0.9
SliderTickRate:1

[Events]
//Background and Video events
0,0,"christmas_poster_for_bravocompany_by_thuberchs_dbxgs5u_upscale_crop.png",0,0
//Break Periods
2,66844,82467
2,158843,165323
//Storyboard Layer 0 (Background)
//Storyboard Layer 1 (Fail)
//Storyboard Layer 2 (Pass)
//Storyboard Layer 3 (Foreground)
//Storyboard Layer 4 (Overlay)
//Storyboard Sound Samples

[TimingPoints]
75,285.714285714286,4,3,2,60,1,0
1217,285.714285714286,4,3,2,65,1,0
1502,-100,4,3,1,65,0,0
17217,285.714285714286,5,3,1,65,1,0
18074,-100,5,3,1,70,0,0
18645,285.714285714286,4,3,1,60,1,0
20930,285.714285714286,4,3,1,60,1,0
21501,-100,4,3,2,60,0,0
39215,-100,4,3,2,65,0,0
39501,-100,4,3,1,65,0,0
45358,-100,4,3,14,65,0,0
45787,-100,4,3,11,65,0,0
46072,-100,4,3,1,80,0,0
48358,-100,4,3,1,75,0,1
48929,-100,4,3,3,75,0,1
64930,-100,4,3,13,75,0,1
65215,-100,4,3,3,75,0,1
66072,-100,4,3,1,75,0,1
66644,-100,4,3,1,65,0,0
82645,285.714285714286,5,3,1,65,1,0
83787,-100,5,3,1,70,0,0
84074,285.714285714286,4,3,1,60,1,0
84645,-100,4,3,2,60,0,0
101216,-100,4,3,12,60,0,0
102073,-100,4,3,10,60,0,0
102359,-100,4,3,2,65,0,0
102645,-100,4,3,1,65,0,0
108074,-100,4,3,13,65,0,0
108502,-100,4,3,10,65,0,0
108931,-100,4,3,11,65,0,0
109216,-100,4,3,1,80,0,0
110359,285.714285714286,5,3,1,60,1,0
111787,285.714285714286,4,3,1,75,1,1
112358,-100,4,3,3,75,0,1
115786,-100,4,3,1,75,0,1
117358,-100,4,3,3,75,0,1
125215,-100,4,3,11,75,0,1
125501,-100,4,3,3,75,0,1
129501,-100,4,3,1,75,0,1
130072,-100,4,3,1,65,0,0
131215,285.714285714286,4,3,1,65,1,0
139215,-100,4,3,10,65,0,0
139500,-100,4,3,2,65,0,0
139786,-100,4,3,12,65,0,0
140072,-100,4,3,10,65,0,0
140357,-100,4,3,1,65,0,0
144643,-100,4,3,10,65,0,0
144929,-100,4,3,1,65,0,0
147643,-100,4,3,2,65,0,0
148357,-100,4,3,12,65,0,0
148642,-100,4,3,10,65,0,0
149215,-100,4,3,11,65,0,0
149500,-100,4,3,1,75,0,1
158072,-100,4,3,13,75,0,1
158643,-100,4,3,1,60,0,0
166643,-100,4,3,1,80,0,0
167786,-90.9090909090909,4,3,1,75,0,1
168357,-90.9090909090909,4,3,3,75,0,1
171786,-90.9090909090909,4,3,10,75,0,1
172357,-90.9090909090909,4,3,3,75,0,1
175500,-90.9090909090909,4,3,13,55,0,1
175786,-90.9090909090909,4,3,3,75,0,1
180929,-90.9090909090909,4,3,10,75,0,1
181500,-90.9090909090909,4,3,3,75,0,1
185500,-90.9090909090909,4,3,1,75,0,1
186072,-100,4,3,1,65,0,0
193643,-100,4,3,12,65,0,0
193929,-100,4,3,1,65,0,0
199215,-100,4,3,13,65,0,0
199500,-100,4,3,11,65,0,0
199786,-100,4,3,1,65,0,0
202072,285.714285714286,5,3,1,80,1,0
202929,-100,5,3,1,70,0,0
203500,-100,5,3,1,80,0,0
204357,-90.9090909090909,5,3,1,70,0,0

[Colours]
Combo1 : 206,9,68
Combo2 : 103,134,68

[HitObjects]
46,279,1217,6,0,L|21:365,2,90,4|10|2,3:0|3:0|3:0,3:0:0:0:
3,150,2217,2,0,P|55:97|130:114,1,135,0|10,3:0|3:0,3:0:0:0:
151,182,2931,1,2,3:0:0:0:
303,86,3502,6,0,L|328:0,2,90,2|10|2,3:0|3:0|3:0,3:0:0:0:
353,211,4502,2,0,P|418:211|461:162,1,135,0|10,3:0|3:0,3:0:0:0:
421,80,5217,1,2,3:0:0:0:
269,177,5788,6,0,L|183:152,2,90,4|10|2,3:0|3:0|3:0,3:0:0:0:
320,301,6788,2,0,P|277:350|211:350,1,135,0|10,3:0|3:0,3:0:0:0:
135,303,7502,2,0,P|90:309|48:324,1,90,2|8,3:0|3:0,3:0:0:0:
18,358,7931,5,4,3:0:0:0:
156,213,8502,1,4,3:0:0:0:
351,169,9074,1,4,3:0:0:0:
492,27,9645,1,4,3:0:0:0:
256,90,10359,6,0,L|170:65,2,90,4|10|2,3:2|3:0|3:0,3:0:0:0:
384,132,11359,2,0,P|406:195|414:262,1,135,0|10,3:0|3:0,3:0:0:0:
385,347,12074,1,2,3:0:0:0:
248,224,12645,6,0,L|273:138,2,90,2|10|2,3:0|3:0|3:0,3:0:0:0:
207,349,13645,2,0,P|143:371|76:380,1,135,0|10,3:0|3:0,3:0:0:0:
0,338,14359,1,4,3:2:0:0:
85,182,14931,6,0,L|171:207,2,90,4|10|2,3:0|3:0|3:0,3:0:0:0:
60,49,15931,2,0,P|124:27|191:18,1,135,0|10,3:0|3:0,3:0:0:0:
273,53,16645,1,2,3:0:0:0:
446,1,17217,6,0,B|450:32|477:53|477:53|441:194,1,180,8|8,3:0|3:0,3:0:0:0:
385,232,18074,1,4,3:0:0:0:
299,203,18359,1,4,3:0:0:0:
221,248,18645,1,4,3:0:0:0:
344,363,20645,5,8,3:0:0:0:
432,377,20930,2,0,P|484:308|460:225,1,180,4|2,3:0|3:0,3:0:0:0:
378,186,21787,1,10,3:0:0:0:
294,220,22072,2,0,L|108:172,1,180,2|2,3:0|3:0,3:0:0:0:
54,112,22930,1,10,3:0:0:0:
95,31,23215,6,0,L|182:8,1,90,2|10,3:0|3:0,3:0:0:0:
247,69,23787,2,0,L|334:91,1,90,2|10,3:0|3:0,3:0:0:0:
407,37,24358,2,0,B|493:59|493:59|470:148,1,180,2|2,3:0|3:0,3:0:0:0:
512,323,25501,6,0,P|427:343|360:287,1,180,2|2,3:0|3:0,3:0:0:0:
388,201,26358,1,10,3:0:0:0:
323,137,26644,2,0,P|238:116|171:172,1,180,2|2,3:0|3:0,3:0:0:0:
221,247,27501,1,10,3:0:0:0:
205,335,27787,6,0,P|167:359|123:359,1,90,2|10,3:0|3:0,3:0:0:0:
40,325,28358,2,0,L|12:221,1,90,2|10,3:0|3:0,3:0:0:0:
87,182,28930,2,0,L|114:78,1,90,2|10,3:0|3:0,3:0:0:0:
67,14,29501,1,2,3:0:0:0:
249,51,30072,6,0,B|335:28|335:28|358:115,1,180,4|2,3:2|3:0,3:0:0:0:
309,191,30930,1,10,3:0:0:0:
263,268,31215,2,0,B|286:355|286:355|372:332,1,180,2|2,3:0|3:0,3:0:0:0:
456,364,32072,1,10,3:0:0:0:
511,292,32358,6,0,P|510:247|486:210,1,90,2|10,3:0|3:0,3:0:0:0:
420,148,32930,2,0,P|375:148|338:172,1,90,2|10,3:0|3:0,3:0:0:0:
303,255,33501,2,0,B|217:279|217:279|192:192|192:192|192:191|192:191|107:216,1,270,2|10,3:0|3:0,3:0:0:0:
22,182,34644,6,0,L|-1:95,1,90,2|10,3:0|3:0,3:0:0:0:
52,22,35215,2,0,L|138:45,1,90,2|10,3:0|3:0,3:0:0:0:
225,68,35787,1,2,3:0:0:0:
302,21,36072,2,0,B|366:38|366:38|389:166,1,180,10|10,3:0|3:0,3:0:0:0:
475,157,36930,6,0,P|497:195|495:239,1,90,2|10,3:0|3:0,3:0:0:0:
505,329,37501,2,0,P|466:352|422:349,1,90,2|10,3:0|3:0,3:0:0:0:
341,308,38072,2,0,B|299:326|248:313|222:272|222:272|220:317|185:357|138:362,1,270,2|8,3:0|3:0,3:0:0:0:
43,377,39215,5,4,3:0:0:0:
1,296,39501,1,10,3:0:0:0:
63,231,39787,2,0,L|88:141,1,90,2|10,3:0|3:0,3:0:0:0:
53,60,40358,2,0,B|187:24|187:24|229:52,1,180,2|2,3:0|3:0,3:0:0:0:
262,126,41215,1,10,3:0:0:0:
328,63,41501,6,0,P|396:9|480:32,1,180,2|2,3:0|3:0,3:0:0:0:
509,117,42358,1,10,3:0:0:0:
500,206,42644,2,0,B|456:256|456:256|390:237,2,135,2|0|10,3:0|3:0|3:0,3:0:0:0:
426,154,43787,5,4,3:0:0:0:
337,139,44072,1,10,3:0:0:0:
281,210,44358,2,0,L|306:300,1,90,2|10,3:0|3:0,3:0:0:0:
236,355,44930,2,0,B|170:374|170:374|126:324,2,135,2|8|8,3:0|3:0|3:0,3:0:0:0:
305,296,46072,5,8,3:0:0:0:
391,324,46358,1,8,3:0:0:0:
444,251,46644,1,8,3:0:0:0:
391,179,46930,1,8,3:0:0:0:
305,206,47215,1,12,3:0:0:0:
128,22,48358,6,0,B|184:7|210:44|195:45|240:89|294:72,1,180,4|2,3:0|3:0,3:0:0:0:
372,34,49215,1,8,3:0:0:0:
372,34,49358,2,0,P|468:64|439:162,1,225,4|2,3:0|3:0,3:0:0:0:
378,226,50358,1,10,3:0:0:0:
420,305,50644,6,0,P|464:312|507:325,2,90,4|8|2,3:0|3:0|3:0,3:0:0:0:
357,371,51501,1,8,3:0:0:0:
357,371,51644,2,0,B|285:390|251:342|271:341|213:285|144:306,1,225,4|2,3:0|3:0,3:0:0:0:
6,215,52930,5,4,3:0:0:0:
6,215,53072,1,0,3:0:0:0:
65,147,53358,2,0,P|132:156|205:201,1,135,0|8,3:0|3:0,3:0:0:0:
198,222,53930,2,0,P|256:254|323:262,1,135,2|8,3:0|3:0,3:0:0:0:
408,293,54644,2,0,P|436:259|431:215,1,90,2|10,3:0|3:0,3:0:0:0:
386,137,55215,5,2,3:0:0:0:
415,51,55501,1,8,3:0:0:0:
415,51,55644,2,0,P|356:18|289:10,1,135,0|8,3:0|3:0,3:0:0:0:
196,43,56358,5,4,3:0:0:0:
196,142,56644,1,4,3:0:0:0:
196,241,56930,1,4,3:0:0:0:
310,379,57501,6,0,P|401:367|481:322,1,180,4|2,3:0|3:0,3:0:0:0:
467,240,58358,1,8,3:0:0:0:
467,240,58501,2,0,B|395:259|361:211|381:210|323:154|254:175,1,225,4|2,3:0|3:0,3:0:0:0:
181,208,59501,1,10,3:0:0:0:
106,158,59787,6,0,P|113:114|126:71,2,90,4|8|2,3:0|3:0|3:0,3:0:0:0:
35,212,60644,1,8,3:0:0:0:
35,212,60787,2,0,P|12:310|112:334,1,225,4|2,3:0|3:0,3:0:0:0:
196,299,61787,1,8,3:0:0:0:
274,343,62072,6,0,P|317:356|361:363,1,90,4|10,3:0|3:0,3:0:0:0:
449,343,62644,1,0,3:0:0:0:
496,268,62930,1,8,3:0:0:0:
496,268,63072,2,0,P|437:235|370:227,1,135,2|8,3:0|3:0,3:0:0:0:
284,252,63787,2,0,P|256:218|261:174,1,90,2|10,3:0|3:0,3:0:0:0:
325,99,64358,5,4,3:0:0:0:
245,39,64644,1,8,3:0:0:0:
154,77,64930,1,10,3:0:0:0:
155,176,65215,1,8,3:0:0:0:
56,182,65501,1,12,3:0:0:0:
157,352,66072,5,4,3:2:0:0:
256,352,66358,1,4,3:0:0:0:
355,352,66644,1,4,3:2:0:0:
168,363,83787,5,4,3:0:0:0:
80,377,84074,2,0,P|28:308|52:225,1,180,4|2,3:2|3:0,3:0:0:0:
141,236,84931,1,10,3:0:0:0:
171,151,85216,2,0,B|194:65|194:65|107:42,1,180,2|2,3:0|3:0,3:0:0:0:
16,24,86074,1,10,3:0:0:0:
1,112,86359,6,0,L|24:199,1,90,2|10,3:0|3:0,3:0:0:0:
81,268,86931,2,0,L|168:291,1,90,2|10,3:0|3:0,3:0:0:0:
232,354,87502,2,0,B|318:331|318:331|296:243|296:243|296:243|296:243|382:222,1,270,2|10,3:0|3:0,3:0:0:0:
473,221,88645,6,0,P|482:134|418:75,1,180,2|2,3:0|3:0,3:0:0:0:
333,106,89502,1,10,3:0:0:0:
283,180,89788,2,0,B|196:205|196:205|137:138,1,180,2|2,3:0|3:0,3:0:0:0:
132,48,90645,1,10,3:0:0:0:
45,72,90931,6,0,P|21:109|20:153,1,90,2|10,3:0|3:0,3:0:0:0:
12,243,91502,2,0,P|49:266|93:267,1,90,2|10,3:0|3:0,3:0:0:0:
174,225,92074,1,2,3:0:0:0:
261,204,92359,1,10,3:0:0:0:
346,233,92645,1,0,3:0:0:0:
405,300,92931,1,10,3:0:0:0:
486,263,93216,6,0,L|438:77,1,180,4|2,3:2|3:0,3:0:0:0:
420,0,94074,1,10,3:0:0:0:
333,23,94359,2,0,B|268:45|268:45|255:170,1,180,2|2,3:0|3:0,3:0:0:0:
181,205,95216,1,10,3:0:0:0:
109,150,95502,6,0,L|13:176,1,90,2|10,3:0|3:0,3:0:0:0:
14,263,96074,2,0,L|100:286,1,90,2|10,3:0|3:0,3:0:0:0:
150,361,96645,2,0,P|236:370|295:306,1,180,2|2,3:0|3:0,3:0:0:0:
231,137,97788,5,2,3:0:0:0:
202,51,98074,1,10,3:0:0:0:
279,5,98359,2,0,P|323:5|360:29,1,90,2|10,3:0|3:0,3:0:0:0:
356,119,98931,1,2,3:0:0:0:
307,194,99216,2,0,B|324:258|324:258|452:281,1,180,10|10,3:0|3:0,3:0:0:0:
507,334,100074,5,2,3:0:0:0:
426,373,100359,2,0,L|338:358,1,90,10|2,3:0|3:0,3:0:0:0:
249,338,100931,1,10,3:0:0:0:
222,252,101216,2,0,B|199:166|199:166|111:188|111:188|111:188|111:188|134:275,1,270,8|8,3:0|3:0,3:0:0:0:
155,362,102359,5,4,3:0:0:0:
66,377,102645,1,10,3:0:0:0:
1,313,102931,2,0,L|26:223,1,90,2|10,3:0|3:0,3:0:0:0:
4,138,103502,2,0,P|60:71|147:76,1,180,2|2,3:0|3:0,3:0:0:0:
197,151,104359,1,10,3:0:0:0:
196,242,104645,2,0,L|399:185,1,180,2|2,3:0|3:0,3:0:0:0:
433,129,105502,1,10,3:0:0:0:
393,46,105788,2,0,B|437:-4|437:-4|503:15,2,135,2|0|10,3:0|3:0|3:0,3:0:0:0:
304,63,106931,5,4,3:0:0:0:
287,151,107216,1,10,3:0:0:0:
372,178,107502,2,0,P|395:215|395:260,1,90,2|10,3:0|3:0,3:0:0:0:
334,327,108074,2,0,B|290:377|290:377|224:358,2,135,8|8|8,3:0|3:0|3:0,3:0:0:0:
261,270,109216,5,8,3:0:0:0:
176,239,109502,1,8,3:0:0:0:
179,149,109788,1,8,3:0:0:0:
266,125,110074,1,8,3:0:0:0:
317,199,110359,1,8,3:0:0:0:
64,43,111787,6,0,P|28:125|0:211,1,180,4|2,3:0|3:0,3:0:0:0:
21,304,112644,1,8,3:0:0:0:
21,304,112787,2,0,B|80:285|138:341|118:342|152:390|222:371,1,225,4|2,3:0|3:0,3:0:0:0:
306,336,113787,1,10,3:0:0:0:
282,250,114072,6,0,P|238:236|194:229,2,90,4|8|2,3:0|3:0|3:0,3:0:0:0:
369,219,114929,1,8,3:0:0:0:
369,219,115072,2,0,P|465:187|435:90,1,225,4|4,3:0|3:2,3:0:0:0:
279,9,116358,5,4,3:0:0:0:
279,9,116501,1,0,3:0:0:0:
264,97,116787,2,0,P|220:143|160:122,1,135,0|8,3:0|3:0,3:0:0:0:
136,99,117358,2,0,P|75:77|32:124,1,135,2|8,3:0|3:0,3:0:0:0:
1,209,118072,2,0,P|8:253|21:296,1,90,2|10,3:0|3:0,3:0:0:0:
86,359,118644,5,4,3:0:0:0:
153,298,118929,1,8,3:0:0:0:
153,298,119072,2,0,P|211:265|278:256,1,135,0|8,3:0|3:0,3:0:0:0:
375,273,119787,5,4,3:0:0:0:
375,174,120072,1,4,3:0:0:0:
375,75,120358,1,4,3:0:0:0:
196,16,120929,6,0,P|105:28|25:73,1,180,4|2,3:0|3:0,3:0:0:0:
60,160,121787,1,8,3:0:0:0:
60,160,121929,2,0,B|132:141|166:189|146:190|204:246|273:225,1,225,4|2,3:0|3:0,3:0:0:0:
331,164,122929,1,10,3:0:0:0:
417,191,123215,6,0,P|403:234|396:278,2,90,4|8|0,3:0|3:0|3:0,3:0:0:0:
480,127,124072,1,8,3:0:0:0:
480,127,124215,2,0,P|437:33|345:75,1,225,4|0,3:0|3:0,3:0:0:0:
331,164,125215,1,8,3:0:0:0:
262,221,125501,6,0,P|217:228|174:241,1,90,4|10,3:0|3:0,3:0:0:0:
118,311,126072,1,0,3:0:0:0:
209,337,126358,1,8,3:0:0:0:
209,337,126501,2,0,P|275:345|334:378,1,135,2|8,3:0|3:0,3:0:0:0:
423,364,127215,2,0,P|451:330|446:286,1,90,2|10,3:0|3:0,3:0:0:0:
405,195,127787,5,4,3:0:0:0:
325,255,128072,1,8,3:0:0:0:
234,217,128358,1,2,3:0:0:0:
234,118,128644,1,8,3:0:0:0:
234,19,128929,1,12,3:0:0:0:
37,19,129501,5,4,3:2:0:0:
37,118,129787,1,4,3:0:0:0:
37,217,130072,1,4,3:2:0:0:
319,360,131215,6,0,B|383:351|396:239|335:119,1,270,4|10,3:0|3:0,3:0:0:0:
362,38,132357,1,2,3:0:0:0:
362,38,132500,2,0,B|415:-4|460:3|482:36,1,135,0|2,3:0|3:0,3:0:0:0:
512,213,133500,6,0,B|480:323|421:376|369:310|392:225,1,270,2|10,3:0|3:0,3:0:0:0:
337,153,134643,1,2,3:0:0:0:
264,209,134929,1,10,3:0:0:0:
178,179,135215,1,2,3:0:0:0:
105,232,135500,1,10,3:0:0:0:
133,317,135786,5,2,3:0:0:0:
222,297,136072,2,0,B|274:281|326:361|390:351,1,180,10|10,3:0|3:0,3:0:0:0:
498,192,137215,2,0,B|435:202|383:121|331:137,1,180,10|10,3:0|3:0,3:0:0:0:
313,224,138072,5,2,3:0:0:0:
274,307,138357,1,10,3:0:0:0:
181,308,138643,2,0,B|172:256|228:249|223:172,1,135,2|0,3:0|3:0,3:0:0:0:
194,161,139215,2,0,B|183:180|167:196|115:192,2,90,8|8|8,3:0|3:0|3:0,3:0:0:0:
226,74,140072,1,8,3:0:0:0:
150,22,140357,6,0,B|130:13|107:8|67:38,1,90,4|10,3:0|3:0,3:0:0:0:
54,127,140929,1,2,3:0:0:0:
2,251,141357,2,0,B|0:288|29:322|98:321,1,135,0|10,3:0|3:0,3:0:0:0:
172,372,142072,2,0,B|192:378|216:379|250:341,1,90,2|10,3:0|3:0,3:0:0:0:
229,252,142643,6,0,B|204:206|214:185|227:167,1,90,2|10,3:0|3:0,3:0:0:0:
305,122,143215,1,2,3:0:0:0:
394,134,143500,1,10,3:0:0:0:
449,63,143786,2,0,B|500:29|454:-20|408:-27|344:11,1,180,2|2,3:0|3:0,3:0:0:0:
269,35,144643,1,8,3:0:0:0:
186,69,144929,6,0,B|174:51|157:35|106:42,2,90,4|10|2,3:0|3:0|3:0,3:0:0:0:
217,153,145786,1,10,3:0:0:0:
158,220,146072,1,2,3:0:0:0:
199,299,146357,2,0,B|255:313|313:377|373:256,1,180,10|10,3:0|3:0,3:0:0:0:
397,204,147215,6,0,B|433:195|472:218|483:286,2,135,2|10|10,3:0|3:0|3:0,3:0:0:0:
319,157,148357,2,0,B|298:151|277:139|268:89,2,90,8|8|0,3:0|3:0|3:0,3:0:0:0:
397,112,149215,1,8,3:0:0:0:
492,138,149500,5,12,3:0:0:0:
422,209,149786,2,0,L|448:310,1,90,10|10,3:0|3:0,3:0:0:0:
461,348,150215,1,0,3:0:0:0:
461,348,150357,1,10,3:0:0:0:
367,380,150643,1,10,3:0:0:0:
336,285,150929,2,0,P|279:221|197:245,1,180,10|10,3:0|3:0,3:0:0:0:
157,336,151786,5,12,3:0:0:0:
77,277,152072,2,0,L|54:189,1,90,10|10,3:0|3:0,3:0:0:0:
44,146,152500,1,0,3:0:0:0:
44,146,152643,1,10,3:0:0:0:
83,55,152929,1,12,3:0:0:0:
175,88,153215,2,0,B|231:103|257:66|242:65|287:21|341:38,1,180,10|8,3:0|3:0,3:0:0:0:
430,0,154072,5,12,3:0:0:0:
505,62,154357,1,10,3:0:0:0:
490,160,154643,1,10,3:0:0:0:
398,195,154929,2,0,P|365:179|344:174,1,45,10|0,3:0|3:0,3:0:0:0:
324,135,155215,2,0,P|277:111|214:220,1,180,12|10,3:0|3:0,3:0:0:0:
272,260,156072,1,8,3:0:0:0:
218,343,156357,6,0,P|173:334|130:321,1,90,12|8,3:0|3:0,3:0:0:0:
90,292,156786,2,0,P|77:248|68:204,1,90,4|0,3:0|3:0,3:0:0:0:
77,155,157215,1,12,3:0:0:0:
164,108,157500,5,8,3:0:0:0:
254,148,157786,1,8,3:0:0:0:
343,88,158072,1,8,3:0:0:0:
512,210,158643,1,4,3:2:0:0:
355,45,166643,5,10,3:0:0:0:
256,45,166929,1,10,3:0:0:0:
157,45,167215,1,10,3:0:0:0:
53,236,167786,6,0,B|114:252|143:211|126:210|176:162|235:181,1,198,4|2,3:0|3:0,3:0:0:0:
330,240,168643,1,8,3:0:0:0:
330,240,168786,2,0,P|436:205|403:99,1,247.5,4|2,3:0|3:0,3:0:0:0:
294,90,169786,1,10,3:0:0:0:
204,27,170072,6,0,P|156:20|122:53,2,99,4|8|2,3:0|3:0|3:0,3:0:0:0:
202,140,170929,1,8,3:0:0:0:
202,140,171072,2,0,P|249:253|325:356,1,247.5,4|8,3:0|3:0,3:0:0:0:
510,240,172357,5,4,3:0:0:0:
510,240,172500,1,0,3:0:0:0:
449,149,172786,2,0,P|384:113|311:102,1,148.5,0|8,3:0|3:0,3:0:0:0:
282,127,173357,2,0,P|208:115|144:80,1,148.5,2|8,3:0|3:0,3:0:0:0:
60,11,174072,2,0,P|26:45|34:92,1,99,2|10,3:0|3:0,3:0:0:0:
98,181,174643,5,2,3:0:0:0:
49,281,174929,1,10,3:0:0:0:
49,281,175072,2,0,P|113:317|186:328,1,148.5,0|8,3:0|3:0,3:0:0:0:
256,230,175786,5,4,3:0:0:0:
256,115,176072,1,4,3:0:0:0:
256,0,176357,1,4,3:0:0:0:
465,58,176929,6,0,B|481:110|431:161|430:143|388:174|405:237,1,198,4|2,3:0|3:0,3:0:0:0:
493,309,177786,1,8,3:0:0:0:
493,309,177929,2,0,P|380:358|258:377,1,247.5,6|2,3:0|3:0,3:0:0:0:
163,320,178929,1,10,3:0:0:0:
230,234,179215,6,0,P|277:234|306:272,2,99,4|8|2,3:0|3:0|3:0,3:0:0:0:
126,219,180072,1,8,3:0:0:0:
126,219,180215,2,0,P|75:152|150:14,1,247.5,4|8,3:0|3:0,3:0:0:0:
315,53,181357,5,8,3:0:0:0:
315,53,181500,2,0,P|305:101|288:147,1,99,4|8,3:0|3:0,3:0:0:0:
229,240,182072,1,2,3:0:0:0:
302,328,182357,1,8,3:0:0:0:
302,328,182500,2,0,P|366:352|409:297,1,148.5,2|8,3:0|3:0,3:0:0:0:
385,189,183215,1,2,3:0:0:0:
483,132,183500,1,10,3:0:0:0:
432,29,183786,5,2,3:0:0:0:
321,2,184072,1,10,3:0:0:0:
229,69,184357,1,8,3:0:0:0:
230,182,184643,1,8,3:0:0:0:
231,295,184929,1,12,3:0:0:0:
12,364,185500,5,4,3:2:0:0:
11,251,185786,1,4,3:0:0:0:
10,138,186072,2,0,L|11:48,2,90,4|10|2,3:2|3:0|3:0,3:0:0:0:
142,200,187072,2,0,P|206:204|252:157,1,135,0|10,3:0|3:0,3:0:0:0:
234,68,187786,1,2,3:0:0:0:
395,147,188357,6,0,L|396:57,2,90,2|10|2,3:0|3:0|3:0,3:0:0:0:
483,183,189215,1,10,3:0:0:0:
483,183,189357,2,0,P|487:248|440:293,1,135,0|10,3:0|3:0,3:0:0:0:
354,265,190072,1,2,3:0:0:0:
208,370,190643,6,0,L|118:369,2,90,4|10|2,3:0|3:0|3:0,3:0:0:0:
259,244,191643,2,0,P|263:178|216:133,1,135,0|10,3:0|3:0,3:0:0:0:
131,102,192357,1,2,3:0:0:0:
44,145,192643,5,8,3:0:0:0:
44,145,192786,2,0,B|23:243|23:243|44:302,1,135,4|8,3:0|3:0,3:0:0:0:
62,316,193357,1,4,3:0:0:0:
148,365,193643,1,8,3:0:0:0:
215,293,193929,2,0,B|313:272|313:272|345:283,1,135,4|8,3:0|3:0,3:0:0:0:
378,314,194500,2,0,B|367:271|367:271|380:231|380:231|367:183,1,135,4|0,3:0|3:0,3:0:0:0:
384,95,195215,6,0,L|473:93,2,90,4|10|2,3:2|3:0|3:0,3:0:0:0:
252,133,196215,2,0,P|230:196|221:263,1,135,0|10,3:0|3:0,3:0:0:0:
267,341,196929,1,2,3:0:0:0:
89,381,197500,6,0,L|0:382,2,90,2|10|2,3:0|3:0|3:0,3:0:0:0:
131,299,198357,1,10,3:0:0:0:
131,299,198500,2,0,P|124:232|101:168,1,135,4|10,3:0|3:0,3:0:0:0:
48,95,199215,1,8,3:0:0:0:
121,42,199500,1,8,3:0:0:0:
202,80,199786,6,0,L|291:78,2,90,4|10|2,3:0|3:0|3:0,3:0:0:0:
149,204,200786,2,0,P|213:226|280:233,1,135,0|10,3:0|3:0,3:0:0:0:
360,193,201500,1,8,3:0:0:0:
353,365,202072,5,8,3:0:0:0:
255,365,202357,1,8,3:0:0:0:
157,365,202643,1,8,3:0:0:0:
59,365,202929,2,0,P|42:324|60:284,1,90,4|4,3:2|3:0,3:0:0:0:
112,200,203500,5,8,3:0:0:0:
210,200,203786,1,8,3:0:0:0:
308,200,204072,1,8,3:0:0:0:
406,200,204357,2,0,P|426:155|406:111,1,99,4|4,3:2|3:0,3:0:0:0:
356,15,204929,5,4,3:0:0:0:
